  0
SECTION
  2
HEADER
  9
$ACADVER
  1
AC1018
  9
$ACADMAINTVER
 70
     0
  9
$DWGCODEPAGE
  3
ANSI_932
  9
$INSBASE
 10
0.0
 20
0.0
 30
0.0
  9
$EXTMIN
 10
-0.2256454072593215
 20
-0.2181385412601458
 30
-0.0000152557620687
  9
$EXTMAX
 10
255.2259969900183
 20
195.2198623512278
 30
0.0000610416757212
  9
$LIMMIN
 10
0.0
 20
0.0
  9
$LIMMAX
 10
420.0
 20
297.0
  9
$ORTHOMODE
 70
     1
  9
$REGENMODE
 70
     1
  9
$FILLMODE
 70
     1
  9
$QTEXTMODE
 70
     0
  9
$MIRRTEXT
 70
     1
  9
$LTSCALE
 40
1.0
  9
$ATTMODE
 70
     1
  9
$TEXTSIZE
 40
3.0
  9
$TRACEWID
 40
1.0
  9
$TEXTSTYLE
  7
STYLE3
  9
$CLAYER
  8
寸法線
  9
$CELTYPE
  6
BYLAYER
  9
$CECOLOR
 62
   256
  9
$CELTSCALE
 40
1.0
  9
$DISPSILH
 70
     0
  9
$DIMSCALE
 40
1.0
  9
$DIMASZ
 40
2.5
  9
$DIMEXO
 40
0.0
  9
$DIMDLI
 40
3.75
  9
$DIMRND
 40
0.0
  9
$DIMDLE
 40
0.0
  9
$DIMEXE
 40
1.25
  9
$DIMTP
 40
0.0
  9
$DIMTM
 40
0.0
  9
$DIMTXT
 40
2.5
  9
$DIMCEN
 40
2.5
  9
$DIMTSZ
 40
0.0
  9
$DIMTOL
 70
     0
  9
$DIMLIM
 70
     0
  9
$DIMTIH
 70
     0
  9
$DIMTOH
 70
     0
  9
$DIMSE1
 70
     0
  9
$DIMSE2
 70
     0
  9
$DIMTAD
 70
     1
  9
$DIMZIN
 70
     8
  9
$DIMBLK
  1

  9
$DIMASO
 70
     1
  9
$DIMSHO
 70
     1
  9
$DIMPOST
  1

  9
$DIMAPOST
  1

  9
$DIMALT
 70
     0
  9
$DIMALTD
 70
     4
  9
$DIMALTF
 40
0.0394
  9
$DIMLFAC
 40
1.0
  9
$DIMTOFL
 70
     1
  9
$DIMTVP
 40
0.0
  9
$DIMTIX
 70
     0
  9
$DIMSOXD
 70
     0
  9
$DIMSAH
 70
     1
  9
$DIMBLK1
  1
OPEN
  9
$DIMBLK2
  1
OPEN
  9
$DIMSTYLE
  2
STYLE3
  9
$DIMCLRD
 70
     2
  9
$DIMCLRE
 70
     2
  9
$DIMCLRT
 70
     6
  9
$DIMTFAC
 40
1.0
  9
$DIMGAP
 40
0.625
  9
$DIMJUST
 70
     0
  9
$DIMSD1
 70
     0
  9
$DIMSD2
 70
     0
  9
$DIMTOLJ
 70
     1
  9
$DIMTZIN
 70
     0
  9
$DIMALTZ
 70
     0
  9
$DIMALTTZ
 70
     0
  9
$DIMUPT
 70
     0
  9
$DIMDEC
 70
     2
  9
$DIMTDEC
 70
     4
  9
$DIMALTU
 70
     8
  9
$DIMALTTD
 70
     4
  9
$DIMTXSTY
  7
STYLE3
  9
$DIMAUNIT
 70
     0
  9
$DIMADEC
 70
     0
  9
$DIMALTRND
 40
0.0
  9
$DIMAZIN
 70
     0
  9
$DIMDSEP
 70
    46
  9
$DIMATFIT
 70
     3
  9
$DIMFRAC
 70
     0
  9
$DIMLDRBLK
  1

  9
$DIMLUNIT
 70
     2
  9
$DIMLWD
 70
    -2
  9
$DIMLWE
 70
    -2
  9
$DIMTMOVE
 70
     0
  9
$LUNITS
 70
     2
  9
$LUPREC
 70
     4
  9
$SKETCHINC
 40
1.0
  9
$FILLETRAD
 40
1.0
  9
$AUNITS
 70
     0
  9
$AUPREC
 70
     0
  9
$MENU
  1
.
  9
$ELEVATION
 40
0.0
  9
$PELEVATION
 40
0.0
  9
$THICKNESS
 40
0.0
  9
$LIMCHECK
 70
     0
  9
$CHAMFERA
 40
0.3
  9
$CHAMFERB
 40
0.3
  9
$CHAMFERC
 40
20.0
  9
$CHAMFERD
 40
0.0
  9
$SKPOLY
 70
     0
  9
$TDCREATE
 40
2451451.663712269
  9
$TDUCREATE
 40
2451451.288712269
  9
$TDUPDATE
 40
2455364.416793611
  9
$TDUUPDATE
 40
2455364.041793611
  9
$TDINDWG
 40
0.3858689699
  9
$TDUSRTIMER
 40
0.3858689699
  9
$USRTIMER
 70
     1
  9
$ANGBASE
 50
0.0
  9
$ANGDIR
 70
     0
  9
$PDMODE
 70
     0
  9
$PDSIZE
 40
0.0
  9
$PLINEWID
 40
0.0
  9
$SPLFRAME
 70
     0
  9
$SPLINETYPE
 70
     6
  9
$SPLINESEGS
 70
     8
  9
$HANDSEED
  5
1F04
  9
$SURFTAB1
 70
     6
  9
$SURFTAB2
 70
     6
  9
$SURFTYPE
 70
     6
  9
$SURFU
 70
     6
  9
$SURFV
 70
     6
  9
$UCSBASE
  2

  9
$UCSNAME
  2

  9
$UCSORG
 10
0.0
 20
0.0
 30
0.0
  9
$UCSXDIR
 10
1.0
 20
0.0
 30
0.0
  9
$UCSYDIR
 10
0.0
 20
1.0
 30
0.0
  9
$UCSORTHOREF
  2

  9
$UCSORTHOVIEW
 70
     0
  9
$UCSORGTOP
 10
0.0
 20
0.0
 30
0.0
  9
$UCSORGBOTTOM
 10
0.0
 20
0.0
 30
0.0
  9
$UCSORGLEFT
 10
0.0
 20
0.0
 30
0.0
  9
$UCSORGRIGHT
 10
0.0
 20
0.0
 30
0.0
  9
$UCSORGFRONT
 10
0.0
 20
0.0
 30
0.0
  9
$UCSORGBACK
 10
0.0
 20
0.0
 30
0.0
  9
$PUCSBASE
  2

  9
$PUCSNAME
  2

  9
$PUCSORG
 10
0.0
 20
0.0
 30
0.0
  9
$PUCSXDIR
 10
1.0
 20
0.0
 30
0.0
  9
$PUCSYDIR
 10
0.0
 20
1.0
 30
0.0
  9
$PUCSORTHOREF
  2

  9
$PUCSORTHOVIEW
 70
     0
  9
$PUCSORGTOP
 10
0.0
 20
0.0
 30
0.0
  9
$PUCSORGBOTTOM
 10
0.0
 20
0.0
 30
0.0
  9
$PUCSORGLEFT
 10
0.0
 20
0.0
 30
0.0
  9
$PUCSORGRIGHT
 10
0.0
 20
0.0
 30
0.0
  9
$PUCSORGFRONT
 10
0.0
 20
0.0
 30
0.0
  9
$PUCSORGBACK
 10
0.0
 20
0.0
 30
0.0
  9
$USERI1
 70
     0
  9
$USERI2
 70
     0
  9
$USERI3
 70
     0
  9
$USERI4
 70
     0
  9
$USERI5
 70
     0
  9
$USERR1
 40
0.0
  9
$USERR2
 40
0.0
  9
$USERR3
 40
0.0
  9
$USERR4
 40
0.0
  9
$USERR5
 40
0.0
  9
$WORLDVIEW
 70
     1
  9
$SHADEDGE
 70
     3
  9
$SHADEDIF
 70
    70
  9
$TILEMODE
 70
     1
  9
$MAXACTVP
 70
    48
  9
$PINSBASE
 10
0.0
 20
0.0
 30
0.0
  9
$PLIMCHECK
 70
     0
  9
$PEXTMIN
 10
-0.2
 20
-0.2
 30
0.0
  9
$PEXTMAX
 10
255.2
 20
195.2
 30
0.0
  9
$PLIMMIN
 10
0.0
 20
0.0
  9
$PLIMMAX
 10
420.0
 20
297.0
  9
$UNITMODE
 70
     0
  9
$VISRETAIN
 70
     1
  9
$PLINEGEN
 70
     0
  9
$PSLTSCALE
 70
     1
  9
$TREEDEPTH
 70
  3020
  9
$CMLSTYLE
  2
STANDARD
  9
$CMLJUST
 70
     0
  9
$CMLSCALE
 40
20.0
  9
$PROXYGRAPHICS
 70
     1
  9
$MEASUREMENT
 70
     1
  9
$CELWEIGHT
370
    -1
  9
$ENDCAPS
280
     0
  9
$JOINSTYLE
280
     0
  9
$LWDISPLAY
290
     0
  9
$INSUNITS
 70
     0
  9
$HYPERLINKBASE
  1

  9
$STYLESHEET
  1

  9
$XEDIT
290
     1
  9
$CEPSNTYPE
380
     0
  9
$PSTYLEMODE
290
     1
  9
$FINGERPRINTGUID
  2
{CB957FD7-DDBA-4526-BA26-9D0C69F358F9}
  9
$VERSIONGUID
  2
{029CDC24-246B-4382-9C2B-FB1367468FC7}
  9
$EXTNAMES
290
     1
  9
$PSVPSCALE
 40
0.0
  9
$OLESTARTUP
290
     0
  9
$SORTENTS
280
    96
  9
$INDEXCTL
280
     0
  9
$HIDETEXT
280
     0
  9
$XCLIPFRAME
290
     0
  9
$HALOGAP
280
     0
  9
$OBSCOLOR
 70
   257
  9
$OBSLTYPE
280
     0
  9
$INTERSECTIONDISPLAY
280
     0
  9
$INTERSECTIONCOLOR
 70
   257
  9
$DIMASSOC
280
     1
  9
$PROJECTNAME
  1

  0
ENDSEC
  0
SECTION
  2
CLASSES
  0
CLASS
  1
HATCH
  2
AcDbHatch
  3
ObjectDBX Classes
 90
        0
 91
       54
280
     0
281
     1
  0
CLASS
  1
IMAGEDEF
  2
AcDbRasterImageDef
  3
ISM
 90
        0
 91
        1
280
     0
281
     0
  0
CLASS
  1
LWPOLYLINE
  2
AcDbPolyline
  3
ObjectDBX Classes
 90
        0
 91
       16
280
     0
281
     1
  0
CLASS
  1
DICTIONARYVAR
  2
AcDbDictionaryVar
  3
ObjectDBX Classes
 90
        0
 91
        2
280
     0
281
     0
  0
CLASS
  1
ACDBDICTIONARYWDFLT
  2
AcDbDictionaryWithDefault
  3
ObjectDBX Classes
 90
        0
 91
        1
280
     0
281
     0
  0
CLASS
  1
TABLESTYLE
  2
AcDbTableStyle
  3
ObjectDBX Classes
 90
     2047
 91
        1
280
     0
281
     0
  0
ENDSEC
  0
SECTION
  2
TABLES
  0
TABLE
  2
VPORT
  5
8
330
0
100
AcDbSymbolTable
 70
     3
  0
VPORT
  5
1F03
330
8
100
AcDbSymbolTableRecord
100
AcDbViewportTableRecord
  2
*Active
 70
     0
 10
0.0
 20
0.0
 11
1.0
 21
1.0
 12
127.5001757913795
 22
97.50086190498384
 13
0.0
 23
0.0
 14
10.0
 24
10.0
 15
10.0
 25
10.0
 16
0.0
 26
0.0
 36
1.0
 17
0.0
 27
0.0
 37
0.0
 40
196.9242214315943
 41
1.530456852791878
 42
50.0
 43
0.0
 44
0.0
 50
0.0
 51
0.0
 71
     0
 72
   100
 73
     1
 74
     1
 75
     0
 76
     0
 77
     0
 78
     0
281
     0
 65
     1
110
0.0
120
0.0
130
0.0
111
1.0
121
0.0
131
0.0
112
0.0
122
1.0
132
0.0
 79
     0
146
0.0
  0
ENDTAB
  0
TABLE
  2
LTYPE
  5
5
330
0
100
AcDbSymbolTable
 70
    12
  0
LTYPE
  5
12
330
5
100
AcDbSymbolTableRecord
100
AcDbLinetypeTableRecord
  2
BYBLOCK
 70
     0
  3

 72
    65
 73
     0
 40
0.0
  0
LTYPE
  5
13
330
5
100
AcDbSymbolTableRecord
100
AcDbLinetypeTableRecord
  2
BYLAYER
 70
     0
  3

 72
    65
 73
     0
 40
0.0
  0
LTYPE
  5
14
330
5
100
AcDbSymbolTableRecord
100
AcDbLinetypeTableRecord
  2
CONTINUOUS
 70
     0
  3
Solid line
 72
    65
 73
     0
 40
0.0
  0
LTYPE
  5
22
330
5
100
AcDbSymbolTableRecord
100
AcDbLinetypeTableRecord
  2
CENTER2
 70
     0
  3
Center (.5x) ___ _ ___ _ ___ _ ___ _ ___ _ ___
 72
    65
 73
     4
 40
28.575
 49
19.05
 74
     0
 49
-3.174999999999999
 74
     0
 49
3.174999999999999
 74
     0
 49
-3.174999999999999
 74
     0
  0
LTYPE
  5
23
330
5
100
AcDbSymbolTableRecord
100
AcDbLinetypeTableRecord
  2
HIDDEN2
 70
     0
  3
Hidden (.5x) _ _ _ _ _ _ _ _ _ _ _ _ _ _ _ _ _
 72
    65
 73
     2
 40
4.762499999999999
 49
3.174999999999999
 74
     0
 49
-1.587499999999999
 74
     0
  0
ENDTAB
  0
TABLE
  2
LAYER
  5
2
330
0
100
AcDbSymbolTable
 70
    15
  0
LAYER
  5
E
330
2
100
AcDbSymbolTableRecord
100
AcDbLayerTableRecord
  2
0
 70
     0
 62
     7
  6
CONTINUOUS
370
    -3
390
1E40
  0
LAYER
  5
25
330
2
100
AcDbSymbolTableRecord
100
AcDbLayerTableRecord
  2
外形線
 70
     0
 62
     7
  6
CONTINUOUS
370
    -3
390
1E40
  0
LAYER
  5
26
330
2
100
AcDbSymbolTableRecord
100
AcDbLayerTableRecord
  2
寸法線
 70
     0
 62
     2
  6
CONTINUOUS
370
    -3
390
1E40
  0
LAYER
  5
27
330
2
100
AcDbSymbolTableRecord
100
AcDbLayerTableRecord
  2
中心線
 70
     0
 62
     4
  6
CENTER2
370
    -3
390
1E40
  0
LAYER
  5
2A
330
2
100
AcDbSymbolTableRecord
100
AcDbLayerTableRecord
  2
ﾊｯﾁﾝｸ
 70
     0
 62
     6
  6
CONTINUOUS
370
    -3
390
1E40
  0
LAYER
  5
2B
330
2
100
AcDbSymbolTableRecord
100
AcDbLayerTableRecord
  2
文字
 70
     0
 62
     6
  6
CONTINUOUS
370
    -3
390
1E40
  0
LAYER
  5
2C
330
2
100
AcDbSymbolTableRecord
100
AcDbLayerTableRecord
  2
目盛
 70
     0
 62
    70
  6
CONTINUOUS
370
    -3
390
1E40
  0
LAYER
  5
2D
330
2
100
AcDbSymbolTableRecord
100
AcDbLayerTableRecord
  2
針
 70
     0
 62
     5
  6
CONTINUOUS
370
    -3
390
1E40
  0
LAYER
  5
53
330
2
100
AcDbSymbolTableRecord
100
AcDbLayerTableRecord
  2
DEFPOINTS
 70
     0
 62
     7
  6
CONTINUOUS
290
     0
370
    -3
390
1E40
  0
LAYER
  5
A5
330
2
100
AcDbSymbolTableRecord
100
AcDbLayerTableRecord
  2
C
 70
     0
 62
     7
  6
CONTINUOUS
370
    -3
390
1E40
  0
LAYER
  5
16A
330
2
100
AcDbSymbolTableRecord
100
AcDbLayerTableRecord
  2
隠れ線2
 70
     0
 62
     1
  6
HIDDEN2
370
    -3
390
1E40
  0
LAYER
  5
2DB
330
2
100
AcDbSymbolTableRecord
100
AcDbLayerTableRecord
  2
ROGO
 70
     0
 62
     6
  6
CONTINUOUS
370
    -3
390
1E40
  0
ENDTAB
  0
TABLE
  2
STYLE
  5
3
330
0
100
AcDbSymbolTable
 70
     6
  0
STYLE
  5
F
330
3
100
AcDbSymbolTableRecord
100
AcDbTextStyleTableRecord
  2
STANDARD
 70
     0
 40
0.0
 41
1.0
 50
0.0
 71
     0
 42
2.5
  3
txt
  4

  0
STYLE
  5
3F
330
3
100
AcDbSymbolTableRecord
100
AcDbTextStyleTableRecord
  2
STYLE3
 70
     0
 40
0.0
 41
1.0
 50
0.0
 71
     0
 42
3.0
  3
romans.shx
  4
bigfont.shx
  0
ENDTAB
  0
TABLE
  2
VIEW
  5
6
330
0
100
AcDbSymbolTable
 70
     0
  0
ENDTAB
  0
TABLE
  2
UCS
  5
7
330
0
100
AcDbSymbolTable
 70
     0
  0
ENDTAB
  0
TABLE
  2
APPID
  5
9
330
0
100
AcDbSymbolTable
 70
     1
  0
APPID
  5
10
330
9
100
AcDbSymbolTableRecord
100
AcDbRegAppTableRecord
  2
ACAD
 70
     0
  0
ENDTAB
  0
TABLE
  2
DIMSTYLE
  5
A
330
0
100
AcDbSymbolTable
 70
     4
100
AcDbDimStyleTable
 71
     0
  0
DIMSTYLE
105
1D
330
A
100
AcDbSymbolTableRecord
100
AcDbDimStyleTableRecord
  2
STANDARD
 70
     0
 41
2.5
 42
0.625
 43
3.75
 44
1.25
 73
     0
 74
     0
 77
     1
 78
     8
140
2.5
141
2.5
143
0.0394
147
0.625
171
     4
172
     1
273
     8
274
     4
277
     6
340
F
  0
DIMSTYLE
105
8F
102
{ACAD_REACTORS
330
1AAB
330
1D19
330
1D25
330
1D31
330
1D3D
330
1D4A
330
1D99
330
1DA5
330
1DB6
330
1925
330
193A
102
}
330
A
100
AcDbSymbolTableRecord
100
AcDbDimStyleTableRecord
  2
STYLE3
 70
     0
 41
2.5
 42
0.0
 43
3.75
 44
1.25
 73
     0
 74
     0
 77
     1
 78
     8
140
2.5
141
2.5
143
0.0394
147
0.625
171
     4
172
     1
173
     1
176
     2
177
     2
178
     6
271
     1
273
     8
274
     4
340
3F
341
45
343
45
344
45
  0
ENDTAB
  0
TABLE
  2
BLOCK_RECORD
  5
1
330
0
100
AcDbSymbolTable
 70
    24
  0
BLOCK_RECORD
  5
18
330
1
100
AcDbSymbolTableRecord
100
AcDbBlockTableRecord
  2
*MODEL_SPACE
340
1E47
  0
BLOCK_RECORD
  5
15
330
1
100
AcDbSymbolTableRecord
100
AcDbBlockTableRecord
  2
*PAPER_SPACE
340
1E48
  0
BLOCK_RECORD
  5
45
330
1
100
AcDbSymbolTableRecord
100
AcDbBlockTableRecord
  2
_OPEN
340
0
102
{BLKREFS
331
1E08
331
1E09
331
A19
331
A1A
331
A20
331
A21
331
A27
331
A28
331
A2E
331
A2F
331
A37
331
A38
331
A42
331
A43
331
A48
331
A49
331
A4F
331
A50
331
AEE
331
AEF
331
B00
331
B01
331
B06
331
B07
331
B20
331
B21
331
B28
331
B29
331
BC4
331
BC5
331
BCD
331
BCE
331
C14
331
C15
331
C45
331
C46
331
1314
331
1315
331
131C
331
131D
331
1327
331
1328
331
1335
331
1336
331
1341
331
1342
331
134A
331
134B
331
1353
331
1354
331
1364
331
1365
331
1384
331
1385
331
138E
331
138F
331
1397
331
1398
331
139F
331
13A0
331
13A7
331
13A8
331
13E4
331
13E5
331
1893
331
1894
331
189F
331
18A0
331
1C5F
331
1C61
331
1E1C
331
1E1D
331
1E6F
331
1E70
331
1EAC
331
1EAD
331
1EB5
331
1EB6
331
1EBD
331
1EBE
331
1EC6
331
1EC7
331
1ECE
331
1ECF
331
1ED9
331
1EDA
331
1EE1
331
1EE2
331
1EE9
331
1EEA
331
1EF2
331
1EF3
102
}
  0
BLOCK_RECORD
  5
18A7
330
1
100
AcDbSymbolTableRecord
100
AcDbBlockTableRecord
  2
12
340
0
102
{BLKREFS
331
1A8A
331
1919
102
}
  0
BLOCK_RECORD
  5
1C04
330
1
100
AcDbSymbolTableRecord
100
AcDbBlockTableRecord
  2
*D12
340
0
  0
BLOCK_RECORD
  5
1D0D
330
1
100
AcDbSymbolTableRecord
100
AcDbBlockTableRecord
  2
*D14
340
0
  0
BLOCK_RECORD
  5
1D1A
330
1
100
AcDbSymbolTableRecord
100
AcDbBlockTableRecord
  2
*D15
340
0
  0
BLOCK_RECORD
  5
1D26
330
1
100
AcDbSymbolTableRecord
100
AcDbBlockTableRecord
  2
*D16
340
0
  0
BLOCK_RECORD
  5
1D32
330
1
100
AcDbSymbolTableRecord
100
AcDbBlockTableRecord
  2
*D17
340
0
  0
BLOCK_RECORD
  5
1D3E
330
1
100
AcDbSymbolTableRecord
100
AcDbBlockTableRecord
  2
*D18
340
0
  0
BLOCK_RECORD
  5
1D8D
330
1
100
AcDbSymbolTableRecord
100
AcDbBlockTableRecord
  2
*D19
340
0
  0
BLOCK_RECORD
  5
1D9A
330
1
100
AcDbSymbolTableRecord
100
AcDbBlockTableRecord
  2
*D20
340
0
  0
BLOCK_RECORD
  5
1DA8
330
1
100
AcDbSymbolTableRecord
100
AcDbBlockTableRecord
  2
*D21
340
0
  0
ENDTAB
  0
ENDSEC
  0
SECTION
  2
BLOCKS
  0
BLOCK
  5
19
330
18
100
AcDbEntity
  8
0
100
AcDbBlockBegin
  2
*MODEL_SPACE
 70
     0
 10
0.0
 20
0.0
 30
0.0
  3
*MODEL_SPACE
  1

  0
ENDBLK
  5
1A
330
18
100
AcDbEntity
  8
0
100
AcDbBlockEnd
  0
BLOCK
  5
16
330
15
100
AcDbEntity
 67
     1
  8
0
100
AcDbBlockBegin
  2
*PAPER_SPACE
 70
     0
 10
0.0
 20
0.0
 30
0.0
  3
*PAPER_SPACE
  1

  0
ENDBLK
  5
17
330
15
100
AcDbEntity
 67
     1
  8
0
100
AcDbBlockEnd
  0
BLOCK
  5
46
330
45
100
AcDbEntity
  8
0
100
AcDbBlockBegin
  2
_OPEN
 70
     0
 10
0.0
 20
0.0
 30
0.0
  3
_OPEN
  1

  0
LINE
  5
47
330
45
100
AcDbEntity
  8
0
  6
ByBlock
 62
     0
100
AcDbLine
 10
-1.0
 20
0.1666666666666666
 30
0.0
 11
0.0
 21
0.0
 31
0.0
  0
LINE
  5
48
330
45
100
AcDbEntity
  8
0
  6
ByBlock
 62
     0
100
AcDbLine
 10
0.0
 20
0.0
 30
0.0
 11
-1.0
 21
-0.1666666666666666
 31
0.0
  0
LINE
  5
49
330
45
100
AcDbEntity
  8
0
  6
ByBlock
 62
     0
100
AcDbLine
 10
0.0
 20
0.0
 30
0.0
 11
-1.0
 21
0.0
 31
0.0
  0
ENDBLK
  5
4A
330
45
100
AcDbEntity
  8
0
100
AcDbBlockEnd
  0
BLOCK
  5
1916
330
18A7
100
AcDbEntity
  8
0
100
AcDbBlockBegin
  2
12
 70
     0
 10
0.0
 20
0.0
 30
0.0
  3
12
  1

  0
TEXT
  5
18A8
330
18A7
100
AcDbEntity
  8
文字
100
AcDbText
 10
-12.99252466379442
 20
13.40997501355684
 30
0.0
 40
2.5
  1
90
  7
STYLE3
100
AcDbText
  0
TEXT
  5
18A9
330
18A7
100
AcDbEntity
  8
文字
100
AcDbText
 10
-19.18697334178108
 20
4.509387238967633
 30
0.0
 40
2.5
  1
80
  7
STYLE3
100
AcDbText
  0
TEXT
  5
18AA
330
18A7
100
AcDbEntity
  8
文字
100
AcDbText
 10
-19.29265411071986
 20
-7.2251438858367
 30
0.0
 40
2.5
  1
70
  7
STYLE3
100
AcDbText
  0
LINE
  5
18AB
330
18A7
100
AcDbEntity
  8
目盛
100
AcDbLine
 10
-15.74458343635967
 20
16.76627843069252
 30
0.0
 11
-14.58085335628095
 21
15.52703176407613
 31
0.0
  0
LINE
  5
18AC
330
18A7
100
AcDbEntity
  8
目盛
100
AcDbLine
 10
-21.8742998747885
 20
-7.107390870623817
 30
0.0
 11
-19.30644728079158
 21
-6.273044985811452
 31
0.0
  0
LINE
  5
18AD
330
18A7
100
AcDbEntity
  8
目盛
100
AcDbLine
 10
-21.38485917542971
 20
-8.466864711747462
 30
0.0
 11
-19.80423914941968
 21
-7.84105297218349
 31
0.0
  0
LINE
  5
18AE
330
18A7
100
AcDbEntity
  8
目盛
100
AcDbLine
 10
-22.5926067667599
 20
-4.309770235471432
 30
0.0
 11
-20.92271844052107
 21
-3.991222000675747
 31
0.0
  0
LINE
  5
18AF
330
18A7
100
AcDbEntity
  8
目盛
100
AcDbLine
 10
-22.8186381302329
 20
-2.882664371978876
 30
0.0
 11
-21.13204313799838
 21
-2.669597874919531
 31
0.0
  0
LINE
  5
18B0
330
18A7
100
AcDbEntity
  8
目盛
100
AcDbLine
 10
-22.95461475385019
 20
-1.444181949174094
 30
0.0
 11
-21.25796931552219
 21
-1.337438065974254
 31
0.0
  0
LINE
  5
18B1
330
18A7
100
AcDbEntity
  8
目盛
100
AcDbLine
 10
-22.27741270595857
 20
-5.719867404791443
 30
0.0
 11
-20.63082133203989
 21
-5.297094596611259
 31
0.0
  0
LINE
  5
18B2
330
18A7
100
AcDbEntity
  8
目盛
100
AcDbLine
 10
-22.8186381302329
 20
2.882664371979217
 30
0.0
 11
-21.13204313799827
 21
2.669597874919872
 31
0.0
  0
LINE
  5
18B3
330
18A7
100
AcDbEntity
  8
目盛
100
AcDbLine
 10
-22.59260676675967
 20
4.309770235471773
 30
0.0
 11
-20.92271844052095
 21
3.991222000676089
 31
0.0
  0
LINE
  5
18B4
330
18A7
100
AcDbEntity
  8
目盛
100
AcDbLine
 10
-22.99999999999989
 20
0.0
 30
0.0
 11
-20.2999999999999
 21
0.0
 31
0.0
  0
LINE
  5
18B5
330
18A7
100
AcDbEntity
  8
目盛
100
AcDbLine
 10
-22.95461475385014
 20
1.444181949174435
 30
0.0
 11
-21.25796931552208
 21
1.337438065974538
 31
0.0
  0
LINE
  5
18B6
330
18A7
100
AcDbEntity
  8
目盛
100
AcDbLine
 10
-20.15505364100875
 20
11.08033450433953
 30
0.0
 11
-18.66533228493421
 21
10.26135325836668
 31
0.0
  0
LINE
  5
18B7
330
18A7
100
AcDbEntity
  8
目盛
100
AcDbLine
 10
-20.81102220671835
 20
9.792923705996884
 30
0.0
 11
-19.2728162175261
 21
9.069098910336208
 31
0.0
  0
LINE
  5
18B8
330
18A7
100
AcDbEntity
  8
目盛
100
AcDbLine
 10
-21.87429987478845
 20
7.10739087062376
 30
0.0
 11
-19.30644728079153
 21
6.273044985811452
 31
0.0
  0
LINE
  5
18B9
330
18A7
100
AcDbEntity
  8
目盛
100
AcDbLine
 10
-22.27741270595834
 20
5.719867404791784
 30
0.0
 11
-20.63082133203971
 21
5.297094596611543
 31
0.0
  0
LINE
  5
18BA
330
18A7
100
AcDbEntity
  8
目盛
100
AcDbLine
 10
-21.38485917542965
 20
8.466864711747803
 30
0.0
 11
-19.80423914941968
 21
7.841052972183774
 31
0.0
  0
LINE
  5
18BB
330
18A7
100
AcDbEntity
  8
目盛
100
AcDbLine
 10
-19.41954228654617
 20
12.32401628451703
 30
0.0
 11
-17.98418481319277
 21
11.41311073305274
 31
0.0
  0
LINE
  5
18BC
330
18A7
100
AcDbEntity
  8
目盛
100
AcDbLine
 10
-16.76627843069229
 20
15.74458343636002
 30
0.0
 11
-15.5270317640759
 21
14.58085335628118
 31
0.0
  0
LINE
  5
18BD
330
18A7
100
AcDbEntity
  8
目盛
100
AcDbLine
 10
-18.6073908706237
 20
13.51906080272687
 30
0.0
 11
-16.42304498581143
 21
11.93204062153722
 31
0.0
  0
LINE
  5
18BE
330
18A7
100
AcDbEntity
  8
目盛
100
AcDbLine
 10
-17.72180458384298
 20
14.66075176422004
 30
0.0
 11
-16.41193207112417
 21
13.5771309816472
 31
0.0
  0
LINE
  5
18BF
330
18A7
100
AcDbEntity
  8
目盛
100
AcDbLine
 10
-14.66075176421969
 20
17.72180458384321
 30
0.0
 11
-13.57713098164697
 21
16.41193207112439
 31
0.0
  0
LINE
  5
18C0
330
18A7
100
AcDbEntity
  8
目盛
100
AcDbLine
 10
-12.32401628451697
 20
-19.41954228654623
 30
0.0
 11
-11.41311073305269
 21
-17.98418481319282
 31
0.0
  0
LINE
  5
18C1
330
18A7
100
AcDbEntity
  8
目盛
100
AcDbLine
 10
-13.51906080272687
 20
-18.60739087062382
 30
0.0
 11
-11.93204062153722
 21
-16.42304498581143
 31
0.0
  0
LINE
  5
18C2
330
18A7
100
AcDbEntity
  8
目盛
100
AcDbLine
 10
-9.792923705996827
 20
-20.81102220671835
 30
0.0
 11
-9.069098910336151
 21
-19.27281621752615
 31
0.0
  0
LINE
  5
18C3
330
18A7
100
AcDbEntity
  8
目盛
100
AcDbLine
 10
-11.08033450433947
 20
-20.15505364100881
 30
0.0
 11
-10.26135325836662
 21
-18.66533228493426
 31
0.0
  0
LINE
  5
18C4
330
18A7
100
AcDbEntity
  8
目盛
100
AcDbLine
 10
-15.74458343636002
 20
-16.76627843069235
 30
0.0
 11
-14.58085335628118
 21
-15.5270317640759
 31
0.0
  0
LINE
  5
18C5
330
18A7
100
AcDbEntity
  8
目盛
100
AcDbLine
 10
-18.6073908706237
 20
-13.51906080272687
 30
0.0
 11
-16.42304498581131
 21
-11.93204062153722
 31
0.0
  0
LINE
  5
18C6
330
18A7
100
AcDbEntity
  8
目盛
100
AcDbLine
 10
-16.76627843069252
 20
-15.74458343635973
 30
0.0
 11
-15.52703176407613
 21
-14.58085335628095
 31
0.0
  0
LINE
  5
18C7
330
18A7
100
AcDbEntity
  8
目盛
100
AcDbLine
 10
-17.72180458384321
 20
-14.66075176421975
 30
0.0
 11
-16.41193207112439
 21
-13.57713098164697
 31
0.0
  0
LINE
  5
18C8
330
18A7
100
AcDbEntity
  8
目盛
100
AcDbLine
 10
-20.15505364100892
 20
-11.08033450433925
 30
0.0
 11
-18.66533228493432
 21
-10.2613532583664
 31
0.0
  0
LINE
  5
18C9
330
18A7
100
AcDbEntity
  8
目盛
100
AcDbLine
 10
-20.81102220671835
 20
-9.792923705996543
 30
0.0
 11
-19.27281621752621
 21
-9.069098910335924
 31
0.0
  0
LINE
  5
18CA
330
18A7
100
AcDbEntity
  8
目盛
100
AcDbLine
 10
-19.4195422865464
 20
-12.32401628451669
 30
0.0
 11
-17.98418481319288
 21
-11.41311073305246
 31
0.0
  0
TEXT
  5
18CB
330
18A7
100
AcDbEntity
  8
文字
100
AcDbText
 10
-13.55831700926097
 20
-15.81039448861065
 30
0.0
 40
2.5
  1
60
  7
STYLE3
100
AcDbText
  0
LINE
  5
18CC
330
18A7
100
AcDbEntity
  8
目盛
100
AcDbLine
 10
-14.66075176421998
 20
-17.72180458384298
 30
0.0
 11
-13.5771309816472
 21
-16.41193207112417
 31
0.0
  0
LINE
  5
18CD
330
18A7
100
AcDbEntity
  8
目盛
100
AcDbLine
 10
13.51906080272692
 20
-18.60739087062382
 30
0.0
 11
11.93204062153722
 21
-16.42304498581149
 31
0.0
  0
LINE
  5
18CE
330
18A7
100
AcDbEntity
  8
目盛
100
AcDbLine
 10
12.3240162845168
 20
-19.41954228654651
 30
0.0
 11
11.41311073305257
 21
-17.98418481319311
 31
0.0
  0
TEXT
  5
18CF
330
18A7
100
AcDbEntity
  8
文字
100
AcDbText
 10
-2.313247467148755
 20
-19.68288727335846
 30
0.0
 40
2.5
  1
50
  7
STYLE3
100
AcDbText
  0
LINE
  5
18D0
330
18A7
100
AcDbEntity
  8
目盛
100
AcDbLine
 10
-7.10739087062376
 20
-21.8742998747885
 30
0.0
 11
-6.273044985811395
 21
-19.30644728079158
 31
0.0
  0
LINE
  5
18D1
330
18A7
100
AcDbEntity
  8
目盛
100
AcDbLine
 10
-8.466864711747803
 20
-21.38485917542971
 30
0.0
 11
-7.841052972183774
 21
-19.80423914941968
 31
0.0
  0
LINE
  5
18D2
330
18A7
100
AcDbEntity
  8
目盛
100
AcDbLine
 10
-4.30977023547166
 20
-22.59260676675973
 30
0.0
 11
-3.991222000675975
 21
-20.92271844052101
 31
0.0
  0
LINE
  5
18D3
330
18A7
100
AcDbEntity
  8
目盛
100
AcDbLine
 10
-5.719867404791671
 20
-22.2774127059584
 30
0.0
 11
-5.29709459661143
 21
-20.63082133203977
 31
0.0
  0
LINE
  5
18D4
330
18A7
100
AcDbEntity
  8
目盛
100
AcDbLine
 10
-2.882664371979103
 20
-22.81863813023296
 30
0.0
 11
-2.669597874919759
 21
-21.13204313799832
 31
0.0
  0
LINE
  5
18D5
330
18A7
100
AcDbEntity
  8
目盛
100
AcDbLine
 10
9.792923705996599
 20
-20.81102220671852
 30
0.0
 11
9.069098910335981
 21
-19.27281621752638
 31
0.0
  0
LINE
  5
18D6
330
18A7
100
AcDbEntity
  8
目盛
100
AcDbLine
 10
5.719867404791557
 20
-22.27741270595857
 30
0.0
 11
5.297094596611373
 21
-20.63082133203989
 31
0.0
  0
LINE
  5
18D7
330
18A7
100
AcDbEntity
  8
目盛
100
AcDbLine
 10
4.309770235471603
 20
-22.5926067667599
 30
0.0
 11
3.991222000675861
 21
-20.92271844052107
 31
0.0
  0
LINE
  5
18D8
330
18A7
100
AcDbEntity
  8
目盛
100
AcDbLine
 10
2.882664371978989
 20
-22.8186381302329
 30
0.0
 11
2.669597874919645
 21
-21.13204313799838
 31
0.0
  0
LINE
  5
18D9
330
18A7
100
AcDbEntity
  8
目盛
100
AcDbLine
 10
8.466864711747518
 20
-21.38485917542983
 30
0.0
 11
7.841052972183604
 21
-19.80423914941986
 31
0.0
  0
LINE
  5
18DA
330
18A7
100
AcDbEntity
  8
目盛
100
AcDbLine
 10
7.10739087062393
 20
-21.8742998747885
 30
0.0
 11
6.273044985811566
 21
-19.30644728079158
 31
0.0
  0
LINE
  5
18DB
330
18A7
100
AcDbEntity
  8
目盛
100
AcDbLine
 10
11.08033450433936
 20
-20.15505364100909
 30
0.0
 11
10.2613532583664
 21
-18.66533228493449
 31
0.0
  0
LINE
  5
18DC
330
18A7
100
AcDbEntity
  8
目盛
100
AcDbLine
 10
1.444181949174208
 20
-22.95461475385019
 30
0.0
 11
1.337438065974367
 21
-21.25796931552213
 31
0.0
  0
LINE
  5
18DD
330
18A7
100
AcDbEntity
  8
目盛
100
AcDbLine
 10
0.0000000000001137
 20
-22.99999999999994
 30
0.0
 11
0.0000000000001137
 21
-20.29999999999995
 31
0.0
  0
LINE
  5
18DE
330
18A7
100
AcDbEntity
  8
目盛
100
AcDbLine
 10
-1.444181949174321
 20
-22.95461475385019
 30
0.0
 11
-1.337438065974424
 21
-21.25796931552213
 31
0.0
  0
LINE
  5
18DF
330
18A7
100
AcDbEntity
  8
目盛
100
AcDbLine
 10
15.74458343635979
 20
-16.76627843069252
 30
0.0
 11
14.58085335628107
 21
-15.52703176407613
 31
0.0
  0
LINE
  5
18E0
330
18A7
100
AcDbEntity
  8
目盛
100
AcDbLine
 10
14.66075176421975
 20
-17.72180458384321
 30
0.0
 11
13.57713098164708
 21
-16.41193207112439
 31
0.0
  0
TEXT
  5
18E1
330
18A7
100
AcDbEntity
  8
文字
100
AcDbText
 10
8.589307254844754
 20
-15.87242910647626
 30
0.0
 40
2.5
  1
40
  7
STYLE3
100
AcDbText
  0
LINE
  5
18E2
330
18A7
100
AcDbEntity
  8
目盛
100
AcDbLine
 10
18.60739087062382
 20
-13.51906080272687
 30
0.0
 11
16.42304498581149
 21
-11.93204062153722
 31
0.0
  0
LINE
  5
18E3
330
18A7
100
AcDbEntity
  8
目盛
100
AcDbLine
 10
17.72180458384309
 20
-14.66075176421998
 30
0.0
 11
16.41193207112428
 21
-13.5771309816472
 31
0.0
  0
LINE
  5
18E4
330
18A7
100
AcDbEntity
  8
目盛
100
AcDbLine
 10
16.76627843069241
 20
-15.74458343636002
 30
0.0
 11
15.52703176407601
 21
-14.58085335628118
 31
0.0
  0
LINE
  5
18E5
330
18A7
100
AcDbEntity
  8
目盛
100
AcDbLine
 10
20.81102220671841
 20
-9.792923705996827
 30
0.0
 11
19.27281621752615
 21
-9.069098910336151
 31
0.0
  0
LINE
  5
18E6
330
18A7
100
AcDbEntity
  8
目盛
100
AcDbLine
 10
20.15505364100881
 20
-11.08033450433947
 30
0.0
 11
18.66533228493426
 21
-10.26135325836662
 31
0.0
  0
LINE
  5
18E7
330
18A7
100
AcDbEntity
  8
目盛
100
AcDbLine
 10
19.41954228654629
 20
-12.32401628451703
 30
0.0
 11
17.98418481319288
 21
-11.41311073305269
 31
0.0
  0
TEXT
  5
18E8
330
18A7
100
AcDbEntity
  8
文字
100
AcDbText
 10
14.38687239322024
 20
-7.248829071035743
 30
0.0
 40
2.5
  1
30
  7
STYLE3
100
AcDbText
  0
LINE
  5
18E9
330
18A7
100
AcDbEntity
  8
目盛
100
AcDbLine
 10
21.87429987478856
 20
-7.10739087062376
 30
0.0
 11
19.30644728079164
 21
-6.273044985811395
 31
0.0
  0
LINE
  5
18EA
330
18A7
100
AcDbEntity
  8
目盛
100
AcDbLine
 10
21.38485917542971
 20
-8.466864711747803
 30
0.0
 11
19.80423914941974
 21
-7.841052972183774
 31
0.0
  0
LINE
  5
18EB
330
18A7
100
AcDbEntity
  8
目盛
100
AcDbLine
 10
22.81863813023307
 20
-2.882664371979217
 30
0.0
 11
21.13204313799844
 21
-2.669597874919872
 31
0.0
  0
LINE
  5
18EC
330
18A7
100
AcDbEntity
  8
目盛
100
AcDbLine
 10
22.59260676675984
 20
-4.309770235471773
 30
0.0
 11
20.92271844052112
 21
-3.991222000676089
 31
0.0
  0
LINE
  5
18ED
330
18A7
100
AcDbEntity
  8
目盛
100
AcDbLine
 10
22.27741270595851
 20
-5.719867404791784
 30
0.0
 11
20.63082133203989
 21
-5.297094596611543
 31
0.0
  0
LINE
  5
18EE
330
18A7
100
AcDbEntity
  8
目盛
100
AcDbLine
 10
22.95461475385031
 20
-1.444181949174435
 30
0.0
 11
21.25796931552224
 21
-1.337438065974538
 31
0.0
  0
LINE
  5
18EF
330
18A7
100
AcDbEntity
  8
目盛
100
AcDbLine
 10
17.72180458384332
 20
14.66075176421975
 30
0.0
 11
16.41193207112445
 21
13.57713098164697
 31
0.0
  0
LINE
  5
18F0
330
18A7
100
AcDbEntity
  8
目盛
100
AcDbLine
 10
18.60739087062387
 20
13.51906080272681
 30
0.0
 11
16.42304498581149
 21
11.93204062153717
 31
0.0
  0
TEXT
  5
18F1
330
18A7
100
AcDbEntity
  8
文字
100
AcDbText
 10
15.15460443586102
 20
3.229167086961638
 30
0.0
 40
2.5
  1
20
  7
STYLE3
100
AcDbText
  0
LINE
  5
18F2
330
18A7
100
AcDbEntity
  8
目盛
100
AcDbLine
 10
15.74458343636007
 20
16.76627843069229
 30
0.0
 11
14.58085335628129
 21
15.5270317640759
 31
0.0
  0
LINE
  5
18F3
330
18A7
100
AcDbEntity
  8
目盛
100
AcDbLine
 10
14.66075176422015
 20
17.72180458384298
 30
0.0
 11
13.57713098164731
 21
16.41193207112417
 31
0.0
  0
LINE
  5
18F4
330
18A7
100
AcDbEntity
  8
目盛
100
AcDbLine
 10
16.76627843069258
 20
15.74458343635973
 30
0.0
 11
15.5270317640763
 21
14.58085335628095
 31
0.0
  0
LINE
  5
18F5
330
18A7
100
AcDbEntity
  8
目盛
100
AcDbLine
 10
22.59260676676001
 20
4.309770235471432
 30
0.0
 11
20.92271844052124
 21
3.991222000675747
 31
0.0
  0
LINE
  5
18F6
330
18A7
100
AcDbEntity
  8
目盛
100
AcDbLine
 10
22.81863813023307
 20
2.882664371978876
 30
0.0
 11
21.13204313799855
 21
2.669597874919475
 31
0.0
  0
LINE
  5
18F7
330
18A7
100
AcDbEntity
  8
目盛
100
AcDbLine
 10
22.95461475385031
 20
1.444181949174094
 30
0.0
 11
21.2579693155223
 21
1.337438065974254
 31
0.0
  0
LINE
  5
18F8
330
18A7
100
AcDbEntity
  8
目盛
100
AcDbLine
 10
23.00000000000006
 20
0.0
 30
0.0
 11
20.30000000000007
 21
0.0
 31
0.0
  0
LINE
  5
18F9
330
18A7
100
AcDbEntity
  8
目盛
100
AcDbLine
 10
20.15505364100909
 20
11.08033450433925
 30
0.0
 11
18.66533228493449
 21
10.26135325836634
 31
0.0
  0
LINE
  5
18FA
330
18A7
100
AcDbEntity
  8
目盛
100
AcDbLine
 10
21.87429987478862
 20
7.10739087062376
 30
0.0
 11
19.3064472807917
 21
6.273044985811452
 31
0.0
  0
LINE
  5
18FB
330
18A7
100
AcDbEntity
  8
目盛
100
AcDbLine
 10
22.27741270595874
 20
5.719867404791443
 30
0.0
 11
20.63082133204
 21
5.297094596611259
 31
0.0
  0
LINE
  5
18FC
330
18A7
100
AcDbEntity
  8
目盛
100
AcDbLine
 10
20.81102220671852
 20
9.792923705996543
 30
0.0
 11
19.27281621752633
 21
9.069098910335924
 31
0.0
  0
LINE
  5
18FD
330
18A7
100
AcDbEntity
  8
目盛
100
AcDbLine
 10
21.38485917542988
 20
8.466864711747462
 30
0.0
 11
19.80423914941986
 21
7.84105297218349
 31
0.0
  0
LINE
  5
18FE
330
18A7
100
AcDbEntity
  8
目盛
100
AcDbLine
 10
19.41954228654657
 20
12.32401628451669
 30
0.0
 11
17.98418481319311
 21
11.41311073305246
 31
0.0
  0
LINE
  5
18FF
330
18A7
100
AcDbEntity
  8
目盛
100
AcDbLine
 10
13.51906080272698
 20
18.60739087062382
 30
0.0
 11
11.93204062153728
 21
16.42304498581143
 31
0.0
  0
TEXT
  5
1900
330
18A7
100
AcDbEntity
  8
文字
100
AcDbText
 10
8.199900625285465
 20
12.81951309573424
 30
0.0
 40
2.5
  1
10
  7
STYLE3
100
AcDbText
  0
LINE
  5
1901
330
18A7
100
AcDbEntity
  8
目盛
100
AcDbLine
 10
12.32401628451708
 20
19.41954228654617
 30
0.0
 11
11.4131107330528
 21
17.98418481319282
 31
0.0
  0
LINE
  5
1902
330
18A7
100
AcDbEntity
  8
目盛
100
AcDbLine
 10
9.79292370599694
 20
20.81102220671835
 30
0.0
 11
9.069098910336265
 21
19.27281621752615
 31
0.0
  0
LINE
  5
1903
330
18A7
100
AcDbEntity
  8
目盛
100
AcDbLine
 10
8.466864711747859
 20
21.38485917542971
 30
0.0
 11
7.841052972183831
 21
19.80423914941968
 31
0.0
  0
LINE
  5
1904
330
18A7
100
AcDbEntity
  8
目盛
100
AcDbLine
 10
11.08033450433953
 20
20.15505364100875
 30
0.0
 11
10.26135325836668
 21
18.66533228493426
 31
0.0
  0
LINE
  5
1905
330
18A7
100
AcDbEntity
  8
目盛
100
AcDbLine
 10
-13.51906080272681
 20
18.60739087062376
 30
0.0
 11
-11.93204062153717
 21
16.42304498581149
 31
0.0
  0
LINE
  5
1906
330
18A7
100
AcDbEntity
  8
目盛
100
AcDbLine
 10
-7.107390870623703
 20
21.8742998747885
 30
0.0
 11
-6.273044985811338
 21
19.30644728079158
 31
0.0
  0
LINE
  5
1907
330
18A7
100
AcDbEntity
  8
目盛
100
AcDbLine
 10
-12.32401628451669
 20
19.41954228654646
 30
0.0
 11
-11.41311073305246
 21
17.98418481319299
 31
0.0
  0
LINE
  5
1908
330
18A7
100
AcDbEntity
  8
目盛
100
AcDbLine
 10
-11.08033450433925
 20
20.15505364100903
 30
0.0
 11
-10.26135325836634
 21
18.66533228493443
 31
0.0
  0
LINE
  5
1909
330
18A7
100
AcDbEntity
  8
目盛
100
AcDbLine
 10
-9.792923705996486
 20
20.81102220671846
 30
0.0
 11
-9.069098910335867
 21
19.27281621752633
 31
0.0
  0
LINE
  5
190A
330
18A7
100
AcDbEntity
  8
目盛
100
AcDbLine
 10
-8.466864711747405
 20
21.38485917542983
 30
0.0
 11
-7.841052972183433
 21
19.80423914941986
 31
0.0
  0
LINE
  5
190B
330
18A7
100
AcDbEntity
  8
目盛
100
AcDbLine
 10
-4.309770235471432
 20
22.5926067667599
 30
0.0
 11
-3.991222000675747
 21
20.92271844052112
 31
0.0
  0
LINE
  5
190C
330
18A7
100
AcDbEntity
  8
目盛
100
AcDbLine
 10
-2.882664371978819
 20
22.81863813023301
 30
0.0
 11
-2.669597874919475
 21
21.13204313799844
 31
0.0
  0
LINE
  5
190D
330
18A7
100
AcDbEntity
  8
目盛
100
AcDbLine
 10
-1.44418194917398
 20
22.95461475385019
 30
0.0
 11
-1.337438065974197
 21
21.25796931552219
 31
0.0
  0
LINE
  5
190E
330
18A7
100
AcDbEntity
  8
目盛
100
AcDbLine
 10
0.0000000000000568
 20
23.0
 30
0.0
 11
0.0000000000000568
 21
20.30000000000001
 31
0.0
  0
LINE
  5
190F
330
18A7
100
AcDbEntity
  8
目盛
100
AcDbLine
 10
-5.719867404791386
 20
22.27741270595863
 30
0.0
 11
-5.297094596611202
 21
20.63082133203989
 31
0.0
  0
TEXT
  5
1910
330
18A7
100
AcDbEntity
  8
文字
100
AcDbText
 10
-1.214310522448897
 20
16.74100786367
 30
0.0
 40
2.5
  1
0
  7
STYLE3
100
AcDbText
  0
LINE
  5
1911
330
18A7
100
AcDbEntity
  8
目盛
100
AcDbLine
 10
1.444181949174492
 20
22.95461475385025
 30
0.0
 11
1.337438065974595
 21
21.25796931552219
 31
0.0
  0
LINE
  5
1912
330
18A7
100
AcDbEntity
  8
目盛
100
AcDbLine
 10
2.882664371979274
 20
22.81863813023301
 30
0.0
 11
2.669597874919929
 21
21.13204313799838
 31
0.0
  0
LINE
  5
1913
330
18A7
100
AcDbEntity
  8
目盛
100
AcDbLine
 10
4.30977023547183
 20
22.59260676675979
 30
0.0
 11
3.991222000676145
 21
20.92271844052107
 31
0.0
  0
LINE
  5
1914
330
18A7
100
AcDbEntity
  8
目盛
100
AcDbLine
 10
5.719867404791841
 20
22.27741270595846
 30
0.0
 11
5.2970945966116
 21
20.63082133203983
 31
0.0
  0
LINE
  5
1915
330
18A7
100
AcDbEntity
  8
目盛
100
AcDbLine
 10
7.107390870623873
 20
21.8742998747885
 30
0.0
 11
6.273044985811509
 21
19.30644728079158
 31
0.0
  0
ENDBLK
  5
1917
330
18A7
100
AcDbEntity
  8
0
100
AcDbBlockEnd
  0
BLOCK
  5
1C1B
330
1C04
100
AcDbEntity
  8
0
100
AcDbBlockBegin
  2
*D12
 70
     1
 10
0.0
 20
0.0
 30
0.0
  3
*D12
  1

  0
LINE
  5
1EA9
330
1C04
100
AcDbEntity
  8
文字
 62
     2
370
    -2
100
AcDbLine
 10
50.55248103047524
 20
157.6453113659539
 30
0.0
 11
67.30011046484174
 21
157.6453113659539
 31
0.0
  0
LINE
  5
1EAA
330
1C04
100
AcDbEntity
  8
文字
 62
     2
370
    -2
100
AcDbLine
 10
50.55248103047524
 20
104.845311365954
 30
0.0
 11
67.30011046484174
 21
104.845311365954
 31
0.0
  0
LINE
  5
1EAB
330
1C04
100
AcDbEntity
  8
文字
 62
     2
370
    -2
100
AcDbLine
 10
66.05011046484174
 20
155.1453113659539
 30
0.0
 11
66.05011046484174
 21
107.345311365954
 31
0.0
  0
INSERT
  5
1EAC
330
1C04
100
AcDbEntity
  8
文字
 62
     2
370
    -2
100
AcDbBlockReference
  2
_OPEN
 10
66.05011046484174
 20
157.6453113659539
 30
0.0
 41
2.5
 42
2.5
 43
2.5
 50
90.0
  0
INSERT
  5
1EAD
330
1C04
100
AcDbEntity
  8
文字
 62
     2
370
    -2
100
AcDbBlockReference
  2
_OPEN
 10
66.05011046484174
 20
104.845311365954
 30
0.0
 41
2.5
 42
2.5
 43
2.5
 50
270.0
  0
MTEXT
  5
1EAE
330
1C04
100
AcDbEntity
  8
文字
 62
     6
100
AcDbMText
 10
64.17511046484172
 20
131.2453113659539
 30
0.0
 40
2.5
 41
0.0
 71
     5
 72
     1
  1
\A1;φ53
  7
STYLE3
 11
0.0000000000000001
 21
1.0
 31
0.0
 73
     1
 44
1.0
  0
POINT
  5
1EAF
330
1C04
100
AcDbEntity
  8
DEFPOINTS
 62
     0
100
AcDbPoint
 10
50.55248103047524
 20
157.6453113659539
 30
0.0
  0
POINT
  5
1EB0
330
1C04
100
AcDbEntity
  8
DEFPOINTS
 62
     0
100
AcDbPoint
 10
50.55248103047524
 20
104.845311365954
 30
0.0
  0
POINT
  5
1EB1
330
1C04
100
AcDbEntity
  8
DEFPOINTS
 62
     0
100
AcDbPoint
 10
66.05011046484174
 20
104.845311365954
 30
0.0
  0
ENDBLK
  5
1C25
330
1C04
100
AcDbEntity
  8
0
100
AcDbBlockEnd
  0
BLOCK
  5
1D0E
330
1D0D
100
AcDbEntity
  8
0
100
AcDbBlockBegin
  2
*D14
 70
     1
 10
0.0
 20
0.0
 30
0.0
  3
*D14
  1

  0
LINE
  5
1EEF
330
1D0D
100
AcDbEntity
  8
外形線
 62
     2
370
    -2
100
AcDbLine
 10
104.0669012957086
 20
131.2453113659539
 30
0.0
 11
100.9280052433131
 21
131.2453113659539
 31
0.0
  0
LINE
  5
1EF0
330
1D0D
100
AcDbEntity
  8
外形線
 62
     2
370
    -2
100
AcDbLine
 10
128.1094958303096
 20
104.2453113659539
 30
0.0
 11
100.9280052433131
 21
104.2453113659539
 31
0.0
  0
LINE
  5
1EF1
330
1D0D
100
AcDbEntity
  8
外形線
 62
     2
370
    -2
100
AcDbLine
 10
102.1780052433131
 20
128.7453113659539
 30
0.0
 11
102.1780052433131
 21
106.7453113659539
 31
0.0
  0
INSERT
  5
1EF2
330
1D0D
100
AcDbEntity
  8
外形線
 62
     2
370
    -2
100
AcDbBlockReference
  2
_OPEN
 10
102.1780052433131
 20
131.2453113659539
 30
0.0
 41
2.5
 42
2.5
 43
2.5
 50
90.0
  0
INSERT
  5
1EF3
330
1D0D
100
AcDbEntity
  8
外形線
 62
     2
370
    -2
100
AcDbBlockReference
  2
_OPEN
 10
102.1780052433131
 20
104.2453113659539
 30
0.0
 41
2.5
 42
2.5
 43
2.5
 50
270.0
  0
MTEXT
  5
1EF4
330
1D0D
100
AcDbEntity
  8
外形線
 62
     6
100
AcDbMText
 10
100.3030052433131
 20
117.745311365954
 30
0.0
 40
2.5
 41
0.0
 71
     5
 72
     1
  1
\A1;27
  7
STYLE3
 11
0.0000000000000001
 21
1.0
 31
0.0
 73
     1
 44
1.0
  0
POINT
  5
1EF5
330
1D0D
100
AcDbEntity
  8
DEFPOINTS
 62
     0
100
AcDbPoint
 10
104.0669012957086
 20
131.2453113659539
 30
0.0
  0
POINT
  5
1EF6
330
1D0D
100
AcDbEntity
  8
DEFPOINTS
 62
     0
100
AcDbPoint
 10
128.1094958303096
 20
104.2453113659539
 30
0.0
  0
POINT
  5
1EF7
330
1D0D
100
AcDbEntity
  8
DEFPOINTS
 62
     0
100
AcDbPoint
 10
102.1780052433131
 20
104.2453113659539
 30
0.0
  0
ENDBLK
  5
1D18
330
1D0D
100
AcDbEntity
  8
0
100
AcDbBlockEnd
  0
BLOCK
  5
1D1B
330
1D1A
100
AcDbEntity
  8
0
100
AcDbBlockBegin
  2
*D15
 70
     1
 10
0.0
 20
0.0
 30
0.0
  3
*D15
  1

  0
LINE
  5
1EDF
330
1D1A
100
AcDbEntity
  8
外形線
 62
     2
370
    -2
100
AcDbLine
 10
128.1094958303096
 20
86.24531136595397
 30
0.0
 11
100.9280052433131
 21
86.24531136595397
 31
0.0
  0
LINE
  5
1EE0
330
1D1A
100
AcDbEntity
  8
外形線
 62
     2
370
    -2
100
AcDbLine
 10
102.1780052433131
 20
101.7453113659539
 30
0.0
 11
102.1780052433131
 21
88.74531136595397
 31
0.0
  0
INSERT
  5
1EE1
330
1D1A
100
AcDbEntity
  8
外形線
 62
     2
370
    -2
100
AcDbBlockReference
  2
_OPEN
 10
102.1780052433131
 20
104.2453113659539
 30
0.0
 41
2.5
 42
2.5
 43
2.5
 50
90.0
  0
INSERT
  5
1EE2
330
1D1A
100
AcDbEntity
  8
外形線
 62
     2
370
    -2
100
AcDbBlockReference
  2
_OPEN
 10
102.1780052433131
 20
86.24531136595397
 30
0.0
 41
2.5
 42
2.5
 43
2.5
 50
270.0
  0
MTEXT
  5
1EE3
330
1D1A
100
AcDbEntity
  8
外形線
 62
     6
100
AcDbMText
 10
100.3030052433131
 20
95.24531136595399
 30
0.0
 40
2.5
 41
0.0
 71
     5
 72
     1
  1
\A1;18
  7
STYLE3
 11
0.0000000000000001
 21
1.0
 31
0.0
 73
     1
 44
1.0
  0
POINT
  5
1EE4
330
1D1A
100
AcDbEntity
  8
DEFPOINTS
 62
     0
100
AcDbPoint
 10
128.1094958303096
 20
104.2453113659539
 30
0.0
  0
POINT
  5
1EE5
330
1D1A
100
AcDbEntity
  8
DEFPOINTS
 62
     0
100
AcDbPoint
 10
128.1094958303096
 20
86.24531136595397
 30
0.0
  0
POINT
  5
1EE6
330
1D1A
100
AcDbEntity
  8
DEFPOINTS
 62
     0
100
AcDbPoint
 10
102.1780052433131
 20
86.24531136595397
 30
0.0
  0
ENDBLK
  5
1D24
330
1D1A
100
AcDbEntity
  8
0
100
AcDbBlockEnd
  0
BLOCK
  5
1D27
330
1D26
100
AcDbEntity
  8
0
100
AcDbBlockBegin
  2
*D16
 70
     1
 10
0.0
 20
0.0
 30
0.0
  3
*D16
  1

  0
LINE
  5
1EE7
330
1D26
100
AcDbEntity
  8
外形線
 62
     2
370
    -2
100
AcDbLine
 10
129.243757297035
 20
56.24531136595397
 30
0.0
 11
100.9280052433131
 21
56.24531136595397
 31
0.0
  0
LINE
  5
1EE8
330
1D26
100
AcDbEntity
  8
外形線
 62
     2
370
    -2
100
AcDbLine
 10
102.1780052433131
 20
83.74531136595397
 30
0.0
 11
102.1780052433131
 21
58.74531136595397
 31
0.0
  0
INSERT
  5
1EE9
330
1D26
100
AcDbEntity
  8
外形線
 62
     2
370
    -2
100
AcDbBlockReference
  2
_OPEN
 10
102.1780052433131
 20
86.24531136595397
 30
0.0
 41
2.5
 42
2.5
 43
2.5
 50
90.0
  0
INSERT
  5
1EEA
330
1D26
100
AcDbEntity
  8
外形線
 62
     2
370
    -2
100
AcDbBlockReference
  2
_OPEN
 10
102.1780052433131
 20
56.24531136595397
 30
0.0
 41
2.5
 42
2.5
 43
2.5
 50
270.0
  0
MTEXT
  5
1EEB
330
1D26
100
AcDbEntity
  8
外形線
 62
     6
100
AcDbMText
 10
100.3030052433131
 20
71.245311365954
 30
0.0
 40
2.5
 41
0.0
 71
     5
 72
     1
  1
\A1;30
  7
STYLE3
 11
0.0000000000000001
 21
1.0
 31
0.0
 73
     1
 44
1.0
  0
POINT
  5
1EEC
330
1D26
100
AcDbEntity
  8
DEFPOINTS
 62
     0
100
AcDbPoint
 10
128.1094958303096
 20
86.24531136595397
 30
0.0
  0
POINT
  5
1EED
330
1D26
100
AcDbEntity
  8
DEFPOINTS
 62
     0
100
AcDbPoint
 10
129.243757297035
 20
56.24531136595397
 30
0.0
  0
POINT
  5
1EEE
330
1D26
100
AcDbEntity
  8
DEFPOINTS
 62
     0
100
AcDbPoint
 10
102.1780052433131
 20
56.24531136595397
 30
0.0
  0
ENDBLK
  5
1D30
330
1D26
100
AcDbEntity
  8
0
100
AcDbBlockEnd
  0
BLOCK
  5
1D33
330
1D32
100
AcDbEntity
  8
0
100
AcDbBlockBegin
  2
*D17
 70
     1
 10
0.0
 20
0.0
 30
0.0
  3
*D17
  1

  0
LINE
  5
1EBB
330
1D32
100
AcDbEntity
  8
外形線
 62
     2
370
    -2
100
AcDbLine
 10
187.1094958303095
 20
47.24531136595397
 30
0.0
 11
100.9280052433131
 21
47.24531136595399
 31
0.0
  0
LINE
  5
1EBC
330
1D32
100
AcDbEntity
  8
外形線
 62
     2
370
    -2
100
AcDbLine
 10
102.1780052433131
 20
53.74531136595397
 30
0.0
 11
102.1780052433131
 21
49.74531136595399
 31
0.0
  0
INSERT
  5
1EBD
330
1D32
100
AcDbEntity
  8
外形線
 62
     2
370
    -2
100
AcDbBlockReference
  2
_OPEN
 10
102.1780052433131
 20
56.24531136595397
 30
0.0
 41
2.5
 42
2.5
 43
2.5
 50
90.0
  0
INSERT
  5
1EBE
330
1D32
100
AcDbEntity
  8
外形線
 62
     2
370
    -2
100
AcDbBlockReference
  2
_OPEN
 10
102.1780052433131
 20
47.24531136595399
 30
0.0
 41
2.5
 42
2.5
 43
2.5
 50
270.0
  0
MTEXT
  5
1EBF
330
1D32
100
AcDbEntity
  8
外形線
 62
     6
100
AcDbMText
 10
100.3030052433131
 20
51.745311365954
 30
0.0
 40
2.5
 41
0.0
 71
     5
 72
     1
  1
\A1;9
  7
STYLE3
 11
0.0000000000000001
 21
1.0
 31
0.0
 73
     1
 44
1.0
  0
POINT
  5
1EC0
330
1D32
100
AcDbEntity
  8
DEFPOINTS
 62
     0
100
AcDbPoint
 10
129.243757297035
 20
56.24531136595397
 30
0.0
  0
POINT
  5
1EC1
330
1D32
100
AcDbEntity
  8
DEFPOINTS
 62
     0
100
AcDbPoint
 10
187.1094958303095
 20
47.24531136595397
 30
0.0
  0
POINT
  5
1EC2
330
1D32
100
AcDbEntity
  8
DEFPOINTS
 62
     0
100
AcDbPoint
 10
102.1780052433131
 20
47.24531136595399
 30
0.0
  0
ENDBLK
  5
1D3C
330
1D32
100
AcDbEntity
  8
0
100
AcDbBlockEnd
  0
BLOCK
  5
1D3F
330
1D3E
100
AcDbEntity
  8
0
100
AcDbBlockBegin
  2
*D18
 70
     1
 10
0.0
 20
0.0
 30
0.0
  3
*D18
  1

  0
LINE
  5
1EB2
330
1D3E
100
AcDbEntity
  8
外形線
 62
     2
370
    -2
100
AcDbLine
 10
100.9280052433131
 20
131.2453113659539
 30
0.0
 11
93.14667431023259
 21
131.2453113659539
 31
0.0
  0
LINE
  5
1EB3
330
1D3E
100
AcDbEntity
  8
外形線
 62
     2
370
    -2
100
AcDbLine
 10
100.9280052433131
 20
47.24531136595397
 30
0.0
 11
93.14667431023258
 21
47.24531136595397
 31
0.0
  0
LINE
  5
1EB4
330
1D3E
100
AcDbEntity
  8
外形線
 62
     2
370
    -2
100
AcDbLine
 10
94.39667431023259
 20
128.7453113659539
 30
0.0
 11
94.39667431023258
 21
49.74531136595398
 31
0.0
  0
INSERT
  5
1EB5
330
1D3E
100
AcDbEntity
  8
外形線
 62
     2
370
    -2
100
AcDbBlockReference
  2
_OPEN
 10
94.39667431023259
 20
131.2453113659539
 30
0.0
 41
2.5
 42
2.5
 43
2.5
 50
90.0
  0
INSERT
  5
1EB6
330
1D3E
100
AcDbEntity
  8
外形線
 62
     2
370
    -2
100
AcDbBlockReference
  2
_OPEN
 10
94.39667431023258
 20
47.24531136595397
 30
0.0
 41
2.5
 42
2.5
 43
2.5
 50
270.0
  0
MTEXT
  5
1EB7
330
1D3E
100
AcDbEntity
  8
外形線
 62
     6
100
AcDbMText
 10
92.52167431023258
 20
89.24531136595399
 30
0.0
 40
2.5
 41
0.0
 71
     5
 72
     1
  1
\A1;84
  7
STYLE3
 11
0.0000000000000001
 21
1.0
 31
0.0
 73
     1
 44
1.0
  0
POINT
  5
1EB8
330
1D3E
100
AcDbEntity
  8
DEFPOINTS
 62
     0
100
AcDbPoint
 10
100.9280052433131
 20
131.2453113659539
 30
0.0
  0
POINT
  5
1EB9
330
1D3E
100
AcDbEntity
  8
DEFPOINTS
 62
     0
100
AcDbPoint
 10
100.9280052433131
 20
47.24531136595397
 30
0.0
  0
POINT
  5
1EBA
330
1D3E
100
AcDbEntity
  8
DEFPOINTS
 62
     0
100
AcDbPoint
 10
94.39667431023258
 20
47.24531136595397
 30
0.0
  0
ENDBLK
  5
1D49
330
1D3E
100
AcDbEntity
  8
0
100
AcDbBlockEnd
  0
BLOCK
  5
1D8E
330
1D8D
100
AcDbEntity
  8
0
100
AcDbBlockBegin
  2
*D19
 70
     1
 10
0.0
 20
0.0
 30
0.0
  3
*D19
  1

  0
LINE
  5
1EC3
330
1D8D
100
AcDbEntity
  8
外形線
 62
     2
370
    -2
100
AcDbLine
 10
137.1094958303096
 20
50.70750601508616
 30
0.0
 11
137.1094958303096
 21
38.03294398045199
 31
0.0
  0
LINE
  5
1EC4
330
1D8D
100
AcDbEntity
  8
外形線
 62
     2
370
    -2
100
AcDbLine
 10
187.1094958303095
 20
47.24531136595397
 30
0.0
 11
187.1094958303095
 21
38.03294398045199
 31
0.0
  0
LINE
  5
1EC5
330
1D8D
100
AcDbEntity
  8
外形線
 62
     2
370
    -2
100
AcDbLine
 10
139.6094958303096
 20
39.28294398045199
 30
0.0
 11
184.6094958303096
 21
39.28294398045199
 31
0.0
  0
INSERT
  5
1EC6
330
1D8D
100
AcDbEntity
  8
外形線
 62
     2
370
    -2
100
AcDbBlockReference
  2
_OPEN
 10
137.1094958303096
 20
39.28294398045199
 30
0.0
 41
2.5
 42
2.5
 43
2.5
 50
180.0
  0
INSERT
  5
1EC7
330
1D8D
100
AcDbEntity
  8
外形線
 62
     2
370
    -2
100
AcDbBlockReference
  2
_OPEN
 10
187.1094958303095
 20
39.28294398045199
 30
0.0
 41
2.5
 42
2.5
 43
2.5
  0
MTEXT
  5
1EC8
330
1D8D
100
AcDbEntity
  8
外形線
 62
     6
100
AcDbMText
 10
162.1094958303095
 20
41.15794398045198
 30
0.0
 40
2.5
 41
0.0
 71
     5
 72
     1
  1
\A1;50
  7
STYLE3
 73
     1
 44
1.0
  0
POINT
  5
1EC9
330
1D8D
100
AcDbEntity
  8
DEFPOINTS
 62
     0
100
AcDbPoint
 10
137.1094958303096
 20
50.70750601508616
 30
0.0
  0
POINT
  5
1ECA
330
1D8D
100
AcDbEntity
  8
DEFPOINTS
 62
     0
100
AcDbPoint
 10
187.1094958303095
 20
47.24531136595397
 30
0.0
  0
POINT
  5
1ECB
330
1D8D
100
AcDbEntity
  8
DEFPOINTS
 62
     0
100
AcDbPoint
 10
187.1094958303095
 20
39.28294398045199
 30
0.0
  0
ENDBLK
  5
1D98
330
1D8D
100
AcDbEntity
  8
0
100
AcDbBlockEnd
  0
BLOCK
  5
1D9B
330
1D9A
100
AcDbEntity
  8
0
100
AcDbBlockBegin
  2
*D20
 70
     1
 10
0.0
 20
0.0
 30
0.0
  3
*D20
  1

  0
LINE
  5
1ECC
330
1D9A
100
AcDbEntity
  8
外形線
 62
     2
370
    -2
100
AcDbLine
 10
205.1094958303096
 20
47.24531136595397
 30
0.0
 11
205.1094958303096
 21
38.03294398045199
 31
0.0
  0
LINE
  5
1ECD
330
1D9A
100
AcDbEntity
  8
外形線
 62
     2
370
    -2
100
AcDbLine
 10
189.6094958303096
 20
39.28294398045199
 30
0.0
 11
202.6094958303096
 21
39.28294398045199
 31
0.0
  0
INSERT
  5
1ECE
330
1D9A
100
AcDbEntity
  8
外形線
 62
     2
370
    -2
100
AcDbBlockReference
  2
_OPEN
 10
187.1094958303095
 20
39.28294398045199
 30
0.0
 41
2.5
 42
2.5
 43
2.5
 50
180.0
  0
INSERT
  5
1ECF
330
1D9A
100
AcDbEntity
  8
外形線
 62
     2
370
    -2
100
AcDbBlockReference
  2
_OPEN
 10
205.1094958303096
 20
39.28294398045199
 30
0.0
 41
2.5
 42
2.5
 43
2.5
  0
MTEXT
  5
1ED0
330
1D9A
100
AcDbEntity
  8
外形線
 62
     6
100
AcDbMText
 10
196.1094958303096
 20
41.15794398045198
 30
0.0
 40
2.5
 41
0.0
 71
     5
 72
     1
  1
\A1;18
  7
STYLE3
 73
     1
 44
1.0
  0
POINT
  5
1ED1
330
1D9A
100
AcDbEntity
  8
DEFPOINTS
 62
     0
100
AcDbPoint
 10
187.1094958303095
 20
47.24531136595397
 30
0.0
  0
POINT
  5
1ED2
330
1D9A
100
AcDbEntity
  8
DEFPOINTS
 62
     0
100
AcDbPoint
 10
205.1094958303096
 20
47.24531136595397
 30
0.0
  0
POINT
  5
1ED3
330
1D9A
100
AcDbEntity
  8
DEFPOINTS
 62
     0
100
AcDbPoint
 10
205.1094958303096
 20
39.28294398045199
 30
0.0
  0
ENDBLK
  5
1DA4
330
1D9A
100
AcDbEntity
  8
0
100
AcDbBlockEnd
  0
BLOCK
  5
1DDE
330
1DA8
100
AcDbEntity
  8
0
100
AcDbBlockBegin
  2
*D21
 70
     1
 10
0.0
 20
0.0
 30
0.0
  3
*D21
  1

  0
LINE
  5
1ED4
330
1DA8
100
AcDbEntity
  8
寸法線
 62
     2
370
    -2
100
AcDbLine
 10
135.9594958303096
 20
58.74531136595397
 30
0.0
 11
144.8745468762952
 21
67.66036241193962
 31
0.0
  0
LINE
  5
1ED5
330
1DA8
100
AcDbEntity
  8
寸法線
 62
     2
370
    -2
100
AcDbLine
 10
138.2594958303096
 20
58.74531136595397
 30
0.0
 11
147.1745468762953
 21
67.66036241193962
 31
0.0
  0
LINE
  5
1ED6
330
1DA8
100
AcDbEntity
  8
寸法線
 62
     2
370
    -2
100
AcDbLine
 10
141.1245468762952
 20
66.41036241193962
 30
0.0
 11
138.6245468762952
 21
66.41036241193962
 31
0.0
  0
LINE
  5
1ED7
330
1DA8
100
AcDbEntity
  8
寸法線
 62
     2
370
    -2
100
AcDbLine
 10
148.4245468762952
 20
66.41036241193962
 30
0.0
 11
160.2697849715333
 21
66.41036241193962
 31
0.0
  0
LINE
  5
1ED8
330
1DA8
100
AcDbEntity
  8
寸法線
 62
     2
370
    -2
100
AcDbLine
 10
143.6245468762952
 20
66.41036241193962
 30
0.0
 11
145.9245468762953
 21
66.41036241193962
 31
0.0
  0
INSERT
  5
1ED9
330
1DA8
100
AcDbEntity
  8
寸法線
 62
     2
370
    -2
100
AcDbBlockReference
  2
_OPEN
 10
143.6245468762952
 20
66.41036241193962
 30
0.0
 41
2.5
 42
2.5
 43
2.5
  0
INSERT
  5
1EDA
330
1DA8
100
AcDbEntity
  8
寸法線
 62
     2
370
    -2
100
AcDbBlockReference
  2
_OPEN
 10
145.9245468762953
 20
66.41036241193962
 30
0.0
 41
2.5
 42
2.5
 43
2.5
 50
180.0
  0
MTEXT
  5
1EDB
330
1DA8
100
AcDbEntity
  8
寸法線
 62
     6
100
AcDbMText
 10
155.5971659239143
 20
68.28536241193962
 30
0.0
 40
2.5
 41
0.0
 71
     5
 72
     1
  1
\A1;φ2.3
  7
STYLE3
 73
     1
 44
1.0
  0
POINT
  5
1EDC
330
1DA8
100
AcDbEntity
  8
DEFPOINTS
 62
     0
100
AcDbPoint
 10
135.9594958303096
 20
58.74531136595397
 30
0.0
  0
POINT
  5
1EDD
330
1DA8
100
AcDbEntity
  8
DEFPOINTS
 62
     0
100
AcDbPoint
 10
138.2594958303096
 20
58.74531136595397
 30
0.0
  0
POINT
  5
1EDE
330
1DA8
100
AcDbEntity
  8
DEFPOINTS
 62
     0
100
AcDbPoint
 10
145.9245468762953
 20
66.41036241193962
 30
0.0
  0
ENDBLK
  5
1DEA
330
1DA8
100
AcDbEntity
  8
0
100
AcDbBlockEnd
  0
ENDSEC
  0
SECTION
  2
ENTITIES
  0
LWPOLYLINE
  5
26C
330
18
100
AcDbEntity
  8
C
100
AcDbPolyline
 90
        5
 70
     0
 43
0.4
 10
0.0
 20
195.0
 10
255.0
 20
195.0
 10
255.0
 20
0.0
 10
0.0
 20
0.0
 10
0.0
 20
195.0
  0
MTEXT
  5
638
330
18
100
AcDbEntity
  8
DEFPOINTS
  6
Continuous
100
AcDbMText
 10
925.5233116574627
 20
355.2589711284398
 30
0.0
 40
1.0
 41
0.0
 71
     4
 72
     1
  1
\A1;
 73
     1
 44
1.0
  0
MTEXT
  5
691
330
18
100
AcDbEntity
  8
文字
100
AcDbMText
 10
492.6625212154621
 20
381.3369533666739
 30
0.0
 40
1.0
 41
6.927999999999999
 71
     1
 72
     5
  1

  7
STYLE3
 73
     1
 44
1.0
  0
MTEXT
  5
6F0
330
18
100
AcDbEntity
  8
DEFPOINTS
  6
Continuous
100
AcDbMText
 10
814.3983308706037
 20
304.5845046541248
 30
0.0
 40
0.35
 41
0.0
 71
     4
 72
     1
  1
\A1;
 73
     1
 44
1.0
  0
LINE
  5
94D
330
18
100
AcDbEntity
  8
外形線
100
AcDbLine
 10
137.1094958303096
 20
58.74531136595397
 30
0.0
 11
135.9594958303096
 21
58.74531136595397
 31
0.0
  0
LINE
  5
952
330
18
100
AcDbEntity
  8
外形線
100
AcDbLine
 10
137.1094958303096
 20
63.74531136595397
 30
0.0
 11
134.6094958303096
 21
63.74531136595397
 31
0.0
  0
LINE
  5
953
330
18
100
AcDbEntity
  8
外形線
100
AcDbLine
 10
134.6094958303096
 20
63.74531136595397
 30
0.0
 11
135.9594958303096
 21
58.74531136595397
 31
0.0
  0
LINE
  5
955
330
18
100
AcDbEntity
  8
外形線
100
AcDbLine
 10
139.6094958303096
 20
63.74531136595397
 30
0.0
 11
138.2594958303096
 21
58.74531136595397
 31
0.0
  0
LINE
  5
956
330
18
100
AcDbEntity
  8
外形線
100
AcDbLine
 10
137.1094958303096
 20
63.74531136595397
 30
0.0
 11
139.6094958303096
 21
63.74531136595397
 31
0.0
  0
LINE
  5
957
330
18
100
AcDbEntity
  8
外形線
100
AcDbLine
 10
137.1094958303096
 20
58.74531136595397
 30
0.0
 11
138.2594958303096
 21
58.74531136595397
 31
0.0
  0
MTEXT
  5
CC5
330
18
100
AcDbEntity
  8
DEFPOINTS
  6
Continuous
100
AcDbMText
 10
710.4729546088115
 20
331.694457677123
 30
0.0
 40
1.0
 41
0.0
 71
     4
 72
     1
  1
\A1;
 73
     1
 44
1.0
  0
MTEXT
  5
D1E
330
18
100
AcDbEntity
  8
文字
100
AcDbMText
 10
277.612164166811
 20
357.7724399153571
 30
0.0
 40
1.0
 41
6.927999999999999
 71
     1
 72
     5
  1

  7
STYLE3
 73
     1
 44
1.0
  0
MTEXT
  5
D7D
330
18
100
AcDbEntity
  8
DEFPOINTS
  6
Continuous
100
AcDbMText
 10
599.3479738219526
 20
281.019991202808
 30
0.0
 40
0.35
 41
0.0
 71
     4
 72
     1
  1
\A1;
 73
     1
 44
1.0
  0
MTEXT
  5
14A5
330
18
100
AcDbEntity
  8
DEFPOINTS
  6
Continuous
100
AcDbMText
 10
1025.567307082712
 20
154.6779584459976
 30
0.0
 40
1.0
 41
0.0
 71
     4
 72
     1
  1
\A1;
 73
     1
 44
1.0
  0
MTEXT
  5
14A9
330
18
100
AcDbEntity
  8
文字
100
AcDbMText
 10
592.7065166407121
 20
180.7559406842317
 30
0.0
 40
1.0
 41
6.927999999999999
 71
     1
 72
     5
  1

  7
STYLE3
 73
     1
 44
1.0
  0
MTEXT
  5
14AA
330
18
100
AcDbEntity
  8
DEFPOINTS
  6
Continuous
100
AcDbMText
 10
914.4423262958536
 20
104.0034919716825
 30
0.0
 40
0.35
 41
0.0
 71
     4
 72
     1
  1
\A1;
 73
     1
 44
1.0
  0
MTEXT
  5
1591
330
18
100
AcDbEntity
  8
DEFPOINTS
  6
Continuous
100
AcDbMText
 10
1120.36654932847
 20
257.9884247945498
 30
0.0
 40
1.0
 41
0.0
 71
     4
 72
     1
  1
\A1;
 73
     1
 44
1.0
  0
MTEXT
  5
1595
330
18
100
AcDbEntity
  8
文字
100
AcDbMText
 10
687.5057588864692
 20
284.0664070327839
 30
0.0
 40
1.0
 41
6.927999999999999
 71
     1
 72
     5
  1

  7
STYLE3
 73
     1
 44
1.0
  0
MTEXT
  5
1596
330
18
100
AcDbEntity
  8
DEFPOINTS
  6
Continuous
100
AcDbMText
 10
1009.24156854161
 20
207.3139583202348
 30
0.0
 40
0.35
 41
0.0
 71
     4
 72
     1
  1
\A1;
 73
     1
 44
1.0
  0
MTEXT
  5
1597
330
18
100
AcDbEntity
  8
DEFPOINTS
  6
Continuous
100
AcDbMText
 10
1620.80519670057
 20
433.2016133035515
 30
0.0
 40
1.0
 41
0.0
 71
     4
 72
     1
  1
\A1;
 73
     1
 44
1.0
  0
MTEXT
  5
1598
330
18
100
AcDbEntity
  8
文字
100
AcDbMText
 10
1187.94440625857
 20
459.2795955417855
 30
0.0
 40
1.0
 41
6.927999999999999
 71
     1
 72
     5
  1

  7
STYLE3
 73
     1
 44
1.0
  0
MTEXT
  5
1599
330
18
100
AcDbEntity
  8
DEFPOINTS
  6
Continuous
100
AcDbMText
 10
1509.680215913711
 20
382.5271468292364
 30
0.0
 40
0.35
 41
0.0
 71
     4
 72
     1
  1
\A1;
 73
     1
 44
1.0
  0
LINE
  5
177F
330
18
100
AcDbEntity
  8
外形線
100
AcDbLine
 10
134.6094958303096
 20
68.74531136595397
 30
0.0
 11
139.6094958303096
 21
68.74531136595397
 31
0.0
  0
LINE
  5
17EF
330
18
100
AcDbEntity
  8
外形線
100
AcDbLine
 10
139.6094958303096
 20
68.74531136595397
 30
0.0
 11
139.6094958303096
 21
63.74531136595397
 31
0.0
  0
LINE
  5
17F0
330
18
100
AcDbEntity
  8
外形線
100
AcDbLine
 10
134.6094958303096
 20
68.74531136595397
 30
0.0
 11
134.6094958303096
 21
63.74531136595397
 31
0.0
  0
LINE
  5
17F1
330
18
100
AcDbEntity
  8
ﾊｯﾁﾝｸ
 62
     4
100
AcDbLine
 10
134.6094958303096
 20
67.6181331978028
 30
0.0
 11
135.2602724491163
 21
68.74531136595397
 31
0.0
  0
LINE
  5
17F2
330
18
100
AcDbEntity
  8
ﾊｯﾁﾝｸ
 62
     4
100
AcDbLine
 10
134.6094958303096
 20
65.71313319780283
 30
0.0
 11
136.3601247119226
 21
68.74531136595397
 31
0.0
  0
LINE
  5
17F3
330
18
100
AcDbEntity
  8
ﾊｯﾁﾝｸ
 62
     4
100
AcDbLine
 10
134.6094958303096
 20
63.80813319780283
 30
0.0
 11
137.1094958303096
 21
68.13826021672501
 31
0.0
  0
LINE
  5
17F4
330
18
100
AcDbEntity
  8
ﾊｯﾁﾝｸ
 62
     4
100
AcDbLine
 10
135.6730778915869
 20
63.74531136595397
 30
0.0
 11
137.1094958303096
 21
66.23326021672503
 31
0.0
  0
LINE
  5
17F5
330
18
100
AcDbEntity
  8
ﾊｯﾁﾝｸ
 62
     4
100
AcDbLine
 10
136.7729301543931
 20
63.74531136595395
 30
0.0
 11
137.1094958303096
 21
64.32826021672504
 31
0.0
  0
LINE
  5
17F6
330
18
100
AcDbEntity
  8
ﾊｯﾁﾝｸ
 62
     4
100
AcDbLine
 10
135.6128761524908
 20
63.74531136595397
 30
0.0
 11
134.6094958303096
 21
65.89706741077461
 31
0.0
  0
LINE
  5
17F7
330
18
100
AcDbEntity
  8
ﾊｯﾁﾝｸ
 62
     4
100
AcDbLine
 10
136.6638436203025
 20
63.74531136595397
 30
0.0
 11
134.6094958303096
 21
68.15087441872733
 31
0.0
  0
LINE
  5
17F8
330
18
100
AcDbEntity
  8
ﾊｯﾁﾝｸ
 62
     4
100
AcDbLine
 10
137.1094958303096
 20
65.04341412540623
 30
0.0
 11
135.3832727973393
 21
68.74531136595397
 31
0.0
  0
LINE
  5
17F9
330
18
100
AcDbEntity
  8
ﾊｯﾁﾝｸ
 62
     4
100
AcDbLine
 10
137.1094958303096
 20
67.29722113335895
 30
0.0
 11
136.4342402651511
 21
68.74531136595397
 31
0.0
  0
LINE
  5
1806
330
18
100
AcDbEntity
  8
外形線
100
AcDbLine
 10
128.1094958303096
 20
86.24531136595397
 30
0.0
 11
171.1094958303096
 21
86.24531136595395
 31
0.0
  0
LINE
  5
1807
330
18
100
AcDbEntity
  8
外形線
100
AcDbLine
 10
128.1094958303096
 20
104.2453113659539
 30
0.0
 11
174.8983932793816
 21
104.245311365954
 31
0.0
  0
LINE
  5
1808
330
18
100
AcDbEntity
  8
外形線
100
AcDbLine
 10
187.1094958303095
 20
47.24531136595397
 30
0.0
 11
205.1094958303096
 21
47.24531136595397
 31
0.0
  0
LINE
  5
1809
330
18
100
AcDbEntity
  8
外形線
100
AcDbLine
 10
187.1094958303095
 20
70.24531136595395
 30
0.0
 11
187.1094958303095
 21
47.24531136595397
 31
0.0
  0
LINE
  5
180A
330
18
100
AcDbEntity
  8
外形線
100
AcDbLine
 10
205.1094958303096
 20
79.27164540494368
 30
0.0
 11
205.1094958303096
 21
47.24531136595397
 31
0.0
  0
ARC
  5
180B
330
18
100
AcDbEntity
  8
外形線
100
AcDbCircle
 10
171.1094958303096
 20
70.24531136595395
 30
0.0
 40
16.0
100
AcDbArc
 50
0.0
 51
90.0
  0
ARC
  5
180E
330
18
100
AcDbEntity
  8
外形線
100
AcDbCircle
 10
128.1094958303096
 20
95.24531136595397
 30
0.0
 40
9.0
100
AcDbArc
 50
90.0
 51
270.0
  0
ARC
  5
1851
330
18
100
AcDbEntity
  8
外形線
100
AcDbCircle
 10
182.1094958303096
 20
116.2453113659539
 30
0.0
 40
14.0
100
AcDbArc
 50
71.56367643519127
 51
250.8125959134064
  0
ARC
  5
1852
330
18
100
AcDbEntity
  8
外形線
100
AcDbCircle
 10
201.1094958303096
 20
98.24531136595396
 30
0.0
 40
14.0
100
AcDbArc
 50
202.4095549452795
 51
19.95400247547718
  0
ARC
  5
1853
330
18
100
AcDbEntity
  8
外形線
100
AcDbCircle
 10
182.1094958303096
 20
116.2453113659539
 30
0.0
 40
20.0
100
AcDbArc
 50
70.9649960125727
 51
161.3885360334642
  0
ARC
  5
1854
330
18
100
AcDbEntity
  8
外形線
100
AcDbCircle
 10
201.1094958303096
 20
98.24531136595396
 30
0.0
 40
20.0
100
AcDbArc
 50
311.8103148957786
 51
23.49897501304052
  0
ARC
  5
1858
330
18
100
AcDbEntity
  8
外形線
100
AcDbCircle
 10
137.5673809276694
 20
131.2453113659539
 30
0.0
 40
27.0
100
AcDbArc
 50
270.0
 51
341.3885360334643
  0
ARC
  5
185A
330
18
100
AcDbEntity
  8
外形線
100
AcDbCircle
 10
171.526056743653
 20
86.04612566337202
 30
0.0
 40
18.0
100
AcDbArc
 50
22.40955494527958
 51
70.68676045267626
  0
ARC
  5
1860
330
18
100
AcDbEntity
  8
外形線
100
AcDbCircle
 10
172.0456580426755
 20
86.60334890422834
 30
0.0
 40
45.30363425044876
100
AcDbArc
 50
21.24989293474472
 51
71.34484107462398
  0
ARC
  5
1861
330
18
100
AcDbEntity
  8
外形線
100
AcDbCircle
 10
172.0456580426755
 20
86.60334890422834
 30
0.0
 40
51.30363425044876
100
AcDbArc
 50
21.24989293474472
 51
71.34484107462398
  0
ARC
  5
1862
330
18
100
AcDbEntity
  8
外形線
100
AcDbCircle
 10
233.1094958303096
 20
62.46822372595733
 30
0.0
 40
28.0
100
AcDbArc
 50
131.8103148957786
 51
180.0
  0
ARC
  5
1865
330
18
100
AcDbEntity
  8
外形線
100
AcDbCircle
 10
200.1094958303096
 20
79.27164540494368
 30
0.0
 40
5.0
100
AcDbArc
 50
0.0
 51
86.98303869018424
  0
LINE
  5
1866
330
18
100
AcDbEntity
  8
中心線
100
AcDbLine
 10
40.25248103047522
 20
174.3318672175023
 30
0.0
 11
40.25248103047522
 21
44.30532859428382
 31
0.0
  0
ARC
  5
1868
330
18
100
AcDbEntity
  8
外形線
100
AcDbCircle
 10
40.25248103047522
 20
56.24531136595397
 30
0.0
 40
9.0
100
AcDbArc
 50
141.7867892982618
 51
38.2132107017382
  0
LINE
  5
1869
330
18
100
AcDbEntity
  8
外形線
100
AcDbLine
 10
46.25248103047522
 20
104.2453113659539
 30
0.0
 11
46.25248103047522
 21
64.90556540379834
 31
0.0
  0
LINE
  5
186A
330
18
100
AcDbEntity
  8
外形線
100
AcDbLine
 10
34.25248103047522
 20
104.2453113659539
 30
0.0
 11
34.25248103047522
 21
64.90556540379836
 31
0.0
  0
ARC
  5
186C
330
18
100
AcDbEntity
  8
外形線
100
AcDbCircle
 10
29.25248103047522
 20
64.90556540379836
 30
0.0
 40
5.0
100
AcDbArc
 50
321.7867892982618
 51
0.0
  0
ARC
  5
186D
330
18
100
AcDbEntity
  8
外形線
100
AcDbCircle
 10
51.25248103047522
 20
64.90556540379834
 30
0.0
 40
5.0
100
AcDbArc
 50
180.0
 51
218.2132107017381
  0
LINE
  5
186E
330
18
100
AcDbEntity
  8
外形線
100
AcDbLine
 10
46.25248103047522
 20
86.24531136595399
 30
0.0
 11
41.00248103047522
 21
86.24531136595395
 31
0.0
  0
LINE
  5
186F
330
18
100
AcDbEntity
  8
外形線
100
AcDbLine
 10
46.25248103047522
 20
104.2453113659539
 30
0.0
 11
41.00248103047522
 21
104.245311365954
 31
0.0
  0
LINE
  5
1872
330
18
100
AcDbEntity
  8
外形線
100
AcDbLine
 10
45.25248103047522
 20
106.7453113659539
 30
0.0
 11
45.25248103047522
 21
104.2453113659539
 31
0.0
  0
LINE
  5
1873
330
18
100
AcDbEntity
  8
外形線
100
AcDbLine
 10
35.25248103047522
 20
106.7453113659539
 30
0.0
 11
35.25248103047522
 21
104.2453113659539
 31
0.0
  0
LINE
  5
1877
330
18
100
AcDbEntity
  8
中心線
100
AcDbLine
 10
129.243757297035
 20
56.24531136595397
 30
0.0
 11
212.3816808816286
 21
56.24531136595395
 31
0.0
  0
LINE
  5
1878
330
18
100
AcDbEntity
  8
隠れ線2
100
AcDbLine
 10
187.1094958303095
 20
58.74531136595397
 30
0.0
 11
205.1094958303096
 21
58.74531136595395
 31
0.0
  0
LINE
  5
1879
330
18
100
AcDbEntity
  8
隠れ線2
100
AcDbLine
 10
187.1094958303095
 20
53.74531136595397
 30
0.0
 11
205.1094958303096
 21
53.74531136595397
 31
0.0
  0
LINE
  5
187A
330
18
100
AcDbEntity
  8
中心線
100
AcDbLine
 10
137.1094958303096
 20
167.5119787235882
 30
0.0
 11
137.1094958303096
 21
50.70750601508616
 31
0.0
  0
CIRCLE
  5
187B
330
18
100
AcDbEntity
  8
外形線
100
AcDbCircle
 10
128.1094958303096
 20
95.24531136595397
 30
0.0
 40
4.5
  0
LINE
  5
187C
330
18
100
AcDbEntity
  8
中心線
 48
0.3
100
AcDbLine
 10
121.2798632932019
 20
95.24531136595397
 30
0.0
 11
134.9391283674172
 21
95.24531136595397
 31
0.0
  0
LINE
  5
187D
330
18
100
AcDbEntity
  8
中心線
 48
0.3
100
AcDbLine
 10
128.1094958303096
 20
88.4156788288463
 30
0.0
 11
128.1094958303096
 21
102.0749439030616
 31
0.0
  0
LINE
  5
187E
330
18
100
AcDbEntity
  8
外形線
100
AcDbLine
 10
41.00248103047522
 20
104.245311365954
 30
0.0
 11
41.00248103047522
 21
86.24531136595395
 31
0.0
  0
LINE
  5
187F
330
18
100
AcDbEntity
  8
外形線
100
AcDbLine
 10
39.50248103047523
 20
104.245311365954
 30
0.0
 11
39.50248103047523
 21
86.24531136595395
 31
0.0
  0
LINE
  5
1880
330
18
100
AcDbEntity
  8
外形線
100
AcDbLine
 10
39.50248103047523
 20
104.245311365954
 30
0.0
 11
34.25248103047522
 21
104.2453113659539
 31
0.0
  0
LINE
  5
1881
330
18
100
AcDbEntity
  8
外形線
100
AcDbLine
 10
39.50248103047523
 20
86.24531136595395
 30
0.0
 11
34.25248103047522
 21
86.24531136595397
 31
0.0
  0
LINE
  5
1882
330
18
100
AcDbEntity
  8
中心線
 48
0.7
100
AcDbLine
 10
28.69728432971863
 20
56.24531136595397
 30
0.0
 11
53.07722703856075
 21
56.24531136595395
 31
0.0
  0
CIRCLE
  5
1883
330
18
100
AcDbEntity
  8
外形線
100
AcDbCircle
 10
40.25248103047522
 20
56.24531136595397
 30
0.0
 40
2.5
  0
LINE
  5
1884
330
18
100
AcDbEntity
  8
隠れ線2
100
AcDbLine
 10
141.1094958303096
 20
105.1501010774738
 30
0.0
 11
141.1094958303096
 21
86.24531136595395
 31
0.0
  0
LINE
  5
1885
330
18
100
AcDbEntity
  8
隠れ線2
100
AcDbLine
 10
133.1094958303095
 20
104.2453113659539
 30
0.0
 11
133.1094958303095
 21
86.24531136595395
 31
0.0
  0
LINE
  5
1886
330
18
100
AcDbEntity
  8
中心線
100
AcDbLine
 10
104.0669012957086
 20
131.2453113659539
 30
0.0
 11
170.1520903649105
 21
131.2453113659539
 31
0.0
  0
INSERT
  5
1A8A
330
18
100
AcDbEntity
  8
文字
100
AcDbBlockReference
  2
12
 10
137.1094958303096
 20
131.2453113659539
 30
0.0
  0
LINE
  5
1A8B
330
18
100
AcDbEntity
  8
外形線
100
AcDbLine
 10
143.8281935109196
 20
163.4774933777179
 30
0.0
 11
158.7417268568735
 21
165.0857605007758
 31
0.0
  0
ARC
  5
1A8C
330
18
100
AcDbEntity
  8
外形線
100
AcDbCircle
 10
151.1094958303097
 20
161.2453113659539
 30
0.0
 40
2.0
100
AcDbArc
 50
0.0
 51
180.0
  0
LINE
  5
1A8D
330
18
100
AcDbEntity
  8
中心線
 48
0.5
100
AcDbLine
 10
147.9880572426659
 20
161.2453113659539
 30
0.0
 11
154.2325654948492
 21
161.2453113659539
 31
0.0
  0
LINE
  5
1A8E
330
18
100
AcDbEntity
  8
外形線
100
AcDbLine
 10
145.2917937960403
 20
156.345311365954
 30
0.0
 11
153.1094958303097
 21
156.345311365954
 31
0.0
  0
CIRCLE
  5
1A90
330
18
100
AcDbEntity
  8
外形線
100
AcDbCircle
 10
137.1094958303096
 20
131.2453113659539
 30
0.0
 40
15.5
  0
CIRCLE
  5
1A91
330
18
100
AcDbEntity
  8
外形線
100
AcDbCircle
 10
137.1094958303096
 20
131.2453113659539
 30
0.0
 40
23.0
  0
CIRCLE
  5
1A92
330
18
100
AcDbEntity
  8
外形線
100
AcDbCircle
 10
137.1094958303096
 20
131.2453113659539
 30
0.0
 40
26.4
  0
DIMENSION
  5
1AAB
330
18
100
AcDbEntity
  8
文字
100
AcDbDimension
  2
*D12
 10
66.05011046484174
 20
104.845311365954
 30
0.0
 11
64.17511046484172
 21
131.2453113659539
 31
0.0
 70
    32
  1
φ53
 71
     5
 42
52.79999999999994
  3
STYLE3
100
AcDbAlignedDimension
 13
50.55248103047524
 23
157.6453113659539
 33
0.0
 14
50.55248103047524
 24
104.845311365954
 34
0.0
 50
90.0
100
AcDbRotatedDimension
1001
ACAD
1000
DSTYLE
1002
{
1070
   271
1070
     2
1002
}
  0
ARC
  5
1AAD
330
18
100
AcDbEntity
  8
外形線
  6
Continuous
100
AcDbCircle
 10
-50.91418563619106
 20
131.2453113659539
 30
0.0
 40
105.6666666666664
100
AcDbArc
 50
346.3144531747381
 51
13.68554682526192
  0
LINE
  5
1AAE
330
18
100
AcDbEntity
  8
中心線
100
AcDbLine
 10
58.97573238415322
 20
131.2453113659539
 30
0.0
 11
27.91813881598045
 21
131.2453113659539
 31
0.0
  0
LINE
  5
1AAF
330
18
100
AcDbEntity
  8
外形線
  6
Continuous
100
AcDbLine
 10
45.25248103047528
 20
156.2453113659539
 30
0.0
 11
45.25248103047528
 21
106.2453113659539
 31
0.0
  0
LINE
  5
1AB0
330
18
100
AcDbEntity
  8
外形線
100
AcDbLine
 10
33.75248103047517
 20
155.745311365954
 30
0.0
 11
33.75248103047517
 21
106.7453113659539
 31
0.0
  0
LINE
  5
1AB1
330
18
100
AcDbEntity
  8
外形線
100
AcDbLine
 10
32.65248103047526
 20
154.2453113659539
 30
0.0
 11
32.65248103047526
 21
108.2453113659539
 31
0.0
  0
LINE
  5
1AB2
330
18
100
AcDbEntity
  8
外形線
  6
Continuous
100
AcDbLine
 10
46.75248103047528
 20
157.6453113659539
 30
0.0
 11
46.75248103047528
 21
104.845311365954
 31
0.0
  0
LINE
  5
1AB3
330
18
100
AcDbEntity
  8
外形線
  6
Continuous
100
AcDbLine
 10
50.55248103047524
 20
157.6453113659539
 30
0.0
 11
50.55248103047524
 21
104.845311365954
 31
0.0
  0
LINE
  5
1AB4
330
18
100
AcDbEntity
  8
外形線
  6
Continuous
100
AcDbLine
 10
51.75248103047528
 20
156.2453113659539
 30
0.0
 11
51.75248103047528
 21
106.2453113659539
 31
0.0
  0
LINE
  5
1AB6
330
18
100
AcDbEntity
  8
外形線
100
AcDbLine
 10
45.25248103047528
 20
106.7453113659539
 30
0.0
 11
33.75248103047517
 21
106.7453113659539
 31
0.0
  0
LINE
  5
1AB8
330
18
100
AcDbEntity
  8
外形線
100
AcDbLine
 10
33.75248103047511
 20
108.2453113659539
 30
0.0
 11
32.65248103047526
 21
108.2453113659539
 31
0.0
  0
LINE
  5
1ABD
330
18
100
AcDbEntity
  8
外形線
  6
Continuous
 62
     4
100
AcDbLine
 10
50.55248103047524
 20
105.845311365954
 30
0.0
 11
46.75248103047528
 21
105.845311365954
 31
0.0
  0
LINE
  5
1ABE
330
18
100
AcDbEntity
  8
外形線
  6
Continuous
100
AcDbLine
 10
50.55248103047524
 20
104.845311365954
 30
0.0
 11
46.75248103047528
 21
104.845311365954
 31
0.0
  0
LINE
  5
1ABF
330
18
100
AcDbEntity
  8
外形線
  6
CENTER2
100
AcDbLine
 10
45.25248103047528
 20
106.2453113659539
 30
0.0
 11
46.75248103047528
 21
106.2453113659539
 31
0.0
  0
LINE
  5
1AC0
330
18
100
AcDbEntity
  8
外形線
  6
Continuous
100
AcDbLine
 10
50.55248103047524
 20
105.7453113659539
 30
0.0
 11
51.75248103047528
 21
106.2453113659539
 31
0.0
  0
POINT
  5
1AC1
330
18
100
AcDbEntity
  8
DEFPOINTS
  6
ByBlock
 62
     0
100
AcDbPoint
 10
50.55248103047524
 20
104.845311365954
 30
0.0
  0
POINT
  5
1AC2
330
18
100
AcDbEntity
  8
DEFPOINTS
  6
ByBlock
 62
     0
100
AcDbPoint
 10
50.55248103047524
 20
104.845311365954
 30
0.0
  0
LINE
  5
1AC3
330
18
100
AcDbEntity
  8
外形線
  6
Continuous
 62
     4
100
AcDbLine
 10
50.55248103047524
 20
106.845311365954
 30
0.0
 11
46.75248103047528
 21
106.845311365954
 31
0.0
  0
LINE
  5
1AC4
330
18
100
AcDbEntity
  8
外形線
  6
Continuous
 62
     4
100
AcDbLine
 10
50.55248103047524
 20
109.845311365954
 30
0.0
 11
46.75248103047528
 21
109.845311365954
 31
0.0
  0
LINE
  5
1AC5
330
18
100
AcDbEntity
  8
外形線
  6
Continuous
 62
     4
100
AcDbLine
 10
50.55248103047524
 20
107.845311365954
 30
0.0
 11
46.75248103047528
 21
107.845311365954
 31
0.0
  0
LINE
  5
1AC6
330
18
100
AcDbEntity
  8
外形線
  6
Continuous
 62
     4
100
AcDbLine
 10
50.55248103047524
 20
108.845311365954
 30
0.0
 11
46.75248103047528
 21
108.845311365954
 31
0.0
  0
LINE
  5
1AC7
330
18
100
AcDbEntity
  8
外形線
  6
Continuous
 62
     4
100
AcDbLine
 10
46.75248103047528
 20
129.2453113659539
 30
0.0
 11
50.55248103047524
 21
129.2453113659539
 31
0.0
  0
LINE
  5
1AC8
330
18
100
AcDbEntity
  8
外形線
  6
Continuous
 62
     4
100
AcDbLine
 10
46.75248103047528
 20
133.2453113659539
 30
0.0
 11
50.55248103047524
 21
133.2453113659539
 31
0.0
  0
LINE
  5
1AC9
330
18
100
AcDbEntity
  8
外形線
  6
Continuous
 62
     4
100
AcDbLine
 10
46.75248103047528
 20
134.2453113659539
 30
0.0
 11
50.55248103047524
 21
134.2453113659539
 31
0.0
  0
LINE
  5
1ACA
330
18
100
AcDbEntity
  8
外形線
  6
Continuous
 62
     4
100
AcDbLine
 10
46.75248103047528
 20
132.2453113659539
 30
0.0
 11
50.55248103047524
 21
132.2453113659539
 31
0.0
  0
LINE
  5
1ACB
330
18
100
AcDbEntity
  8
外形線
  6
Continuous
 62
     4
100
AcDbLine
 10
46.75248103047528
 20
131.2453113659539
 30
0.0
 11
50.55248103047524
 21
131.2453113659539
 31
0.0
  0
LINE
  5
1ACC
330
18
100
AcDbEntity
  8
外形線
  6
Continuous
 62
     4
100
AcDbLine
 10
46.75248103047528
 20
130.2453113659539
 30
0.0
 11
50.55248103047524
 21
130.2453113659539
 31
0.0
  0
LINE
  5
1ACD
330
18
100
AcDbEntity
  8
外形線
100
AcDbLine
 10
44.50248103047534
 20
165.0453113659541
 30
0.0
 11
44.50248103047511
 21
163.4453113659541
 31
0.0
  0
LINE
  5
1ACE
330
18
100
AcDbEntity
  8
外形線
100
AcDbLine
 10
36.00248103047534
 20
165.0453113659541
 30
0.0
 11
36.00248103047534
 21
163.4453113659539
 31
0.0
  0
LINE
  5
1ACF
330
18
100
AcDbEntity
  8
外形線
100
AcDbLine
 10
44.50248103047511
 20
165.0453113659541
 30
0.0
 11
44.50248103047511
 21
163.4453113659539
 31
0.0
  0
LINE
  5
1AD0
330
18
100
AcDbEntity
  8
外形線
100
AcDbLine
 10
36.00248103047511
 20
165.0453113659541
 30
0.0
 11
36.00248103047534
 21
163.4453113659541
 31
0.0
  0
LINE
  5
1AD1
330
18
100
AcDbEntity
  8
外形線
100
AcDbLine
 10
36.25248103047522
 20
155.745311365954
 30
0.0
 11
33.75248103047517
 21
155.745311365954
 31
0.0
  0
ARC
  5
1AD2
330
18
100
AcDbEntity
  8
外形線
100
AcDbCircle
 10
35.93998103047517
 20
155.7513009492851
 30
0.0
 40
3.59401041666899
100
AcDbArc
 50
85.01182040284382
 51
113.5763665982022
  0
ARC
  5
1AD3
330
18
100
AcDbEntity
  8
外形線
100
AcDbCircle
 10
35.93998103047517
 20
160.9393217826233
 30
0.0
 40
3.59401041666899
100
AcDbArc
 50
246.4236334017978
 51
274.988179597156
  0
LINE
  5
1AD4
330
18
100
AcDbEntity
  8
中心線
 48
0.5
100
AcDbLine
 10
33.23326380235921
 20
161.2453113659543
 30
0.0
 11
47.79711564257326
 21
161.2453113659542
 31
0.0
  0
LINE
  5
1AD5
330
18
100
AcDbEntity
  8
外形線
100
AcDbLine
 10
34.50248103047517
 20
159.0453113659541
 30
0.0
 11
34.50248103047517
 21
157.6453113659541
 31
0.0
  0
POINT
  5
1AD6
330
18
100
AcDbEntity
  8
DEFPOINTS
  6
ByBlock
 62
     0
100
AcDbPoint
 10
32.65248103047526
 20
154.2453113659539
 30
0.0
  0
POINT
  5
1AD7
330
18
100
AcDbEntity
  8
DEFPOINTS
  6
ByBlock
 62
     0
100
AcDbPoint
 10
32.65248103047526
 20
154.2453113659539
 30
0.0
  0
LINE
  5
1AD8
330
18
100
AcDbEntity
  8
外形線
100
AcDbLine
 10
33.75248103047517
 20
154.2453113659539
 30
0.0
 11
32.65248103047526
 21
154.2453113659539
 31
0.0
  0
LINE
  5
1AD9
330
18
100
AcDbEntity
  8
外形線
  6
Continuous
 62
     4
100
AcDbLine
 10
50.55248103047524
 20
152.6453113659539
 30
0.0
 11
46.75248103047528
 21
152.6453113659539
 31
0.0
  0
LINE
  5
1ADA
330
18
100
AcDbEntity
  8
外形線
100
AcDbLine
 10
36.20248103047539
 20
163.245311365954
 30
0.0
 11
44.30248103047506
 21
163.2453113659541
 31
0.0
  0
LINE
  5
1ADB
330
18
100
AcDbEntity
  8
外形線
100
AcDbLine
 10
44.30248103047506
 20
163.245311365954
 30
0.0
 11
36.20248103047539
 21
163.2453113659541
 31
0.0
  0
LINE
  5
1ADC
330
18
100
AcDbEntity
  8
外形線
100
AcDbLine
 10
44.25248103047522
 20
156.5590789701388
 30
0.0
 11
43.25248103047516
 21
156.5590789701388
 31
0.0
  0
LINE
  5
1ADD
330
18
100
AcDbEntity
  8
外形線
100
AcDbLine
 10
44.25248103047522
 20
155.6801503205347
 30
0.0
 11
43.25248103047522
 21
155.6801503205347
 31
0.0
  0
LINE
  5
1ADE
330
18
100
AcDbEntity
  8
外形線
100
AcDbLine
 10
37.25248103047523
 20
163.245311365954
 30
0.0
 11
37.25248103047523
 21
155.6801503205347
 31
0.0
  0
LINE
  5
1ADF
330
18
100
AcDbEntity
  8
外形線
100
AcDbLine
 10
43.25248103047522
 20
163.2453113659541
 30
0.0
 11
43.25248103047522
 21
155.6801503205347
 31
0.0
  0
LINE
  5
1AE0
330
18
100
AcDbEntity
  8
外形線
100
AcDbLine
 10
36.25248103047522
 20
163.245311365954
 30
0.0
 11
36.25248103047522
 21
155.6801503205347
 31
0.0
  0
LINE
  5
1AE1
330
18
100
AcDbEntity
  8
外形線
100
AcDbLine
 10
43.12748103047527
 20
157.645311365954
 30
0.0
 11
43.12748103047527
 21
159.0453113659542
 31
0.0
  0
LINE
  5
1AE2
330
18
100
AcDbEntity
  8
外形線
100
AcDbLine
 10
37.37748103047517
 20
157.645311365954
 30
0.0
 11
37.37748103047517
 21
159.0453113659542
 31
0.0
  0
LINE
  5
1AE3
330
18
100
AcDbEntity
  8
外形線
100
AcDbLine
 10
43.25248103047522
 20
155.745311365954
 30
0.0
 11
37.25248103047523
 21
155.745311365954
 31
0.0
  0
LINE
  5
1AE4
330
18
100
AcDbEntity
  8
外形線
100
AcDbLine
 10
37.25248103047523
 20
157.3453113659543
 30
0.0
 11
43.25248103047522
 21
157.3453113659543
 31
0.0
  0
ARC
  5
1AE5
330
18
100
AcDbEntity
  8
外形線
100
AcDbCircle
 10
40.25248103047516
 20
171.2713530326204
 30
0.0
 40
13.92604166666615
100
AcDbArc
 50
258.0857377705831
 51
270.0000000000002
  0
LINE
  5
1AE6
330
18
100
AcDbEntity
  8
外形線
100
AcDbLine
 10
35.93998103047517
 20
157.3453113659543
 30
0.0
 11
36.25248103047522
 21
157.3453113659543
 31
0.0
  0
LINE
  5
1AE7
330
18
100
AcDbEntity
  8
外形線
100
AcDbLine
 10
35.65248103047526
 20
157.356828987777
 30
0.0
 11
35.65248103047526
 21
157.3453113659543
 31
0.0
  0
LINE
  5
1AE8
330
18
100
AcDbEntity
  8
外形線
100
AcDbLine
 10
37.25248103047523
 20
156.5590789701388
 30
0.0
 11
36.25248103047522
 21
156.5590789701388
 31
0.0
  0
LINE
  5
1AE9
330
18
100
AcDbEntity
  8
外形線
100
AcDbLine
 10
37.25248103047523
 20
155.6801503205347
 30
0.0
 11
36.25248103047522
 21
155.6801503205347
 31
0.0
  0
LINE
  5
1AEA
330
18
100
AcDbEntity
  8
外形線
100
AcDbLine
 10
37.95248103047482
 20
157.3453113659543
 30
0.0
 11
37.95248103047544
 21
155.7453113659542
 31
0.0
  0
ARC
  5
1AEB
330
18
100
AcDbEntity
  8
外形線
100
AcDbCircle
 10
35.93998103047517
 20
160.9393217826233
 30
0.0
 40
3.59401041666899
100
AcDbArc
 50
291.4193332207172
 51
293.576366598201
  0
ARC
  5
1AEC
330
18
100
AcDbEntity
  8
外形線
100
AcDbCircle
 10
40.25248103047528
 20
171.2713530326204
 30
0.0
 40
13.92604166666615
100
AcDbArc
 50
269.9999999999998
 51
281.9142622294169
  0
ARC
  5
1AED
330
18
100
AcDbEntity
  8
外形線
100
AcDbCircle
 10
44.56498103047528
 20
160.9393217826233
 30
0.0
 40
3.59401041666899
100
AcDbArc
 50
246.4236334017989
 51
248.580666779283
  0
LINE
  5
1AEE
330
18
100
AcDbEntity
  8
外形線
100
AcDbLine
 10
42.55248103047557
 20
157.3453113659543
 30
0.0
 11
42.55248103047501
 21
155.7453113659542
 31
0.0
  0
LINE
  5
1AEF
330
18
100
AcDbEntity
  8
外形線
100
AcDbLine
 10
37.25248103047523
 20
159.345311365954
 30
0.0
 11
43.25248103047522
 21
159.345311365954
 31
0.0
  0
LINE
  5
1AF0
330
18
100
AcDbEntity
  8
外形線
100
AcDbLine
 10
38.25248103047528
 20
163.2453113659543
 30
0.0
 11
42.25248103047528
 21
163.2453113659543
 31
0.0
  0
ARC
  5
1AF1
330
18
100
AcDbEntity
  8
外形線
100
AcDbCircle
 10
40.25248103047528
 20
145.419269699288
 30
0.0
 40
13.92604166666615
100
AcDbArc
 50
78.08573777058317
 51
101.9142622294168
  0
LINE
  5
1AF2
330
18
100
AcDbEntity
  8
外形線
100
AcDbLine
 10
35.93998103047517
 20
159.3453113659541
 30
0.0
 11
36.25248103047522
 21
159.3453113659541
 31
0.0
  0
LINE
  5
1AF3
330
18
100
AcDbEntity
  8
外形線
100
AcDbLine
 10
37.95248103047516
 20
163.2453113659541
 30
0.0
 11
37.95248103047516
 21
159.3453113659541
 31
0.0
  0
LINE
  5
1AF4
330
18
100
AcDbEntity
  8
外形線
100
AcDbLine
 10
37.95248103047516
 20
160.7640565310859
 30
0.0
 11
37.95248103047516
 21
159.3453113659541
 31
0.0
  0
LINE
  5
1AF5
330
18
100
AcDbEntity
  8
外形線
100
AcDbLine
 10
36.00248103047534
 20
163.4453113659539
 30
0.0
 11
36.20248103047539
 21
163.245311365954
 31
0.0
  0
LINE
  5
1AF6
330
18
100
AcDbEntity
  8
外形線
100
AcDbLine
 10
36.20248103047539
 20
163.2453113659541
 30
0.0
 11
36.00248103047534
 21
163.4453113659541
 31
0.0
  0
ARC
  5
1AF7
330
18
100
AcDbEntity
  8
外形線
100
AcDbCircle
 10
35.93998103047528
 20
155.7513009492851
 30
0.0
 40
3.59401041666899
100
AcDbArc
 50
66.42363340179895
 51
68.58066677928448
  0
LINE
  5
1AF8
330
18
100
AcDbEntity
  8
外形線
100
AcDbLine
 10
35.65248103047526
 20
163.2453113659542
 30
0.0
 11
35.65248103047526
 21
159.3337937441313
 31
0.0
  0
LINE
  5
1AF9
330
18
100
AcDbEntity
  8
外形線
100
AcDbLine
 10
36.65248103047526
 20
163.2453113659542
 30
0.0
 11
35.65248103047526
 21
163.2453113659542
 31
0.0
  0
LINE
  5
1AFA
330
18
100
AcDbEntity
  8
外形線
100
AcDbLine
 10
42.55248103047529
 20
161.8168007517138
 30
0.0
 11
42.55248103047529
 21
161.7995872093708
 31
0.0
  0
LINE
  5
1AFB
330
18
100
AcDbEntity
  8
外形線
100
AcDbLine
 10
42.55248103047523
 20
163.245311365954
 30
0.0
 11
42.55248103047529
 21
159.3453113659541
 31
0.0
  0
LINE
  5
1AFC
330
18
100
AcDbEntity
  8
外形線
100
AcDbLine
 10
42.55248103047529
 20
160.7640565310859
 30
0.0
 11
42.55248103047529
 21
159.3453113659541
 31
0.0
  0
ARC
  5
1AFD
330
18
100
AcDbEntity
  8
外形線
100
AcDbCircle
 10
44.56498103047528
 20
155.7513009492851
 30
0.0
 40
3.59401041666899
100
AcDbArc
 50
111.419333220717
 51
113.576366598201
  0
LINE
  5
1AFE
330
18
100
AcDbEntity
  8
外形線
100
AcDbLine
 10
44.25248103047522
 20
163.2453113659541
 30
0.0
 11
44.25248103047522
 21
155.6801503205347
 31
0.0
  0
LINE
  5
1AFF
330
18
100
AcDbEntity
  8
外形線
100
AcDbLine
 10
46.00248103047528
 20
159.0453113659541
 30
0.0
 11
46.00248103047528
 21
157.6453113659541
 31
0.0
  0
LINE
  5
1B00
330
18
100
AcDbEntity
  8
外形線
  6
Continuous
100
AcDbLine
 10
50.55248103047524
 20
157.6453113659539
 30
0.0
 11
46.75248103047528
 21
157.6453113659539
 31
0.0
  0
LINE
  5
1B01
330
18
100
AcDbEntity
  8
外形線
  6
Continuous
 62
     4
100
AcDbLine
 10
50.55248103047524
 20
156.6453113659539
 30
0.0
 11
46.75248103047528
 21
156.6453113659539
 31
0.0
  0
LINE
  5
1B02
330
18
100
AcDbEntity
  8
外形線
  6
Continuous
 62
     4
100
AcDbLine
 10
50.55248103047524
 20
155.6453113659539
 30
0.0
 11
46.75248103047528
 21
155.6453113659539
 31
0.0
  0
LINE
  5
1B03
330
18
100
AcDbEntity
  8
外形線
  6
Continuous
 62
     4
100
AcDbLine
 10
50.55248103047524
 20
154.6453113659539
 30
0.0
 11
46.75248103047528
 21
154.6453113659539
 31
0.0
  0
LINE
  5
1B04
330
18
100
AcDbEntity
  8
外形線
  6
Continuous
 62
     4
100
AcDbLine
 10
50.55248103047524
 20
153.6453113659539
 30
0.0
 11
46.75248103047528
 21
153.6453113659539
 31
0.0
  0
LINE
  5
1B05
330
18
100
AcDbEntity
  8
外形線
100
AcDbLine
 10
44.25248103047522
 20
157.3453113659543
 30
0.0
 11
44.56498103047528
 21
157.3453113659543
 31
0.0
  0
LINE
  5
1B06
330
18
100
AcDbEntity
  8
外形線
100
AcDbLine
 10
44.85248103047519
 20
157.356828987777
 30
0.0
 11
44.85248103047519
 21
157.3453113659543
 31
0.0
  0
ARC
  5
1B07
330
18
100
AcDbEntity
  8
外形線
100
AcDbCircle
 10
44.56498103047528
 20
160.9393217826233
 30
0.0
 40
3.59401041666899
100
AcDbArc
 50
265.0118204028446
 51
293.5763665982022
  0
LINE
  5
1B08
330
18
100
AcDbEntity
  8
外形線
100
AcDbLine
 10
45.25248103047528
 20
155.745311365954
 30
0.0
 11
44.25248103047522
 21
155.745311365954
 31
0.0
  0
LINE
  5
1B09
330
18
100
AcDbEntity
  8
外形線
  6
CENTER2
100
AcDbLine
 10
45.25248103047528
 20
156.2453113659539
 30
0.0
 11
46.75248103047528
 21
156.2453113659539
 31
0.0
  0
LINE
  5
1B0A
330
18
100
AcDbEntity
  8
外形線
  6
Continuous
100
AcDbLine
 10
50.55248103047524
 20
156.7453113659539
 30
0.0
 11
51.75248103047528
 21
156.2453113659539
 31
0.0
  0
POINT
  5
1B0B
330
18
100
AcDbEntity
  8
DEFPOINTS
  6
ByBlock
 62
     0
100
AcDbPoint
 10
50.55248103047524
 20
157.6453113659539
 30
0.0
  0
LINE
  5
1B0C
330
18
100
AcDbEntity
  8
外形線
100
AcDbLine
 10
44.25248103047522
 20
159.345311365954
 30
0.0
 11
44.56498103047528
 21
159.3453113659541
 31
0.0
  0
LINE
  5
1B0D
330
18
100
AcDbEntity
  8
外形線
100
AcDbLine
 10
44.30248103047506
 20
163.2453113659541
 30
0.0
 11
44.50248103047511
 21
163.4453113659541
 31
0.0
  0
LINE
  5
1B0E
330
18
100
AcDbEntity
  8
外形線
100
AcDbLine
 10
44.50248103047511
 20
163.4453113659539
 30
0.0
 11
44.30248103047506
 21
163.245311365954
 31
0.0
  0
ARC
  5
1B0F
330
18
100
AcDbEntity
  8
外形線
100
AcDbCircle
 10
44.56498103047528
 20
155.7513009492851
 30
0.0
 40
3.59401041666899
100
AcDbArc
 50
66.42363340179779
 51
94.98817959715561
  0
LINE
  5
1B10
330
18
100
AcDbEntity
  8
外形線
100
AcDbLine
 10
44.85248103047519
 20
163.2453113659542
 30
0.0
 11
44.85248103047519
 21
159.3337937441313
 31
0.0
  0
LINE
  5
1B11
330
18
100
AcDbEntity
  8
外形線
100
AcDbLine
 10
43.85248103047518
 20
163.2453113659542
 30
0.0
 11
44.85248103047519
 21
163.2453113659542
 31
0.0
  0
ARC
  5
1B12
330
18
100
AcDbEntity
  8
外形線
100
AcDbCircle
 10
37.33329318967248
 20
167.3648361953898
 30
0.0
 40
2.896155846903953
100
AcDbArc
 50
181.6649218613851
 51
242.6445160037918
  0
ELLIPSE
  5
1B13
330
18
100
AcDbEntity
  8
外形線
100
AcDbEllipse
 10
40.25248103047528
 20
167.659557943755
 30
0.0
 11
-5.834642661603116
 21
0.0000000000000068
 31
0.0
210
0.0
220
0.0
230
1.0
 40
0.7748925521716198
 41
3.05769667350001
 42
6.367081287269371
  0
LINE
  5
1B14
330
18
100
AcDbEntity
  8
外形線
100
AcDbLine
 10
36.20248103047515
 20
165.245311365954
 30
0.0
 11
44.30248103047529
 21
165.245311365954
 31
0.0
  0
LINE
  5
1B15
330
18
100
AcDbEntity
  8
外形線
100
AcDbLine
 10
44.30248103047529
 20
165.245311365954
 30
0.0
 11
36.20248103047515
 21
165.245311365954
 31
0.0
  0
LINE
  5
1B16
330
18
100
AcDbEntity
  8
外形線
100
AcDbLine
 10
36.00248103047534
 20
165.0453113659541
 30
0.0
 11
36.20248103047515
 21
165.245311365954
 31
0.0
  0
LINE
  5
1B17
330
18
100
AcDbEntity
  8
外形線
100
AcDbLine
 10
36.20248103047515
 20
165.245311365954
 30
0.0
 11
36.00248103047511
 21
165.0453113659541
 31
0.0
  0
POINT
  5
1B18
330
18
100
AcDbEntity
  8
DEFPOINTS
  6
ByBlock
 62
     0
100
AcDbPoint
 10
40.25248103047511
 20
165.245311365954
 30
0.0
 50
180.0
  0
LINE
  5
1B19
330
18
100
AcDbEntity
  8
外形線
100
AcDbLine
 10
44.30248103047529
 20
165.245311365954
 30
0.0
 11
44.50248103047534
 21
165.0453113659541
 31
0.0
  0
LINE
  5
1B1A
330
18
100
AcDbEntity
  8
外形線
100
AcDbLine
 10
44.50248103047511
 20
165.0453113659541
 30
0.0
 11
44.30248103047529
 21
165.245311365954
 31
0.0
  0
ARC
  5
1B1B
330
18
100
AcDbEntity
  8
外形線
100
AcDbCircle
 10
43.17166887127808
 20
167.3648361953898
 30
0.0
 40
2.896155846903953
100
AcDbArc
 50
297.3554839962098
 51
358.3350781386148
  0
POINT
  5
1B23
330
18
100
AcDbEntity
  8
DEFPOINTS
  6
ByBlock
 62
     0
100
AcDbPoint
 10
54.75248103047533
 20
131.2453113659539
 30
0.0
  0
LINE
  5
1B24
102
{ACAD_REACTORS
330
1B2D
102
}
330
18
100
AcDbEntity
  8
ROGO
 62
     4
100
AcDbLine
 10
144.0946457048953
 20
140.445719075009
 30
0.0
 11
145.3375544502265
 21
141.4716584674619
 31
0.0
  0
LINE
  5
1B25
102
{ACAD_REACTORS
330
1B38
102
}
330
18
100
AcDbEntity
  8
ROGO
 62
     4
100
AcDbLine
 10
139.0769988315145
 20
141.4716584674619
 30
0.0
 11
138.8333795309739
 21
140.9830834152451
 31
0.0
  0
SPLINE
  5
1B26
102
{ACAD_REACTORS
330
1B28
102
}
330
18
100
AcDbEntity
  8
ROGO
 62
     4
100
AcDbSpline
210
0.0
220
0.0
230
1.0
 70
     8
 71
     3
 72
    26
 73
    22
 74
    20
 42
0.0000000001
 43
0.0000000001
 44
0.0000000001
 40
0.0
 40
0.0
 40
0.0
 40
0.0
 40
0.2382195346591896
 40
0.397689067266058
 40
0.5126795869787176
 40
0.5985392873135238
 40
0.7099038249250041
 40
0.7911890807494602
 40
0.9379713068544059
 40
1.057449928673177
 40
1.138714535893296
 40
1.218398644003487
 40
1.36093802187034
 40
1.461730374800238
 40
1.51601484410804
 40
1.593124329220486
 40
1.648806818593696
 40
1.729472362005543
 40
1.775122082164332
 40
1.874460993765135
 40
1.919820003751196
 40
1.919820003751196
 40
1.919820003751196
 40
1.919820003751196
 10
141.993032260336
 20
141.4716584674619
 30
0.0
 10
141.9121768695774
 20
141.4668344961969
 30
0.0
 10
141.7771950555115
 20
141.4587812497001
 30
0.0
 10
141.6289858447997
 20
141.3687457458418
 30
0.0
 10
141.5203991003895
 20
141.3164030604993
 30
0.0
 10
141.4429551659653
 20
141.2452476390797
 30
0.0
 10
141.3861884480977
 20
141.1717492865584
 30
0.0
 10
141.3146233434002
 20
141.084176538433
 30
0.0
 10
141.2562640454942
 20
140.9822016169684
 30
0.0
 10
141.2265452029611
 20
140.8698074759051
 30
0.0
 10
141.2002205343074
 20
140.7802286933462
 30
0.0
 10
141.1806977193344
 20
140.6804048304538
 30
0.0
 10
141.1856648761473
 20
140.5725599423315
 30
0.0
 10
141.1927780720319
 20
140.4723991313277
 30
0.0
 10
141.2245367619558
 20
140.400899308401
 30
0.0
 10
141.2607042843459
 20
140.3499963614717
 30
0.0
 10
141.3049909202007
 20
140.2939324087729
 30
0.0
 10
141.3534501845182
 20
140.2568014344427
 30
0.0
 10
141.3935299516288
 20
140.1895361793021
 30
0.0
 10
141.4636882318913
 20
140.180952647626
 30
0.0
 10
141.5082836259671
 20
140.1638688577489
 30
0.0
 10
141.5222631144285
 20
140.1585135369044
 30
0.0
 11
141.993032260336
 21
141.4716584674619
 31
0.0
 11
141.7576476873822
 21
141.4350162853682
 31
0.0
 11
141.6149901840072
 21
141.3637465964348
 31
0.0
 11
141.5151301367214
 21
141.3067308917574
 31
0.0
 11
141.4509345678176
 21
141.2497149547335
 31
0.0
 11
141.3796060212069
 21
141.1641912815441
 31
0.0
 11
141.3296759975639
 21
141.1000485847388
 31
0.0
 11
141.2583470407997
 21
140.9717629587815
 31
0.0
 11
141.2226829725709
 21
140.8577313170802
 31
0.0
 11
141.2012844496031
 21
140.7793346360189
 31
0.0
 11
141.1870184941888
 21
140.7009379549575
 31
0.0
 11
141.1870184941888
 21
140.5583985770907
 31
0.0
 11
141.2012844496031
 21
140.4586209196454
 31
0.0
 11
141.2226829725709
 21
140.4087319747495
 31
0.0
 11
141.2654800185067
 21
140.3445892779441
 31
0.0
 11
141.301144496889
 21
140.3018273251762
 31
0.0
 11
141.3582070880855
 21
140.2448116204988
 31
0.0
 11
141.3867385887606
 21
140.2091766598589
 31
0.0
 11
141.4794660684927
 21
140.1735419315654
 31
0.0
 11
141.5222631144285
 21
140.1585135369044
 31
0.0
  0
LINE
  5
1B27
102
{ACAD_REACTORS
330
1B28
102
}
330
18
100
AcDbEntity
  8
ROGO
 62
     4
100
AcDbLine
 10
143.3080686024423
 20
141.4716584674619
 30
0.0
 11
143.0644493019018
 21
140.9830834152451
 31
0.0
  0
HATCH
  5
1B28
330
18
100
AcDbEntity
  8
ROGO
 62
     4
100
AcDbHatch
 10
0.0
 20
0.0
 30
0.0
210
0.0
220
0.0
230
1.0
  2
SOLID
 70
     1
 71
     1
 91
        1
 92
        5
 93
        8
 72
     4
 94
        3
 73
     0
 74
     0
 95
       26
 96
       22
 40
0.0
 40
0.0
 40
0.0
 40
0.0
 40
0.2382195346591896
 40
0.397689067266058
 40
0.5126795869787176
 40
0.5985392873135238
 40
0.7099038249250041
 40
0.7911890807494602
 40
0.9379713068544059
 40
1.057449928673177
 40
1.138714535893296
 40
1.218398644003487
 40
1.36093802187034
 40
1.461730374800238
 40
1.51601484410804
 40
1.593124329220486
 40
1.648806818593696
 40
1.729472362005543
 40
1.775122082164332
 40
1.874460993765135
 40
1.919820003751196
 40
1.919820003751196
 40
1.919820003751196
 40
1.919820003751196
 10
141.993032260336
 20
141.4716584674619
 10
141.9121768695774
 20
141.4668344961969
 10
141.7771950555115
 20
141.4587812497001
 10
141.6289858447997
 20
141.3687457458418
 10
141.5203991003895
 20
141.3164030604993
 10
141.4429551659653
 20
141.2452476390797
 10
141.3861884480977
 20
141.1717492865584
 10
141.3146233434002
 20
141.084176538433
 10
141.2562640454942
 20
140.9822016169684
 10
141.2265452029611
 20
140.8698074759051
 10
141.2002205343074
 20
140.7802286933462
 10
141.1806977193344
 20
140.6804048304538
 10
141.1856648761473
 20
140.5725599423315
 10
141.1927780720319
 20
140.4723991313277
 10
141.2245367619558
 20
140.400899308401
 10
141.2607042843459
 20
140.3499963614717
 10
141.3049909202007
 20
140.2939324087729
 10
141.3534501845182
 20
140.2568014344427
 10
141.3935299516288
 20
140.1895361793021
 10
141.4636882318913
 20
140.180952647626
 10
141.5082836259671
 20
140.1638688577489
 10
141.5222631144285
 20
140.1585135369044
 72
     1
 10
141.5222631144285
 20
140.1585135369044
 11
142.6532921294331
 21
140.1585135369044
 72
     1
 10
142.6532921294331
 20
140.1585135369044
 11
142.8969088501119
 21
140.6470834152451
 72
     1
 10
142.8969088501119
 20
140.6470834152451
 11
142.0572278292398
 21
140.647083415245
 72
     4
 94
        3
 73
     0
 74
     0
 95
       16
 96
       12
 40
0.0
 40
0.0
 40
0.0
 40
0.0
 40
0.0719416665231652
 40
0.1446253590759511
 40
0.1879779149910863
 40
0.229544093610429
 40
0.2751936323958108
 40
0.3070718656052417
 40
0.3373215422371831
 40
0.3986635435213285
 40
0.5242542460842448
 40
0.5242542460842448
 40
0.5242542460842448
 40
0.5242542460842448
 10
142.0572278292398
 20
140.647083415245
 10
142.031900090568
 20
140.6545352073336
 10
141.980983375999
 20
140.6695156513329
 10
141.9767220581514
 20
140.7421353404702
 10
141.9825274872132
 20
140.7938828114294
 10
142.0068406370905
 20
140.8315579921455
 10
142.036336704951
 20
140.8589716431812
 10
142.0473193992026
 20
140.8946736373633
 10
142.0796020283268
 20
140.9216331096798
 10
142.1368477797178
 20
140.9669482166556
 10
142.2001516709292
 20
140.9765993219411
 10
142.2426823785506
 20
140.9830834152451
 72
     1
 10
142.2426823785506
 20
140.9830834152451
 11
143.0644493019017
 21
140.9830834152451
 72
     1
 10
143.0644493019017
 20
140.9830834152451
 11
143.3080686024423
 21
141.4716584674619
 72
     1
 10
143.3080686024423
 20
141.4716584674619
 11
141.993032260336
 21
141.4716584674619
 97
        8
330
1BCE
330
1B26
330
1B72
330
1BBB
330
1BBC
330
1BBA
330
1BBD
330
1B27
 75
     0
 76
     1
 47
0.0514683685270805
 98
        1
 10
142.2199496900209
 20
141.2312171642829
450
        0
451
        0
460
0.0
461
0.0
452
        0
462
0.0
453
        0
470

  0
SPLINE
  5
1B29
102
{ACAD_REACTORS
330
1B2B
102
}
330
18
100
AcDbEntity
  8
ROGO
 62
     4
100
AcDbSpline
210
0.0
220
0.0
230
1.0
 70
     8
 71
     3
 72
    38
 73
    34
 74
    32
 42
0.0000000001
 43
0.0000000001
 44
0.0000000001
 40
0.0
 40
0.0
 40
0.0
 40
0.0
 40
0.1807680148264315
 40
0.2375392910068956
 40
0.3104865209606157
 40
0.3712759982447458
 40
0.422566754387306
 40
0.490692583720658
 40
0.5255021974951946
 40
0.5647069597052371
 40
0.622487401681883
 40
0.6879401044674746
 40
0.7303986317551266
 40
0.7765228362185534
 40
0.8277951442290254
 40
0.9056034697002209
 40
0.9795294930264187
 40
1.013897332332996
 40
1.053089255536027
 40
1.099518741889647
 40
1.132570569820733
 40
1.160277520290299
 40
1.19983678629386
 40
1.243305643169139
 40
1.286774258016964
 40
1.324809356515675
 40
1.411916492917645
 40
1.446284332224223
 40
1.5150200516612
 40
1.575779369908399
 40
1.69209852953623
 40
1.835624328519098
 40
2.042896467983898
 40
2.042896467983898
 40
2.042896467983898
 40
2.042896467983898
 10
139.8062241515573
 20
141.4771356866343
 30
0.0
 10
139.7459687539316
 20
141.4728790675334
 30
0.0
 10
139.6667897883105
 20
141.4672856317462
 30
0.0
 10
139.5662510158009
 20
141.4397410055413
 30
0.0
 10
139.5114462613599
 20
141.4069264860834
 30
0.0
 10
139.4544109600427
 20
141.3828062413829
 30
0.0
 10
139.4057830536576
 20
141.3470889421336
 30
0.0
 10
139.3565969529618
 20
141.3286841619402
 30
0.0
 10
139.322155339586
 20
141.2954970535677
 30
0.0
 10
139.282291981453
 20
141.2752249353926
 30
0.0
 10
139.2505480816177
 20
141.2298500413782
 30
0.0
 10
139.215067405086
 20
141.1874261597198
 30
0.0
 10
139.1739053566789
 20
141.1564586181424
 30
0.0
 10
139.1401231111195
 20
141.12393363918
 30
0.0
 10
139.1091325981951
 20
141.073737823996
 30
0.0
 10
139.090791025624
 20
141.0070424493105
 30
0.0
 10
139.0390892112147
 20
140.9649333950253
 30
0.0
 10
139.0313045367316
 20
140.9143057473492
 30
0.0
 10
139.0027066865359
 20
140.8844362871585
 30
0.0
 10
138.99027134108
 20
140.8458791051735
 30
0.0
 10
138.9855353629561
 20
140.8105539158527
 30
0.0
 10
138.9798510599137
 20
140.7775626344244
 30
0.0
 10
138.9649819996812
 20
140.7428572636866
 30
0.0
 10
138.9698353122426
 20
140.6999869847516
 30
0.0
 10
138.9684527492005
 20
140.6584742707251
 30
0.0
 10
138.9692663891736
 20
140.6024308141137
 30
0.0
 10
138.9663298498277
 20
140.5478656171942
 30
0.0
 10
138.9897476003427
 20
140.4884857410258
 30
0.0
 10
139.0036054479456
 20
140.4355567963592
 30
0.0
 10
139.0415574178891
 20
140.3622702541078
 30
0.0
 10
139.1070237707071
 20
140.2777134303988
 30
0.0
 10
139.2315135167246
 20
140.1750774671061
 30
0.0
 10
139.3512140472839
 20
140.1646655263887
 30
0.0
 10
139.4219401900141
 20
140.1585135369044
 30
0.0
 11
139.8062241515573
 21
141.4771356866343
 31
0.0
 11
139.62676751461
 21
141.4554011371829
 31
0.0
 11
139.5723867284818
 21
141.4391005881356
 31
0.0
 11
139.5071300414738
 21
141.4064990059859
 31
0.0
 11
139.4527492553456
 21
141.3793311822129
 31
0.0
 11
139.4092447973403
 21
141.3521631164124
 31
0.0
 11
139.3494260607723
 21
141.3195617762903
 31
0.0
 11
139.3222354540866
 21
141.2978274688664
 31
0.0
 11
139.2896068969611
 21
141.2760929194149
 31
0.0
 11
139.2515403893957
 21
141.2326243045671
 31
0.0
 11
139.2080359313904
 21
141.1837221733702
 31
0.0
 11
139.1754073742648
 21
141.1565541075697
 31
0.0
 11
139.1427792443824
 21
141.1239527674475
 31
0.0
 11
139.1155886376968
 21
141.0804841525997
 31
0.0
 11
139.0829605078144
 21
141.0098474719514
 31
0.0
 11
139.039455622566
 21
140.9500780660288
 31
0.0
 11
139.0285797216862
 21
140.9174764838792
 31
0.0
 11
139.0068274926835
 21
140.884875143757
 31
0.0
 11
138.9905132141208
 21
140.8414062868817
 31
0.0
 11
138.9850748364378
 21
140.8088049467595
 31
0.0
 11
138.9796368859979
 21
140.7816368809591
 31
0.0
 11
138.9687609851181
 21
140.7436020244878
 31
0.0
 11
138.9687609851181
 21
140.7001331676125
 31
0.0
 11
138.9687609851181
 21
140.6566645527647
 31
0.0
 11
138.9687609851181
 21
140.618629454266
 31
0.0
 11
138.9741989355581
 21
140.5316922245703
 31
0.0
 11
138.9850748364378
 21
140.4990906424207
 31
0.0
 11
139.0068274926835
 21
140.4338877201489
 31
0.0
 11
139.0340176721261
 21
140.3795518305754
 31
0.0
 11
139.104712736817
 21
140.2871810845306
 31
0.0
 11
139.2189122595133
 21
140.2002436128075
 31
0.0
 11
139.4219401900141
 21
140.1585135369044
 31
0.0
  0
SPLINE
  5
1B2A
102
{ACAD_REACTORS
330
1B2B
102
}
330
18
100
AcDbEntity
  8
ROGO
 62
     4
100
AcDbSpline
210
0.0
220
0.0
230
1.0
 70
     8
 71
     3
 72
    25
 73
    21
 74
     0
 42
0.0000000001
 43
0.0000000001
 40
0.0
 40
0.0
 40
0.0
 40
0.0
 40
0.4087168505087288
 40
0.6887487002771746
 40
0.9415836120477687
 40
1.17452070575514
 40
1.41154617586699
 40
1.599156012919487
 40
1.80099909059943
 40
2.178735911501585
 40
2.521686161369157
 40
2.762704659361267
 40
3.06256558063785
 40
3.222432137207705
 40
3.399493810628493
 40
3.567459719866414
 40
3.743172740007509
 40
3.995988754699505
 40
4.17170091132118
 40
4.337226830236035
 40
4.337226830236035
 40
4.337226830236035
 40
4.337226830236035
 10
140.5566779747426
 20
141.4771356866343
 30
0.0
 10
140.6058980251682
 20
141.4755542971781
 30
0.0
 10
140.6888411328867
 20
141.4728894206722
 30
0.0
 10
140.7778907915078
 20
141.4032867312966
 30
0.0
 10
140.8460290122672
 20
141.3455807689816
 30
0.0
 10
140.8943943671278
 20
141.2758169626475
 30
0.0
 10
140.9367879557702
 20
141.2116728589703
 30
0.0
 10
140.9647221165394
 20
141.1439514443042
 30
0.0
 10
141.0027180942142
 20
141.0626919487674
 30
0.0
 10
141.0184465518614
 20
140.9539788163363
 30
0.0
 10
141.0078201085247
 20
140.8416137632908
 30
0.0
 10
140.9800900530272
 20
140.7420124795873
 30
0.0
 10
140.9510034543272
 20
140.6656007144432
 30
0.0
 10
140.9167214354099
 20
140.5990795324526
 30
0.0
 10
140.8758528881057
 20
140.5560070619535
 30
0.0
 10
140.8474999325668
 20
140.501240835606
 30
0.0
 10
140.7930375318495
 20
140.4564450027326
 30
0.0
 10
140.7488873720429
 20
140.4011732322786
 30
0.0
 10
140.6987861354032
 20
140.35373288394
 30
0.0
 10
140.6705388360993
 20
140.3244627607183
 30
0.0
 10
140.6556461787056
 20
140.3121560167726
 30
0.0
  0
HATCH
  5
1B2B
330
18
100
AcDbEntity
  8
ROGO
 62
     4
100
AcDbHatch
 10
0.0
 20
0.0
 30
0.0
210
0.0
220
0.0
230
1.0
  2
SOLID
 70
     1
 71
     1
 91
        2
 92
        5
 93
        6
 72
     4
 94
        3
 73
     0
 74
     0
 95
       38
 96
       34
 40
0.0
 40
0.0
 40
0.0
 40
0.0
 40
0.1807680148264315
 40
0.2375392910068956
 40
0.3104865209606157
 40
0.3712759982447458
 40
0.422566754387306
 40
0.490692583720658
 40
0.5255021974951946
 40
0.5647069597052371
 40
0.622487401681883
 40
0.6879401044674746
 40
0.7303986317551266
 40
0.7765228362185534
 40
0.8277951442290254
 40
0.9056034697002209
 40
0.9795294930264187
 40
1.013897332332996
 40
1.053089255536027
 40
1.099518741889647
 40
1.132570569820733
 40
1.160277520290299
 40
1.19983678629386
 40
1.243305643169139
 40
1.286774258016964
 40
1.324809356515675
 40
1.411916492917645
 40
1.446284332224223
 40
1.5150200516612
 40
1.575779369908399
 40
1.69209852953623
 40
1.835624328519098
 40
2.042896467983898
 40
2.042896467983898
 40
2.042896467983898
 40
2.042896467983898
 10
139.8062241515573
 20
141.4771356866343
 10
139.7459687539316
 20
141.4728790675334
 10
139.6667897883105
 20
141.4672856317462
 10
139.5662510158009
 20
141.4397410055413
 10
139.5114462613599
 20
141.4069264860834
 10
139.4544109600427
 20
141.3828062413829
 10
139.4057830536576
 20
141.3470889421336
 10
139.3565969529618
 20
141.3286841619402
 10
139.322155339586
 20
141.2954970535677
 10
139.282291981453
 20
141.2752249353926
 10
139.2505480816177
 20
141.2298500413782
 10
139.215067405086
 20
141.1874261597198
 10
139.1739053566789
 20
141.1564586181424
 10
139.1401231111195
 20
141.12393363918
 10
139.1091325981951
 20
141.073737823996
 10
139.090791025624
 20
141.0070424493105
 10
139.0390892112147
 20
140.9649333950253
 10
139.0313045367316
 20
140.9143057473492
 10
139.0027066865359
 20
140.8844362871585
 10
138.99027134108
 20
140.8458791051735
 10
138.9855353629561
 20
140.8105539158527
 10
138.9798510599137
 20
140.7775626344244
 10
138.9649819996812
 20
140.7428572636866
 10
138.9698353122426
 20
140.6999869847516
 10
138.9684527492005
 20
140.6584742707251
 10
138.9692663891736
 20
140.6024308141137
 10
138.9663298498277
 20
140.5478656171942
 10
138.9897476003427
 20
140.4884857410258
 10
139.0036054479456
 20
140.4355567963592
 10
139.0415574178891
 20
140.3622702541078
 10
139.1070237707071
 20
140.2777134303988
 10
139.2315135167246
 20
140.1750774671061
 10
139.3512140472839
 20
140.1646655263887
 10
139.4219401900141
 20
140.1585135369044
 72
     1
 10
139.4219401900141
 20
140.1585135369044
 11
140.1723940131993
 21
140.1585135369044
 72
     4
 94
        3
 73
     0
 74
     0
 95
       11
 96
        7
 40
0.1647869275458135
 40
0.1647869275458135
 40
0.1647869275458135
 40
0.1647869275458135
 40
0.2545010798212315
 40
0.5111620267764023
 40
0.7602998271033902
 40
0.8850764140209603
 40
0.8850764140209603
 40
0.8850764140209603
 40
0.8850764140209603
 10
140.1723940131995
 20
140.1585135369044
 10
140.1828659135194
 20
140.1583117212615
 10
140.223296608348
 20
140.1575325363547
 10
140.2923931504443
 20
140.1674590669393
 10
140.3650919175824
 20
140.1769714613127
 10
140.4084329290166
 20
140.1838990510966
 10
140.4224114718175
 20
140.1877899838131
 72
     4
 94
        3
 73
     0
 74
     0
 95
        9
 96
        5
 40
0.0
 40
0.0
 40
0.0
 40
0.0
 40
0.1135793343552172
 40
0.2662938392177403
 40
0.2662938392177403
 40
0.2662938392177403
 40
0.2662938392177403
 10
140.4224114718175
 20
140.1877899838131
 10
140.4588964401355
 20
140.1989523235363
 10
140.5444377258129
 20
140.2251231257903
 10
140.6151144230497
 20
140.2804354435647
 10
140.6556461787056
 20
140.3121560167726
 72
     4
 94
        3
 73
     0
 74
     0
 95
       25
 96
       21
 40
0.0
 40
0.0
 40
0.0
 40
0.0
 40
0.165525918914855
 40
0.3412380755365305
 40
0.5940540902285263
 40
0.7697671103696209
 40
0.9377330196075423
 40
1.11479469302833
 40
1.274661249598185
 40
1.574522170874768
 40
1.815540668866877
 40
2.15849091873445
 40
2.536227739636605
 40
2.738070817316548
 40
2.925680654369045
 40
3.162706124480894
 40
3.395643218188267
 40
3.648478129958861
 40
3.928509979727306
 40
4.337226830236035
 40
4.337226830236035
 40
4.337226830236035
 40
4.337226830236035
 10
140.6556461787056
 20
140.3121560167726
 10
140.6705388360993
 20
140.3244627607183
 10
140.6987861354032
 20
140.35373288394
 10
140.7488873720429
 20
140.4011732322786
 10
140.7930375318495
 20
140.4564450027326
 10
140.8474999325668
 20
140.501240835606
 10
140.8758528881057
 20
140.5560070619535
 10
140.9167214354099
 20
140.5990795324526
 10
140.9510034543272
 20
140.6656007144432
 10
140.9800900530272
 20
140.7420124795873
 10
141.0078201085247
 20
140.8416137632908
 10
141.0184465518614
 20
140.9539788163363
 10
141.0027180942142
 20
141.0626919487674
 10
140.9647221165394
 20
141.1439514443042
 10
140.9367879557702
 20
141.2116728589703
 10
140.8943943671278
 20
141.2758169626475
 10
140.8460290122672
 20
141.3455807689816
 10
140.7778907915078
 20
141.4032867312966
 10
140.6888411328867
 20
141.4728894206722
 10
140.6058980251682
 20
141.4755542971781
 10
140.5566779747426
 20
141.4771356866343
 72
     1
 10
140.5566779747426
 20
141.4771356866343
 11
139.8062241515573
 21
141.4771356866343
 97
        6
330
1B2A
330
1BD1
330
1B29
330
1B88
330
1B89
330
1B8A
 92
       20
 93
        1
 72
     3
 10
139.978682546188
 20
140.7994396944153
 11
0.1782847090673273
 21
0.1567790921840611
 40
0.6788083417438792
 50
0.0
 51
360.0
 73
     1
 97
        1
330
1B8B
 75
     0
 76
     1
 47
0.088756267210375
 98
        2
 10
140.0311138219566
 20
141.1129269647393
 10
140.0311138219566
 20
141.1129269647393
450
        0
451
        0
460
0.0
461
0.0
452
        0
462
0.0
453
        0
470

  0
LINE
  5
1B2C
102
{ACAD_REACTORS
330
1B2D
102
}
330
18
100
AcDbEntity
  8
ROGO
 62
     4
100
AcDbLine
 10
143.5830957315645
 20
141.4716584674619
 30
0.0
 11
142.5599626998946
 21
139.419779682556
 31
0.0
  0
HATCH
  5
1B2D
330
18
100
AcDbEntity
  8
ROGO
 62
     4
100
AcDbHatch
 10
0.0
 20
0.0
 30
0.0
210
0.0
220
0.0
230
1.0
  2
SOLID
 70
     1
 71
     1
 91
        1
 92
        7
 72
     0
 73
     1
 93
       11
 10
142.5599626998946
 20
139.419779682556
 10
143.3160464423989
 20
139.419779682556
 10
143.5830957315645
 20
139.9553432446755
 10
143.8501450207302
 20
139.419779682556
 10
144.6062122207301
 20
139.4197796825559
 10
144.0946457048953
 20
140.445719075009
 10
145.3375544502265
 20
141.4716584674619
 10
144.5814872502265
 20
141.4716584674619
 10
144.2274741671476
 20
141.2476350586403
 10
144.3391794740687
 20
141.4716584674619
 10
143.5830957315645
 20
141.4716584674619
 97
       11
330
1BD5
330
1BD4
330
1BD3
330
1BD2
330
1B2C
330
1B4C
330
1BBE
330
1BB7
330
1BB9
330
1BB8
330
1B24
 75
     0
 76
     1
 47
0.0514683685270805
 98
        1
 10
143.5180244851606
 20
140.5913624840204
450
        0
451
        0
460
0.0
461
0.0
452
        0
462
0.0
453
        0
470

  0
LINE
  5
1B2E
102
{ACAD_REACTORS
330
1B37
102
}
330
18
100
AcDbEntity
  8
ROGO
 62
     4
100
AcDbLine
 10
134.7833251701424
 20
141.4716584674619
 30
0.0
 11
134.6344909744078
 21
141.1708561367699
 31
0.0
  0
LINE
  5
1B2F
102
{ACAD_REACTORS
330
1B32
102
}
330
18
100
AcDbEntity
  8
ROGO
 62
     4
100
AcDbLine
 10
135.2978194353401
 20
141.4716584674619
 30
0.0
 11
134.350885105241
 21
140.1585135369044
 31
0.0
  0
SPLINE
  5
1B30
102
{ACAD_REACTORS
330
1B38
102
}
330
18
100
AcDbEntity
  8
ROGO
 62
     4
100
AcDbSpline
210
0.0
220
0.0
230
1.0
 70
     8
 71
     3
 72
    26
 73
    22
 74
    20
 42
0.0000000001
 43
0.0000000001
 44
0.0000000001
 40
0.0
 40
0.0
 40
0.0
 40
0.0
 40
0.2382195346591896
 40
0.397689067266058
 40
0.5126795869787669
 40
0.5985392873135731
 40
0.7099038249249733
 40
0.7911890807494741
 40
0.9379713068543702
 40
1.057449928673087
 40
1.138714535893316
 40
1.218398644003506
 40
1.36093802187036
 40
1.461730374800257
 40
1.516014844108008
 40
1.593124329220501
 40
1.648806818593631
 40
1.729472362005518
 40
1.775122082164342
 40
1.874460993765092
 40
1.919820003751207
 40
1.919820003751207
 40
1.919820003751207
 40
1.919820003751207
 10
137.7619624894082
 20
141.4716584674619
 30
0.0
 10
137.6811070986496
 20
141.4668344961969
 30
0.0
 10
137.5461252845836
 20
141.4587812497001
 30
0.0
 10
137.3979160738718
 20
141.3687457458418
 30
0.0
 10
137.2893293294616
 20
141.3164030604994
 30
0.0
 10
137.2118853950374
 20
141.2452476390798
 30
0.0
 10
137.1551186771699
 20
141.1717492865584
 30
0.0
 10
137.0835535724723
 20
141.0841765384331
 30
0.0
 10
137.0251942745665
 20
140.9822016169685
 30
0.0
 10
136.9954754320333
 20
140.8698074759052
 30
0.0
 10
136.9691507633795
 20
140.7802286933462
 30
0.0
 10
136.9496279484065
 20
140.6804048304538
 30
0.0
 10
136.9545951052195
 20
140.5725599423315
 30
0.0
 10
136.9617083011041
 20
140.4723991313277
 30
0.0
 10
136.993466991028
 20
140.4008993084011
 30
0.0
 10
137.029634513418
 20
140.3499963614717
 30
0.0
 10
137.0739211492729
 20
140.293932408773
 30
0.0
 10
137.1223804135903
 20
140.2568014344427
 30
0.0
 10
137.162460180701
 20
140.1895361793021
 30
0.0
 10
137.2326184609634
 20
140.1809526476259
 30
0.0
 10
137.2772138550392
 20
140.163868857749
 30
0.0
 10
137.2911933435007
 20
140.1585135369044
 30
0.0
 11
137.7619624894082
 21
141.4716584674619
 31
0.0
 11
137.5265779164544
 21
141.4350162853682
 31
0.0
 11
137.3839204130794
 21
141.3637465964348
 31
0.0
 11
137.2840603657935
 21
141.3067308917574
 31
0.0
 11
137.2198647968898
 21
141.2497149547335
 31
0.0
 11
137.148536250279
 21
141.1641912815442
 31
0.0
 11
137.0986062266361
 21
141.1000485847388
 31
0.0
 11
137.0272772698719
 21
140.9717629587816
 31
0.0
 11
136.9916132016431
 21
140.8577313170804
 31
0.0
 11
136.9702146786753
 21
140.7793346360189
 31
0.0
 11
136.955948723261
 21
140.7009379549575
 31
0.0
 11
136.955948723261
 21
140.5583985770907
 31
0.0
 11
136.9702146786753
 21
140.4586209196454
 31
0.0
 11
136.9916132016431
 21
140.4087319747496
 31
0.0
 11
137.0344102475789
 21
140.3445892779441
 31
0.0
 11
137.0700747259611
 21
140.3018273251763
 31
0.0
 11
137.1271373171576
 21
140.2448116204988
 31
0.0
 11
137.1556688178327
 21
140.2091766598589
 31
0.0
 11
137.2483962975648
 21
140.1735419315654
 31
0.0
 11
137.2911933435007
 21
140.1585135369044
 31
0.0
  0
LINE
  5
1B31
102
{ACAD_REACTORS
330
1B32
102
}
330
18
100
AcDbEntity
  8
ROGO
 62
     4
100
AcDbLine
 10
136.3482229181115
 20
141.4716584674619
 30
0.0
 11
136.9315739284948
 21
140.1585135369044
 31
0.0
  0
HATCH
  5
1B32
330
18
100
AcDbEntity
  8
ROGO
 62
     4
100
AcDbHatch
 10
0.0
 20
0.0
 30
0.0
210
0.0
220
0.0
230
1.0
  2
SOLID
 70
     1
 71
     1
 91
        2
 92
        7
 72
     0
 73
     1
 93
        8
 10
136.3482229181115
 20
141.471658467462
 10
135.2978194353401
 20
141.4716584674619
 10
134.350885105241
 20
140.1585135369044
 10
135.0781323569326
 20
140.1585135369044
 10
135.2584227945135
 20
140.4085282069953
 10
136.0882997832978
 20
140.4085282069953
 10
136.1993662063667
 20
140.1585135369045
 10
136.9315739284948
 20
140.1585135369045
 97
        8
330
1BD0
330
1B2F
330
1B84
330
1B83
330
1B81
330
1B87
330
1B85
330
1B31
 92
       22
 72
     0
 73
     1
 93
        3
 10
135.9711546776972
 20
140.6722262186914
 10
135.4485805556586
 20
140.6722262186914
 10
135.7719472919718
 20
141.1206494905103
 97
        3
330
1B82
330
1B80
330
1B86
 75
     0
 76
     1
 47
0.0128389261915577
 98
        2
 10
136.2659680256158
 20
141.1566165506529
 10
136.2659680256158
 20
141.1566165506529
450
        0
451
        0
460
0.0
461
0.0
452
        0
462
0.0
453
        0
470

  0
LINE
  5
1B33
102
{ACAD_REACTORS
330
1B36
102
}
330
18
100
AcDbEntity
  8
ROGO
 62
     4
100
AcDbLine
 10
130.4421197154677
 20
141.4716584674619
 30
0.0
 11
129.4268691753751
 21
139.4197796825559
 31
0.0
  0
SPLINE
  5
1B34
102
{ACAD_REACTORS
330
1B36
102
}
330
18
100
AcDbEntity
  8
ROGO
 62
     4
100
AcDbSpline
210
0.0
220
0.0
230
1.0
 70
     8
 71
     3
 72
    18
 73
    14
 74
     0
 42
0.0000000001
 43
0.0000000001
 40
0.1087402787915014
 40
0.1087402787915014
 40
0.1087402787915014
 40
0.1087402787915014
 40
0.5992371417938475
 40
1.083176791562496
 40
1.448211145705696
 40
1.714037220764907
 40
2.164002567013297
 40
2.740236056362883
 40
3.395137510199602
 40
4.071816045172726
 40
4.784906178399433
 40
5.506895915094292
 40
6.060470601257719
 40
6.060470601257719
 40
6.060470601257719
 40
6.060470601257719
 10
132.0546180284529
 20
141.471658467462
 30
0.0
 10
132.1062775660889
 20
141.4527261126143
 30
0.0
 10
132.2078655139394
 20
141.412700221299
 30
0.0
 10
132.3318507494866
 20
141.3213479115076
 30
0.0
 10
132.3994669434114
 20
141.2158891343348
 30
0.0
 10
132.4645061519544
 20
141.111978392032
 30
0.0
 10
132.4736082704653
 20
140.9629008578756
 30
0.0
 10
132.4586983854182
 20
140.7744307223038
 30
0.0
 10
132.3624415145421
 20
140.5777815847832
 30
0.0
 10
132.2079435754607
 20
140.4057845539813
 30
0.0
 10
132.0161236023677
 20
140.2681203736396
 30
0.0
 10
131.8138428242604
 20
140.1600575371442
 30
0.0
 10
131.6692524672069
 20
140.1589808165356
 30
0.0
 10
131.6065025503122
 20
140.1585135369044
 30
0.0
  0
LINE
  5
1B35
102
{ACAD_REACTORS
330
1B37
102
}
330
18
100
AcDbEntity
  8
ROGO
 62
     4
100
AcDbLine
 10
133.0072420216585
 20
141.4716584674619
 30
0.0
 11
132.3575101223984
 21
140.1585135369044
 31
0.0
  0
HATCH
  5
1B36
330
18
100
AcDbEntity
  8
ROGO
 62
     4
100
AcDbHatch
 10
0.0
 20
0.0
 30
0.0
210
0.0
220
0.0
230
1.0
  2
SOLID
 70
     1
 71
     1
 91
        2
 92
        5
 93
        6
 72
     1
 10
129.4268691753751
 20
139.419779682556
 11
130.3806701313116
 21
139.419779682556
 72
     1
 10
130.3806701313116
 20
139.419779682556
 11
130.71489428214
 21
140.1585135369044
 72
     1
 10
130.71489428214
 20
140.1585135369044
 11
131.6065025503122
 21
140.1585135369044
 72
     4
 94
        3
 73
     0
 74
     0
 95
       18
 96
       14
 40
0.108740278791501
 40
0.108740278791501
 40
0.108740278791501
 40
0.108740278791501
 40
0.6623149649549278
 40
1.384304701649787
 40
2.097394834876493
 40
2.774073369849618
 40
3.428974823686337
 40
4.005208313035923
 40
4.455173659284313
 40
4.720999734343524
 40
5.086034088486724
 40
5.569973738255373
 40
6.060470601257719
 40
6.060470601257719
 40
6.060470601257719
 40
6.060470601257719
 10
131.6065025503122
 20
140.1585135369044
 10
131.6692524672069
 20
140.1589808165356
 10
131.8138428242604
 20
140.1600575371442
 10
132.0161236023677
 20
140.2681203736396
 10
132.2079435754607
 20
140.4057845539813
 10
132.3624415145421
 20
140.5777815847832
 10
132.4586983854182
 20
140.7744307223038
 10
132.4736082704653
 20
140.9629008578756
 10
132.4645061519544
 20
141.111978392032
 10
132.3994669434114
 20
141.2158891343348
 10
132.3318507494866
 20
141.3213479115076
 10
132.2078655139394
 20
141.412700221299
 10
132.1062775660889
 20
141.4527261126143
 10
132.0546180284529
 20
141.471658467462
 72
     1
 10
132.054618028453
 20
141.4716584674619
 11
130.4421197154677
 21
141.4716584674619
 72
     1
 10
130.4421197154677
 20
141.4716584674619
 11
129.4268691753751
 21
139.419779682556
 97
        6
330
1B34
330
1BCA
330
1B33
330
1B4C
330
1B65
330
1B60
 92
       20
 93
        4
 72
     1
 10
130.9212587744502
 20
140.6146398713632
 11
131.0792565708076
 21
140.9638615562486
 72
     1
 10
131.0792565708076
 20
140.9638615562486
 11
131.485243569905
 21
140.9638615562486
 72
     4
 94
        3
 73
     0
 74
     0
 95
       15
 96
       11
 40
0.0
 40
0.0
 40
0.0
 40
0.0
 40
0.1539705029175028
 40
0.2241725832587281
 40
0.3038566179396687
 40
0.3581410872474193
 40
0.443992538467216
 40
0.4954152125469665
 40
0.5836396705646186
 40
0.6130478420065743
 40
0.6130478420065743
 40
0.6130478420065743
 40
0.6130478420065743
 10
131.485243569905
 20
140.9638615562486
 10
131.5430719049642
 20
140.964126440891
 10
131.6272667800223
 20
140.9645120983607
 10
131.6733075363869
 20
140.8603627944312
 10
131.6526698741534
 20
140.7933068897938
 10
131.6267266507294
 20
140.724461375546
 10
131.580879099187
 20
140.6776798102767
 10
131.5193449695918
 20
140.6326212766397
 10
131.4611922765361
 20
140.6271667393802
 10
131.4233704775635
 20
140.617145245926
 10
131.4139150232942
 20
140.6146398713632
 72
     1
 10
131.4139150232943
 20
140.6146398713632
 11
130.9212587744502
 21
140.6146398713632
 97
        4
330
1B61
330
1B63
330
1B62
330
1B64
 75
     0
 76
     1
 47
0.0514683685270805
 98
        2
 10
130.4507382687746
 20
140.833469710573
 10
130.4507382687746
 20
140.833469710573
450
        0
451
        0
460
0.0
461
0.0
452
        0
462
0.0
453
        0
470

  0
HATCH
  5
1B37
330
18
100
AcDbEntity
  8
ROGO
 62
     4
100
AcDbHatch
 10
0.0
 20
0.0
 30
0.0
210
0.0
220
0.0
230
1.0
  2
SOLID
 70
     1
 71
     1
 91
        1
 92
        1
 93
       12
 72
     1
 10
133.0072420216585
 20
141.4716584674619
 11
134.7833251701424
 21
141.471658467462
 72
     1
 10
134.7833251701424
 20
141.4716584674619
 11
134.6344909744078
 21
141.1708561367699
 72
     1
 10
134.6344909744078
 20
141.1708561367699
 11
133.7010265521899
 21
141.1708561367699
 72
     1
 10
133.7010265521899
 20
141.1708561367699
 11
133.5846567061134
 21
140.9356660935857
 72
     1
 10
133.5846567061134
 20
140.9356660935857
 11
134.5181211283313
 21
140.9356660935857
 72
     1
 10
134.5181211283313
 20
140.9356660935857
 11
134.3987947527075
 21
140.6945007369045
 72
     1
 10
134.3987947527075
 20
140.6945007369045
 11
133.4653303304895
 21
140.6945007369045
 72
     1
 10
133.4653303304895
 20
140.6945007369045
 11
133.3489555578732
 21
140.4593007369045
 72
     1
 10
133.3489555578732
 20
140.4593007369045
 11
134.2824199800911
 21
140.4593007369045
 72
     1
 10
134.2824199800911
 20
140.4593007369045
 11
134.1335932708823
 21
140.1585135369044
 72
     1
 10
134.1335932708823
 20
140.1585135369044
 11
132.3575101223984
 21
140.1585135369044
 72
     1
 10
132.3575101223984
 20
140.1585135369044
 11
133.0072420216585
 21
141.4716584674619
 97
       12
330
1BC7
330
1B2E
330
1B48
330
1B66
330
1B49
330
1B7E
330
1B4B
330
1B67
330
1B4A
330
1B7F
330
1B47
330
1B35
 75
     0
 76
     1
 98
        1
 10
60.35711304294955
 20
50.67356241935067
450
        0
451
        0
460
0.0
461
0.0
452
        0
462
0.0
453
        0
470

  0
HATCH
  5
1B38
330
18
100
AcDbEntity
  8
ROGO
 62
     4
100
AcDbHatch
 10
0.0
 20
0.0
 30
0.0
210
0.0
220
0.0
230
1.0
  2
SOLID
 70
     1
 71
     1
 91
        1
 92
        5
 93
        8
 72
     1
 10
138.8333795309739
 20
140.9830834152451
 11
139.0769988315145
 21
141.471658467462
 72
     1
 10
139.0769988315145
 20
141.471658467462
 11
137.7619624894085
 21
141.471658467462
 72
     4
 94
        3
 73
     0
 74
     0
 95
       26
 96
       22
 40
0.0
 40
0.0
 40
0.0
 40
0.0
 40
0.2382195346591896
 40
0.397689067266058
 40
0.5126795869787669
 40
0.5985392873135731
 40
0.7099038249249733
 40
0.7911890807494741
 40
0.9379713068543702
 40
1.057449928673087
 40
1.138714535893316
 40
1.218398644003506
 40
1.36093802187036
 40
1.461730374800257
 40
1.516014844108008
 40
1.593124329220501
 40
1.648806818593631
 40
1.729472362005518
 40
1.775122082164342
 40
1.874460993765092
 40
1.919820003751207
 40
1.919820003751207
 40
1.919820003751207
 40
1.919820003751207
 10
137.7619624894082
 20
141.4716584674619
 10
137.6811070986496
 20
141.4668344961969
 10
137.5461252845836
 20
141.4587812497001
 10
137.3979160738718
 20
141.3687457458418
 10
137.2893293294616
 20
141.3164030604994
 10
137.2118853950374
 20
141.2452476390798
 10
137.1551186771699
 20
141.1717492865584
 10
137.0835535724723
 20
141.0841765384331
 10
137.0251942745665
 20
140.9822016169685
 10
136.9954754320333
 20
140.8698074759052
 10
136.9691507633795
 20
140.7802286933462
 10
136.9496279484065
 20
140.6804048304538
 10
136.9545951052195
 20
140.5725599423315
 10
136.9617083011041
 20
140.4723991313277
 10
136.993466991028
 20
140.4008993084011
 10
137.029634513418
 20
140.3499963614717
 10
137.0739211492729
 20
140.293932408773
 10
137.1223804135903
 20
140.2568014344427
 10
137.162460180701
 20
140.1895361793021
 10
137.2326184609634
 20
140.1809526476259
 10
137.2772138550392
 20
140.163868857749
 10
137.2911933435007
 20
140.1585135369044
 72
     1
 10
137.2911933435007
 20
140.1585135369044
 11
138.4222223585052
 21
140.1585135369044
 72
     1
 10
138.4222223585052
 20
140.1585135369044
 11
138.6658390791841
 21
140.6470834152451
 72
     1
 10
138.6658390791841
 20
140.6470834152451
 11
137.826158058312
 21
140.6470834152451
 72
     4
 94
        3
 73
     0
 74
     0
 95
       16
 96
       12
 40
0.0
 40
0.0
 40
0.0
 40
0.0
 40
0.0719416665231651
 40
0.1446253590759065
 40
0.1879779149910977
 40
0.2295440936104405
 40
0.2751936323958134
 40
0.3070718656052443
 40
0.3373215422372259
 40
0.3986635435212919
 40
0.5242542460842631
 40
0.5242542460842631
 40
0.5242542460842631
 40
0.5242542460842631
 10
137.826158058312
 20
140.6470834152451
 10
137.8008303196402
 20
140.6545352073337
 10
137.7499136050712
 20
140.669515651333
 10
137.7456522872236
 20
140.7421353404703
 10
137.7514577162853
 20
140.7938828114295
 10
137.7757708661626
 20
140.8315579921456
 10
137.8052669340232
 20
140.8589716431812
 10
137.8162496282748
 20
140.8946736373634
 10
137.8485322573988
 20
140.9216331096799
 10
137.90577800879
 20
140.9669482166556
 10
137.9690819000014
 20
140.9765993219411
 10
138.0116126076228
 20
140.9830834152451
 72
     1
 10
138.0116126076228
 20
140.9830834152451
 11
138.8333795309739
 21
140.9830834152451
 97
        8
330
1BCF
330
1B30
330
1B7B
330
1B8D
330
1B7D
330
1B7C
330
1B8C
330
1B25
 75
     0
 76
     1
 47
0.0514683685270805
 98
        1
 10
138.2218793866151
 20
141.179337011115
450
        0
451
        0
460
0.0
461
0.0
452
        0
462
0.0
453
        0
470

  0
HATCH
  5
1B39
330
18
100
AcDbEntity
  8
針
100
AcDbHatch
 10
0.0
 20
0.0
 30
0.0
210
0.0
220
0.0
230
1.0
  2
SOLID
 70
     1
 71
     0
 91
        2
 92
        7
 72
     1
 73
     1
 93
        5
 10
137.1994958303095
 20
153.245311365954
 42
0.0
 10
137.1094958303096
 20
153.245311365954
 42
0.0
 10
137.0194958303096
 20
153.245311365954
 42
0.0
 10
136.8440488978146
 20
146.7430382291436
 42
-0.0085634322047721
 10
137.3749427628045
 20
146.7430382291435
 42
0.0
 97
        0
 92
        7
 72
     1
 73
     1
 93
        6
 10
137.3749427628045
 20
146.7430382291435
 42
0.0085634322047721
 10
136.8440488978146
 20
146.7430382291436
 42
0.0
 10
136.5094958303094
 20
134.3441014524226
 42
-0.1293106770632391
 10
136.1212773450571
 20
132.8680942304818
 42
-0.2805221108582334
 10
138.0977143155621
 20
132.8680942304818
 42
-0.1293106770632486
 10
137.7094958303096
 20
134.3441014524227
 42
0.0
 97
        0
 75
     0
 76
     1
 47
0.0423559757596284
 98
        2
 10
137.0689330678452
 20
147.3712922413029
 10
137.1960991852367
 20
142.9662707378237
450
        0
451
        0
460
0.0
461
0.0
452
        0
462
0.0
453
        0
470

  0
LINE
  5
1B3A
330
18
100
AcDbEntity
  8
針
100
AcDbLine
 10
137.0194958303096
 20
153.245311365954
 30
0.0
 11
136.5094958303094
 21
134.3441014524231
 31
0.0
  0
LINE
  5
1B3B
330
18
100
AcDbEntity
  8
針
100
AcDbLine
 10
137.1994958303095
 20
153.245311365954
 30
0.0
 11
137.7094958303096
 21
134.3441014524231
 31
0.0
  0
TEXT
  5
1B3C
330
18
100
AcDbEntity
  8
文字
100
AcDbText
 10
135.5003448967478
 20
117.9195966775424
 30
0.0
 40
1.0
  1
6
  7
STYLE3
100
AcDbText
  0
TEXT
  5
1B3D
330
18
100
AcDbEntity
  8
文字
100
AcDbText
 10
131.2528820328906
 20
117.8286101330338
 30
0.0
 40
1.0
  1
4
  7
STYLE3
100
AcDbText
  0
TEXT
  5
1B3E
330
18
100
AcDbEntity
  8
文字
100
AcDbText
 10
133.3915442074575
 20
117.248447244071
 30
0.0
 40
1.0
  1
5
  7
STYLE3
100
AcDbText
  0
LINE
  5
1B3F
330
18
100
AcDbEntity
  8
中心線
 48
0.2
100
AcDbLine
 10
133.9094958303095
 20
127.5348008723104
 30
0.0
 11
133.9094958303095
 21
114.8078790365696
 31
0.0
  0
CIRCLE
  5
1B40
330
18
100
AcDbEntity
  8
外形線
100
AcDbCircle
 10
133.9094958303095
 20
121.17133995444
 30
0.0
 40
4.75
  0
LINE
  5
1B43
330
18
100
AcDbEntity
  8
目盛
100
AcDbLine
 10
131.1175158819202
 20
117.328509231159
 30
0.0
 11
131.4114085080664
 21
117.7330177283465
 31
0.0
  0
LINE
  5
1B45
330
18
100
AcDbEntity
  8
目盛
100
AcDbLine
 10
133.9094958303095
 20
116.42133995444
 30
0.0
 11
133.9094958303095
 21
116.92133995444
 31
0.0
  0
LINE
  5
1B46
330
18
100
AcDbEntity
  8
目盛
100
AcDbLine
 10
136.7014757786988
 20
117.328509231159
 30
0.0
 11
136.4075831525525
 21
117.7330177283465
 31
0.0
  0
LINE
  5
1B47
102
{ACAD_REACTORS
330
1B37
102
}
330
18
100
AcDbEntity
  8
ROGO
 62
     4
100
AcDbLine
 10
132.3575101223984
 20
140.1585135369044
 30
0.0
 11
134.1335932708823
 21
140.1585135369044
 31
0.0
  0
LINE
  5
1B48
102
{ACAD_REACTORS
330
1B37
102
}
330
18
100
AcDbEntity
  8
ROGO
 62
     4
100
AcDbLine
 10
133.7010265521899
 20
141.1708561367699
 30
0.0
 11
134.6344909744078
 21
141.1708561367699
 31
0.0
  0
LINE
  5
1B49
102
{ACAD_REACTORS
330
1B37
102
}
330
18
100
AcDbEntity
  8
ROGO
 62
     4
100
AcDbLine
 10
133.5846567061134
 20
140.9356660935857
 30
0.0
 11
134.5181211283313
 21
140.9356660935857
 31
0.0
  0
LINE
  5
1B4A
102
{ACAD_REACTORS
330
1B37
102
}
330
18
100
AcDbEntity
  8
ROGO
 62
     4
100
AcDbLine
 10
133.3489555578732
 20
140.4593007369045
 30
0.0
 11
134.2824199800911
 21
140.4593007369045
 31
0.0
  0
LINE
  5
1B4B
102
{ACAD_REACTORS
330
1B37
102
}
330
18
100
AcDbEntity
  8
ROGO
 62
     4
100
AcDbLine
 10
133.4653303304895
 20
140.6945007369045
 30
0.0
 11
134.3987947527075
 21
140.6945007369045
 31
0.0
  0
LINE
  5
1B4C
102
{ACAD_REACTORS
330
1B2D
330
1B36
102
}
330
18
100
AcDbEntity
  8
ROGO
 62
     4
100
AcDbLine
 10
129.4268691753751
 20
139.419779682556
 30
0.0
 11
143.3160464423989
 21
139.419779682556
 31
0.0
  0
LINE
  5
1B4D
330
18
100
AcDbEntity
  8
ROGO
 62
     4
100
AcDbLine
 10
130.4594577198169
 20
139.6254498888472
 30
0.0
 11
142.6625165072808
 21
139.6254498888472
 31
0.0
  0
HATCH
  5
1B4E
330
18
100
AcDbEntity
  8
ROGO
 62
     4
100
AcDbHatch
 10
0.0
 20
0.0
 30
0.0
210
0.0
220
0.0
230
1.0
  2
SOLID
 70
     1
 71
     0
 91
        1
 92
        7
 72
     0
 73
     1
 93
        4
 10
130.4737211667336
 20
139.6254498888472
 10
130.3806701313116
 20
139.419779682556
 10
142.5599626998946
 20
139.419779682556
 10
142.6625165072807
 20
139.6254498888472
 97
        0
 75
     0
 76
     1
 47
0.0514683685270805
 98
        1
 10
138.1699564276218
 20
139.5710534246424
450
        0
451
        0
460
0.0
461
0.0
452
        0
462
0.0
453
        0
470

  0
TEXT
  5
1B4F
330
18
100
AcDbEntity
  8
文字
100
AcDbText
 10
133.4231193911791
 20
124.1991138829149
 30
0.0
 40
1.0
  1
0
  7
STYLE3
100
AcDbText
  0
LINE
  5
1B50
330
18
100
AcDbEntity
  8
文字
100
AcDbLine
 10
134.0094958303095
 20
125.87133995444
 30
0.0
 11
133.8094958303094
 21
125.87133995444
 31
0.0
  0
ARC
  5
1B51
330
18
100
AcDbEntity
  8
針
100
AcDbCircle
 10
133.2646354169639
 20
122.6356333155181
 30
0.0
 40
0.5
100
AcDbArc
 50
293.7682212975196
 51
359.2065408792653
  0
HATCH
  5
1B52
330
18
100
AcDbEntity
  8
針
100
AcDbHatch
 10
0.0
 20
0.0
 30
0.0
210
0.0
220
0.0
230
1.0
  2
SOLID
 70
     1
 71
     0
 91
        2
 92
        7
 72
     1
 73
     1
 93
        5
 10
134.2621701199537
 20
120.1294086489193
 42
0.31735696877887
 10
135.0093686700858
 20
121.1546146346389
 42
0.0
 10
134.6480379928031
 20
121.4213226847311
 42
0.0
 10
134.619903538619
 20
121.4117996973792
 42
-0.4142135623731173
 10
134.1499555732487
 20
120.4609322461305
 42
0.0
 97
        0
 92
        7
 72
     1
 73
     1
 93
        4
 10
134.2621701199537
 20
120.1294086489193
 42
0.0
 10
134.1499555732487
 20
120.4609322461305
 42
-0.4142135623730728
 10
133.199088122
 20
120.9308802115008
 42
0.0
 10
132.8675645247889
 20
120.8186656647958
 42
0.4142135623730844
 97
        0
 75
     0
 76
     1
 47
0.0161501285364394
 98
        2
 10
134.5710428421356
 20
120.4750101520364
 10
133.8922477712184
 20
120.2623006100858
450
        0
451
        0
460
0.0
461
0.0
452
        0
462
0.0
453
        0
470

  0
HATCH
  5
1B53
330
18
100
AcDbEntity
  8
針
100
AcDbHatch
 10
0.0
 20
0.0
 30
0.0
210
0.0
220
0.0
230
1.0
  2
SOLID
 70
     1
 71
     0
 91
        4
 92
        7
 72
     1
 73
     1
 93
        4
 10
132.8215783806113
 20
121.3339303066826
 42
0.0
 10
133.167733932788
 20
121.2821970127873
 42
-0.4142135623730951
 10
134.0203528886566
 20
121.9131018519614
 42
0.0
 10
134.072086182552
 20
122.2592574041381
 42
0.4142135623730996
 97
        0
 92
        7
 72
     1
 73
     1
 93
        5
 10
133.167733932788
 20
121.2821970127873
 42
0.0
 10
132.8215783806113
 20
121.3339303066826
 42
0.3173569687788799
 10
133.3918704619399
 20
120.2007401512151
 42
0.0
 10
133.7942484721491
 20
120.4002018749357
 42
0.0
 10
133.7986387719622
 20
120.4295780569185
 42
-0.4142135623730839
 97
        0
 92
        7
 72
     1
 73
     1
 93
        4
 10
134.072086182552
 20
122.2592574041381
 42
0.0
 10
134.0203528886566
 20
121.9131018519614
 42
-0.4142135623730951
 10
134.6512577278309
 20
121.0604828960928
 42
0.0
 10
134.9974132800076
 20
121.0087496021975
 42
0.4142135623730996
 97
        0
 92
        7
 72
     1
 73
     1
 93
        4
 10
134.6512577278309
 20
121.0604828960928
 42
-0.1036385141593389
 10
134.5443658977222
 20
120.7720405711405
 42
0.0
 10
134.9953675356003
 20
120.9956053828588
 42
0.003023315109616
 10
134.9974132800076
 20
121.0087496021975
 42
0.0
 97
        0
 75
     0
 76
     1
 47
0.0223982890607777
 98
        4
 10
133.4054403293104
 20
122.0230951425087
 10
133.0780853420479
 20
120.8934559414056
 10
134.3368756795016
 20
122.0425436133153
 10
134.722747136231
 20
120.9876291666021
450
        0
451
        0
460
0.0
461
0.0
452
        0
462
0.0
453
        0
470

  0
CIRCLE
  5
1B54
330
18
100
AcDbEntity
  8
針
100
AcDbCircle
 10
133.9094958303095
 20
121.17133995444
 30
0.0
 40
1.1
  0
CIRCLE
  5
1B55
330
18
100
AcDbEntity
  8
針
100
AcDbCircle
 10
133.9094958303095
 20
121.17133995444
 30
0.0
 40
0.75
  0
CIRCLE
  5
1B56
330
18
100
AcDbEntity
  8
針
 62
     4
100
AcDbCircle
 10
133.9094958303095
 20
121.17133995444
 30
0.0
 40
0.4
  0
HATCH
  5
1B57
330
18
100
AcDbEntity
  8
針
100
AcDbHatch
 10
0.0
 20
0.0
 30
0.0
210
0.0
220
0.0
230
1.0
  2
SOLID
 70
     1
 71
     0
 91
        1
 92
        7
 72
     1
 73
     1
 93
        7
 10
134.0094958303096
 20
125.8713399544401
 42
0.0
 10
133.9094958303095
 20
125.87133995444
 42
0.0
 10
133.8094958303094
 20
125.87133995444
 42
0.0
 10
133.7645874726711
 20
122.6287092997696
 42
-0.2935495917910092
 10
133.4661542961343
 20
122.1780416401814
 42
-0.2104432563350663
 10
134.3528366848674
 20
122.1780419394782
 42
-0.2935491884945053
 10
134.0544041879479
 20
122.6287092997696
 42
0.0
 97
        0
 75
     0
 76
     1
 47
0.0140573597042523
 98
        1
 10
133.9680975462069
 20
124.0658999997403
450
        0
451
        0
460
0.0
461
0.0
452
        0
462
0.0
453
        0
470

  0
LINE
  5
1B58
330
18
100
AcDbEntity
  8
中心線
 48
0.2
100
AcDbLine
 10
127.5460349124391
 20
121.17133995444
 30
0.0
 11
140.2729567481799
 21
121.17133995444
 31
0.0
  0
TEXT
  5
1B59
330
18
100
AcDbEntity
  8
文字
100
AcDbText
 10
131.4830056164821
 20
123.3828235796226
 30
0.0
 40
1.0
  1
1
  7
STYLE3
100
AcDbText
  0
LINE
  5
1B5A
330
18
100
AcDbEntity
  8
針
100
AcDbLine
 10
133.7645874726711
 20
122.6287092997696
 30
0.0
 11
133.8094958303094
 21
125.87133995444
 31
0.0
  0
LINE
  5
1B5B
330
18
100
AcDbEntity
  8
目盛
100
AcDbLine
 10
129.3919773779074
 20
122.639170677721
 30
0.0
 11
129.8675056360552
 21
122.4846621805335
 31
0.0
  0
LINE
  5
1B5C
330
18
100
AcDbEntity
  8
目盛
100
AcDbLine
 10
129.3919773779074
 20
119.703509231159
 30
0.0
 11
129.867505636055
 21
119.8580177283465
 31
0.0
  0
TEXT
  5
1B5D
330
18
100
AcDbEntity
  8
文字
100
AcDbText
 10
130.1042435484665
 20
119.4268237417489
 30
0.0
 40
1.0
  1
3
  7
STYLE3
100
AcDbText
  0
TEXT
  5
1B5E
330
18
100
AcDbEntity
  8
文字
100
AcDbText
 10
130.1578938747314
 20
121.6509386907651
 30
0.0
 40
1.0
  1
2
  7
STYLE3
100
AcDbText
  0
LINE
  5
1B5F
330
18
100
AcDbEntity
  8
目盛
100
AcDbLine
 10
131.1175158819202
 20
125.014170677721
 30
0.0
 11
131.4114085080665
 21
124.6096621805335
 31
0.0
  0
LINE
  5
1B60
102
{ACAD_REACTORS
330
1B36
102
}
330
18
100
AcDbEntity
  8
ROGO
 62
     4
100
AcDbLine
 10
131.6065025506213
 20
140.1585135369044
 30
0.0
 11
130.71489428214
 21
140.1585135369044
 31
0.0
  0
LINE
  5
1B61
102
{ACAD_REACTORS
330
1B36
102
}
330
18
100
AcDbEntity
  8
ROGO
 62
     4
100
AcDbLine
 10
131.0792565708076
 20
140.9638615562486
 30
0.0
 11
130.9212587744502
 21
140.6146398713632
 31
0.0
  0
SPLINE
  5
1B62
102
{ACAD_REACTORS
330
1B36
102
}
330
18
100
AcDbEntity
  8
ROGO
 62
     4
100
AcDbSpline
210
0.0
220
0.0
230
1.0
 70
     8
 71
     3
 72
    15
 73
    11
 74
     9
 42
0.0000000001
 43
0.0000000001
 44
0.0000000001
 40
0.0
 40
0.0
 40
0.0
 40
0.0
 40
0.1539705029175028
 40
0.2241725832587281
 40
0.3038566179396687
 40
0.3581410872474193
 40
0.443992538467216
 40
0.4954152125469665
 40
0.5836396705646186
 40
0.6130478420065743
 40
0.6130478420065743
 40
0.6130478420065743
 40
0.6130478420065743
 10
131.485243569905
 20
140.9638615562486
 30
0.0
 10
131.5430719049642
 20
140.964126440891
 30
0.0
 10
131.6272667800223
 20
140.9645120983607
 30
0.0
 10
131.6733075363869
 20
140.8603627944312
 30
0.0
 10
131.6526698741534
 20
140.7933068897938
 30
0.0
 10
131.6267266507294
 20
140.724461375546
 30
0.0
 10
131.580879099187
 20
140.6776798102767
 30
0.0
 10
131.5193449695918
 20
140.6326212766397
 30
0.0
 10
131.4611922765361
 20
140.6271667393802
 30
0.0
 10
131.4233704775635
 20
140.617145245926
 30
0.0
 10
131.4139150232942
 20
140.6146398713632
 30
0.0
 11
131.485243569905
 21
140.9638615562486
 31
0.0
 11
131.6350336408338
 21
140.9282265956087
 31
0.0
 11
131.6635651415088
 21
140.8640838988033
 31
0.0
 11
131.649299596248
 21
140.7856872177419
 31
0.0
 11
131.6279010732801
 21
140.7357982728461
 31
0.0
 11
131.5708380719301
 21
140.6716555760407
 31
0.0
 11
131.5280410259942
 21
140.6431476075287
 31
0.0
 11
131.4424465239692
 21
140.6217668634912
 31
0.0
 11
131.4139150232942
 21
140.6146398713632
 31
0.0
  0
LINE
  5
1B63
102
{ACAD_REACTORS
330
1B36
102
}
330
18
100
AcDbEntity
  8
ROGO
 62
     4
100
AcDbLine
 10
131.4852435699051
 20
140.9638615562486
 30
0.0
 11
131.0792565708076
 21
140.9638615562486
 31
0.0
  0
LINE
  5
1B64
102
{ACAD_REACTORS
330
1B36
102
}
330
18
100
AcDbEntity
  8
ROGO
 62
     4
100
AcDbLine
 10
131.4139150232943
 20
140.6146398713632
 30
0.0
 11
130.9212587744502
 21
140.6146398713632
 31
0.0
  0
LINE
  5
1B65
102
{ACAD_REACTORS
330
1B36
102
}
330
18
100
AcDbEntity
  8
ROGO
 62
     4
100
AcDbLine
 10
130.71489428214
 20
140.1585135369044
 30
0.0
 11
130.3806701313116
 21
139.419779682556
 31
0.0
  0
LINE
  5
1B66
102
{ACAD_REACTORS
330
1B37
102
}
330
18
100
AcDbEntity
  8
ROGO
 62
     4
100
AcDbLine
 10
133.7010265521899
 20
141.1708561367699
 30
0.0
 11
133.5846567061134
 21
140.9356660935857
 31
0.0
  0
LINE
  5
1B67
102
{ACAD_REACTORS
330
1B37
102
}
330
18
100
AcDbEntity
  8
ROGO
 62
     4
100
AcDbLine
 10
133.4653303304895
 20
140.6945007369045
 30
0.0
 11
133.3489555578732
 21
140.4593007369045
 31
0.0
  0
CIRCLE
  5
1B68
330
18
100
AcDbEntity
  8
針
100
AcDbCircle
 10
137.1094958303095
 20
131.2453113659539
 30
0.0
 40
1.9
  0
TEXT
  5
1B69
330
18
100
AcDbEntity
  8
文字
100
AcDbText
 10
135.5274381547775
 20
123.4268879827444
 30
0.0
 40
1.0
  1
9
  7
STYLE3
100
AcDbText
  0
LINE
  5
1B6A
330
18
100
AcDbEntity
  8
針
100
AcDbLine
 10
134.0544041879479
 20
122.6287092997696
 30
0.0
 11
134.0094958303095
 21
125.87133995444
 31
0.0
  0
TEXT
  5
1B6B
330
18
100
AcDbEntity
  8
文字
100
AcDbText
 10
136.9086591096476
 20
119.3688110341435
 30
0.0
 40
1.0
  1
7
  7
STYLE3
100
AcDbText
  0
ARC
  5
1B6C
330
18
100
AcDbEntity
  8
針
100
AcDbCircle
 10
134.554356243655
 20
122.6356333155181
 30
0.0
 40
0.5
100
AcDbArc
 50
180.7934591207347
 51
246.2317787024804
  0
TEXT
  5
1B6D
330
18
100
AcDbEntity
  8
文字
100
AcDbText
 10
136.95808195552
 20
121.781447882194
 30
0.0
 40
1.0
  1
8
  7
STYLE3
100
AcDbText
  0
LINE
  5
1B6E
330
18
100
AcDbEntity
  8
目盛
100
AcDbLine
 10
138.4270142827114
 20
119.703509231159
 30
0.0
 11
137.9514860245639
 21
119.8580177283465
 31
0.0
  0
LINE
  5
1B6F
330
18
100
AcDbEntity
  8
目盛
100
AcDbLine
 10
138.4270142827114
 20
122.639170677721
 30
0.0
 11
137.9514860245639
 21
122.4846621805335
 31
0.0
  0
LINE
  5
1B70
330
18
100
AcDbEntity
  8
目盛
100
AcDbLine
 10
133.9094958303095
 20
125.92133995444
 30
0.0
 11
133.9094958303095
 21
125.42133995444
 31
0.0
  0
LINE
  5
1B71
330
18
100
AcDbEntity
  8
目盛
100
AcDbLine
 10
136.7014757786987
 20
125.014170677721
 30
0.0
 11
136.4075831525525
 21
124.6096621805335
 31
0.0
  0
LINE
  5
1B72
102
{ACAD_REACTORS
330
1B28
102
}
330
18
100
AcDbEntity
  8
ROGO
 62
     4
100
AcDbLine
 10
141.5222631144285
 20
140.1585135369044
 30
0.0
 11
142.6532921294331
 21
140.1585135369044
 31
0.0
  0
CIRCLE
  5
1B73
330
18
100
AcDbEntity
  8
針
100
AcDbCircle
 10
137.1094958303095
 20
131.2453113659539
 30
0.0
 40
1.5
  0
POINT
  5
1B74
330
18
100
AcDbEntity
  8
DEFPOINTS
  6
ByBlock
 62
     0
100
AcDbPoint
 10
137.1094958303095
 20
131.245311365954
 30
0.0
  0
POINT
  5
1B75
330
18
100
AcDbEntity
  8
DEFPOINTS
  6
ByBlock
 62
     0
100
AcDbPoint
 10
137.1094958303095
 20
131.245311365954
 30
0.0
  0
POINT
  5
1B76
330
18
100
AcDbEntity
  8
DEFPOINTS
  6
ByBlock
 62
     0
100
AcDbPoint
 10
137.1094958303096
 20
131.2453113659539
 30
0.0
  0
POINT
  5
1B77
330
18
100
AcDbEntity
  8
DEFPOINTS
  6
ByBlock
 62
     0
100
AcDbPoint
 10
137.1094958303096
 20
131.2453113659539
 30
0.0
  0
CIRCLE
  5
1B78
330
18
100
AcDbEntity
  8
針
100
AcDbCircle
 10
137.1094958303095
 20
131.2453113659539
 30
0.0
 40
0.475
  0
ARC
  5
1B79
330
18
100
AcDbEntity
  8
針
100
AcDbCircle
 10
133.5094958303095
 20
134.3441014524231
 30
0.0
 40
3.0
100
AcDbArc
 50
330.5277208229603
 51
0.0
  0
ARC
  5
1B7A
330
18
100
AcDbEntity
  8
針
100
AcDbCircle
 10
140.7094958303096
 20
134.3441014524231
 30
0.0
 40
3.0
100
AcDbArc
 50
180.0
 51
209.4722791770395
  0
LINE
  5
1B7B
102
{ACAD_REACTORS
330
1B38
102
}
330
18
100
AcDbEntity
  8
ROGO
 62
     4
100
AcDbLine
 10
137.2911933435006
 20
140.1585135369044
 30
0.0
 11
138.4222223585052
 21
140.1585135369044
 31
0.0
  0
SPLINE
  5
1B7C
102
{ACAD_REACTORS
330
1B38
102
}
330
18
100
AcDbEntity
  8
ROGO
 62
     4
100
AcDbSpline
210
0.0
220
0.0
230
1.0
 70
     8
 71
     3
 72
    16
 73
    12
 74
    10
 42
0.0000000001
 43
0.0000000001
 44
0.0000000001
 40
0.0
 40
0.0
 40
0.0
 40
0.0
 40
0.1255907025629711
 40
0.1869327038470372
 40
0.2171823804790188
 40
0.2490606136884497
 40
0.2947101524738226
 40
0.3362763310931653
 40
0.3796288870083566
 40
0.452312579561098
 40
0.5242542460842631
 40
0.5242542460842631
 40
0.5242542460842631
 40
0.5242542460842631
 10
138.0116126076228
 20
140.9830834152451
 30
0.0
 10
137.9690819000014
 20
140.9765993219411
 30
0.0
 10
137.90577800879
 20
140.9669482166556
 30
0.0
 10
137.8485322573988
 20
140.9216331096799
 30
0.0
 10
137.8162496282748
 20
140.8946736373634
 30
0.0
 10
137.8052669340232
 20
140.8589716431812
 30
0.0
 10
137.7757708661626
 20
140.8315579921456
 30
0.0
 10
137.7514577162853
 20
140.7938828114295
 30
0.0
 10
137.7456522872236
 20
140.7421353404703
 30
0.0
 10
137.7499136050712
 20
140.669515651333
 30
0.0
 10
137.8008303196402
 20
140.6545352073337
 30
0.0
 10
137.826158058312
 20
140.6470834152451
 30
0.0
 11
138.0116126076228
 21
140.9830834152451
 31
0.0
 11
137.890354037369
 21
140.9503819823977
 31
0.0
 11
137.8404240137261
 21
140.9147472541041
 31
0.0
 11
137.8190254907583
 21
140.8933662777201
 31
0.0
 11
137.804759535344
 21
140.8648583092082
 31
0.0
 11
137.776228034669
 21
140.8292235809148
 31
0.0
 11
137.7548295117011
 21
140.7935886202749
 31
0.0
 11
137.7476965339939
 21
140.7508268998534
 31
0.0
 11
137.7619624894082
 21
140.6795569785736
 31
0.0
 11
137.826158058312
 21
140.6470834152451
 31
0.0
  0
LINE
  5
1B7D
102
{ACAD_REACTORS
330
1B38
102
}
330
18
100
AcDbEntity
  8
ROGO
 62
     4
100
AcDbLine
 10
137.8261580583119
 20
140.6470834152451
 30
0.0
 11
138.6658390791841
 21
140.6470834152451
 31
0.0
  0
LINE
  5
1B7E
102
{ACAD_REACTORS
330
1B37
102
}
330
18
100
AcDbEntity
  8
ROGO
 62
     4
100
AcDbLine
 10
134.5181211283313
 20
140.9356660935857
 30
0.0
 11
134.3987947527075
 21
140.6945007369045
 31
0.0
  0
LINE
  5
1B7F
102
{ACAD_REACTORS
330
1B37
102
}
330
18
100
AcDbEntity
  8
ROGO
 62
     4
100
AcDbLine
 10
134.2824199800911
 20
140.4593007369045
 30
0.0
 11
134.1335932708823
 21
140.1585135369044
 31
0.0
  0
LINE
  5
1B80
102
{ACAD_REACTORS
330
1B32
102
}
330
18
100
AcDbEntity
  8
ROGO
 62
     4
100
AcDbLine
 10
135.7719472919718
 20
141.1206494905102
 30
0.0
 11
135.4485805556585
 21
140.6722262186913
 31
0.0
  0
LINE
  5
1B81
102
{ACAD_REACTORS
330
1B32
102
}
330
18
100
AcDbEntity
  8
ROGO
 62
     4
100
AcDbLine
 10
135.2584227945134
 20
140.4085282069953
 30
0.0
 11
136.0882997832978
 21
140.4085282069953
 31
0.0
  0
LINE
  5
1B82
102
{ACAD_REACTORS
330
1B32
102
}
330
18
100
AcDbEntity
  8
ROGO
 62
     4
100
AcDbLine
 10
135.4485805556585
 20
140.6722262186914
 30
0.0
 11
135.9711546776972
 21
140.6722262186914
 31
0.0
  0
LINE
  5
1B83
102
{ACAD_REACTORS
330
1B32
102
}
330
18
100
AcDbEntity
  8
ROGO
 62
     4
100
AcDbLine
 10
135.2584227945134
 20
140.4085282069953
 30
0.0
 11
135.0781323569326
 21
140.1585135369045
 31
0.0
  0
LINE
  5
1B84
102
{ACAD_REACTORS
330
1B32
102
}
330
18
100
AcDbEntity
  8
ROGO
 62
     4
100
AcDbLine
 10
134.350885105241
 20
140.1585135369044
 30
0.0
 11
135.0781323569325
 21
140.1585135369044
 31
0.0
  0
LINE
  5
1B85
102
{ACAD_REACTORS
330
1B32
102
}
330
18
100
AcDbEntity
  8
ROGO
 62
     4
100
AcDbLine
 10
136.9315739284948
 20
140.1585135369045
 30
0.0
 11
136.1993662063667
 21
140.1585135369044
 31
0.0
  0
LINE
  5
1B86
102
{ACAD_REACTORS
330
1B32
102
}
330
18
100
AcDbEntity
  8
ROGO
 62
     4
100
AcDbLine
 10
135.7719472919718
 20
141.1206494905102
 30
0.0
 11
135.9711546776972
 21
140.6722262186913
 31
0.0
  0
LINE
  5
1B87
102
{ACAD_REACTORS
330
1B32
102
}
330
18
100
AcDbEntity
  8
ROGO
 62
     4
100
AcDbLine
 10
136.0882997832978
 20
140.4085282069953
 30
0.0
 11
136.1993662063667
 21
140.1585135369044
 31
0.0
  0
LINE
  5
1B88
102
{ACAD_REACTORS
330
1B2B
102
}
330
18
100
AcDbEntity
  8
ROGO
 62
     4
100
AcDbLine
 10
139.4219401900141
 20
140.1585135369044
 30
0.0
 11
140.1723940131995
 21
140.1585135369044
 31
0.0
  0
SPLINE
  5
1B89
102
{ACAD_REACTORS
330
1B2B
102
}
330
18
100
AcDbEntity
  8
ROGO
 62
     4
100
AcDbSpline
210
0.0
220
0.0
230
1.0
 70
     8
 71
     3
 72
    11
 73
     7
 74
     0
 42
0.0000000001
 43
0.0000000001
 40
0.1647869275458134
 40
0.1647869275458134
 40
0.1647869275458134
 40
0.1647869275458134
 40
0.2895635144633836
 40
0.5387013147903714
 40
0.7953622617455423
 40
0.8850764140209602
 40
0.8850764140209602
 40
0.8850764140209602
 40
0.8850764140209602
 10
140.4224114718175
 20
140.1877899838131
 30
0.0
 10
140.4084329290166
 20
140.1838990510966
 30
0.0
 10
140.3650919175824
 20
140.1769714613127
 30
0.0
 10
140.2923931504443
 20
140.1674590669393
 30
0.0
 10
140.223296608348
 20
140.1575325363547
 30
0.0
 10
140.1828659135194
 20
140.1583117212615
 30
0.0
 10
140.1723940131995
 20
140.1585135369044
 30
0.0
  0
SPLINE
  5
1B8A
102
{ACAD_REACTORS
330
1B2B
102
}
330
18
100
AcDbEntity
  8
ROGO
 62
     4
100
AcDbSpline
210
0.0
220
0.0
230
1.0
 70
     8
 71
     3
 72
     9
 73
     5
 74
     3
 42
0.0000000001
 43
0.0000000001
 44
0.0000000001
 40
0.0
 40
0.0
 40
0.0
 40
0.0
 40
0.1135793343552172
 40
0.2662938392177403
 40
0.2662938392177403
 40
0.2662938392177403
 40
0.2662938392177403
 10
140.4224114718175
 20
140.1877899838131
 30
0.0
 10
140.4588964401355
 20
140.1989523235363
 30
0.0
 10
140.5444377258129
 20
140.2251231257903
 30
0.0
 10
140.6151144230497
 20
140.2804354435647
 30
0.0
 10
140.6556461787056
 20
140.3121560167726
 30
0.0
 11
140.4224114718175
 21
140.1877899838131
 31
0.0
 11
140.5291622360421
 21
140.2265783780828
 31
0.0
 11
140.6556461787056
 21
140.3121560167726
 31
0.0
  0
ELLIPSE
  5
1B8B
102
{ACAD_REACTORS
330
1B2B
102
}
330
18
100
AcDbEntity
  8
ROGO
 62
     4
100
AcDbEllipse
 10
139.978682546188
 20
140.7994396944153
 30
0.0
 11
0.1782847090673272
 21
0.1567790921840611
 31
0.0
210
0.0
220
0.0
230
1.0
 40
0.6788083417438792
 41
0.0
 42
6.283185307179586
  0
LINE
  5
1B8C
102
{ACAD_REACTORS
330
1B38
102
}
330
18
100
AcDbEntity
  8
ROGO
 62
     4
100
AcDbLine
 10
138.0116126076227
 20
140.9830834152451
 30
0.0
 11
138.8333795309739
 21
140.9830834152451
 31
0.0
  0
LINE
  5
1B8D
102
{ACAD_REACTORS
330
1B38
102
}
330
18
100
AcDbEntity
  8
ROGO
 62
     4
100
AcDbLine
 10
138.6658390791841
 20
140.6470834152451
 30
0.0
 11
138.4222223585052
 21
140.1585135369044
 31
0.0
  0
TEXT
  5
1B8E
330
18
100
AcDbEntity
  8
文字
100
AcDbText
 10
143.1780311505634
 20
130.8097879620397
 30
0.0
 40
1.0
  1
0.01mm
  7
STYLE3
100
AcDbText
  0
LINE
  5
1BB7
102
{ACAD_REACTORS
330
1B2D
102
}
330
18
100
AcDbEntity
  8
ROGO
 62
     4
100
AcDbLine
 10
143.5830957315645
 20
139.9553432446755
 30
0.0
 11
143.8501450207302
 21
139.419779682556
 31
0.0
  0
LINE
  5
1BB8
102
{ACAD_REACTORS
330
1B2D
102
}
330
18
100
AcDbEntity
  8
ROGO
 62
     4
100
AcDbLine
 10
144.0946457048953
 20
140.445719075009
 30
0.0
 11
144.6062122207302
 21
139.419779682556
 31
0.0
  0
LINE
  5
1BB9
102
{ACAD_REACTORS
330
1B2D
102
}
330
18
100
AcDbEntity
  8
ROGO
 62
     4
100
AcDbLine
 10
143.8501450207302
 20
139.419779682556
 30
0.0
 11
144.6062122207302
 21
139.419779682556
 31
0.0
  0
SPLINE
  5
1BBA
102
{ACAD_REACTORS
330
1B28
102
}
330
18
100
AcDbEntity
  8
ROGO
 62
     4
100
AcDbSpline
210
0.0
220
0.0
230
1.0
 70
     8
 71
     3
 72
    16
 73
    12
 74
    10
 42
0.0000000001
 43
0.0000000001
 44
0.0000000001
 40
0.0
 40
0.0
 40
0.0
 40
0.0
 40
0.1255907025629163
 40
0.1869327038470616
 40
0.217182380479003
 40
0.2490606136884339
 40
0.2947101524738157
 40
0.3362763310931585
 40
0.3796288870082937
 40
0.4523125795610796
 40
0.5242542460842448
 40
0.5242542460842448
 40
0.5242542460842448
 40
0.5242542460842448
 10
142.2426823785506
 20
140.9830834152451
 30
0.0
 10
142.2001516709292
 20
140.9765993219411
 30
0.0
 10
142.1368477797178
 20
140.9669482166556
 30
0.0
 10
142.0796020283268
 20
140.9216331096798
 30
0.0
 10
142.0473193992026
 20
140.8946736373633
 30
0.0
 10
142.036336704951
 20
140.8589716431812
 30
0.0
 10
142.0068406370905
 20
140.8315579921455
 30
0.0
 10
141.9825274872132
 20
140.7938828114294
 30
0.0
 10
141.9767220581514
 20
140.7421353404702
 30
0.0
 10
141.980983375999
 20
140.6695156513329
 30
0.0
 10
142.031900090568
 20
140.6545352073336
 30
0.0
 10
142.0572278292398
 20
140.647083415245
 30
0.0
 11
142.2426823785506
 21
140.9830834152451
 31
0.0
 11
142.1214238082969
 21
140.9503819823977
 31
0.0
 11
142.071493784654
 21
140.9147472541041
 31
0.0
 11
142.0500952616861
 21
140.8933662777201
 31
0.0
 11
142.0358293062719
 21
140.8648583092082
 31
0.0
 11
142.0072978055969
 21
140.8292235809147
 31
0.0
 11
141.9858992826289
 21
140.7935886202748
 31
0.0
 11
141.9787663049218
 21
140.7508268998534
 31
0.0
 11
141.993032260336
 21
140.6795569785736
 31
0.0
 11
142.0572278292398
 21
140.647083415245
 31
0.0
  0
LINE
  5
1BBB
102
{ACAD_REACTORS
330
1B28
102
}
330
18
100
AcDbEntity
  8
ROGO
 62
     4
100
AcDbLine
 10
142.8969088501119
 20
140.6470834152451
 30
0.0
 11
142.6532921294331
 21
140.1585135369044
 31
0.0
  0
LINE
  5
1BBC
102
{ACAD_REACTORS
330
1B28
102
}
330
18
100
AcDbEntity
  8
ROGO
 62
     4
100
AcDbLine
 10
142.0572278292398
 20
140.6470834152451
 30
0.0
 11
142.8969088501119
 21
140.6470834152451
 31
0.0
  0
LINE
  5
1BBD
102
{ACAD_REACTORS
330
1B28
102
}
330
18
100
AcDbEntity
  8
ROGO
 62
     4
100
AcDbLine
 10
142.2426823785506
 20
140.9830834152451
 30
0.0
 11
143.0644493019018
 21
140.9830834152451
 31
0.0
  0
LINE
  5
1BBE
102
{ACAD_REACTORS
330
1B2D
102
}
330
18
100
AcDbEntity
  8
ROGO
 62
     4
100
AcDbLine
 10
143.5830957315645
 20
139.9553432446755
 30
0.0
 11
143.3160464423989
 21
139.419779682556
 31
0.0
  0
LINE
  5
1BBF
330
18
100
AcDbEntity
  8
外形線
100
AcDbLine
 10
132.8594958303094
 20
165.045311365954
 30
0.0
 11
132.8594958303097
 21
163.445311365954
 31
0.0
  0
LINE
  5
1BC0
330
18
100
AcDbEntity
  8
外形線
100
AcDbLine
 10
141.3594958303094
 20
165.045311365954
 30
0.0
 11
141.3594958303094
 21
163.4453113659539
 31
0.0
  0
LINE
  5
1BC1
330
18
100
AcDbEntity
  8
外形線
100
AcDbLine
 10
132.8594958303097
 20
165.045311365954
 30
0.0
 11
132.8594958303097
 21
163.4453113659539
 31
0.0
  0
LINE
  5
1BC2
330
18
100
AcDbEntity
  8
外形線
100
AcDbLine
 10
141.3594958303097
 20
165.045311365954
 30
0.0
 11
141.3594958303094
 21
163.445311365954
 31
0.0
  0
ARC
  5
1BC3
330
18
100
AcDbEntity
  8
外形線
100
AcDbCircle
 10
150.2612620031511
 20
103.8233599939007
 30
0.0
 40
60.0
100
AcDbArc
 50
96.15495908808656
 51
118.4866040973081
  0
LINE
  5
1BC4
330
18
100
AcDbEntity
  8
外形線
100
AcDbLine
 10
141.1594958303094
 20
163.2453113659539
 30
0.0
 11
133.0594958303097
 21
163.2453113659541
 31
0.0
  0
LINE
  5
1BC5
330
18
100
AcDbEntity
  8
外形線
100
AcDbLine
 10
133.0594958303097
 20
163.2453113659539
 30
0.0
 11
141.1594958303094
 21
163.2453113659541
 31
0.0
  0
ARC
  5
1BC6
330
18
100
AcDbEntity
  8
外形線
100
AcDbCircle
 10
150.2612620031511
 20
103.8233599939007
 30
0.0
 40
59.0
100
AcDbArc
 50
96.15495908808656
 51
118.4866040973081
  0
LINE
  5
1BC7
102
{ACAD_REACTORS
330
1B37
102
}
330
18
100
AcDbEntity
  8
ROGO
 62
     4
100
AcDbLine
 10
133.0072420216585
 20
141.4716584674619
 30
0.0
 11
134.7833251701424
 21
141.471658467462
 31
0.0
  0
LINE
  5
1BC8
330
18
100
AcDbEntity
  8
針
100
AcDbLine
 10
137.1094958303095
 20
153.245311365954
 30
0.0
 11
137.0194958303096
 21
153.245311365954
 31
0.0
  0
LINE
  5
1BC9
330
18
100
AcDbEntity
  8
針
100
AcDbLine
 10
137.1094958303096
 20
153.245311365954
 30
0.0
 11
137.1994958303095
 21
153.245311365954
 31
0.0
  0
LINE
  5
1BCA
102
{ACAD_REACTORS
330
1B36
102
}
330
18
100
AcDbEntity
  8
ROGO
 62
     4
100
AcDbLine
 10
130.4421197154677
 20
141.4716584674619
 30
0.0
 11
132.0546180284529
 21
141.4716584674619
 31
0.0
  0
LINE
  5
1BCB
330
18
100
AcDbEntity
  8
外形線
100
AcDbLine
 10
121.6440653539466
 20
156.5590789701388
 30
0.0
 11
122.1210186314333
 21
155.6801503205347
 31
0.0
  0
LINE
  5
1BCC
330
18
100
AcDbEntity
  8
外形線
100
AcDbLine
 10
133.0594958303097
 20
163.2453113659541
 30
0.0
 11
132.8594958303097
 21
163.445311365954
 31
0.0
  0
LINE
  5
1BCD
330
18
100
AcDbEntity
  8
外形線
100
AcDbLine
 10
132.8594958303097
 20
163.4453113659539
 30
0.0
 11
133.0594958303097
 21
163.2453113659539
 31
0.0
  0
LINE
  5
1BCE
102
{ACAD_REACTORS
330
1B28
102
}
330
18
100
AcDbEntity
  8
ROGO
 62
     4
100
AcDbLine
 10
141.9930322603364
 20
141.4716584674619
 30
0.0
 11
143.3080686024423
 21
141.4716584674619
 31
0.0
  0
LINE
  5
1BCF
102
{ACAD_REACTORS
330
1B38
102
}
330
18
100
AcDbEntity
  8
ROGO
 62
     4
100
AcDbLine
 10
137.7619624894086
 20
141.471658467462
 30
0.0
 11
139.0769988315145
 21
141.471658467462
 31
0.0
  0
LINE
  5
1BD0
102
{ACAD_REACTORS
330
1B32
102
}
330
18
100
AcDbEntity
  8
ROGO
 62
     4
100
AcDbLine
 10
135.2978194353401
 20
141.4716584674619
 30
0.0
 11
136.3482229181115
 21
141.471658467462
 31
0.0
  0
LINE
  5
1BD1
102
{ACAD_REACTORS
330
1B2B
102
}
330
18
100
AcDbEntity
  8
ROGO
 62
     4
100
AcDbLine
 10
139.8062241515573
 20
141.4771356866343
 30
0.0
 11
140.5566779747426
 21
141.4771356866343
 31
0.0
  0
LINE
  5
1BD2
102
{ACAD_REACTORS
330
1B2D
102
}
330
18
100
AcDbEntity
  8
ROGO
 62
     4
100
AcDbLine
 10
143.5830957315645
 20
141.4716584674619
 30
0.0
 11
144.3391794740687
 21
141.4716584674619
 31
0.0
  0
LINE
  5
1BD3
102
{ACAD_REACTORS
330
1B2D
102
}
330
18
100
AcDbEntity
  8
ROGO
 62
     4
100
AcDbLine
 10
144.3391794740687
 20
141.4716584674619
 30
0.0
 11
144.2274741671477
 21
141.2476350586403
 31
0.0
  0
LINE
  5
1BD4
102
{ACAD_REACTORS
330
1B2D
102
}
330
18
100
AcDbEntity
  8
ROGO
 62
     4
100
AcDbLine
 10
144.2274741671477
 20
141.2476350586403
 30
0.0
 11
144.5814872502265
 21
141.4716584674619
 31
0.0
  0
LINE
  5
1BD5
102
{ACAD_REACTORS
330
1B2D
102
}
330
18
100
AcDbEntity
  8
ROGO
 62
     4
100
AcDbLine
 10
144.5814872502265
 20
141.4716584674619
 30
0.0
 11
145.3375544502265
 21
141.4716584674619
 31
0.0
  0
LINE
  5
1BD6
330
18
100
AcDbEntity
  8
外形線
100
AcDbLine
 10
141.0781227969073
 20
157.3453113659539
 30
0.0
 11
149.1094958303097
 21
157.345311365954
 31
0.0
  0
LINE
  5
1BD7
330
18
100
AcDbEntity
  8
外形線
100
AcDbLine
 10
134.8094958303095
 20
160.7640565310859
 30
0.0
 11
134.8094958303095
 21
157.5449311350685
 31
0.0
  0
LINE
  5
1BD8
330
18
100
AcDbEntity
  8
外形線
100
AcDbLine
 10
134.8094958303095
 20
160.764056531086
 30
0.0
 11
134.8094958303095
 21
157.5449311350685
 31
0.0
  0
LINE
  5
1BD9
330
18
100
AcDbEntity
  8
外形線
100
AcDbLine
 10
139.4094958303096
 20
160.7640565310859
 30
0.0
 11
139.4094958303096
 21
157.5449311350685
 31
0.0
  0
LINE
  5
1BDA
330
18
100
AcDbEntity
  8
外形線
100
AcDbLine
 10
139.4094958303096
 20
161.8168007517137
 30
0.0
 11
139.4094958303096
 21
157.5449311350685
 31
0.0
  0
LINE
  5
1BDB
330
18
100
AcDbEntity
  8
外形線
100
AcDbLine
 10
134.8094958303095
 20
163.2453113659541
 30
0.0
 11
134.8094958303095
 21
162.8338605080462
 31
0.0
  0
LINE
  5
1BDC
330
18
100
AcDbEntity
  8
外形線
100
AcDbLine
 10
134.8094958303095
 20
161.8168007517137
 30
0.0
 11
134.8094958303095
 21
161.7995872093709
 31
0.0
  0
LINE
  5
1BDD
330
18
100
AcDbEntity
  8
外形線
100
AcDbLine
 10
134.8094958303095
 20
163.2453113659541
 30
0.0
 11
134.8094958303095
 21
161.7995872093707
 31
0.0
  0
LINE
  5
1BDE
330
18
100
AcDbEntity
  8
外形線
100
AcDbLine
 10
141.3594958303094
 20
163.4453113659539
 30
0.0
 11
141.1594958303094
 21
163.2453113659539
 31
0.0
  0
LINE
  5
1BDF
330
18
100
AcDbEntity
  8
外形線
100
AcDbLine
 10
139.4094958303096
 20
163.2453113659541
 30
0.0
 11
139.4094958303096
 21
162.8338605080462
 31
0.0
  0
LINE
  5
1BE0
330
18
100
AcDbEntity
  8
外形線
100
AcDbLine
 10
141.1594958303094
 20
163.2453113659541
 30
0.0
 11
141.3594958303094
 21
163.445311365954
 31
0.0
  0
LINE
  5
1BE1
330
18
100
AcDbEntity
  8
外形線
100
AcDbLine
 10
141.1888552485134
 20
163.1334892778467
 30
0.0
 11
141.3107897341012
 21
162.1405019519988
 31
0.0
  0
LINE
  5
1BE2
330
18
100
AcDbEntity
  8
外形線
100
AcDbLine
 10
139.4094958303096
 20
161.8168007517137
 30
0.0
 11
139.4094958303096
 21
161.7995872093707
 31
0.0
  0
LINE
  5
1BE3
330
18
100
AcDbEntity
  8
外形線
100
AcDbLine
 10
149.1094958303097
 20
161.2453113659539
 30
0.0
 11
149.1094958303097
 21
156.345311365954
 31
0.0
  0
LINE
  5
1BE4
330
18
100
AcDbEntity
  8
外形線
100
AcDbLine
 10
143.9354113191234
 20
162.4832578213208
 30
0.0
 11
148.906589101108
 21
163.0193468623401
 31
0.0
  0
LINE
  5
1BE5
330
18
100
AcDbEntity
  8
外形線
100
AcDbLine
 10
149.1210247175156
 20
161.0308757495462
 30
0.0
 11
148.7993712929042
 21
164.0135824187371
 31
0.0
  0
LINE
  5
1BE6
330
18
100
AcDbEntity
  8
外形線
100
AcDbLine
 10
141.1594958303096
 20
165.2453113659539
 30
0.0
 11
133.0594958303095
 21
165.2453113659539
 31
0.0
  0
LINE
  5
1BE7
330
18
100
AcDbEntity
  8
外形線
100
AcDbLine
 10
133.0594958303095
 20
165.2453113659539
 30
0.0
 11
141.1594958303096
 21
165.2453113659539
 31
0.0
  0
LINE
  5
1BE8
330
18
100
AcDbEntity
  8
外形線
100
AcDbLine
 10
133.0594958303095
 20
165.2453113659539
 30
0.0
 11
132.8594958303094
 21
165.045311365954
 31
0.0
  0
LINE
  5
1BE9
330
18
100
AcDbEntity
  8
外形線
100
AcDbLine
 10
132.8594958303097
 20
165.045311365954
 30
0.0
 11
133.0594958303095
 21
165.2453113659539
 31
0.0
  0
POINT
  5
1BEA
330
18
100
AcDbEntity
  8
DEFPOINTS
  6
ByBlock
 62
     0
100
AcDbPoint
 10
137.1094958303094
 20
165.2453113659539
 30
0.0
 50
180.0
  0
LINE
  5
1BEB
330
18
100
AcDbEntity
  8
外形線
100
AcDbLine
 10
141.3594958303094
 20
165.045311365954
 30
0.0
 11
141.1594958303096
 21
165.2453113659539
 31
0.0
  0
LINE
  5
1BEC
330
18
100
AcDbEntity
  8
外形線
100
AcDbLine
 10
141.1594958303096
 20
165.2453113659539
 30
0.0
 11
141.3594958303097
 21
165.045311365954
 31
0.0
  0
LINE
  5
1BEF
330
18
100
AcDbEntity
  8
外形線
100
AcDbLine
 10
160.1446690156445
 20
165.2706201604018
 30
0.0
 11
160.4092804384172
 21
164.2999918765671
 31
0.0
  0
ARC
  5
1BF0
330
18
100
AcDbEntity
  8
外形線
100
AcDbCircle
 10
155.5251926107576
 20
194.9128271926843
 30
0.0
 40
31.0
100
AcDbArc
 50
276.1549590880868
 51
310.7350802207004
  0
ARC
  5
1BF1
330
18
100
AcDbEntity
  8
外形線
100
AcDbCircle
 10
155.5251926107576
 20
194.9128271926843
 30
0.0
 40
30.0
100
AcDbArc
 50
276.1549590880868
 51
310.7350802207004
  0
LINE
  5
1BF2
330
18
100
AcDbEntity
  8
中心線
 48
0.5
100
AcDbLine
 10
151.1094958303097
 20
165.0426048446696
 30
0.0
 11
151.1094958303097
 21
155.2974435198328
 31
0.0
  0
LINE
  5
1BF3
330
18
100
AcDbEntity
  8
外形線
100
AcDbLine
 10
152.8835313266959
 20
163.4482180951556
 30
0.0
 11
158.8489446650774
 21
164.0915249443787
 31
0.0
  0
LINE
  5
1BF4
330
18
100
AcDbEntity
  8
外形線
100
AcDbLine
 10
153.1094958303097
 20
161.2453113659539
 30
0.0
 11
153.1094958303097
 21
156.345311365954
 31
0.0
  0
CIRCLE
  5
1BF5
330
18
100
AcDbEntity
  8
外形線
100
AcDbCircle
 10
151.1094958303097
 20
161.2453113659539
 30
0.0
 40
0.8
  0
LINE
  5
1BF6
330
18
100
AcDbEntity
  8
外形線
100
AcDbLine
 10
153.0979669431035
 20
161.4597469823617
 30
0.0
 11
152.7763135184918
 21
164.4424536515524
 31
0.0
  0
LINE
  5
1BF7
330
18
100
AcDbEntity
  8
外形線
100
AcDbLine
 10
175.1020664396506
 20
172.1807790868137
 30
0.0
 11
175.7546289006136
 21
171.4230441499513
 31
0.0
  0
LINE
  5
1C6D
330
18
100
AcDbEntity
  8
外形線
100
AcDbLine
 10
133.1094958303095
 20
105.1501010774738
 30
0.0
 11
133.1094958303095
 21
104.2453113659539
 31
0.0
  0
LINE
  5
1C6E
330
18
100
AcDbEntity
  8
外形線
100
AcDbLine
 10
141.1094958303096
 20
105.1501010774738
 30
0.0
 11
141.1094958303096
 21
104.2453113659539
 31
0.0
  0
LINE
  5
1C6F
330
18
100
AcDbEntity
  8
隠れ線2
100
AcDbLine
 10
133.2594958303095
 20
89.24531136595398
 30
0.0
 11
140.9594958303096
 21
89.24531136595396
 31
0.0
  0
LINE
  5
1C70
330
18
100
AcDbEntity
  8
隠れ線2
100
AcDbLine
 10
133.5094958303096
 20
88.24531136595393
 30
0.0
 11
140.7094958303096
 21
88.24531136595398
 31
0.0
  0
LINE
  5
1C71
330
18
100
AcDbEntity
  8
隠れ線2
100
AcDbLine
 10
133.1094958303095
 20
90.74531136595393
 30
0.0
 11
141.1094958303096
 21
90.74531136595398
 31
0.0
  0
LINE
  5
1C72
330
18
100
AcDbEntity
  8
隠れ線2
100
AcDbLine
 10
133.7094958303095
 20
86.24531136595392
 30
0.0
 11
140.5094958303096
 21
86.24531136595392
 31
0.0
  0
LINE
  5
1C73
330
18
100
AcDbEntity
  8
隠れ線2
100
AcDbLine
 10
133.5094958303095
 20
88.24531136595394
 30
0.0
 11
133.5094958303095
 21
86.44531136595391
 31
0.0
  0
LINE
  5
1C74
330
18
100
AcDbEntity
  8
隠れ線2
100
AcDbLine
 10
133.5094958303095
 20
86.44531136595391
 30
0.0
 11
133.7094958303095
 21
86.24531136595392
 31
0.0
  0
ARC
  5
1C75
330
18
100
AcDbEntity
  8
隠れ線2
100
AcDbCircle
 10
133.3844958303095
 20
88.74531136595395
 30
0.0
 40
0.5153882032022076
100
AcDbArc
 50
284.0362434679264
 51
104.0362434679264
  0
LINE
  5
1C76
330
18
100
AcDbEntity
  8
隠れ線2
100
AcDbLine
 10
133.2594958303095
 20
90.74531136595394
 30
0.0
 11
133.2594958303095
 21
89.24531136595396
 31
0.0
  0
LINE
  5
1C77
330
18
100
AcDbEntity
  8
隠れ線2
100
AcDbLine
 10
140.7094958303096
 20
86.44531136595391
 30
0.0
 11
140.7094958303096
 21
88.24531136595394
 31
0.0
  0
LINE
  5
1C78
330
18
100
AcDbEntity
  8
隠れ線2
100
AcDbLine
 10
140.7094958303096
 20
86.44531136595391
 30
0.0
 11
140.5094958303096
 21
86.24531136595392
 31
0.0
  0
ARC
  5
1C79
330
18
100
AcDbEntity
  8
隠れ線2
100
AcDbCircle
 10
140.8344958303096
 20
88.74531136595395
 30
0.0
 40
0.5153882032022076
100
AcDbArc
 50
75.96375653207353
 51
255.9637565320735
  0
LINE
  5
1C7A
330
18
100
AcDbEntity
  8
隠れ線2
100
AcDbLine
 10
140.9594958303096
 20
90.74531136595394
 30
0.0
 11
140.9594958303096
 21
89.24531136595396
 31
0.0
  0
LINE
  5
1C85
330
18
100
AcDbEntity
  8
外形線
100
AcDbLine
 10
139.1094958303094
 20
86.24531136595395
 30
0.0
 11
139.1094958303094
 21
68.74531136595397
 31
0.0
  0
LINE
  5
1C86
330
18
100
AcDbEntity
  8
外形線
100
AcDbLine
 10
135.1094958303096
 20
86.24531136595395
 30
0.0
 11
135.1094958303096
 21
68.74531136595397
 31
0.0
  0
LINE
  5
1C87
330
18
100
AcDbEntity
  8
隠れ線2
100
AcDbLine
 10
141.1094958303096
 20
104.2453113659539
 30
0.0
 11
141.1094958303096
 21
90.74531136595398
 31
0.0
  0
LINE
  5
1C88
330
18
100
AcDbEntity
  8
隠れ線2
100
AcDbLine
 10
133.1094958303095
 20
104.2453113659539
 30
0.0
 11
133.1094958303095
 21
90.74531136595393
 31
0.0
  0
LINE
  5
1C96
330
18
100
AcDbEntity
  8
外形線
100
AcDbLine
 10
182.1094958303096
 20
58.74531136595397
 30
0.0
 11
182.1094958303096
 21
53.74531136595397
 31
0.0
  0
LINE
  5
1C97
330
18
100
AcDbEntity
  8
外形線
100
AcDbLine
 10
162.1094958303096
 20
57.99531136595395
 30
0.0
 11
162.1094958303096
 21
54.49531136595394
 31
0.0
  0
ARC
  5
1C9A
330
18
100
AcDbEntity
  8
外形線
100
AcDbCircle
 10
137.1094958303096
 20
56.24531136595397
 30
0.0
 40
2.5
100
AcDbArc
 50
44.42700400080621
 51
315.5729959991938
  0
LINE
  5
1C9B
330
18
100
AcDbEntity
  8
外形線
100
AcDbLine
 10
187.1094958303095
 20
58.74531136595397
 30
0.0
 11
182.1094958303096
 21
58.74531136595397
 31
0.0
  0
LINE
  5
1C9C
330
18
100
AcDbEntity
  8
外形線
100
AcDbLine
 10
187.1094958303095
 20
53.74531136595397
 30
0.0
 11
182.1094958303096
 21
53.74531136595397
 31
0.0
  0
LINE
  5
1C9D
330
18
100
AcDbEntity
  8
外形線
100
AcDbLine
 10
138.8948529374453
 20
57.99531136595397
 30
0.0
 11
162.1094958303096
 21
57.99531136595396
 31
0.0
  0
LINE
  5
1C9E
330
18
100
AcDbEntity
  8
外形線
100
AcDbLine
 10
138.8948529374453
 20
54.49531136595395
 30
0.0
 11
162.1094958303096
 21
54.49531136595394
 31
0.0
  0
LINE
  5
1C9F
330
18
100
AcDbEntity
  8
外形線
100
AcDbLine
 10
138.8948529374453
 20
57.99531136595397
 30
0.0
 11
138.8948529374453
 21
54.49531136595395
 31
0.0
  0
LINE
  5
1CA0
330
18
100
AcDbEntity
  8
外形線
100
AcDbLine
 10
162.1094958303096
 20
57.99531136595396
 30
0.0
 11
182.1094958303096
 21
58.74531136595397
 31
0.0
  0
LINE
  5
1CA1
330
18
100
AcDbEntity
  8
外形線
100
AcDbLine
 10
162.1094958303096
 20
54.49531136595394
 30
0.0
 11
182.1094958303096
 21
53.74531136595397
 31
0.0
  0
LINE
  5
1CD3
330
18
100
AcDbEntity
  8
外形線
100
AcDbLine
 10
37.75248103047522
 20
68.74531136595397
 30
0.0
 11
42.75248103047522
 21
68.74531136595397
 31
0.0
  0
LINE
  5
1CD4
330
18
100
AcDbEntity
  8
外形線
100
AcDbLine
 10
40.25248103047528
 20
63.74531136595397
 30
0.0
 11
42.75248103047522
 21
63.74531136595397
 31
0.0
  0
LINE
  5
1CD5
330
18
100
AcDbEntity
  8
外形線
100
AcDbLine
 10
42.75248103047522
 20
63.74531136595397
 30
0.0
 11
41.40248103047525
 21
58.74531136595397
 31
0.0
  0
LINE
  5
1CD6
330
18
100
AcDbEntity
  8
ﾊｯﾁﾝｸ
 62
     4
100
AcDbLine
 10
40.25248103047525
 20
65.04341412540623
 30
0.0
 11
38.52625799750498
 21
68.74531136595397
 31
0.0
  0
LINE
  5
1CD7
330
18
100
AcDbEntity
  8
ﾊｯﾁﾝｸ
 62
     4
100
AcDbLine
 10
39.80682882046821
 20
63.74531136595397
 30
0.0
 11
37.75248103047526
 21
68.15087441872733
 31
0.0
  0
LINE
  5
1CD8
330
18
100
AcDbEntity
  8
ﾊｯﾁﾝｸ
 62
     4
100
AcDbLine
 10
37.75248103047526
 20
63.80813319780283
 30
0.0
 11
40.25248103047525
 21
68.13826021672501
 31
0.0
  0
LINE
  5
1CD9
330
18
100
AcDbEntity
  8
ﾊｯﾁﾝｸ
 62
     4
100
AcDbLine
 10
37.75248103047526
 20
65.71313319780283
 30
0.0
 11
39.50310991208823
 21
68.74531136595397
 31
0.0
  0
LINE
  5
1CDA
330
18
100
AcDbEntity
  8
外形線
100
AcDbLine
 10
37.75248103047522
 20
68.74531136595397
 30
0.0
 11
37.75248103047526
 21
63.74531136595397
 31
0.0
  0
LINE
  5
1CDB
330
18
100
AcDbEntity
  8
外形線
100
AcDbLine
 10
37.75248103047526
 20
63.74531136595397
 30
0.0
 11
39.10248103047525
 21
58.74531136595397
 31
0.0
  0
LINE
  5
1CDC
330
18
100
AcDbEntity
  8
外形線
100
AcDbLine
 10
40.25248103047525
 20
58.74531136595397
 30
0.0
 11
41.40248103047525
 21
58.74531136595397
 31
0.0
  0
LINE
  5
1CDD
330
18
100
AcDbEntity
  8
外形線
100
AcDbLine
 10
40.25248103047525
 20
58.74531136595397
 30
0.0
 11
39.10248103047525
 21
58.74531136595397
 31
0.0
  0
LINE
  5
1CDE
330
18
100
AcDbEntity
  8
ﾊｯﾁﾝｸ
 62
     4
100
AcDbLine
 10
38.75586135265644
 20
63.74531136595397
 30
0.0
 11
37.75248103047526
 21
65.89706741077461
 31
0.0
  0
LINE
  5
1CDF
330
18
100
AcDbEntity
  8
外形線
100
AcDbLine
 10
40.25248103047522
 20
63.74531136595397
 30
0.0
 11
37.75248103047526
 21
63.74531136595397
 31
0.0
  0
LINE
  5
1CE0
330
18
100
AcDbEntity
  8
ﾊｯﾁﾝｸ
 62
     4
100
AcDbLine
 10
39.91591535455879
 20
63.74531136595395
 30
0.0
 11
40.25248103047525
 21
64.32826021672504
 31
0.0
  0
LINE
  5
1CE1
330
18
100
AcDbEntity
  8
ﾊｯﾁﾝｸ
 62
     4
100
AcDbLine
 10
38.81606309175257
 20
63.74531136595397
 30
0.0
 11
40.25248103047525
 21
66.23326021672503
 31
0.0
  0
LINE
  5
1CE2
330
18
100
AcDbEntity
  8
ﾊｯﾁﾝｸ
 62
     4
100
AcDbLine
 10
37.75248103047522
 20
67.6181331978028
 30
0.0
 11
38.40325764928198
 21
68.74531136595397
 31
0.0
  0
LINE
  5
1CE3
330
18
100
AcDbEntity
  8
ﾊｯﾁﾝｸ
 62
     4
100
AcDbLine
 10
40.25248103047525
 20
67.29722113335895
 30
0.0
 11
39.57722546531676
 21
68.74531136595397
 31
0.0
  0
LINE
  5
1CE4
330
18
100
AcDbEntity
  8
外形線
100
AcDbLine
 10
42.75248103047522
 20
68.74531136595397
 30
0.0
 11
42.75248103047522
 21
63.74531136595397
 31
0.0
  0
LINE
  5
1CE5
330
18
100
AcDbEntity
  8
外形線
100
AcDbLine
 10
42.25248103047509
 20
86.24531136595395
 30
0.0
 11
42.25248103047511
 21
68.74531136595397
 31
0.0
  0
LINE
  5
1CE6
330
18
100
AcDbEntity
  8
外形線
100
AcDbLine
 10
38.25248103047521
 20
86.24531136595395
 30
0.0
 11
38.25248103047521
 21
68.74531136595397
 31
0.0
  0
LINE
  5
1CE7
330
18
100
AcDbEntity
  8
外形線
100
AcDbLine
 10
39.50248103047523
 20
86.24531136595392
 30
0.0
 11
41.00248103047522
 21
86.24531136595392
 31
0.0
  0
LINE
  5
1CE8
330
18
100
AcDbEntity
  8
外形線
100
AcDbLine
 10
39.50248103047523
 20
90.74531136595394
 30
0.0
 11
41.00248103047522
 21
90.74531136595396
 31
0.0
  0
LINE
  5
1CE9
330
18
100
AcDbEntity
  8
外形線
100
AcDbLine
 10
39.50248103047523
 20
88.24531136595394
 30
0.0
 11
41.00248103047522
 21
88.24531136595394
 31
0.0
  0
LINE
  5
1CEA
330
18
100
AcDbEntity
  8
外形線
100
AcDbLine
 10
39.50248103047523
 20
89.24531136595396
 30
0.0
 11
41.00248103047522
 21
89.24531136595394
 31
0.0
  0
LINE
  5
1CF3
330
18
100
AcDbEntity
  8
中心線
 48
0.5
100
AcDbLine
 10
31.18293448256944
 20
95.24531136595397
 30
0.0
 11
49.45244890037773
 21
95.24531136595397
 31
0.0
  0
LINE
  5
1CF4
330
18
100
AcDbEntity
  8
外形線
100
AcDbLine
 10
39.50248103047523
 20
97.74531136595397
 30
0.0
 11
41.00248103047522
 21
97.74531136595399
 31
0.0
  0
LINE
  5
1CF5
330
18
100
AcDbEntity
  8
外形線
100
AcDbLine
 10
39.50248103047523
 20
92.74531136595397
 30
0.0
 11
41.00248103047522
 21
92.74531136595397
 31
0.0
  0
LINE
  5
1CF6
330
18
100
AcDbEntity
  8
中心線
 48
0.5
100
AcDbLine
 10
39.50248103047523
 20
97.24531136595397
 30
0.0
 11
41.00248103047523
 21
97.24531136595398
 31
0.0
  0
LINE
  5
1CF7
330
18
100
AcDbEntity
  8
中心線
 48
0.5
100
AcDbLine
 10
39.50248103047523
 20
93.24531136595396
 30
0.0
 11
41.00248103047522
 21
93.24531136595398
 31
0.0
  0
LINE
  5
1CF8
330
18
100
AcDbEntity
  8
外形線
100
AcDbLine
 10
46.75248103047522
 20
99.74531136595397
 30
0.0
 11
46.25248103047522
 21
99.74531136595397
 31
0.0
  0
LINE
  5
1CF9
330
18
100
AcDbEntity
  8
外形線
100
AcDbLine
 10
46.75248103047522
 20
90.74531136595396
 30
0.0
 11
46.25248103047522
 21
90.74531136595396
 31
0.0
  0
LINE
  5
1CFA
330
18
100
AcDbEntity
  8
外形線
100
AcDbLine
 10
47.75248103047522
 20
98.74531136595397
 30
0.0
 11
47.75248103047522
 21
91.74531136595396
 31
0.0
  0
ARC
  5
1CFB
330
18
100
AcDbEntity
  8
外形線
100
AcDbCircle
 10
46.75248103047522
 20
98.74531136595397
 30
0.0
 40
1.0
100
AcDbArc
 50
0.0
 51
90.0
  0
ARC
  5
1CFC
330
18
100
AcDbEntity
  8
外形線
100
AcDbCircle
 10
46.75248103047522
 20
91.74531136595396
 30
0.0
 40
1.0
100
AcDbArc
 50
270.0
 51
0.0
  0
LINE
  5
1CFD
330
18
100
AcDbEntity
  8
隠れ線2
 48
0.1
100
AcDbLine
 10
46.9227830578094
 20
95.24531136595397
 30
0.0
 11
47.75248103047522
 21
96.07500933861981
 31
0.0
  0
LINE
  5
1CFE
330
18
100
AcDbEntity
  8
隠れ線2
 48
0.1
100
AcDbLine
 10
46.9227830578094
 20
95.24531136595397
 30
0.0
 11
47.75248103047522
 21
94.41561339328812
 31
0.0
  0
LINE
  5
1CFF
330
18
100
AcDbEntity
  8
外形線
100
AcDbLine
 10
130.0077737705829
 20
93.34703342568063
 30
0.0
 11
126.2112178900362
 21
97.14358930622729
 31
0.0
  0
LINE
  5
1D00
330
18
100
AcDbEntity
  8
外形線
100
AcDbLine
 10
126.2112178900362
 20
93.34703342568065
 30
0.0
 11
130.0077737705829
 21
97.14358930622729
 31
0.0
  0
DIMENSION
  5
1D19
330
18
100
AcDbEntity
  8
外形線
100
AcDbDimension
  2
*D14
 10
102.1780052433131
 20
104.2453113659539
 30
0.0
 11
100.3030052433131
 21
117.745311365954
 31
0.0
 70
    32
 71
     5
 42
27.0
  3
STYLE3
100
AcDbAlignedDimension
 13
104.0669012957086
 23
131.2453113659539
 33
0.0
 14
128.1094958303096
 24
104.2453113659539
 34
0.0
 50
90.0
100
AcDbRotatedDimension
1001
ACAD
1000
DSTYLE
1002
{
1070
   271
1070
     2
1002
}
  0
DIMENSION
  5
1D25
330
18
100
AcDbEntity
  8
外形線
100
AcDbDimension
  2
*D15
 10
102.1780052433131
 20
86.24531136595397
 30
0.0
 11
100.3030052433131
 21
95.24531136595399
 31
0.0
 70
    32
 71
     5
 42
18.0
  3
STYLE3
100
AcDbAlignedDimension
 13
128.1094958303096
 23
104.2453113659539
 33
0.0
 14
128.1094958303096
 24
86.24531136595397
 34
0.0
 50
90.0
100
AcDbRotatedDimension
1001
ACAD
1000
DSTYLE
1002
{
1070
    75
1070
     1
1070
   271
1070
     2
1070
   279
1070
     1
1002
}
  0
DIMENSION
  5
1D31
330
18
100
AcDbEntity
  8
外形線
100
AcDbDimension
  2
*D16
 10
102.1780052433131
 20
56.24531136595397
 30
0.0
 11
100.3030052433131
 21
71.245311365954
 31
0.0
 70
    32
 71
     5
 42
30.0
  3
STYLE3
100
AcDbAlignedDimension
 13
128.1094958303096
 23
86.24531136595397
 33
0.0
 14
129.243757297035
 24
56.24531136595397
 34
0.0
 50
90.0
100
AcDbRotatedDimension
1001
ACAD
1000
DSTYLE
1002
{
1070
    75
1070
     1
1070
   271
1070
     2
1070
   279
1070
     1
1002
}
  0
DIMENSION
  5
1D3D
330
18
100
AcDbEntity
  8
外形線
100
AcDbDimension
  2
*D17
 10
102.1780052433131
 20
47.24531136595399
 30
0.0
 11
100.3030052433131
 21
51.745311365954
 31
0.0
 70
    32
 71
     5
 42
8.999999999999985
  3
STYLE3
100
AcDbAlignedDimension
 13
129.243757297035
 23
56.24531136595397
 33
0.0
 14
187.1094958303095
 24
47.24531136595397
 34
0.0
 50
90.0
100
AcDbRotatedDimension
1001
ACAD
1000
DSTYLE
1002
{
1070
    75
1070
     1
1070
   271
1070
     2
1070
   279
1070
     1
1002
}
  0
DIMENSION
  5
1D4A
330
18
100
AcDbEntity
  8
外形線
100
AcDbDimension
  2
*D18
 10
94.39667431023258
 20
47.24531136595397
 30
0.0
 11
92.52167431023258
 21
89.24531136595399
 31
0.0
 70
    32
 71
     5
 42
84.0
  3
STYLE3
100
AcDbAlignedDimension
 13
100.9280052433131
 23
131.2453113659539
 33
0.0
 14
100.9280052433131
 24
47.24531136595397
 34
0.0
 50
90.0
100
AcDbRotatedDimension
1001
ACAD
1000
DSTYLE
1002
{
1070
   271
1070
     2
1002
}
  0
POINT
  5
1D89
330
18
100
AcDbEntity
  8
DEFPOINTS
  6
ByBlock
 62
     0
100
AcDbPoint
 10
135.9594958303096
 20
58.74531136595397
 30
0.0
  0
POINT
  5
1D8A
330
18
100
AcDbEntity
  8
DEFPOINTS
  6
ByBlock
 62
     0
100
AcDbPoint
 10
137.1094958303096
 20
53.74531136595397
 30
0.0
  0
DIMENSION
  5
1D99
330
18
100
AcDbEntity
  8
外形線
100
AcDbDimension
  2
*D19
 10
187.1094958303095
 20
39.28294398045199
 30
0.0
 11
162.1094958303095
 21
41.15794398045198
 31
0.0
 70
    32
 71
     5
 42
50.0
  3
STYLE3
100
AcDbAlignedDimension
 13
137.1094958303096
 23
50.70750601508616
 33
0.0
 14
187.1094958303095
 24
47.24531136595397
 34
0.0
100
AcDbRotatedDimension
1001
ACAD
1000
DSTYLE
1002
{
1070
   271
1070
     2
1002
}
  0
DIMENSION
  5
1DA5
330
18
100
AcDbEntity
  8
外形線
100
AcDbDimension
  2
*D20
 10
205.1094958303096
 20
39.28294398045199
 30
0.0
 11
196.1094958303096
 21
41.15794398045198
 31
0.0
 70
    32
 71
     5
 42
18.00000000000003
  3
STYLE3
100
AcDbAlignedDimension
 13
187.1094958303095
 23
47.24531136595397
 33
0.0
 14
205.1094958303096
 24
47.24531136595397
 34
0.0
100
AcDbRotatedDimension
1001
ACAD
1000
DSTYLE
1002
{
1070
    75
1070
     1
1070
   271
1070
     2
1070
   279
1070
     1
1002
}
  0
LINE
  5
1DA6
330
18
100
AcDbEntity
  8
外形線
100
AcDbLine
 10
187.1094958303095
 20
65.24531136595395
 30
0.0
 11
205.2475543286881
 21
65.24531136595395
 31
0.0
  0
DIMENSION
  5
1DB6
330
18
100
AcDbEntity
  8
寸法線
100
AcDbDimension
  2
*D21
 10
145.9245468762953
 20
66.41036241193962
 30
0.0
 11
155.5971659239143
 21
68.28536241193962
 31
0.0
 70
    32
  1
φ2.3
 71
     5
 42
2.300000000000011
  3
STYLE3
100
AcDbAlignedDimension
 13
135.9594958303096
 23
58.74531136595397
 33
0.0
 14
138.2594958303096
 24
58.74531136595397
 34
0.0
100
AcDbRotatedDimension
1001
ACAD
1000
DSTYLE
1002
{
1070
   271
1070
     2
1002
}
  0
LINE
  5
1E03
330
18
100
AcDbEntity
  8
0
  6
ByBlock
 62
     2
100
AcDbLine
 10
156.4443865932007
 20
54.49531136595394
 30
0.0
 11
157.7804815337335
 21
54.49531136595394
 31
0.0
  0
LINE
  5
1E04
330
18
100
AcDbEntity
  8
0
  6
ByBlock
 62
     2
100
AcDbLine
 10
156.4443865932007
 20
57.99531136595396
 30
0.0
 11
157.7804815337335
 21
57.99531136595396
 31
0.0
  0
LINE
  5
1E05
330
18
100
AcDbEntity
  8
0
  6
ByBlock
 62
     2
100
AcDbLine
 10
156.5304815337335
 20
51.99531136595394
 30
0.0
 11
156.5304815337335
 21
49.49531136595394
 31
0.0
  0
LINE
  5
1E06
330
18
100
AcDbEntity
  8
0
  6
ByBlock
 62
     2
100
AcDbLine
 10
156.5304815337335
 20
60.49531136595396
 30
0.0
 11
156.5304815337335
 21
65.28249892418336
 31
0.0
  0
LINE
  5
1E07
330
18
100
AcDbEntity
  8
0
  6
ByBlock
 62
     2
100
AcDbLine
 10
156.5304815337335
 20
54.49531136595394
 30
0.0
 11
156.5304815337335
 21
57.99531136595396
 31
0.0
  0
INSERT
  5
1E08
330
18
100
AcDbEntity
  8
0
  6
ByBlock
 62
     2
100
AcDbBlockReference
  2
_OPEN
 10
156.5304815337335
 20
54.49531136595394
 30
0.0
 41
2.5
 42
2.5
 43
2.5
 50
90.0
  0
INSERT
  5
1E09
330
18
100
AcDbEntity
  8
0
  6
ByBlock
 62
     2
100
AcDbBlockReference
  2
_OPEN
 10
156.5304815337335
 20
57.99531136595396
 30
0.0
 41
2.5
 42
2.5
 43
2.5
 50
270.0
  0
MTEXT
  5
1E0A
330
18
100
AcDbEntity
  8
0
  6
ByBlock
 62
     6
100
AcDbMText
 10
154.2250076236435
 20
62.11003017943541
 30
0.0
 40
2.5
 41
0.0
 71
     5
 72
     1
  1
\A1;3.5
  7
STYLE3
 11
0.0000000000000001
 21
1.0
 31
0.0
 73
     1
 44
1.0
  0
POINT
  5
1E0B
330
18
100
AcDbEntity
  8
DEFPOINTS
  6
ByBlock
 62
     0
100
AcDbPoint
 10
156.4443865932007
 20
54.49531136595394
 30
0.0
  0
POINT
  5
1E0C
330
18
100
AcDbEntity
  8
DEFPOINTS
  6
ByBlock
 62
     0
100
AcDbPoint
 10
156.4443865932007
 20
57.99531136595396
 30
0.0
  0
POINT
  5
1E0D
330
18
100
AcDbEntity
  8
DEFPOINTS
  6
ByBlock
 62
     0
100
AcDbPoint
 10
156.5304815337335
 20
57.99531136595396
 30
0.0
  0
LINE
  5
1E6C
330
18
100
AcDbEntity
  8
寸法線
 62
     2
100
AcDbLine
 10
135.9842332973801
 20
58.74531136595397
 30
0.0
 11
122.6553174388278
 21
58.74531136595397
 31
0.0
  0
LINE
  5
1E6D
330
18
100
AcDbEntity
  8
寸法線
 62
     2
100
AcDbLine
 10
134.6094958303096
 20
68.74531136595397
 30
0.0
 11
122.6553174388278
 21
68.74531136595398
 31
0.0
  0
LINE
  5
1E6E
330
18
100
AcDbEntity
  8
寸法線
 62
     2
100
AcDbLine
 10
123.9053174388278
 20
61.24531136595397
 30
0.0
 11
123.9053174388278
 21
66.24531136595398
 31
0.0
  0
INSERT
  5
1E6F
330
18
100
AcDbEntity
  8
寸法線
 62
     2
100
AcDbBlockReference
  2
_OPEN
 10
123.9053174388278
 20
58.74531136595397
 30
0.0
 41
2.5
 42
2.5
 43
2.5
 50
270.0
  0
INSERT
  5
1E70
330
18
100
AcDbEntity
  8
寸法線
 62
     2
100
AcDbBlockReference
  2
_OPEN
 10
123.9053174388278
 20
68.74531136595398
 30
0.0
 41
2.5
 42
2.5
 43
2.5
 50
90.0
  0
MTEXT
  5
1E71
330
18
100
AcDbEntity
  8
寸法線
 62
     6
100
AcDbMText
 10
122.0303174388278
 20
63.74531136595397
 30
0.0
 40
2.5
 41
0.0
 71
     5
 72
     1
  1
\A1;10
  7
STYLE3
 11
0.0000000000000001
 21
1.0
 31
0.0
 73
     1
 44
1.0
  0
LINE
  5
1E90
330
18
100
AcDbEntity
  8
外形線
100
AcDbLine
 10
71.81779196673867
 20
184.1582673311053
 30
0.0
 11
163.8177919667386
 21
184.1582673311053
 31
0.0
  0
LINE
  5
1E91
330
18
100
AcDbEntity
  8
外形線
100
AcDbLine
 10
71.81779196673867
 20
185.1582673311053
 30
0.0
 11
163.8177919667386
 21
185.1582673311053
 31
0.0
  0
TEXT
  5
1E92
330
18
100
AcDbEntity
  8
文字
100
AcDbText
 10
72.82021696673867
 20
187.1440813311053
 30
0.0
 40
4.0
  1
Model No.P-2 Dial Pipe Gauge
  7
STYLE3
100
AcDbText
  0
TEXT
  5
1E93
330
18
100
AcDbEntity
  8
0
  6
Continuous
100
AcDbText
 10
196.5165379667386
 20
3.907762331105335
 30
0.0
 40
2.1
  1
2010.06.16
  7
STYLE3
100
AcDbText
  0
TEXT
  5
1E94
330
18
100
AcDbEntity
  8
0
  6
Continuous
100
AcDbText
 10
115.2983239667386
 20
15.85339633110533
 30
0.0
 40
3.5
  1
仕様及び外観は予告なく変更される場合がございますのでご了承下さい。
  7
STYLE3
100
AcDbText
  0
TEXT
  5
1E95
330
18
100
AcDbEntity
  8
0
  6
Continuous
100
AcDbText
 10
115.0068299667386
 20
11.92424833110534
 30
0.0
 40
2.1
  1
Design and specifications are subject to change without notice for future improvement.
  7
STYLE3
100
AcDbText
  0
LINE
  5
1E96
330
18
100
AcDbEntity
  8
外形線
100
AcDbLine
 10
113.5493619667387
 20
10.02625833110533
 30
0.0
 11
254.3407799667386
 21
10.02625833110533
 31
0.0
  0
LINE
  5
1E97
330
18
100
AcDbEntity
  8
外形線
100
AcDbLine
 10
113.5493619667387
 20
20.80646333110534
 30
0.0
 11
254.3407799667386
 21
20.80646333110534
 31
0.0
  0
TEXT
  5
1E98
330
18
100
AcDbEntity
  8
0
  6
Continuous
100
AcDbText
 10
114.7153379667386
 20
2.159620331105335
 30
0.0
 40
2.1
  1
3RD Angle Projection
  7
STYLE3
100
AcDbText
  0
TEXT
  5
1E99
330
18
100
AcDbEntity
  8
0
  6
Continuous
100
AcDbText
 10
117.3387809667386
 20
5.655903331105336
 30
0.0
 40
3.0
  1
三　　角　　法
  7
STYLE3
100
AcDbText
  0
LINE
  5
1E9A
330
18
100
AcDbEntity
  8
外形線
100
AcDbLine
 10
113.5493619667387
 20
0.4114803311053363
 30
0.0
 11
113.5493619667387
 21
20.80646333110534
 31
0.0
  0
TEXT
  5
1E9B
330
18
100
AcDbEntity
  8
0
  6
Continuous
100
AcDbText
 10
150.2775589667386
 20
5.661858331105336
 30
0.0
 40
3.0
  1
単位
  7
STYLE3
100
AcDbText
  0
LINE
  5
1E9C
330
18
100
AcDbEntity
  8
外形線
100
AcDbLine
 10
148.8200899667386
 20
10.02625833110533
 30
0.0
 11
148.8200899667386
 21
0.4114803311053363
 31
0.0
  0
LINE
  5
1E9D
330
18
100
AcDbEntity
  8
外形線
100
AcDbLine
 10
166.3097069667387
 20
10.02625833110533
 30
0.0
 11
166.3097069667387
 21
0.4114803311053363
 31
0.0
  0
LINE
  5
1E9E
330
18
100
AcDbEntity
  8
外形線
100
AcDbLine
 10
185.8397799667386
 20
10.02625833110533
 30
0.0
 11
185.8397799667386
 21
0.4114803311053363
 31
0.0
  0
TEXT
  5
1E9F
330
18
100
AcDbEntity
  8
0
  6
Continuous
100
AcDbText
 10
158.3196069667386
 20
3.907764331105336
 30
0.0
 40
2.399999999999999
  1
mm
  7
STYLE3
100
AcDbText
  0
TEXT
  5
1EA0
330
18
100
AcDbEntity
  8
0
  6
Continuous
100
AcDbText
 10
150.4492799667386
 20
2.159621331105336
 30
0.0
 40
2.1
  1
Unit
  7
STYLE3
100
AcDbText
  0
TEXT
  5
1EA1
330
18
100
AcDbEntity
  8
0
  6
Continuous
100
AcDbText
 10
168.0586699667386
 20
2.450978331105336
 30
0.0
 40
2.1
  1
Scale
  7
STYLE3
100
AcDbText
  0
TEXT
  5
1EA2
330
18
100
AcDbEntity
  8
0
  6
Continuous
100
AcDbText
 10
167.5954549667387
 20
5.370500331105336
 30
0.0
 40
3.0
  1
尺 度
  7
STYLE3
100
AcDbText
  0
TEXT
  5
1EA3
330
18
100
AcDbEntity
  8
0
  6
Continuous
100
AcDbText
 10
187.3883699667386
 20
5.492705331105335
 30
0.0
 40
3.0
  1
日 付
  7
STYLE3
100
AcDbText
  0
TEXT
  5
1EA4
330
18
100
AcDbEntity
  8
0
  6
Continuous
100
AcDbText
 10
187.7717309667387
 20
2.159622331105336
 30
0.0
 40
2.1
  1
Date
  7
STYLE3
100
AcDbText
  0
TEXT
  5
1EA5
330
18
100
AcDbEntity
  8
0
  6
Continuous
100
AcDbText
 10
177.6779589667387
 20
4.199121331105335
 30
0.0
 40
2.399999999999999
  1
1/1
  7
STYLE3
100
AcDbText
  0
TEXT
  5
1EA6
330
18
100
AcDbEntity
  8
0
  6
Continuous
100
AcDbText
 10
216.9210919667387
 20
5.947260331105336
 30
0.0
 40
3.0
  1
株式会社　尾崎製作所
  7
STYLE3
100
AcDbText
  0
LINE
  5
1EA7
330
18
100
AcDbEntity
  8
外形線
100
AcDbLine
 10
215.5721289667387
 20
10.02625833110533
 30
0.0
 11
215.5721289667387
 21
0.4114803311053363
 31
0.0
  0
TEXT
  5
1EA8
330
18
100
AcDbEntity
  8
0
  6
Continuous
100
AcDbText
 10
217.7955709667386
 20
2.159621331105336
 30
0.0
 40
2.1
  1
OZAKI MFG. CO., LTD.
  7
STYLE3
100
AcDbText
  0
VIEWPORT
  5
177
330
15
100
AcDbEntity
 67
     1
  8
0
100
AcDbViewport
 10
127.5041203589828
 20
97.49391214526822
 30
0.0
 40
418.3086347473814
 41
243.0346063651093
 68
     1
 69
     1
 12
127.5041203589828
 22
97.49391214526822
 13
0.0
 23
0.0
 14
10.0
 24
10.0
 15
10.0
 25
10.0
 16
0.0
 26
0.0
 36
1.0
 17
0.0
 27
0.0
 37
0.0
 42
50.0
 43
0.0
 44
0.0
 45
243.0346063651093
 50
0.0
 51
0.0
 72
   100
 90
    32800
  1

281
     0
 71
     1
 74
     0
110
0.0
120
0.0
130
0.0
111
1.0
121
0.0
131
0.0
112
0.0
122
1.0
132
0.0
 79
     0
146
0.0
170
     0
  0
ENDSEC
  0
SECTION
  2
OBJECTS
  0
DICTIONARY
  5
C
330
0
100
AcDbDictionary
281
     1
  3
ACAD_COLOR
350
1E42
  3
ACAD_GROUP
350
D
  3
ACAD_IMAGE_DICT
350
5BD
  3
ACAD_LAYOUT
350
1E45
  3
ACAD_MATERIAL
350
1E41
  3
ACAD_MLINESTYLE
350
1B
  3
ACAD_PLOTSETTINGS
350
1E46
  3
ACAD_PLOTSTYLENAME
350
1E3F
  3
ACAD_TABLESTYLE
350
1E43
  3
ACDBVARIABLEDICTIONARY
350
1790
  0
DICTIONARY
  5
1E42
102
{ACAD_REACTORS
330
C
102
}
330
C
100
AcDbDictionary
281
     1
  0
DICTIONARY
  5
D
102
{ACAD_REACTORS
330
C
102
}
330
C
100
AcDbDictionary
281
     1
  0
DICTIONARY
  5
5BD
102
{ACAD_REACTORS
330
C
102
}
330
C
100
AcDbDictionary
281
     1
  3
ROGO01
350
5BE
  0
DICTIONARY
  5
1E45
102
{ACAD_REACTORS
330
C
102
}
330
C
100
AcDbDictionary
281
     1
  3
Model
350
1E47
  3
レイアウト1
350
1E48
  0
DICTIONARY
  5
1E41
102
{ACAD_REACTORS
330
C
102
}
330
C
100
AcDbDictionary
281
     1
  0
DICTIONARY
  5
1B
102
{ACAD_REACTORS
330
C
102
}
330
C
100
AcDbDictionary
281
     1
  3
STANDARD
350
1C
  0
DICTIONARY
  5
1E46
102
{ACAD_REACTORS
330
C
102
}
330
C
100
AcDbDictionary
281
     1
  0
ACDBDICTIONARYWDFLT
  5
1E3F
102
{ACAD_REACTORS
330
C
102
}
330
C
100
AcDbDictionary
281
     1
  3
Normal
350
1E40
100
AcDbDictionaryWithDefault
340
1E40
  0
DICTIONARY
  5
1E43
102
{ACAD_REACTORS
330
C
102
}
330
C
100
AcDbDictionary
281
     1
  3
Standard
350
1E44
  0
DICTIONARY
  5
1790
102
{ACAD_REACTORS
330
C
102
}
330
C
100
AcDbDictionary
281
     1
  3
CTABLESTYLE
350
1E4F
  3
SORTENTS
350
1791
  0
IMAGEDEF
  5
5BE
102
{ACAD_REACTORS
330
5BD
102
}
330
5BD
100
AcDbRasterImageDef
 90
        0
  1
D:\ﾃｽﾄ\rogo01.TIF
 10
3388.0
 20
4668.0
 11
0.0635
 21
0.0635
280
     1
281
     5
  0
LAYOUT
  5
1E47
102
{ACAD_REACTORS
330
1E45
102
}
330
1E45
100
AcDbPlotSettings
  1

  2
WIDR Printer
  4

  6

 40
0.0
 41
0.0
 42
0.0
 43
0.0
 44
0.0
 45
0.0
 46
0.0
 47
0.0
 48
0.0
 49
0.0
140
0.0
141
0.0
142
1.0
143
1.0
 70
  1712
 72
     0
 73
     0
 74
     0
  7
AutoCad LT 98.ctb
 75
     0
147
1.0
 76
     0
 77
     2
 78
   300
148
0.0
149
0.0
100
AcDbLayout
  1
Model
 70
     1
 71
     0
 10
0.0
 20
0.0
 11
12.0
 21
9.0
 12
0.0
 22
0.0
 32
0.0
 14
0.0
 24
0.0
 34
0.0
 15
0.0
 25
0.0
 35
0.0
146
0.0
 13
0.0
 23
0.0
 33
0.0
 16
1.0
 26
0.0
 36
0.0
 17
0.0
 27
1.0
 37
0.0
 76
     0
330
18
  0
LAYOUT
  5
1E48
102
{ACAD_REACTORS
330
1E45
102
}
330
1E45
100
AcDbPlotSettings
  1

  2
WIDR Printer
  4

  6

 40
0.0
 41
0.0
 42
0.0
 43
0.0
 44
0.0
 45
0.0
 46
0.0
 47
0.0
 48
0.0
 49
0.0
140
0.0
141
0.0
142
1.0
143
1.0
 70
   688
 72
     0
 73
     0
 74
     5
  7
AutoCad LT 98.ctb
 75
    16
147
1.0
 76
     0
 77
     2
 78
   300
148
0.0
149
0.0
100
AcDbLayout
  1
レイアウト1
 70
     1
 71
     1
 10
0.0
 20
0.0
 11
420.0
 21
297.0
 12
0.0
 22
0.0
 32
0.0
 14
-0.2
 24
-0.2
 34
0.0
 15
255.2
 25
195.2
 35
0.0
146
0.0
 13
0.0
 23
0.0
 33
0.0
 16
1.0
 26
0.0
 36
0.0
 17
0.0
 27
1.0
 37
0.0
 76
     0
330
15
331
177
  0
MLINESTYLE
  5
1C
102
{ACAD_REACTORS
330
1B
102
}
330
1B
100
AcDbMlineStyle
  2
STANDARD
 70
     0
  3

 62
   256
 51
90.0
 52
90.0
 71
     2
 49
0.5
 62
   256
  6
BYLAYER
 49
-0.5
 62
   256
  6
BYLAYER
  0
ACDBPLACEHOLDER
  5
1E40
102
{ACAD_REACTORS
330
1E3F
102
}
330
1E3F
  0
ACAD_PROXY_OBJECT
  5
1E44
102
{ACAD_REACTORS
330
1E43
102
}
330
1E43
100
AcDbProxyObject
 90
      499
 91
      505
 95
  2555929
 70
     0
 93
     1849
310
4214DD185B99185C992420000000000000F83F0000000000003E0FC00000000000004901028000000C1008070000C3001FDFF8000000C1003FBFF000000182007F7FE00000030400FEFFC00000060801FDFF8000000C1003FBFF000000182000000000000000C2020B0000001820100E000186003FBFF000000182007F7FE0
310
0000030400FEFFC00000060801FDFF8000000C1003FBFF000000182007F7FE0000003040000000000000012404160000003040201C00030C007F7FE00000030400FEFFC00000060801FDFF8000000C1003FBFF000000182007F7FE00000030400FEFFC000000608000
340
F
340
F
340
F
 94
        0
  0
DICTIONARYVAR
  5
1E4F
102
{ACAD_REACTORS
330
1790
102
}
330
1790
100
DictionaryVariables
280
     0
  1
STANDARD
  0
DICTIONARYVAR
  5
1791
102
{ACAD_REACTORS
330
1790
102
}
330
1790
100
DictionaryVariables
280
     0
  1
96
  0
ENDSEC
  0
EOF
