  0
SECTION
  2
HEADER
  9
$ACADVER
  1
AC1018
  9
$ACADMAINTVER
 70
     0
  9
$DWGCODEPAGE
  3
ANSI_932
  9
$INSBASE
 10
0.0
 20
0.0
 30
0.0
  9
$EXTMIN
 10
236.4655427980613
 20
171.6339896600951
 30
-0.0000000000000892
  9
$EXTMAX
 10
491.8990686337299
 20
367.055777876885
 30
0.0000000000004614
  9
$LIMMIN
 10
0.0
 20
0.0
  9
$LIMMAX
 10
420.0
 20
297.0
  9
$ORTHOMODE
 70
     0
  9
$REGENMODE
 70
     1
  9
$FILLMODE
 70
     1
  9
$QTEXTMODE
 70
     0
  9
$MIRRTEXT
 70
     1
  9
$LTSCALE
 40
1.0
  9
$ATTMODE
 70
     1
  9
$TEXTSIZE
 40
1.5
  9
$TRACEWID
 40
1.0
  9
$TEXTSTYLE
  7
STYLE3
  9
$CLAYER
  8
外形線
  9
$CELTYPE
  6
BYLAYER
  9
$CECOLOR
 62
   256
  9
$CELTSCALE
 40
1.0
  9
$DISPSILH
 70
     0
  9
$DIMSCALE
 40
1.0
  9
$DIMASZ
 40
2.5
  9
$DIMEXO
 40
0.0
  9
$DIMDLI
 40
3.75
  9
$DIMRND
 40
0.0
  9
$DIMDLE
 40
0.0
  9
$DIMEXE
 40
1.25
  9
$DIMTP
 40
0.0
  9
$DIMTM
 40
0.0
  9
$DIMTXT
 40
2.5
  9
$DIMCEN
 40
2.5
  9
$DIMTSZ
 40
0.0
  9
$DIMTOL
 70
     0
  9
$DIMLIM
 70
     0
  9
$DIMTIH
 70
     0
  9
$DIMTOH
 70
     0
  9
$DIMSE1
 70
     0
  9
$DIMSE2
 70
     0
  9
$DIMTAD
 70
     1
  9
$DIMZIN
 70
     8
  9
$DIMBLK
  1

  9
$DIMASO
 70
     1
  9
$DIMSHO
 70
     1
  9
$DIMPOST
  1

  9
$DIMAPOST
  1

  9
$DIMALT
 70
     0
  9
$DIMALTD
 70
     4
  9
$DIMALTF
 40
0.0394
  9
$DIMLFAC
 40
1.0
  9
$DIMTOFL
 70
     1
  9
$DIMTVP
 40
0.0
  9
$DIMTIX
 70
     0
  9
$DIMSOXD
 70
     0
  9
$DIMSAH
 70
     1
  9
$DIMBLK1
  1
OPEN
  9
$DIMBLK2
  1
OPEN
  9
$DIMSTYLE
  2
STYLE3
  9
$DIMCLRD
 70
     2
  9
$DIMCLRE
 70
     2
  9
$DIMCLRT
 70
     6
  9
$DIMTFAC
 40
1.0
  9
$DIMGAP
 40
0.625
  9
$DIMJUST
 70
     0
  9
$DIMSD1
 70
     0
  9
$DIMSD2
 70
     0
  9
$DIMTOLJ
 70
     1
  9
$DIMTZIN
 70
     0
  9
$DIMALTZ
 70
     0
  9
$DIMALTTZ
 70
     0
  9
$DIMUPT
 70
     0
  9
$DIMDEC
 70
     2
  9
$DIMTDEC
 70
     4
  9
$DIMALTU
 70
     8
  9
$DIMALTTD
 70
     4
  9
$DIMTXSTY
  7
STYLE3
  9
$DIMAUNIT
 70
     0
  9
$DIMADEC
 70
     0
  9
$DIMALTRND
 40
0.0
  9
$DIMAZIN
 70
     0
  9
$DIMDSEP
 70
    46
  9
$DIMATFIT
 70
     3
  9
$DIMFRAC
 70
     0
  9
$DIMLDRBLK
  1

  9
$DIMLUNIT
 70
     2
  9
$DIMLWD
 70
    -2
  9
$DIMLWE
 70
    -2
  9
$DIMTMOVE
 70
     0
  9
$LUNITS
 70
     2
  9
$LUPREC
 70
     4
  9
$SKETCHINC
 40
1.0
  9
$FILLETRAD
 40
0.0
  9
$AUNITS
 70
     0
  9
$AUPREC
 70
     0
  9
$MENU
  1
.
  9
$ELEVATION
 40
0.0
  9
$PELEVATION
 40
0.0
  9
$THICKNESS
 40
0.0
  9
$LIMCHECK
 70
     0
  9
$CHAMFERA
 40
0.1
  9
$CHAMFERB
 40
0.1
  9
$CHAMFERC
 40
20.0
  9
$CHAMFERD
 40
0.0
  9
$SKPOLY
 70
     0
  9
$TDCREATE
 40
2451066.662483449
  9
$TDUCREATE
 40
2451066.287483449
  9
$TDUPDATE
 40
2455362.694368842
  9
$TDUUPDATE
 40
2455362.319368842
  9
$TDINDWG
 40
0.7269578935
  9
$TDUSRTIMER
 40
0.7269578935
  9
$USRTIMER
 70
     1
  9
$ANGBASE
 50
0.0
  9
$ANGDIR
 70
     0
  9
$PDMODE
 70
     0
  9
$PDSIZE
 40
0.0
  9
$PLINEWID
 40
0.0
  9
$SPLFRAME
 70
     0
  9
$SPLINETYPE
 70
     6
  9
$SPLINESEGS
 70
     8
  9
$HANDSEED
  5
1B24
  9
$SURFTAB1
 70
     6
  9
$SURFTAB2
 70
     6
  9
$SURFTYPE
 70
     6
  9
$SURFU
 70
     6
  9
$SURFV
 70
     6
  9
$UCSBASE
  2

  9
$UCSNAME
  2

  9
$UCSORG
 10
0.0
 20
0.0
 30
0.0
  9
$UCSXDIR
 10
1.0
 20
0.0
 30
0.0
  9
$UCSYDIR
 10
0.0
 20
1.0
 30
0.0
  9
$UCSORTHOREF
  2

  9
$UCSORTHOVIEW
 70
     0
  9
$UCSORGTOP
 10
0.0
 20
0.0
 30
0.0
  9
$UCSORGBOTTOM
 10
0.0
 20
0.0
 30
0.0
  9
$UCSORGLEFT
 10
0.0
 20
0.0
 30
0.0
  9
$UCSORGRIGHT
 10
0.0
 20
0.0
 30
0.0
  9
$UCSORGFRONT
 10
0.0
 20
0.0
 30
0.0
  9
$UCSORGBACK
 10
0.0
 20
0.0
 30
0.0
  9
$PUCSBASE
  2

  9
$PUCSNAME
  2

  9
$PUCSORG
 10
0.0
 20
0.0
 30
0.0
  9
$PUCSXDIR
 10
1.0
 20
0.0
 30
0.0
  9
$PUCSYDIR
 10
0.0
 20
1.0
 30
0.0
  9
$PUCSORTHOREF
  2

  9
$PUCSORTHOVIEW
 70
     0
  9
$PUCSORGTOP
 10
0.0
 20
0.0
 30
0.0
  9
$PUCSORGBOTTOM
 10
0.0
 20
0.0
 30
0.0
  9
$PUCSORGLEFT
 10
0.0
 20
0.0
 30
0.0
  9
$PUCSORGRIGHT
 10
0.0
 20
0.0
 30
0.0
  9
$PUCSORGFRONT
 10
0.0
 20
0.0
 30
0.0
  9
$PUCSORGBACK
 10
0.0
 20
0.0
 30
0.0
  9
$USERI1
 70
     0
  9
$USERI2
 70
     0
  9
$USERI3
 70
     0
  9
$USERI4
 70
     0
  9
$USERI5
 70
     0
  9
$USERR1
 40
0.0
  9
$USERR2
 40
0.0
  9
$USERR3
 40
0.0
  9
$USERR4
 40
0.0
  9
$USERR5
 40
0.0
  9
$WORLDVIEW
 70
     1
  9
$SHADEDGE
 70
     3
  9
$SHADEDIF
 70
    70
  9
$TILEMODE
 70
     1
  9
$MAXACTVP
 70
    48
  9
$PINSBASE
 10
0.0
 20
0.0
 30
0.0
  9
$PLIMCHECK
 70
     0
  9
$PEXTMIN
 10
1.000000000000000E+20
 20
1.000000000000000E+20
 30
1.000000000000000E+20
  9
$PEXTMAX
 10
-1.000000000000000E+20
 20
-1.000000000000000E+20
 30
-1.000000000000000E+20
  9
$PLIMMIN
 10
0.0
 20
0.0
  9
$PLIMMAX
 10
420.0
 20
297.0
  9
$UNITMODE
 70
     0
  9
$VISRETAIN
 70
     1
  9
$PLINEGEN
 70
     0
  9
$PSLTSCALE
 70
     1
  9
$TREEDEPTH
 70
  3020
  9
$CMLSTYLE
  2
STANDARD
  9
$CMLJUST
 70
     0
  9
$CMLSCALE
 40
20.0
  9
$PROXYGRAPHICS
 70
     1
  9
$MEASUREMENT
 70
     1
  9
$CELWEIGHT
370
    -1
  9
$ENDCAPS
280
     0
  9
$JOINSTYLE
280
     0
  9
$LWDISPLAY
290
     0
  9
$INSUNITS
 70
     0
  9
$HYPERLINKBASE
  1

  9
$STYLESHEET
  1
AutoCAD LT 98.ctb
  9
$XEDIT
290
     1
  9
$CEPSNTYPE
380
     0
  9
$PSTYLEMODE
290
     1
  9
$FINGERPRINTGUID
  2
{8CCBEDDF-77CF-403C-A9B1-EAB320980242}
  9
$VERSIONGUID
  2
{CC8C29FF-522E-40C7-908D-4A7AC7C75199}
  9
$EXTNAMES
290
     1
  9
$PSVPSCALE
 40
0.0
  9
$OLESTARTUP
290
     0
  9
$SORTENTS
280
    96
  9
$INDEXCTL
280
     0
  9
$HIDETEXT
280
     0
  9
$XCLIPFRAME
290
     0
  9
$HALOGAP
280
     0
  9
$OBSCOLOR
 70
   257
  9
$OBSLTYPE
280
     0
  9
$INTERSECTIONDISPLAY
280
     0
  9
$INTERSECTIONCOLOR
 70
   257
  9
$DIMASSOC
280
     1
  9
$PROJECTNAME
  1

  0
ENDSEC
  0
SECTION
  2
CLASSES
  0
CLASS
  1
HATCH
  2
AcDbHatch
  3
ObjectDBX Classes
 90
        0
 91
       12
280
     0
281
     1
  0
CLASS
  1
LWPOLYLINE
  2
AcDbPolyline
  3
ObjectDBX Classes
 90
        0
 91
        4
280
     0
281
     1
  0
CLASS
  1
IMAGEDEF
  2
AcDbRasterImageDef
  3
ISM
 90
        0
 91
        1
280
     0
281
     0
  0
CLASS
  1
DICTIONARYVAR
  2
AcDbDictionaryVar
  3
ObjectDBX Classes
 90
        0
 91
        2
280
     0
281
     0
  0
CLASS
  1
ACDBDICTIONARYWDFLT
  2
AcDbDictionaryWithDefault
  3
ObjectDBX Classes
 90
        0
 91
        1
280
     0
281
     0
  0
CLASS
  1
TABLESTYLE
  2
AcDbTableStyle
  3
ObjectDBX Classes
 90
     2047
 91
        1
280
     0
281
     0
  0
CLASS
  1
SORTENTSTABLE
  2
AcDbSortentsTable
  3
ObjectDBX Classes
 90
        0
 91
        2
280
     0
281
     0
  0
ENDSEC
  0
SECTION
  2
TABLES
  0
TABLE
  2
VPORT
  5
8
330
0
100
AcDbSymbolTable
 70
     2
  0
VPORT
  5
1B23
330
8
100
AcDbSymbolTableRecord
100
AcDbViewportTableRecord
  2
*Active
 70
     0
 10
0.0
 20
0.0
 11
1.0
 21
1.0
 12
364.1823057158956
 22
269.3448837684901
 13
0.0
 23
0.0
 14
10.0
 24
10.0
 15
10.0
 25
10.0
 16
0.0
 26
0.0
 36
1.0
 17
0.0
 27
0.0
 37
0.0
 40
196.9078854655868
 41
1.530456852791878
 42
50.0
 43
0.0
 44
0.0
 50
0.0
 51
0.0
 71
     0
 72
   100
 73
     1
 74
     1
 75
     0
 76
     0
 77
     0
 78
     0
281
     0
 65
     1
110
0.0
120
0.0
130
0.0
111
1.0
121
0.0
131
0.0
112
0.0
122
1.0
132
0.0
 79
     0
146
0.0
  0
ENDTAB
  0
TABLE
  2
LTYPE
  5
5
330
0
100
AcDbSymbolTable
 70
     3
  0
LTYPE
  5
12
330
5
100
AcDbSymbolTableRecord
100
AcDbLinetypeTableRecord
  2
BYBLOCK
 70
     0
  3

 72
    65
 73
     0
 40
0.0
  0
LTYPE
  5
13
330
5
100
AcDbSymbolTableRecord
100
AcDbLinetypeTableRecord
  2
BYLAYER
 70
     0
  3

 72
    65
 73
     0
 40
0.0
  0
LTYPE
  5
14
330
5
100
AcDbSymbolTableRecord
100
AcDbLinetypeTableRecord
  2
CONTINUOUS
 70
     0
  3
Solid line
 72
    65
 73
     0
 40
0.0
  0
LTYPE
  5
22
330
5
100
AcDbSymbolTableRecord
100
AcDbLinetypeTableRecord
  2
CENTER2
 70
     0
  3
Center (.5x) ___ _ ___ _ ___ _ ___ _ ___ _ ___
 72
    65
 73
     4
 40
28.575
 49
19.05
 74
     0
 49
-3.174999999999999
 74
     0
 49
3.174999999999999
 74
     0
 49
-3.174999999999999
 74
     0
  0
LTYPE
  5
23
330
5
100
AcDbSymbolTableRecord
100
AcDbLinetypeTableRecord
  2
HIDDEN2
 70
     0
  3
Hidden (.5x) _ _ _ _ _ _ _ _ _ _ _ _ _ _ _ _ _
 72
    65
 73
     2
 40
4.762499999999999
 49
3.174999999999999
 74
     0
 49
-1.587499999999999
 74
     0
  0
ENDTAB
  0
TABLE
  2
LAYER
  5
2
330
0
100
AcDbSymbolTable
 70
    11
  0
LAYER
  5
E
330
2
100
AcDbSymbolTableRecord
100
AcDbLayerTableRecord
  2
0
 70
     0
 62
     7
  6
CONTINUOUS
370
    -3
390
1A7C
  0
LAYER
  5
25
330
2
100
AcDbSymbolTableRecord
100
AcDbLayerTableRecord
  2
外形線
 70
     0
 62
     7
  6
CONTINUOUS
370
    -3
390
1A7C
  0
LAYER
  5
26
330
2
100
AcDbSymbolTableRecord
100
AcDbLayerTableRecord
  2
寸法線
 70
     0
 62
     2
  6
CONTINUOUS
370
    -3
390
1A7C
  0
LAYER
  5
27
330
2
100
AcDbSymbolTableRecord
100
AcDbLayerTableRecord
  2
中心線
 70
     0
 62
     4
  6
CENTER2
370
    -3
390
1A7C
  0
LAYER
  5
28
330
2
100
AcDbSymbolTableRecord
100
AcDbLayerTableRecord
  2
隠れ線
 70
     0
 62
     6
  6
HIDDEN2
370
    -3
390
1A7C
  0
LAYER
  5
2B
330
2
100
AcDbSymbolTableRecord
100
AcDbLayerTableRecord
  2
文字
 70
     0
 62
     6
  6
CONTINUOUS
370
    -3
390
1A7C
  0
LAYER
  5
2C
330
2
100
AcDbSymbolTableRecord
100
AcDbLayerTableRecord
  2
目盛
 70
     0
 62
    70
  6
CONTINUOUS
370
    -3
390
1A7C
  0
LAYER
  5
2D
330
2
100
AcDbSymbolTableRecord
100
AcDbLayerTableRecord
  2
針
 70
     0
 62
     5
  6
CONTINUOUS
370
    -3
390
1A7C
  0
LAYER
  5
53
330
2
100
AcDbSymbolTableRecord
100
AcDbLayerTableRecord
  2
DEFPOINTS
 70
     0
 62
     7
  6
CONTINUOUS
290
     0
370
    -3
390
1A7C
  0
LAYER
  5
A5
330
2
100
AcDbSymbolTableRecord
100
AcDbLayerTableRecord
  2
C
 70
     0
 62
     7
  6
CONTINUOUS
370
    -3
390
1A7C
  0
LAYER
  5
AD4
330
2
100
AcDbSymbolTableRecord
100
AcDbLayerTableRecord
  2
ROGO
 70
     0
 62
     6
  6
CONTINUOUS
370
    -3
390
1A7C
  0
ENDTAB
  0
TABLE
  2
STYLE
  5
3
330
0
100
AcDbSymbolTable
 70
     3
  0
STYLE
  5
F
330
3
100
AcDbSymbolTableRecord
100
AcDbTextStyleTableRecord
  2
STANDARD
 70
     0
 40
0.0
 41
1.0
 50
0.0
 71
     0
 42
2.5
  3
txt
  4

  0
STYLE
  5
3F
330
3
100
AcDbSymbolTableRecord
100
AcDbTextStyleTableRecord
  2
STYLE3
 70
     0
 40
0.0
 41
1.0
 50
0.0
 71
     0
 42
1.5
  3
romans.shx
  4
bigfont.shx
  0
ENDTAB
  0
TABLE
  2
VIEW
  5
6
330
0
100
AcDbSymbolTable
 70
     0
  0
ENDTAB
  0
TABLE
  2
UCS
  5
7
330
0
100
AcDbSymbolTable
 70
     0
  0
ENDTAB
  0
TABLE
  2
APPID
  5
9
330
0
100
AcDbSymbolTable
 70
     2
  0
APPID
  5
10
330
9
100
AcDbSymbolTableRecord
100
AcDbRegAppTableRecord
  2
ACAD
 70
     0
  0
APPID
  5
1AA5
330
9
100
AcDbSymbolTableRecord
100
AcDbRegAppTableRecord
  2
ACAD_PSEXT
 70
     0
  0
ENDTAB
  0
TABLE
  2
DIMSTYLE
  5
A
330
0
100
AcDbSymbolTable
 70
     3
100
AcDbDimStyleTable
 71
     1
340
8F
  0
DIMSTYLE
105
1D
330
A
100
AcDbSymbolTableRecord
100
AcDbDimStyleTableRecord
  2
STANDARD
 70
     0
 41
2.5
 42
0.625
 43
3.75
 44
1.25
 73
     0
 74
     0
 77
     1
 78
     8
140
2.5
141
2.5
143
0.0394
147
0.625
171
     4
172
     1
273
     8
274
     4
277
     6
340
F
  0
DIMSTYLE
105
8F
102
{ACAD_REACTORS
330
13A0
330
140E
330
1474
330
15BA
330
15D5
330
1714
330
1721
330
172E
330
173B
330
1A1A
330
1A42
102
}
330
A
100
AcDbSymbolTableRecord
100
AcDbDimStyleTableRecord
  2
STYLE3
 70
     0
 41
2.5
 42
0.0
 43
3.75
 44
1.25
 73
     0
 74
     0
 77
     1
 78
     8
140
2.5
141
2.5
143
0.0394
147
0.625
171
     4
172
     1
173
     1
176
     2
177
     2
178
     6
271
     1
273
     8
274
     4
340
3F
341
45
343
45
344
45
  0
ENDTAB
  0
TABLE
  2
BLOCK_RECORD
  5
1
330
0
100
AcDbSymbolTable
 70
    21
  0
BLOCK_RECORD
  5
18
330
1
100
AcDbSymbolTableRecord
100
AcDbBlockTableRecord
  2
*MODEL_SPACE
340
1A83
  0
BLOCK_RECORD
  5
15
330
1
100
AcDbSymbolTableRecord
100
AcDbBlockTableRecord
  2
*PAPER_SPACE
340
1A84
  0
BLOCK_RECORD
  5
45
330
1
100
AcDbSymbolTableRecord
100
AcDbBlockTableRecord
  2
_OPEN
340
0
102
{BLKREFS
331
1637
331
1638
331
1654
331
1669
331
166A
331
168B
331
168C
331
16B5
331
16B6
331
1A48
331
1A49
331
1A52
331
1A53
331
13B2
331
13B3
331
1966
331
1967
331
1A07
331
1A08
331
1606
331
1607
331
165D
331
165E
331
19F2
331
19F3
331
171A
331
171B
331
1727
331
1728
331
1734
331
1735
331
1A5B
331
1A5C
331
1A65
331
1A66
102
}
  0
BLOCK_RECORD
  5
76E
330
1
100
AcDbSymbolTableRecord
100
AcDbBlockTableRecord
  2
ROGO
340
0
102
{BLKREFS
331
BF6
331
18F8
102
}
  0
BLOCK_RECORD
  5
ADD
330
1
100
AcDbSymbolTableRecord
100
AcDbBlockTableRecord
  2
ROGO1
340
0
102
{BLKREFS
331
B43
331
B44
331
FCB
331
FCC
102
}
  0
BLOCK_RECORD
  5
1394
330
1
100
AcDbSymbolTableRecord
100
AcDbBlockTableRecord
  2
*D4
340
0
  0
BLOCK_RECORD
  5
1402
330
1
100
AcDbSymbolTableRecord
100
AcDbBlockTableRecord
  2
*D5
340
0
  0
BLOCK_RECORD
  5
1468
330
1
100
AcDbSymbolTableRecord
100
AcDbBlockTableRecord
  2
*D6
340
0
  0
BLOCK_RECORD
  5
15AE
330
1
100
AcDbSymbolTableRecord
100
AcDbBlockTableRecord
  2
*D7
340
0
  0
BLOCK_RECORD
  5
15C9
330
1
100
AcDbSymbolTableRecord
100
AcDbBlockTableRecord
  2
*D8
340
0
  0
BLOCK_RECORD
  5
1708
330
1
100
AcDbSymbolTableRecord
100
AcDbBlockTableRecord
  2
*D9
340
0
  0
BLOCK_RECORD
  5
1715
330
1
100
AcDbSymbolTableRecord
100
AcDbBlockTableRecord
  2
*D10
340
0
  0
BLOCK_RECORD
  5
1722
330
1
100
AcDbSymbolTableRecord
100
AcDbBlockTableRecord
  2
*D11
340
0
  0
BLOCK_RECORD
  5
172F
330
1
100
AcDbSymbolTableRecord
100
AcDbBlockTableRecord
  2
*D12
340
0
  0
BLOCK_RECORD
  5
1A0E
330
1
100
AcDbSymbolTableRecord
100
AcDbBlockTableRecord
  2
*D14
340
0
  0
BLOCK_RECORD
  5
1A37
330
1
100
AcDbSymbolTableRecord
100
AcDbBlockTableRecord
  2
*D15
340
0
  0
BLOCK_RECORD
  5
1A91
102
{ACAD_XDICTIONARY
360
1A92
102
}
330
1
100
AcDbSymbolTableRecord
100
AcDbBlockTableRecord
  2
PC_PCN針
340
0
102
{BLKREFS
331
1AAD
331
1AB8
102
}
  0
ENDTAB
  0
ENDSEC
  0
SECTION
  2
BLOCKS
  0
BLOCK
  5
19
330
18
100
AcDbEntity
  8
0
100
AcDbBlockBegin
  2
*MODEL_SPACE
 70
     0
 10
0.0
 20
0.0
 30
0.0
  3
*MODEL_SPACE
  1

  0
ENDBLK
  5
1A
330
18
100
AcDbEntity
  8
0
100
AcDbBlockEnd
  0
BLOCK
  5
16
330
15
100
AcDbEntity
 67
     1
  8
0
100
AcDbBlockBegin
  2
*PAPER_SPACE
 70
     0
 10
0.0
 20
0.0
 30
0.0
  3
*PAPER_SPACE
  1

  0
ENDBLK
  5
17
330
15
100
AcDbEntity
 67
     1
  8
0
100
AcDbBlockEnd
  0
BLOCK
  5
46
330
45
100
AcDbEntity
  8
0
100
AcDbBlockBegin
  2
_OPEN
 70
     0
 10
0.0
 20
0.0
 30
0.0
  3
_OPEN
  1

  0
LINE
  5
47
330
45
100
AcDbEntity
  8
0
  6
ByBlock
 62
     0
100
AcDbLine
 10
-1.0
 20
0.1666666666666666
 30
0.0
 11
0.0
 21
0.0
 31
0.0
  0
LINE
  5
48
330
45
100
AcDbEntity
  8
0
  6
ByBlock
 62
     0
100
AcDbLine
 10
0.0
 20
0.0
 30
0.0
 11
-1.0
 21
-0.1666666666666666
 31
0.0
  0
LINE
  5
49
330
45
100
AcDbEntity
  8
0
  6
ByBlock
 62
     0
100
AcDbLine
 10
0.0
 20
0.0
 30
0.0
 11
-1.0
 21
0.0
 31
0.0
  0
ENDBLK
  5
4A
330
45
100
AcDbEntity
  8
0
100
AcDbBlockEnd
  0
BLOCK
  5
7C1
330
76E
100
AcDbEntity
  8
0
 48
0.7
100
AcDbBlockBegin
  2
ROGO
 70
     0
 10
0.0
 20
0.0
 30
0.0
  3
ROGO
  1

  0
HATCH
  5
BA4
330
76E
100
AcDbEntity
  8
ROGO
 62
     4
100
AcDbHatch
 10
0.0
 20
0.0
 30
0.0
210
0.0
220
0.0
230
1.0
  2
SOLID
 70
     1
 71
     1
 91
        1
 92
        7
 72
     0
 73
     1
 93
       11
 10
38.38165352405156
 20
4.949786840425588
 10
36.55777800832078
 20
4.949786840425588
 10
35.70378540756275
 20
4.409370842614521
 10
35.97325427788326
 20
4.949786840425588
 10
34.14933885635003
 20
4.949786840425645
 10
31.68121527448045
 20
0.0
 10
33.50513069601385
 20
0.0
 10
34.14933885635003
 20
1.291950329371957
 10
34.79354701668632
 20
0.0
 10
36.61742253241704
 20
0.0
 10
35.38336074148237
 20
2.474893420212765
 97
       11
330
BF2
330
BF5
330
BF4
330
BF3
330
BA9
330
BA6
330
BEF
330
BEE
330
BF0
330
BED
330
BF1
 75
     0
 76
     1
 47
0.0514683685270805
 98
        1
 10
33.99236623130548
 20
2.826231829978155
450
        0
451
        0
460
0.0
461
0.0
452
        0
462
0.0
453
        0
470

  0
HATCH
  5
BA5
330
76E
100
AcDbEntity
  8
ROGO
 62
     4
100
AcDbHatch
 10
0.0
 20
0.0
 30
0.0
210
0.0
220
0.0
230
1.0
  2
SOLID
 70
     1
 71
     1
 91
        1
 92
        5
 93
        8
 72
     1
 10
33.48588559853425
 20
4.949786840425645
 11
30.31359802057352
 21
4.949786840425645
 72
     4
 94
        3
 73
     0
 74
     0
 95
       26
 96
       22
 40
0.0
 40
0.0
 40
0.0
 40
0.0
 40
0.7089867102952115
 40
1.183598414482279
 40
1.525832104103439
 40
1.781366926528389
 40
2.112809002752968
 40
2.354729406992515
 40
2.791581270399936
 40
3.147172406765291
 40
3.389031356825354
 40
3.626186440486682
 40
4.050410779375985
 40
4.350388020238963
 40
4.511948940797758
 40
4.741441456013356
 40
4.907163150576407
 40
5.147239172635527
 40
5.28310143501293
 40
5.578752957634333
 40
5.713750011164293
 40
5.713750011164293
 40
5.713750011164293
 40
5.713750011164293
 10
30.31359802057318
 20
4.949786840425645
 10
30.11854899911117
 20
4.938149881331241
 10
29.7929297608427
 20
4.91872287919773
 10
29.43540181805798
 20
4.70152849352172
 10
29.17345591634097
 20
4.575261222274434
 10
28.98663641691252
 20
4.403611624277345
 10
28.84969696652098
 20
4.226310128312206
 10
28.67705908163674
 20
4.015056695877603
 10
28.53627781964582
 20
3.769060622409767
 10
28.46458648155834
 20
3.497930064177694
 10
28.40108297470425
 20
3.28183743611737
 10
28.35398771091377
 20
3.041030402807223
 10
28.36597007927202
 20
2.780874095348053
 10
28.38312937914947
 20
2.539254235598093
 10
28.45974148051295
 20
2.366773831190926
 10
28.5469890936244
 20
2.243979668736869
 10
28.65382260102928
 20
2.108735512341411
 10
28.77072182070049
 20
2.019163745498303
 10
28.86740701734601
 20
1.85689847078413
 10
29.03665119246222
 20
1.836192251465718
 10
29.14422952328943
 20
1.794980695042454
 10
29.17795251342483
 20
1.782061951090668
 72
     1
 10
29.1779525134246
 20
1.782061951090668
 11
31.90635566072177
 21
1.782061951090724
 72
     1
 10
31.90635566072177
 20
1.782061951090668
 11
32.49403698331935
 21
2.960648509043437
 72
     1
 10
32.49403698331941
 20
2.960648509043437
 11
30.46845823186379
 21
2.960648509043437
 72
     4
 94
        3
 73
     0
 74
     0
 95
       16
 96
       12
 40
0.0
 40
0.0
 40
0.0
 40
0.0
 40
0.2141121027475241
 40
0.4304326162973471
 40
0.5594580803306056
 40
0.6831669452691567
 40
0.8190286678446897
 40
0.9139043619204622
 40
1.003933161420314
 40
1.186498641432482
 40
1.560280494298353
 40
1.560280494298353
 40
1.560280494298353
 40
1.560280494298353
 10
30.46845823186391
 20
2.960648509043437
 10
30.40735963846879
 20
2.978624611086559
 10
30.2845322640714
 20
3.014762225606943
 10
30.27425260468789
 20
3.189944104912854
 10
30.28825715338957
 20
3.314775529002304
 10
30.34690823463126
 20
3.405660095425673
 10
30.41806216907168
 20
3.471790575521367
 10
30.44455593462857
 20
3.557915185941965
 10
30.52243194464864
 20
3.622950041937542
 10
30.66052697686496
 20
3.732264550099898
 10
30.81323617682881
 20
3.755546097864453
 10
30.9158338246271
 20
3.771187801431096
 72
     1
 10
30.91583382462705
 20
3.77118780143121
 11
32.89819805248612
 21
3.77118780143121
 72
     1
 10
32.89819805248612
 20
3.77118780143121
 11
33.48588559853425
 21
4.949786840425701
 97
        8
330
BA7
330
BCB
330
BD7
330
BD0
330
BEB
330
BEA
330
BEC
330
BA8
 75
     0
 76
     1
 47
0.0514683685270805
 98
        1
 10
30.86099532083267
 20
4.369765638819899
450
        0
451
        0
460
0.0
461
0.0
452
        0
462
0.0
453
        0
470

  0
LINE
  5
BA6
102
{ACAD_REACTORS
330
BAA
330
BA4
330
BAF
102
}
330
76E
100
AcDbEntity
  8
ROGO
 62
     4
100
AcDbLine
 10
0.0000000000000568
 20
0.0
 30
0.0
 11
33.50513069601385
 21
0.0
 31
0.0
  0
LINE
  5
BA7
102
{ACAD_REACTORS
330
BA5
102
}
330
76E
100
AcDbEntity
  8
ROGO
 62
     4
100
AcDbLine
 10
30.31359802057415
 20
4.949786840425645
 30
0.0
 11
33.48588559853425
 21
4.949786840425645
 31
0.0
  0
LINE
  5
BA8
102
{ACAD_REACTORS
330
BA5
102
}
330
76E
100
AcDbEntity
  8
ROGO
 62
     4
100
AcDbLine
 10
33.48588559853425
 20
4.949786840425645
 30
0.0
 11
32.89819805248607
 21
3.77118780143121
 31
0.0
  0
LINE
  5
BA9
102
{ACAD_REACTORS
330
BAA
330
BA4
102
}
330
76E
100
AcDbEntity
  8
ROGO
 62
     4
100
AcDbLine
 10
34.14933885635003
 20
4.949786840425645
 30
0.0
 11
31.6812152744804
 21
0.0
 31
0.0
  0
HATCH
  5
BAA
330
76E
100
AcDbEntity
  8
ROGO
 62
     4
100
AcDbHatch
 10
0.0
 20
0.0
 30
0.0
210
0.0
220
0.0
230
1.0
  2
SOLID
 70
     1
 71
     1
 91
        1
 92
        7
 72
     0
 73
     1
 93
        4
 10
31.9286078056424
 20
0.4961422127159381
 10
2.525341286638024
 20
0.4961422127159381
 10
2.30087247590319
 20
-0.0000000000000568
 10
31.68121527448045
 20
-0.0000000000000568
 97
        4
330
BAE
330
BB8
330
BA6
330
BA9
 75
     0
 76
     1
 47
0.0514683685270805
 98
        1
 10
21.09111831761885
 20
0.3649205710345882
450
        0
451
        0
460
0.0
461
0.0
452
        0
462
0.0
453
        0
470

  0
HATCH
  5
BAB
330
76E
100
AcDbEntity
  8
ROGO
 62
     4
100
AcDbHatch
 10
0.0
 20
0.0
 30
0.0
210
0.0
220
0.0
230
1.0
  2
SOLID
 70
     1
 71
     1
 91
        2
 92
        7
 72
     0
 73
     1
 93
        8
 10
15.99342784516449
 20
4.949786840425645
 10
14.16260675403379
 20
4.949786840425645
 10
11.87829877231911
 20
1.782061951090668
 10
13.63265136986962
 20
1.782061951090668
 10
14.06756947612285
 20
2.38517717067981
 10
16.08846512307536
 20
2.385177170679696
 10
16.52338322932866
 20
1.782061951090668
 10
18.27773582687916
 20
1.782061951090668
 97
        8
330
BAD
330
BB5
330
BBA
330
BB6
330
BAC
330
BCE
330
BD4
330
BCD
 92
       22
 72
     0
 73
     1
 93
        3
 10
15.62974388152605
 20
3.021300979620718
 10
14.52629071767222
 20
3.021300979620718
 10
15.07801729959914
 20
3.786398348131172
 97
        3
330
BD9
330
BD8
330
BDA
 75
     0
 76
     1
 47
0.0514683685270805
 98
        2
 10
16.20617981601185
 20
3.326837253266262
 10
16.20617981601185
 20
3.326837253266262
450
        0
451
        0
460
0.0
461
0.0
452
        0
462
0.0
453
        0
470

  0
LINE
  5
BAC
102
{ACAD_REACTORS
330
BAB
102
}
330
76E
100
AcDbEntity
  8
ROGO
 62
     4
100
AcDbLine
 10
14.06756947612285
 20
2.385177170679753
 30
0.0
 11
16.08846512307542
 21
2.385177170679753
 31
0.0
  0
LINE
  5
BAD
102
{ACAD_REACTORS
330
BAB
102
}
330
76E
100
AcDbEntity
  8
ROGO
 62
     4
100
AcDbLine
 10
14.16260675403379
 20
4.949786840425645
 30
0.0
 11
15.99342784516443
 21
4.949786840425645
 31
0.0
  0
LINE
  5
BAE
102
{ACAD_REACTORS
330
BAA
102
}
330
76E
100
AcDbEntity
  8
ROGO
 62
     4
100
AcDbLine
 10
2.490933298034235
 20
0.4961422127159381
 30
0.0
 11
31.92860780564246
 21
0.4961422127159381
 31
0.0
  0
HATCH
  5
BAF
330
76E
100
AcDbEntity
  8
ROGO
 62
     4
100
AcDbHatch
 10
0.0
 20
0.0
 30
0.0
210
0.0
220
0.0
230
1.0
  2
SOLID
 70
     1
 71
     1
 91
        2
 92
        5
 93
        6
 72
     4
 94
        3
 73
     0
 74
     0
 95
       18
 96
       14
 40
0.108740278791501
 40
0.108740278791501
 40
0.108740278791501
 40
0.108740278791501
 40
0.6623149649549278
 40
1.384304701649787
 40
2.097394834876493
 40
2.774073369849618
 40
3.428974823686337
 40
4.005208313035923
 40
4.455173659284313
 40
4.720999734343524
 40
5.086034088486724
 40
5.569973738255373
 40
6.060470601257719
 40
6.060470601257719
 40
6.060470601257719
 40
6.060470601257719
 10
5.257971706506339
 20
1.782061951090668
 10
5.409344543521854
 20
1.783189178773909
 10
5.758142655701249
 20
1.785786572703102
 10
6.246108485316483
 20
2.046468641233957
 10
6.708839512865949
 20
2.378558603499755
 10
7.081537876611037
 20
2.793470364329778
 10
7.313740186156906
 20
3.267850878540173
 10
7.349707589953482
 20
3.722501028309523
 10
7.327750373593119
 20
4.082123644518105
 10
7.170855034099304
 20
4.33278953599904
 10
7.007743182975218
 20
4.587189781908875
 10
6.708651203549891
 20
4.807560723981168
 10
6.463588634008544
 20
4.904115955004613
 10
6.338969333173452
 20
4.949786840425758
 72
     1
 10
6.338969333173679
 20
4.949786840425645
 11
2.449108495127859
 21
4.949786840425645
 72
     1
 10
2.449108495127859
 20
4.949786840425645
 11
0.0
 21
-0.0000000000000568
 72
     1
 10
-0.0000000000000568
 20
0.0
 11
2.300872475903247
 21
0.0
 72
     1
 10
2.300872475903304
 20
0.0
 11
3.107127853020472
 21
1.782061951090724
 72
     1
 10
3.107127853020472
 20
1.782061951090668
 11
5.257971706506168
 21
1.782061951090668
 97
        6
330
BB1
330
BBB
330
BB2
330
BA6
330
BB8
330
BB7
 92
       20
 93
        4
 72
     1
 10
3.604944905315051
 20
2.882384321244217
 11
3.98608604239348
 21
3.724818539558043
 72
     1
 10
3.98608604239348
 20
3.724818539557986
 11
4.965456325034381
 21
3.724818539557986
 72
     4
 94
        3
 73
     0
 74
     0
 95
       15
 96
       11
 40
0.0
 40
0.0
 40
0.0
 40
0.0
 40
0.458245544397197
 40
0.6671803073175111
 40
0.9043351724393449
 40
1.065896092998139
 40
1.321406364485703
 40
1.474450037341961
 40
1.737022829061231
 40
1.824547148828933
 40
1.824547148828933
 40
1.824547148828933
 40
1.824547148828933
 10
4.965456325033528
 20
3.724818539557986
 10
5.104956735089615
 20
3.72545752589923
 10
5.308061659054601
 20
3.726387854865265
 10
5.419126665259284
 20
3.475146476562713
 10
5.369342033880457
 20
3.313386222112512
 10
5.306758694724408
 20
3.147308857819552
 10
5.196159760245848
 20
3.034456783979635
 10
5.047719790425048
 20
2.925761212639713
 10
4.907436925306626
 20
2.912603127013085
 10
4.816198668830168
 20
2.888428084712359
 10
4.793389093792598
 20
2.88238432124416
 72
     1
 10
4.793389093792541
 20
2.882384321244217
 11
3.604944905315051
 21
2.882384321244217
 97
        4
330
BBE
330
BBC
330
BC0
330
BBD
 75
     0
 76
     1
 47
0.0514683685270805
 98
        2
 10
2.469899197802817
 20
3.410271770727717
 10
2.469899197802817
 20
3.410271770727717
450
        0
451
        0
460
0.0
461
0.0
452
        0
462
0.0
453
        0
470

  0
HATCH
  5
BB0
330
76E
100
AcDbEntity
  8
ROGO
 62
     4
100
AcDbHatch
 10
0.0
 20
0.0
 30
0.0
210
0.0
220
0.0
230
1.0
  2
SOLID
 70
     1
 71
     1
 91
        1
 92
        1
 93
       12
 72
     1
 10
8.637002599138838
 20
4.949786840425645
 11
12.92148229673961
 21
4.949786840425701
 72
     1
 10
12.92148229673961
 20
4.949786840425645
 11
12.56244669050807
 21
4.224155565819216
 72
     1
 10
12.56244669050812
 20
4.224155565819273
 11
10.31063242784853
 21
4.224155565819273
 72
     1
 10
10.31063242784847
 20
4.224155565819273
 11
10.02991119959222
 21
3.656802080167153
 72
     1
 10
10.02991119959228
 20
3.656802080167153
 11
12.28172546225187
 21
3.656802080167153
 72
     1
 10
12.28172546225181
 20
3.656802080167153
 11
11.99387214064069
 21
3.075034230307551
 72
     1
 10
11.99387214064069
 20
3.075034230307551
 11
9.742057877981153
 21
3.075034230307494
 72
     1
 10
9.742057877981153
 20
3.075034230307551
 11
9.461324765337508
 21
2.507656725636252
 72
     1
 10
9.461324765337565
 20
2.507656725636138
 11
11.71313902799716
 21
2.507656725636138
 72
     1
 10
11.71313902799716
 20
2.507656725636138
 11
11.3541214816563
 21
1.782061951090668
 72
     1
 10
11.35412148165636
 20
1.782061951090668
 11
7.06964178405559
 21
1.782061951090668
 72
     1
 10
7.06964178405559
 20
1.782061951090668
 11
8.637002599138838
 21
4.949786840425645
 97
       12
330
BBF
330
BC1
330
BC3
330
BC2
330
BC4
330
BC7
330
BC6
330
BC8
330
BC5
330
BB4
330
BB9
330
BB3
 75
     0
 76
     1
 98
        1
 10
-166.6183073243049
 20
-214.0842147101267
450
        0
451
        0
460
0.0
461
0.0
452
        0
462
0.0
453
        0
470

  0
SPLINE
  5
BB1
102
{ACAD_REACTORS
330
BAF
102
}
330
76E
100
AcDbEntity
  8
ROGO
 62
     4
100
AcDbSpline
210
0.0
220
0.0
230
1.0
 70
     8
 71
     3
 72
    18
 73
    14
 74
     0
 42
0.0000000001
 43
0.0000000001
 40
0.1087402787915014
 40
0.1087402787915014
 40
0.1087402787915014
 40
0.1087402787915014
 40
0.5992371417938475
 40
1.083176791562496
 40
1.448211145705696
 40
1.714037220764907
 40
2.164002567013297
 40
2.740236056362883
 40
3.395137510199602
 40
4.071816045172726
 40
4.784906178399433
 40
5.506895915094292
 40
6.060470601257719
 40
6.060470601257719
 40
6.060470601257719
 40
6.060470601257719
 10
6.338969333173452
 20
4.949786840425758
 30
0.0
 10
6.463588634008544
 20
4.904115955004613
 30
0.0
 10
6.708651203549891
 20
4.807560723981168
 30
0.0
 10
7.007743182975218
 20
4.587189781908875
 30
0.0
 10
7.170855034099304
 20
4.33278953599904
 30
0.0
 10
7.327750373593119
 20
4.082123644518105
 30
0.0
 10
7.349707589953482
 20
3.722501028309523
 30
0.0
 10
7.313740186156906
 20
3.267850878540173
 30
0.0
 10
7.081537876611037
 20
2.793470364329778
 30
0.0
 10
6.708839512865949
 20
2.378558603499755
 30
0.0
 10
6.246108485316483
 20
2.046468641233957
 30
0.0
 10
5.758142655701249
 20
1.785786572703102
 30
0.0
 10
5.409344543521854
 20
1.783189178773909
 30
0.0
 10
5.257971706506339
 20
1.782061951090668
 30
0.0
  0
LINE
  5
BB2
102
{ACAD_REACTORS
330
BAF
102
}
330
76E
100
AcDbEntity
  8
ROGO
 62
     4
100
AcDbLine
 10
2.449108495127859
 20
4.949786840425645
 30
0.0
 11
0.0
 21
0.0
 31
0.0
  0
LINE
  5
BB3
102
{ACAD_REACTORS
330
BB0
102
}
330
76E
100
AcDbEntity
  8
ROGO
 62
     4
100
AcDbLine
 10
8.637002599138952
 20
4.949786840425645
 30
0.0
 11
7.06964178405559
 21
1.782061951090668
 31
0.0
  0
LINE
  5
BB4
102
{ACAD_REACTORS
330
BB0
102
}
330
76E
100
AcDbEntity
  8
ROGO
 62
     4
100
AcDbLine
 10
11.71313902799716
 20
2.507656725636195
 30
0.0
 11
11.35412148165636
 21
1.782061951090668
 31
0.0
  0
LINE
  5
BB5
102
{ACAD_REACTORS
330
BAB
102
}
330
76E
100
AcDbEntity
  8
ROGO
 62
     4
100
AcDbLine
 10
14.16260675403384
 20
4.949786840425645
 30
0.0
 11
11.87829877231911
 21
1.782061951090668
 31
0.0
  0
LINE
  5
BB6
102
{ACAD_REACTORS
330
BAB
102
}
330
76E
100
AcDbEntity
  8
ROGO
 62
     4
100
AcDbLine
 10
14.06756947612285
 20
2.385177170679753
 30
0.0
 11
13.63265136986962
 21
1.782061951090781
 31
0.0
  0
LINE
  5
BB7
102
{ACAD_REACTORS
330
BAF
102
}
330
76E
100
AcDbEntity
  8
ROGO
 62
     4
100
AcDbLine
 10
5.257971707251897
 20
1.782061951090668
 30
0.0
 11
3.107127853020358
 21
1.782061951090668
 31
0.0
  0
LINE
  5
BB8
102
{ACAD_REACTORS
330
BAA
330
BAF
102
}
330
76E
100
AcDbEntity
  8
ROGO
 62
     4
100
AcDbLine
 10
3.107127853020472
 20
1.782061951090668
 30
0.0
 11
2.300872475903304
 21
0.0
 31
0.0
  0
LINE
  5
BB9
102
{ACAD_REACTORS
330
BB0
102
}
330
76E
100
AcDbEntity
  8
ROGO
 62
     4
100
AcDbLine
 10
7.06964178405559
 20
1.782061951090668
 30
0.0
 11
11.35412148165636
 21
1.782061951090668
 31
0.0
  0
LINE
  5
BBA
102
{ACAD_REACTORS
330
BAB
102
}
330
76E
100
AcDbEntity
  8
ROGO
 62
     4
100
AcDbLine
 10
11.87829877231917
 20
1.782061951090668
 30
0.0
 11
13.63265136986962
 21
1.782061951090668
 31
0.0
  0
LINE
  5
BBB
102
{ACAD_REACTORS
330
BAF
102
}
330
76E
100
AcDbEntity
  8
ROGO
 62
     4
100
AcDbLine
 10
2.449108495127859
 20
4.949786840425645
 30
0.0
 11
6.338969333173452
 21
4.949786840425645
 31
0.0
  0
LINE
  5
BBC
102
{ACAD_REACTORS
330
BAF
102
}
330
76E
100
AcDbEntity
  8
ROGO
 62
     4
100
AcDbLine
 10
4.965456325033528
 20
3.724818539557986
 30
0.0
 11
3.986086042393537
 21
3.724818539557986
 31
0.0
  0
LINE
  5
BBD
102
{ACAD_REACTORS
330
BAF
102
}
330
76E
100
AcDbEntity
  8
ROGO
 62
     4
100
AcDbLine
 10
4.793389093792598
 20
2.88238432124416
 30
0.0
 11
3.604944905315107
 21
2.882384321244217
 31
0.0
  0
LINE
  5
BBE
102
{ACAD_REACTORS
330
BAF
102
}
330
76E
100
AcDbEntity
  8
ROGO
 62
     4
100
AcDbLine
 10
3.986086042393537
 20
3.724818539557986
 30
0.0
 11
3.604944905315051
 21
2.882384321244217
 31
0.0
  0
LINE
  5
BBF
102
{ACAD_REACTORS
330
BB0
102
}
330
76E
100
AcDbEntity
  8
ROGO
 62
     4
100
AcDbLine
 10
8.637002599138838
 20
4.949786840425645
 30
0.0
 11
12.92148229673961
 21
4.949786840425758
 31
0.0
  0
SPLINE
  5
BC0
102
{ACAD_REACTORS
330
BAF
102
}
330
76E
100
AcDbEntity
  8
ROGO
 62
     4
100
AcDbSpline
210
0.0
220
0.0
230
1.0
 70
     8
 71
     3
 72
    15
 73
    11
 74
     9
 42
0.0000000001
 43
0.0000000001
 44
0.0000000001
 40
0.0
 40
0.0
 40
0.0
 40
0.0
 40
0.3714260192954959
 40
0.5407758541881006
 40
0.7329991907503102
 40
0.8639506649775173
 40
1.071051779626874
 40
1.195099689928134
 40
1.407925254728536
 40
1.478867154939799
 40
1.478867154939799
 40
1.478867154939799
 40
1.478867154939799
 10
4.965456325033528
 20
3.724818539557986
 30
0.0
 10
5.104956735089532
 20
3.725457525899206
 30
0.0
 10
5.308061659054509
 20
3.726387854865235
 30
0.0
 10
5.419126665259303
 20
3.475146476562761
 30
0.0
 10
5.369342033880415
 20
3.31338622211255
 30
0.0
 10
5.306758694724477
 20
3.147308857819524
 30
0.0
 10
5.19615976024584
 20
3.034456783979611
 30
0.0
 10
5.047719790425087
 20
2.925761212639771
 30
0.0
 10
4.907436925306584
 20
2.912603127013052
 30
0.0
 10
4.816198668830153
 20
2.888428084712352
 30
0.0
 10
4.793389093792598
 20
2.88238432124416
 30
0.0
 11
4.965456325033528
 21
3.724818539557986
 31
0.0
 11
5.326797807465993
 21
3.63885563544693
 31
0.0
 11
5.395624897846573
 21
3.484122968540759
 31
0.0
 11
5.361211847366689
 21
3.295005139989939
 31
0.0
 11
5.309591776936599
 21
3.174657074234517
 31
0.0
 11
5.171937596175325
 21
3.019924407328176
 31
0.0
 11
5.068697455314975
 21
2.951154084039387
 31
0.0
 11
4.862216184173178
 21
2.899576902066371
 31
0.0
 11
4.793389093792598
 21
2.88238432124416
 31
0.0
  0
LINE
  5
BC1
102
{ACAD_REACTORS
330
BB0
102
}
330
76E
100
AcDbEntity
  8
ROGO
 62
     4
100
AcDbLine
 10
12.92148229673961
 20
4.949786840425645
 30
0.0
 11
12.56244669050807
 21
4.224155565819273
 31
0.0
  0
LINE
  5
BC2
102
{ACAD_REACTORS
330
BB0
102
}
330
76E
100
AcDbEntity
  8
ROGO
 62
     4
100
AcDbLine
 10
10.31063242784847
 20
4.224155565819273
 30
0.0
 11
10.02991119959222
 21
3.656802080167153
 31
0.0
  0
LINE
  5
BC3
102
{ACAD_REACTORS
330
BB0
102
}
330
76E
100
AcDbEntity
  8
ROGO
 62
     4
100
AcDbLine
 10
10.31063242784847
 20
4.224155565819273
 30
0.0
 11
12.56244669050807
 21
4.224155565819273
 31
0.0
  0
LINE
  5
BC4
102
{ACAD_REACTORS
330
BB0
102
}
330
76E
100
AcDbEntity
  8
ROGO
 62
     4
100
AcDbLine
 10
10.02991119959222
 20
3.656802080167153
 30
0.0
 11
12.28172546225187
 21
3.656802080167153
 31
0.0
  0
LINE
  5
BC5
102
{ACAD_REACTORS
330
BB0
102
}
330
76E
100
AcDbEntity
  8
ROGO
 62
     4
100
AcDbLine
 10
9.461324765337565
 20
2.507656725636195
 30
0.0
 11
11.71313902799716
 21
2.507656725636195
 31
0.0
  0
LINE
  5
BC6
102
{ACAD_REACTORS
330
BB0
102
}
330
76E
100
AcDbEntity
  8
ROGO
 62
     4
100
AcDbLine
 10
9.742057877981153
 20
3.075034230307551
 30
0.0
 11
11.99387214064069
 21
3.075034230307608
 31
0.0
  0
LINE
  5
BC7
102
{ACAD_REACTORS
330
BB0
102
}
330
76E
100
AcDbEntity
  8
ROGO
 62
     4
100
AcDbLine
 10
12.28172546225187
 20
3.656802080167153
 30
0.0
 11
11.99387214064069
 21
3.075034230307551
 31
0.0
  0
LINE
  5
BC8
102
{ACAD_REACTORS
330
BB0
102
}
330
76E
100
AcDbEntity
  8
ROGO
 62
     4
100
AcDbLine
 10
9.742057877981153
 20
3.075034230307551
 30
0.0
 11
9.461324765337508
 21
2.507656725636195
 31
0.0
  0
HATCH
  5
BC9
330
76E
100
AcDbEntity
  8
ROGO
 62
     4
100
AcDbHatch
 10
0.0
 20
0.0
 30
0.0
210
0.0
220
0.0
230
1.0
  2
SOLID
 70
     1
 71
     1
 91
        2
 92
        7
 72
     1
 73
     1
 93
        4
 10
26.16568830176476
 20
4.949786840425645
 42
0.0
 10
24.88477496917216
 20
4.949786840425645
 42
0.9597396185052668
 10
24.88477496917204
 20
1.782061951090668
 42
0.0
 10
26.25774038752116
 20
1.782061951090668
 42
0.9713627655772736
 97
        4
330
BE9
330
BD1
330
BD6
330
BD2
 92
       22
 72
     1
 73
     1
 93
        8
 10
25.9709322672415
 20
3.347576112203057
 42
0.0
 10
25.92877650574593
 20
3.045974519724552
 42
-0.3696060376523694
 10
25.58588379175427
 20
2.870057733155022
 42
0.0
 10
25.47108749766136
 20
2.886103156372541
 42
-0.3541938351274232
 10
25.17427477727125
 20
3.157453445413239
 42
0.0
 10
25.21643053876682
 20
3.459055037891914
 42
-0.3439742752229287
 10
25.58698051573322
 20
3.668449396631842
 42
0.0
 10
25.69536003945933
 20
3.653300864703851
 42
-0.3460733018205655
 97
        8
330
BE1
330
BE7
330
BE3
330
BE6
330
BE2
330
BE5
330
BE0
330
BE4
 75
     0
 76
     1
 47
0.0514683685270805
 98
        2
 10
26.4770758482868
 20
3.660574202124962
 10
26.4770758482868
 20
3.660574202124962
450
        0
451
        0
460
0.0
461
0.0
452
        0
462
0.0
453
        0
470

  0
HATCH
  5
BCA
330
76E
100
AcDbEntity
  8
ROGO
 62
     4
100
AcDbHatch
 10
0.0
 20
0.0
 30
0.0
210
0.0
220
0.0
230
1.0
  2
SOLID
 70
     1
 71
     1
 91
        1
 92
        5
 93
        8
 72
     1
 10
23.27919423493069
 20
4.949786840425645
 11
20.10690665697018
 21
4.949786840425701
 72
     4
 94
        3
 73
     0
 74
     0
 95
       26
 96
       22
 40
0.0
 40
0.0
 40
0.0
 40
0.0
 40
0.7089867102952115
 40
1.183598414482279
 40
1.525832104103439
 40
1.781366926528389
 40
2.112809002752968
 40
2.354729406992515
 40
2.791581270399936
 40
3.147172406765291
 40
3.389031356825354
 40
3.626186440486682
 40
4.050410779375985
 40
4.350388020238963
 40
4.511948940797758
 40
4.741441456013356
 40
4.907163150576407
 40
5.147239172635527
 40
5.28310143501293
 40
5.578752957634333
 40
5.713750011164293
 40
5.713750011164293
 40
5.713750011164293
 40
5.713750011164293
 10
20.10690665696961
 20
4.949786840425645
 10
19.9118576355076
 20
4.938149881331241
 10
19.58623839723913
 20
4.91872287919773
 10
19.22871045445441
 20
4.701528493521777
 10
18.9667645527374
 20
4.575261222274434
 10
18.77994505330895
 20
4.403611624277402
 10
18.64300560291741
 20
4.226310128312206
 10
18.47036771803317
 20
4.01505669587766
 10
18.32958645604225
 20
3.769060622409824
 10
18.25789511795477
 20
3.497930064177751
 10
18.19439161110068
 20
3.281837436117484
 10
18.14729634731026
 20
3.041030402807223
 10
18.15927871566845
 20
2.780874095348053
 10
18.1764380155459
 20
2.53925423559815
 10
18.25305011690938
 20
2.366773831190926
 10
18.34029773002083
 20
2.243979668736869
 10
18.44713123742571
 20
2.108735512341468
 10
18.56403045709697
 20
2.019163745498303
 10
18.66071565374244
 20
1.85689847078413
 10
18.82995982885865
 20
1.836192251465718
 10
18.93753815968586
 20
1.794980695042511
 10
18.97126114982126
 20
1.782061951090668
 72
     1
 10
18.97126114982103
 20
1.782061951090668
 11
21.6996642971182
 21
1.782061951090724
 72
     1
 10
21.6996642971182
 20
1.782061951090781
 11
22.28734561971584
 21
2.960648509043551
 72
     1
 10
22.28734561971584
 20
2.960648509043494
 11
20.26176686826005
 21
2.960648509043494
 72
     4
 94
        3
 73
     0
 74
     0
 95
       16
 96
       12
 40
0.0
 40
0.0
 40
0.0
 40
0.0
 40
0.2141121027475241
 40
0.4304326162973471
 40
0.5594580803306056
 40
0.6831669452691567
 40
0.8190286678446897
 40
0.9139043619204622
 40
1.003933161420314
 40
1.186498641432482
 40
1.560280494298353
 40
1.560280494298353
 40
1.560280494298353
 40
1.560280494298353
 10
20.26176686826034
 20
2.960648509043494
 10
20.20066827486522
 20
2.978624611086615
 10
20.07784090046783
 20
3.014762225607
 10
20.06756124108432
 20
3.18994410491291
 10
20.081565789786
 20
3.314775529002361
 10
20.14021687102769
 20
3.40566009542573
 10
20.21137080546811
 20
3.471790575521481
 10
20.237864571025
 20
3.557915185942079
 10
20.31574058104508
 20
3.622950041937542
 10
20.45383561326139
 20
3.732264550099955
 10
20.60654481322524
 20
3.755546097864453
 10
20.70914246102353
 20
3.77118780143121
 72
     1
 10
20.70914246102353
 20
3.77118780143121
 11
22.69150668888256
 21
3.771187801431267
 72
     1
 10
22.69150668888256
 20
3.77118780143121
 11
23.27919423493069
 21
4.949786840425645
 97
        8
330
BDF
330
BCC
330
BD3
330
BCF
330
BDE
330
BDB
330
BDD
330
BDC
 75
     0
 76
     1
 47
0.0514683685270805
 98
        1
 10
21.21637307488407
 20
4.244614142874524
450
        0
451
        0
460
0.0
461
0.0
452
        0
462
0.0
453
        0
470

  0
SPLINE
  5
BCB
102
{ACAD_REACTORS
330
BA5
102
}
330
76E
100
AcDbEntity
  8
ROGO
 62
     4
100
AcDbSpline
210
0.0
220
0.0
230
1.0
 70
     8
 71
     3
 72
    26
 73
    22
 74
    20
 42
0.0000000001
 43
0.0000000001
 44
0.0000000001
 40
0.0
 40
0.0
 40
0.0
 40
0.0
 40
0.5746615864749196
 40
0.9593530213456462
 40
1.236746873962384
 40
1.443867888111121
 40
1.712514714041724
 40
1.90860070730817
 40
2.262686307552686
 40
2.55090689560158
 40
2.746943077840944
 40
2.939166591537864
 40
3.283017086994854
 40
3.526160427536374
 40
3.657111901763582
 40
3.843124602654698
 40
3.97744854769916
 40
4.172039596738211
 40
4.282161298747791
 40
4.521798474686698
 40
4.631218890929293
 40
4.631218890929293
 40
4.631218890929293
 40
4.631218890929293
 10
30.31359802057318
 20
4.949786840425645
 30
0.0
 10
30.11854899911117
 20
4.938149881331216
 30
0.0
 10
29.79292976084273
 20
4.918722879197668
 30
0.0
 10
29.43540181805795
 20
4.701528493521752
 30
0.0
 10
29.17345591634098
 20
4.575261222274342
 30
0.0
 10
28.98663641691248
 20
4.403611624277403
 30
0.0
 10
28.84969696652104
 20
4.226310128312151
 30
0.0
 10
28.67705908163667
 20
4.015056695877607
 30
0.0
 10
28.53627781964588
 20
3.769060622409776
 30
0.0
 10
28.46458648155826
 20
3.49793006417775
 30
0.0
 10
28.40108297470428
 20
3.28183743611741
 30
0.0
 10
28.35398771091379
 20
3.041030402807234
 30
0.0
 10
28.36597007927193
 20
2.780874095348088
 30
0.0
 10
28.38312937914937
 20
2.539254235598058
 30
0.0
 10
28.45974148051292
 20
2.366773831190866
 30
0.0
 10
28.54698909362438
 20
2.243979668736892
 30
0.0
 10
28.65382260102934
 20
2.108735512341419
 30
0.0
 10
28.77072182070049
 20
2.019163745498228
 30
0.0
 10
28.86740701734603
 20
1.85689847078413
 30
0.0
 10
29.03665119246222
 20
1.836192251465618
 30
0.0
 10
29.14422952328949
 20
1.794980695042471
 30
0.0
 10
29.17795251342483
 20
1.782061951090668
 30
0.0
 11
30.31359802057318
 21
4.949786840425645
 31
0.0
 11
29.74577526699892
 21
4.861394196539322
 31
0.0
 11
29.40163981509602
 21
4.689468948810883
 31
0.0
 11
29.1607454934744
 21
4.551928862726811
 31
0.0
 11
29.00588528218367
 21
4.414388216149177
 31
0.0
 11
28.83381805094274
 21
4.208077806776145
 31
0.0
 11
28.7133708901319
 21
4.053345139869975
 31
0.0
 11
28.54130266946999
 21
3.743879245563732
 31
0.0
 11
28.45526954855979
 21
3.468798512902026
 31
0.0
 11
28.4036494781297
 21
3.279680684351205
 31
0.0
 11
28.36923543822883
 21
3.090562855800612
 31
0.0
 11
28.36923543822883
 21
2.746712360343622
 31
0.0
 11
28.4036494781297
 21
2.506016789326224
 31
0.0
 11
28.45526954855979
 21
2.385668723570802
 31
0.0
 11
28.55850968942019
 21
2.230936056664518
 31
0.0
 11
28.64454379975138
 21
2.127780571731193
 31
0.0
 11
28.78219699109144
 21
1.99024048564712
 31
0.0
 11
28.85102408147219
 21
1.904277581536064
 31
0.0
 11
29.07471237256442
 21
1.818315237918568
 31
0.0
 11
29.17795251342483
 21
1.782061951090668
 31
0.0
  0
SPLINE
  5
BCC
102
{ACAD_REACTORS
330
BCA
102
}
330
76E
100
AcDbEntity
  8
ROGO
 62
     4
100
AcDbSpline
210
0.0
220
0.0
230
1.0
 70
     8
 71
     3
 72
    26
 73
    22
 74
    20
 42
0.0000000001
 43
0.0000000001
 44
0.0000000001
 40
0.0
 40
0.0
 40
0.0
 40
0.0
 40
0.5746615864749109
 40
0.9593530213456375
 40
1.236746873962375
 40
1.44386788811115
 40
1.71251471404171
 40
1.9086007073082
 40
2.262686307552666
 40
2.550906895601598
 40
2.746943077840867
 40
2.939166591537899
 40
3.28301708699489
 40
3.526160427536353
 40
3.657111901763635
 40
3.843124602654719
 40
3.977448547699138
 40
4.172039596738189
 40
4.282161298747769
 40
4.521798474686655
 40
4.631218890929288
 40
4.631218890929288
 40
4.631218890929288
 40
4.631218890929288
 10
20.10690665696961
 20
4.949786840425645
 30
0.0
 10
19.91185763550759
 20
4.938149881331241
 30
0.0
 10
19.58623839723914
 20
4.918722879197736
 30
0.0
 10
19.22871045445439
 20
4.701528493521801
 30
0.0
 10
18.96676455273739
 20
4.575261222274411
 30
0.0
 10
18.77994505330897
 20
4.4036116242774
 30
0.0
 10
18.64300560291743
 20
4.226310128312206
 30
0.0
 10
18.47036771803315
 20
4.015056695877609
 30
0.0
 10
18.32958645604223
 20
3.769060622409829
 30
0.0
 10
18.25789511795483
 20
3.497930064177774
 30
0.0
 10
18.19439161110065
 20
3.281837436117467
 30
0.0
 10
18.14729634731024
 20
3.041030402807263
 30
0.0
 10
18.15927871566836
 20
2.780874095348114
 30
0.0
 10
18.17643801554578
 20
2.539254235598062
 30
0.0
 10
18.25305011690943
 20
2.366773831190911
 30
0.0
 10
18.3402977300208
 20
2.243979668736876
 30
0.0
 10
18.44713123742579
 20
2.10873551234148
 30
0.0
 10
18.56403045709692
 20
2.019163745498289
 30
0.0
 10
18.66071565374245
 20
1.856898470784175
 30
0.0
 10
18.82995982885869
 20
1.836192251465799
 30
0.0
 10
18.93753815968592
 20
1.794980695042517
 30
0.0
 10
18.97126114982126
 20
1.782061951090668
 30
0.0
 11
20.10690665696961
 21
4.949786840425645
 31
0.0
 11
19.53908390339535
 21
4.861394196539379
 31
0.0
 11
19.19494845149245
 21
4.68946894881094
 31
0.0
 11
18.95405412987082
 21
4.551928862726867
 31
0.0
 11
18.7991939185801
 21
4.414388216149177
 31
0.0
 11
18.62712668733917
 21
4.208077806776202
 31
0.0
 11
18.50667952652833
 21
4.053345139869975
 31
0.0
 11
18.33461130586641
 21
3.743879245563789
 31
0.0
 11
18.24857818495627
 21
3.468798512902026
 31
0.0
 11
18.19695811452612
 21
3.279680684351319
 31
0.0
 11
18.16254407462526
 21
3.090562855800612
 31
0.0
 11
18.16254407462526
 21
2.746712360343622
 31
0.0
 11
18.19695811452612
 21
2.506016789326281
 31
0.0
 11
18.24857818495627
 21
2.385668723570802
 31
0.0
 11
18.35181832581662
 21
2.230936056664518
 31
0.0
 11
18.43785243614781
 21
2.12778057173125
 31
0.0
 11
18.57550562748787
 21
1.990240485647177
 31
0.0
 11
18.64433271786862
 21
1.904277581536121
 31
0.0
 11
18.86802100896085
 21
1.818315237918682
 31
0.0
 11
18.97126114982126
 21
1.782061951090668
 31
0.0
  0
LINE
  5
BCD
102
{ACAD_REACTORS
330
BAB
102
}
330
76E
100
AcDbEntity
  8
ROGO
 62
     4
100
AcDbLine
 10
15.99342784516443
 20
4.949786840425645
 30
0.0
 11
18.27773582687916
 21
1.782061951090668
 31
0.0
  0
LINE
  5
BCE
102
{ACAD_REACTORS
330
BAB
102
}
330
76E
100
AcDbEntity
  8
ROGO
 62
     4
100
AcDbLine
 10
16.08846512307542
 20
2.385177170679753
 30
0.0
 11
16.52338322932866
 21
1.782061951090781
 31
0.0
  0
LINE
  5
BCF
102
{ACAD_REACTORS
330
BCA
102
}
330
76E
100
AcDbEntity
  8
ROGO
 62
     4
100
AcDbLine
 10
22.28734561971584
 20
2.960648509043494
 30
0.0
 11
21.69966429711815
 21
1.782061951090668
 31
0.0
  0
LINE
  5
BD0
102
{ACAD_REACTORS
330
BA5
102
}
330
76E
100
AcDbEntity
  8
ROGO
 62
     4
100
AcDbLine
 10
32.49403698331935
 20
2.960648509043494
 30
0.0
 11
31.90635566072177
 21
1.782061951090611
 31
0.0
  0
ARC
  5
BD1
102
{ACAD_REACTORS
330
BC9
102
}
330
76E
100
AcDbEntity
  8
ROGO
 62
     4
100
AcDbCircle
 10
24.94987936318324
 20
3.365924395758156
 30
0.0
 40
1.585199932421021
100
AcDbArc
 50
92.3538081120337
 51
270.0
  0
ARC
  5
BD2
102
{ACAD_REACTORS
330
BC9
102
}
330
76E
100
AcDbEntity
  8
ROGO
 62
     4
100
AcDbCircle
 10
26.16568830176476
 20
3.364586908004639
 30
0.0
 40
1.585199932421021
100
AcDbArc
 50
273.3290215232082
 51
90.0000000000006
  0
LINE
  5
BD3
102
{ACAD_REACTORS
330
BCA
102
}
330
76E
100
AcDbEntity
  8
ROGO
 62
     4
100
AcDbLine
 10
18.97126114982109
 20
1.782061951090668
 30
0.0
 11
21.6996642971182
 21
1.782061951090668
 31
0.0
  0
LINE
  5
BD4
102
{ACAD_REACTORS
330
BAB
102
}
330
76E
100
AcDbEntity
  8
ROGO
 62
     4
100
AcDbLine
 10
18.27773582687911
 20
1.782061951090668
 30
0.0
 11
16.52338322932866
 21
1.782061951090668
 31
0.0
  0
LINE
  5
BD5
330
76E
100
AcDbEntity
  8
ROGO
 62
     4
100
AcDbLine
 10
24.8847749691733
 20
1.782061951090668
 30
0.0
 11
26.25774038752019
 21
1.782061951090668
 31
0.0
  0
LINE
  5
BD6
102
{ACAD_REACTORS
330
BC9
102
}
330
76E
100
AcDbEntity
  8
ROGO
 62
     4
100
AcDbLine
 10
24.8847749691721
 20
1.782061951090668
 30
0.0
 11
26.25774038752121
 21
1.782061951090668
 31
0.0
  0
LINE
  5
BD7
102
{ACAD_REACTORS
330
BA5
102
}
330
76E
100
AcDbEntity
  8
ROGO
 62
     4
100
AcDbLine
 10
29.1779525134246
 20
1.782061951090668
 30
0.0
 11
31.90635566072177
 21
1.782061951090668
 31
0.0
  0
LINE
  5
BD8
102
{ACAD_REACTORS
330
BAB
102
}
330
76E
100
AcDbEntity
  8
ROGO
 62
     4
100
AcDbLine
 10
15.07801729959914
 20
3.786398348131228
 30
0.0
 11
14.52629071767222
 21
3.021300979620718
 31
0.0
  0
LINE
  5
BD9
102
{ACAD_REACTORS
330
BAB
102
}
330
76E
100
AcDbEntity
  8
ROGO
 62
     4
100
AcDbLine
 10
14.52629071767222
 20
3.021300979620775
 30
0.0
 11
15.62974388152599
 21
3.021300979620775
 31
0.0
  0
LINE
  5
BDA
102
{ACAD_REACTORS
330
BAB
102
}
330
76E
100
AcDbEntity
  8
ROGO
 62
     4
100
AcDbLine
 10
15.07801729959914
 20
3.786398348131228
 30
0.0
 11
15.62974388152599
 21
3.021300979620718
 31
0.0
  0
SPLINE
  5
BDB
102
{ACAD_REACTORS
330
BCA
102
}
330
76E
100
AcDbEntity
  8
ROGO
 62
     4
100
AcDbSpline
210
0.0
220
0.0
230
1.0
 70
     8
 71
     3
 72
    16
 73
    12
 74
    10
 42
0.0000000001
 43
0.0000000001
 44
0.0000000001
 40
0.0
 40
0.0
 40
0.0
 40
0.0
 40
0.3029648785292891
 40
0.4509413735127203
 40
0.5239132529538693
 40
0.6008137308948465
 40
0.7109349953737907
 40
0.8112058912231434
 40
0.9157860995406091
 40
1.091122375522293
 40
1.264668647774888
 40
1.264668647774888
 40
1.264668647774888
 40
1.264668647774888
 10
20.70914246102353
 20
3.77118780143121
 30
0.0
 10
20.60654481322523
 20
3.75554609786451
 30
0.0
 10
20.45383561326141
 20
3.732264550100005
 30
0.0
 10
20.31574058104511
 20
3.622950041937553
 30
0.0
 10
20.237864571025
 20
3.557915185941986
 30
0.0
 10
20.21137080546809
 20
3.471790575521536
 30
0.0
 10
20.14021687102763
 20
3.405660095425645
 30
0.0
 10
20.08156578978607
 20
3.314775529002434
 30
0.0
 10
20.06756124108431
 20
3.189944104912836
 30
0.0
 10
20.07784090046788
 20
3.014762225607029
 30
0.0
 10
20.2006682748652
 20
2.978624611086606
 30
0.0
 10
20.26176686826034
 20
2.960648509043494
 30
0.0
 11
20.70914246102353
 21
3.77118780143121
 31
0.0
 11
20.41662806897176
 21
3.692301503097155
 31
0.0
 11
20.29618090816098
 21
3.606339159479716
 31
0.0
 11
20.24456083773083
 21
3.554761417013025
 31
0.0
 11
20.21014679782997
 21
3.48599109372418
 31
0.0
 11
20.14131970744944
 21
3.400028750106798
 31
0.0
 11
20.08969963701918
 21
3.314065845995742
 31
0.0
 11
20.07249261706875
 21
3.210910921556092
 31
0.0
 11
20.10690665696961
 21
3.038985113333978
 31
0.0
 11
20.26176686826034
 21
2.960648509043494
 31
0.0
  0
LINE
  5
BDC
102
{ACAD_REACTORS
330
BCA
102
}
330
76E
100
AcDbEntity
  8
ROGO
 62
     4
100
AcDbLine
 10
23.27919423493069
 20
4.949786840425645
 30
0.0
 11
22.69150668888256
 21
3.77118780143121
 31
0.0
  0
LINE
  5
BDD
102
{ACAD_REACTORS
330
BCA
102
}
330
76E
100
AcDbEntity
  8
ROGO
 62
     4
100
AcDbLine
 10
20.70914246102342
 20
3.77118780143121
 30
0.0
 11
22.69150668888256
 21
3.771187801431267
 31
0.0
  0
LINE
  5
BDE
102
{ACAD_REACTORS
330
BCA
102
}
330
76E
100
AcDbEntity
  8
ROGO
 62
     4
100
AcDbLine
 10
20.26176686826017
 20
2.960648509043494
 30
0.0
 11
22.28734561971584
 21
2.960648509043494
 31
0.0
  0
LINE
  5
BDF
102
{ACAD_REACTORS
330
BCA
102
}
330
76E
100
AcDbEntity
  8
ROGO
 62
     4
100
AcDbLine
 10
20.10690665697052
 20
4.949786840425758
 30
0.0
 11
23.27919423493069
 21
4.949786840425758
 31
0.0
  0
LINE
  5
BE0
102
{ACAD_REACTORS
330
BC9
102
}
330
76E
100
AcDbEntity
  8
ROGO
 62
     4
100
AcDbLine
 10
25.58056374536529
 20
3.669346287921371
 30
0.0
 11
25.69536003945927
 21
3.653300864703908
 31
0.0
  0
LINE
  5
BE1
102
{ACAD_REACTORS
330
BC9
102
}
330
76E
100
AcDbEntity
  8
ROGO
 62
     4
100
AcDbLine
 10
25.97093226724161
 20
3.347576112203455
 30
0.0
 11
25.92877650574604
 21
3.04597451972495
 31
0.0
  0
LINE
  5
BE2
102
{ACAD_REACTORS
330
BC9
102
}
330
76E
100
AcDbEntity
  8
ROGO
 62
     4
100
AcDbLine
 10
25.17427477727125
 20
3.157453445413295
 30
0.0
 11
25.21643053876682
 21
3.45905503789163
 31
0.0
  0
LINE
  5
BE3
102
{ACAD_REACTORS
330
BC9
102
}
330
76E
100
AcDbEntity
  8
ROGO
 62
     4
100
AcDbLine
 10
25.4710874976596
 20
2.886103156372769
 30
0.0
 11
25.58588379175365
 21
2.870057733155078
 31
0.0
  0
ARC
  5
BE4
102
{ACAD_REACTORS
330
BC9
102
}
330
76E
100
AcDbEntity
  8
ROGO
 62
     4
100
AcDbCircle
 10
25.6387443480632
 20
3.325209828916854
 30
0.0
 40
0.3329400310507254
100
AcDbArc
 50
3.851923331663601
 51
80.20940670206341
  0
ARC
  5
BE5
102
{ACAD_REACTORS
330
BC9
102
}
330
76E
100
AcDbEntity
  8
ROGO
 62
     4
100
AcDbCircle
 10
25.53588647264388
 20
3.326301951055086
 30
0.0
 40
0.3459414339941871
100
AcDbArc
 50
82.57970078354313
 51
157.4341870372611
  0
ARC
  5
BE6
102
{ACAD_REACTORS
330
BC9
102
}
330
76E
100
AcDbEntity
  8
ROGO
 62
     4
100
AcDbCircle
 10
25.49018017588719
 20
3.204994782556525
 30
0.0
 40
0.3194626732688521
100
AcDbArc
 50
188.5583509056651
 51
266.5736774635929
  0
ARC
  5
BE7
102
{ACAD_REACTORS
330
BC9
102
}
330
76E
100
AcDbEntity
  8
ROGO
 62
     4
100
AcDbCircle
 10
25.6545957362211
 20
3.158263540113921
 30
0.0
 40
0.2962835103026008
100
AcDbArc
 50
256.5902863289752
 51
337.7287536965499
  0
LINE
  5
BE8
330
76E
100
AcDbEntity
  8
ROGO
 62
     4
100
AcDbLine
 10
24.88477496917261
 20
4.949786840425645
 30
0.0
 11
25.78248633299404
 21
4.949786840425645
 31
0.0
  0
LINE
  5
BE9
102
{ACAD_REACTORS
330
BC9
102
}
330
76E
100
AcDbEntity
  8
ROGO
 62
     4
100
AcDbLine
 10
24.88477496917216
 20
4.949786840425645
 30
0.0
 11
26.16568830176476
 21
4.949786840425645
 31
0.0
  0
SPLINE
  5
BEA
102
{ACAD_REACTORS
330
BA5
102
}
330
76E
100
AcDbEntity
  8
ROGO
 62
     4
100
AcDbSpline
210
0.0
220
0.0
230
1.0
 70
     8
 71
     3
 72
    16
 73
    12
 74
    10
 42
0.0000000001
 43
0.0000000001
 44
0.0000000001
 40
0.0
 40
0.0
 40
0.0
 40
0.0
 40
0.3029648785292594
 40
0.4509413735127369
 40
0.5239132529538859
 40
0.6008137308948632
 40
0.710934995373763
 40
0.811205891223145
 40
0.9157860995407135
 40
1.091122375522274
 40
1.264668647774946
 40
1.264668647774946
 40
1.264668647774946
 40
1.264668647774946
 10
30.9158338246271
 20
3.771187801431096
 30
0.0
 10
30.81323617682881
 20
3.755546097864422
 30
0.0
 10
30.660526976865
 20
3.732264550099954
 30
0.0
 10
30.5224319446486
 20
3.62295004193761
 30
0.0
 10
30.44455593462858
 20
3.557915185941908
 30
0.0
 10
30.41806216907167
 20
3.4717905755215
 30
0.0
 10
30.34690823463119
 20
3.405660095425618
 30
0.0
 10
30.28825715338954
 20
3.314775529002425
 30
0.0
 10
30.27425260468793
 20
3.189944104912787
 30
0.0
 10
30.28453226407141
 20
3.014762225606994
 30
0.0
 10
30.40735963846873
 20
2.978624611086564
 30
0.0
 10
30.46845823186391
 20
2.960648509043437
 30
0.0
 11
30.9158338246271
 21
3.771187801431096
 31
0.0
 11
30.62331943257533
 21
3.692301503097155
 31
0.0
 11
30.50287227176449
 21
3.606339159479716
 31
0.0
 11
30.4512522013344
 21
3.554761417012969
 31
0.0
 11
30.41683816143353
 21
3.485991093724123
 31
0.0
 11
30.34801107105301
 21
3.400028750106798
 31
0.0
 11
30.29639100062269
 21
3.314065845995742
 31
0.0
 11
30.27918398067232
 21
3.210910921555978
 31
0.0
 11
30.31359802057313
 21
3.038985113333978
 31
0.0
 11
30.46845823186391
 21
2.960648509043437
 31
0.0
  0
LINE
  5
BEB
102
{ACAD_REACTORS
330
BA5
102
}
330
76E
100
AcDbEntity
  8
ROGO
 62
     4
100
AcDbLine
 10
30.46845823186379
 20
2.960648509043494
 30
0.0
 11
32.49403698331941
 21
2.960648509043494
 31
0.0
  0
LINE
  5
BEC
102
{ACAD_REACTORS
330
BA5
102
}
330
76E
100
AcDbEntity
  8
ROGO
 62
     4
100
AcDbLine
 10
30.91583382462699
 20
3.77118780143121
 30
0.0
 11
32.89819805248607
 21
3.77118780143121
 31
0.0
  0
LINE
  5
BED
102
{ACAD_REACTORS
330
BA4
102
}
330
76E
100
AcDbEntity
  8
ROGO
 62
     4
100
AcDbLine
 10
35.38336074148231
 20
2.474893420212765
 30
0.0
 11
36.6174225324171
 21
0.0
 31
0.0
  0
LINE
  5
BEE
102
{ACAD_REACTORS
330
BA4
102
}
330
76E
100
AcDbEntity
  8
ROGO
 62
     4
100
AcDbLine
 10
34.14933885635003
 20
1.291950329372127
 30
0.0
 11
34.79354701668626
 21
0.0
 31
0.0
  0
LINE
  5
BEF
102
{ACAD_REACTORS
330
BA4
102
}
330
76E
100
AcDbEntity
  8
ROGO
 62
     4
100
AcDbLine
 10
34.14933885635008
 20
1.29195032937207
 30
0.0
 11
33.50513069601385
 21
0.0
 31
0.0
  0
LINE
  5
BF0
102
{ACAD_REACTORS
330
BA4
102
}
330
76E
100
AcDbEntity
  8
ROGO
 62
     4
100
AcDbLine
 10
34.79354701668626
 20
0.0
 30
0.0
 11
36.6174225324171
 21
0.0
 31
0.0
  0
LINE
  5
BF1
102
{ACAD_REACTORS
330
BA4
102
}
330
76E
100
AcDbEntity
  8
ROGO
 62
     4
100
AcDbLine
 10
35.38336074148231
 20
2.474893420212765
 30
0.0
 11
38.38165352405161
 21
4.949786840425645
 31
0.0
  0
LINE
  5
BF2
102
{ACAD_REACTORS
330
BA4
102
}
330
76E
100
AcDbEntity
  8
ROGO
 62
     4
100
AcDbLine
 10
36.55777800832078
 20
4.949786840425645
 30
0.0
 11
38.38165352405156
 21
4.949786840425645
 31
0.0
  0
LINE
  5
BF3
102
{ACAD_REACTORS
330
BA4
102
}
330
76E
100
AcDbEntity
  8
ROGO
 62
     4
100
AcDbLine
 10
34.14933885635003
 20
4.949786840425645
 30
0.0
 11
35.97325427788326
 21
4.949786840425588
 31
0.0
  0
LINE
  5
BF4
102
{ACAD_REACTORS
330
BA4
102
}
330
76E
100
AcDbEntity
  8
ROGO
 62
     4
100
AcDbLine
 10
35.97325427788326
 20
4.949786840425588
 30
0.0
 11
35.70378540756269
 21
4.409370842614521
 31
0.0
  0
LINE
  5
BF5
102
{ACAD_REACTORS
330
BA4
102
}
330
76E
100
AcDbEntity
  8
ROGO
 62
     4
100
AcDbLine
 10
35.70378540756269
 20
4.409370842614521
 30
0.0
 11
36.55777800832078
 21
4.949786840425645
 31
0.0
  0
ENDBLK
  5
7C2
330
76E
100
AcDbEntity
  8
0
 48
0.7
100
AcDbBlockEnd
  0
BLOCK
  5
B2A
330
ADD
100
AcDbEntity
  8
0
100
AcDbBlockBegin
  2
ROGO1
 70
     0
 10
0.0
 20
0.0
 30
0.0
  3
ROGO1
  1

  0
MTEXT
  5
B42
330
ADD
100
AcDbEntity
  8
DEFPOINTS
  6
Continuous
100
AcDbMText
 10
1039.786461861274
 20
160.9640365185991
 30
0.0
 40
1.0
 41
0.0
 71
     4
 72
     1
  1
\A1;
 73
     1
 44
1.0
  0
ENDBLK
  5
B2B
330
ADD
100
AcDbEntity
  8
0
100
AcDbBlockEnd
  0
BLOCK
  5
13AD
330
1394
100
AcDbEntity
  8
0
100
AcDbBlockBegin
  2
*D4
 70
     1
 10
0.0
 20
0.0
 30
0.0
  3
*D4
  1

  0
LINE
  5
13AE
330
1394
100
AcDbEntity
  8
0
  6
ByBlock
 62
     2
100
AcDbLine
 10
302.0496865514231
 20
246.1612838489725
 30
0.0
 11
302.0496865514231
 21
238.6048041321149
 31
0.0
  0
LINE
  5
13AF
330
1394
100
AcDbEntity
  8
0
  6
ByBlock
 62
     2
100
AcDbLine
 10
312.0496865514231
 20
246.1612838489725
 30
0.0
 11
312.0496865514231
 21
238.6048041321149
 31
0.0
  0
LINE
  5
13B0
330
1394
100
AcDbEntity
  8
0
  6
ByBlock
 62
     2
100
AcDbLine
 10
304.5496865514231
 20
239.8548041321149
 30
0.0
 11
309.5496865514231
 21
239.8548041321149
 31
0.0
  0
LINE
  5
13B1
330
1394
100
AcDbEntity
  8
0
  6
ByBlock
 62
     2
100
AcDbLine
 10
312.0496865514231
 20
239.8548041321149
 30
0.0
 11
322.9425436942802
 21
239.8548041321149
 31
0.0
  0
INSERT
  5
13B2
330
1394
100
AcDbEntity
  8
0
  6
ByBlock
 62
     2
100
AcDbBlockReference
  2
_OPEN
 10
302.0496865514231
 20
239.8548041321149
 30
0.0
 41
2.5
 42
2.5
 43
2.5
 50
180.0
  0
INSERT
  5
13B3
330
1394
100
AcDbEntity
  8
0
  6
ByBlock
 62
     2
100
AcDbBlockReference
  2
_OPEN
 10
312.0496865514231
 20
239.8548041321149
 30
0.0
 41
2.5
 42
2.5
 43
2.5
  0
MTEXT
  5
13B4
330
1394
100
AcDbEntity
  8
0
  6
ByBlock
 62
     6
100
AcDbMText
 10
318.7461151228516
 20
242.3845660368768
 30
0.0
 40
2.5
 41
0.0
 71
     5
 72
     1
  1
\A1;(10)
  7
STYLE3
 73
     1
 44
1.0
  0
POINT
  5
13B5
330
1394
100
AcDbEntity
  8
DEFPOINTS
  6
ByBlock
 62
     0
100
AcDbPoint
 10
302.0496865514231
 20
246.1612838489725
 30
0.0
  0
POINT
  5
13B6
330
1394
100
AcDbEntity
  8
DEFPOINTS
  6
ByBlock
 62
     0
100
AcDbPoint
 10
312.0496865514231
 20
246.1612838489725
 30
0.0
  0
POINT
  5
13B7
330
1394
100
AcDbEntity
  8
DEFPOINTS
  6
ByBlock
 62
     0
100
AcDbPoint
 10
312.0496865514231
 20
239.8548041321149
 30
0.0
  0
ENDBLK
  5
13B8
330
1394
100
AcDbEntity
  8
0
100
AcDbBlockEnd
  0
BLOCK
  5
1962
330
1402
100
AcDbEntity
  8
0
100
AcDbBlockBegin
  2
*D5
 70
     1
 10
0.0
 20
0.0
 30
0.0
  3
*D5
  1

  0
LINE
  5
1963
330
1402
100
AcDbEntity
  8
0
  6
ByBlock
 62
     2
100
AcDbLine
 10
382.9147501628028
 20
309.6612838489725
 30
0.0
 11
370.4049128458556
 21
309.6612838489725
 31
0.0
  0
LINE
  5
1964
330
1402
100
AcDbEntity
  8
0
  6
ByBlock
 62
     2
100
AcDbLine
 10
382.9147501628028
 20
274.6612838489725
 30
0.0
 11
370.4049128458556
 21
274.6612838489725
 31
0.0
  0
LINE
  5
1965
330
1402
100
AcDbEntity
  8
0
  6
ByBlock
 62
     2
100
AcDbLine
 10
371.6549128458556
 20
307.1612838489725
 30
0.0
 11
371.6549128458556
 21
277.1612838489725
 31
0.0
  0
INSERT
  5
1966
330
1402
100
AcDbEntity
  8
0
  6
ByBlock
 62
     2
100
AcDbBlockReference
  2
_OPEN
 10
371.6549128458556
 20
309.6612838489725
 30
0.0
 41
2.5
 42
2.5
 43
2.5
 50
90.0
  0
INSERT
  5
1967
330
1402
100
AcDbEntity
  8
0
  6
ByBlock
 62
     2
100
AcDbBlockReference
  2
_OPEN
 10
371.6549128458556
 20
274.6612838489725
 30
0.0
 41
2.5
 42
2.5
 43
2.5
 50
270.0
  0
MTEXT
  5
1968
330
1402
100
AcDbEntity
  8
0
  6
ByBlock
 62
     6
100
AcDbMText
 10
369.7799128458556
 20
292.1612838489725
 30
0.0
 40
2.5
 41
0.0
 71
     5
 72
     1
  1
\A1;2-φ35
  7
STYLE3
 11
0.0000000000000001
 21
1.0
 31
0.0
 73
     1
 44
1.0
  0
POINT
  5
1969
330
1402
100
AcDbEntity
  8
DEFPOINTS
  6
ByBlock
 62
     0
100
AcDbPoint
 10
382.9147501628028
 20
309.6612838489725
 30
0.0
  0
POINT
  5
196A
330
1402
100
AcDbEntity
  8
DEFPOINTS
  6
ByBlock
 62
     0
100
AcDbPoint
 10
382.9147501628028
 20
274.6612838489725
 30
0.0
  0
POINT
  5
196B
330
1402
100
AcDbEntity
  8
DEFPOINTS
  6
ByBlock
 62
     0
100
AcDbPoint
 10
371.6549128458556
 20
274.6612838489725
 30
0.0
  0
ENDBLK
  5
196C
330
1402
100
AcDbEntity
  8
0
100
AcDbBlockEnd
  0
BLOCK
  5
1A03
330
1468
100
AcDbEntity
  8
0
100
AcDbBlockBegin
  2
*D6
 70
     1
 10
0.0
 20
0.0
 30
0.0
  3
*D6
  1

  0
LINE
  5
1A04
330
1468
100
AcDbEntity
  8
0
  6
ByBlock
 62
     2
100
AcDbLine
 10
403.4792119215421
 20
325.7612838489724
 30
0.0
 11
428.1219586883849
 21
325.7612838489724
 31
0.0
  0
LINE
  5
1A05
330
1468
100
AcDbEntity
  8
0
  6
ByBlock
 62
     2
100
AcDbLine
 10
409.879211921542
 20
309.8112838489725
 30
0.0
 11
428.1219586883849
 21
309.8112838489725
 31
0.0
  0
LINE
  5
1A06
330
1468
100
AcDbEntity
  8
0
  6
ByBlock
 62
     2
100
AcDbLine
 10
426.8719586883849
 20
323.2612838489724
 30
0.0
 11
426.8719586883849
 21
312.3112838489725
 31
0.0
  0
INSERT
  5
1A07
330
1468
100
AcDbEntity
  8
0
  6
ByBlock
 62
     2
100
AcDbBlockReference
  2
_OPEN
 10
426.8719586883849
 20
325.7612838489724
 30
0.0
 41
2.5
 42
2.5
 43
2.5
 50
90.0
  0
INSERT
  5
1A08
330
1468
100
AcDbEntity
  8
0
  6
ByBlock
 62
     2
100
AcDbBlockReference
  2
_OPEN
 10
426.8719586883849
 20
309.8112838489725
 30
0.0
 41
2.5
 42
2.5
 43
2.5
 50
270.0
  0
MTEXT
  5
1A09
330
1468
100
AcDbEntity
  8
0
  6
ByBlock
 62
     6
100
AcDbMText
 10
424.9969586883849
 20
317.7862838489724
 30
0.0
 40
2.5
 41
0.0
 71
     5
 72
     1
  1
\A1;16
  7
STYLE3
 11
0.0000000000000001
 21
1.0
 31
0.0
 73
     1
 44
1.0
  0
POINT
  5
1A0A
330
1468
100
AcDbEntity
  8
DEFPOINTS
  6
ByBlock
 62
     0
100
AcDbPoint
 10
403.4792119215421
 20
325.7612838489724
 30
0.0
  0
POINT
  5
1A0B
330
1468
100
AcDbEntity
  8
DEFPOINTS
  6
ByBlock
 62
     0
100
AcDbPoint
 10
409.879211921542
 20
309.8112838489725
 30
0.0
  0
POINT
  5
1A0C
330
1468
100
AcDbEntity
  8
DEFPOINTS
  6
ByBlock
 62
     0
100
AcDbPoint
 10
426.8719586883849
 20
309.8112838489725
 30
0.0
  0
ENDBLK
  5
1A0D
330
1468
100
AcDbEntity
  8
0
100
AcDbBlockEnd
  0
BLOCK
  5
1602
330
15AE
100
AcDbEntity
  8
0
100
AcDbBlockBegin
  2
*D7
 70
     1
 10
0.0
 20
0.0
 30
0.0
  3
*D7
  1

  0
LINE
  5
1603
330
15AE
100
AcDbEntity
  8
0
  6
ByBlock
 62
     2
100
AcDbLine
 10
255.7014869244392
 20
200.8692545382508
 30
0.0
 11
255.7014869244392
 21
220.2950001693982
 31
0.0
  0
LINE
  5
1604
330
15AE
100
AcDbEntity
  8
0
  6
ByBlock
 62
     2
100
AcDbLine
 10
272.7814869244394
 20
200.8692545382508
 30
0.0
 11
272.7814869244394
 21
220.2950001693982
 31
0.0
  0
LINE
  5
1605
330
15AE
100
AcDbEntity
  8
0
  6
ByBlock
 62
     2
100
AcDbLine
 10
258.2014869244392
 20
219.0450001693982
 30
0.0
 11
270.2814869244394
 21
219.0450001693982
 31
0.0
  0
INSERT
  5
1606
330
15AE
100
AcDbEntity
  8
0
  6
ByBlock
 62
     2
100
AcDbBlockReference
  2
_OPEN
 10
255.7014869244392
 20
219.0450001693982
 30
0.0
 41
2.5
 42
2.5
 43
2.5
 50
180.0
  0
INSERT
  5
1607
330
15AE
100
AcDbEntity
  8
0
  6
ByBlock
 62
     2
100
AcDbBlockReference
  2
_OPEN
 10
272.7814869244394
 20
219.0450001693982
 30
0.0
 41
2.5
 42
2.5
 43
2.5
  0
MTEXT
  5
1608
330
15AE
100
AcDbEntity
  8
0
  6
ByBlock
 62
     6
100
AcDbMText
 10
264.2414869244393
 20
220.9200001693982
 30
0.0
 40
2.5
 41
0.0
 71
     5
 72
     1
  1
\A1;8.54
  7
STYLE3
 73
     1
 44
1.0
  0
POINT
  5
1609
330
15AE
100
AcDbEntity
  8
DEFPOINTS
  6
ByBlock
 62
     0
100
AcDbPoint
 10
255.7014869244392
 20
200.8692545382508
 30
0.0
  0
POINT
  5
160A
330
15AE
100
AcDbEntity
  8
DEFPOINTS
  6
ByBlock
 62
     0
100
AcDbPoint
 10
272.7814869244394
 20
200.8692545382508
 30
0.0
  0
POINT
  5
160B
330
15AE
100
AcDbEntity
  8
DEFPOINTS
  6
ByBlock
 62
     0
100
AcDbPoint
 10
272.7814869244394
 20
219.0450001693982
 30
0.0
  0
ENDBLK
  5
160C
330
15AE
100
AcDbEntity
  8
0
100
AcDbBlockEnd
  0
BLOCK
  5
1659
330
15C9
100
AcDbEntity
  8
0
100
AcDbBlockBegin
  2
*D8
 70
     1
 10
0.0
 20
0.0
 30
0.0
  3
*D8
  1

  0
LINE
  5
165A
330
15C9
100
AcDbEntity
  8
0
  6
ByBlock
 62
     2
100
AcDbLine
 10
257.8914869244393
 20
202.6692545382509
 30
0.0
 11
257.8914869244393
 21
213.6950187669957
 31
0.0
  0
LINE
  5
165B
330
15C9
100
AcDbEntity
  8
0
  6
ByBlock
 62
     2
100
AcDbLine
 10
270.3456178692331
 20
202.669254538251
 30
0.0
 11
270.3456178692331
 21
213.6950187669957
 31
0.0
  0
LINE
  5
165C
330
15C9
100
AcDbEntity
  8
0
  6
ByBlock
 62
     2
100
AcDbLine
 10
260.3914869244393
 20
212.4450187669958
 30
0.0
 11
267.8456178692331
 21
212.4450187669958
 31
0.0
  0
INSERT
  5
165D
330
15C9
100
AcDbEntity
  8
0
  6
ByBlock
 62
     2
100
AcDbBlockReference
  2
_OPEN
 10
257.8914869244393
 20
212.4450187669958
 30
0.0
 41
2.5
 42
2.5
 43
2.5
 50
180.0
  0
INSERT
  5
165E
330
15C9
100
AcDbEntity
  8
0
  6
ByBlock
 62
     2
100
AcDbBlockReference
  2
_OPEN
 10
270.3456178692331
 20
212.4450187669958
 30
0.0
 41
2.5
 42
2.5
 43
2.5
  0
MTEXT
  5
165F
330
15C9
100
AcDbEntity
  8
0
  6
ByBlock
 62
     6
100
AcDbMText
 10
264.1185523968362
 20
214.9747806717577
 30
0.0
 40
2.5
 41
0.0
 71
     5
 72
     1
  1
\A1;(6.35)
  7
STYLE3
 73
     1
 44
1.0
  0
POINT
  5
1660
330
15C9
100
AcDbEntity
  8
DEFPOINTS
  6
ByBlock
 62
     0
100
AcDbPoint
 10
257.8914869244393
 20
202.6692545382509
 30
0.0
  0
POINT
  5
1661
330
15C9
100
AcDbEntity
  8
DEFPOINTS
  6
ByBlock
 62
     0
100
AcDbPoint
 10
270.3456178692331
 20
202.669254538251
 30
0.0
  0
POINT
  5
1662
330
15C9
100
AcDbEntity
  8
DEFPOINTS
  6
ByBlock
 62
     0
100
AcDbPoint
 10
270.3456178692331
 20
212.4450187669958
 30
0.0
  0
ENDBLK
  5
1663
330
15C9
100
AcDbEntity
  8
0
100
AcDbBlockEnd
  0
BLOCK
  5
19EE
330
1708
100
AcDbEntity
  8
0
100
AcDbBlockBegin
  2
*D9
 70
     1
 10
0.0
 20
0.0
 30
0.0
  3
*D9
  1

  0
LINE
  5
19EF
330
1708
100
AcDbEntity
  8
0
  6
ByBlock
 62
     2
100
AcDbLine
 10
311.320654647681
 20
244.6612838489725
 30
0.0
 11
301.9768924847844
 21
244.6612838489725
 31
0.0
  0
LINE
  5
19F0
330
1708
100
AcDbEntity
  8
0
  6
ByBlock
 62
     2
100
AcDbLine
 10
311.3720498313588
 20
225.7612838489725
 30
0.0
 11
301.9768924847844
 21
225.7612838489725
 31
0.0
  0
LINE
  5
19F1
330
1708
100
AcDbEntity
  8
0
  6
ByBlock
 62
     2
100
AcDbLine
 10
303.2268924847844
 20
242.1612838489725
 30
0.0
 11
303.2268924847844
 21
228.2612838489725
 31
0.0
  0
INSERT
  5
19F2
330
1708
100
AcDbEntity
  8
0
  6
ByBlock
 62
     2
100
AcDbBlockReference
  2
_OPEN
 10
303.2268924847844
 20
244.6612838489725
 30
0.0
 41
2.5
 42
2.5
 43
2.5
 50
90.0
  0
INSERT
  5
19F3
330
1708
100
AcDbEntity
  8
0
  6
ByBlock
 62
     2
100
AcDbBlockReference
  2
_OPEN
 10
303.2268924847844
 20
225.7612838489725
 30
0.0
 41
2.5
 42
2.5
 43
2.5
 50
270.0
  0
MTEXT
  5
19F4
330
1708
100
AcDbEntity
  8
0
  6
ByBlock
 62
     6
100
AcDbMText
 10
301.3518924847844
 20
235.2112838489725
 30
0.0
 40
2.5
 41
0.0
 71
     5
 72
     1
  1
\A1;18.9
  7
STYLE3
 11
0.0000000000000001
 21
1.0
 31
0.0
 73
     1
 44
1.0
  0
POINT
  5
19F5
330
1708
100
AcDbEntity
  8
DEFPOINTS
  6
ByBlock
 62
     0
100
AcDbPoint
 10
311.320654647681
 20
244.6612838489725
 30
0.0
  0
POINT
  5
19F6
330
1708
100
AcDbEntity
  8
DEFPOINTS
  6
ByBlock
 62
     0
100
AcDbPoint
 10
311.3720498313588
 20
225.7612838489725
 30
0.0
  0
POINT
  5
19F7
330
1708
100
AcDbEntity
  8
DEFPOINTS
  6
ByBlock
 62
     0
100
AcDbPoint
 10
303.2268924847844
 20
225.7612838489725
 30
0.0
  0
ENDBLK
  5
19F8
330
1708
100
AcDbEntity
  8
0
100
AcDbBlockEnd
  0
BLOCK
  5
1716
330
1715
100
AcDbEntity
  8
0
100
AcDbBlockBegin
  2
*D10
 70
     1
 10
0.0
 20
0.0
 30
0.0
  3
*D10
  1

  0
LINE
  5
1717
330
1715
100
AcDbEntity
  8
0
  6
ByBlock
 62
     2
100
AcDbLine
 10
322.3200469811236
 20
248.1612838489725
 30
0.0
 11
338.1478392002232
 21
248.1612838489725
 31
0.0
  0
LINE
  5
1718
330
1715
100
AcDbEntity
  8
0
  6
ByBlock
 62
     2
100
AcDbLine
 10
319.2517032470697
 20
225.7612838489725
 30
0.0
 11
338.1478392002232
 21
225.7612838489725
 31
0.0
  0
LINE
  5
1719
330
1715
100
AcDbEntity
  8
0
  6
ByBlock
 62
     2
100
AcDbLine
 10
336.8978392002233
 20
245.6612838489725
 30
0.0
 11
336.8978392002233
 21
228.2612838489725
 31
0.0
  0
INSERT
  5
171A
330
1715
100
AcDbEntity
  8
0
  6
ByBlock
 62
     2
100
AcDbBlockReference
  2
_OPEN
 10
336.8978392002233
 20
248.1612838489725
 30
0.0
 41
2.5
 42
2.5
 43
2.5
 50
90.0
  0
INSERT
  5
171B
330
1715
100
AcDbEntity
  8
0
  6
ByBlock
 62
     2
100
AcDbBlockReference
  2
_OPEN
 10
336.8978392002233
 20
225.7612838489725
 30
0.0
 41
2.5
 42
2.5
 43
2.5
 50
270.0
  0
MTEXT
  5
171C
330
1715
100
AcDbEntity
  8
0
  6
ByBlock
 62
     6
100
AcDbMText
 10
335.0228392002232
 20
236.9612838489725
 30
0.0
 40
2.5
 41
0.0
 71
     5
 72
     1
  1
\A1;22.4
  7
STYLE3
 11
0.0000000000000001
 21
1.0
 31
0.0
 73
     1
 44
1.0
  0
POINT
  5
171D
330
1715
100
AcDbEntity
  8
DEFPOINTS
  6
ByBlock
 62
     0
100
AcDbPoint
 10
322.3200469811236
 20
248.1612838489725
 30
0.0
  0
POINT
  5
171E
330
1715
100
AcDbEntity
  8
DEFPOINTS
  6
ByBlock
 62
     0
100
AcDbPoint
 10
319.2517032470697
 20
225.7612838489725
 30
0.0
  0
POINT
  5
171F
330
1715
100
AcDbEntity
  8
DEFPOINTS
  6
ByBlock
 62
     0
100
AcDbPoint
 10
336.8978392002233
 20
225.7612838489725
 30
0.0
  0
ENDBLK
  5
1720
330
1715
100
AcDbEntity
  8
0
100
AcDbBlockEnd
  0
BLOCK
  5
1723
330
1722
100
AcDbEntity
  8
0
100
AcDbBlockBegin
  2
*D11
 70
     1
 10
0.0
 20
0.0
 30
0.0
  3
*D11
  1

  0
LINE
  5
1724
330
1722
100
AcDbEntity
  8
0
  6
ByBlock
 62
     2
100
AcDbLine
 10
335.7658572387718
 20
292.1612838489725
 30
0.0
 11
345.6341974941798
 21
292.1612838489725
 31
0.0
  0
LINE
  5
1725
330
1722
100
AcDbEntity
  8
0
  6
ByBlock
 62
     2
100
AcDbLine
 10
338.1478392002232
 20
225.7612838489725
 30
0.0
 11
345.6341974941798
 21
225.7612838489725
 31
0.0
  0
LINE
  5
1726
330
1722
100
AcDbEntity
  8
0
  6
ByBlock
 62
     2
100
AcDbLine
 10
344.3841974941798
 20
289.6612838489725
 30
0.0
 11
344.3841974941798
 21
228.2612838489725
 31
0.0
  0
INSERT
  5
1727
330
1722
100
AcDbEntity
  8
0
  6
ByBlock
 62
     2
100
AcDbBlockReference
  2
_OPEN
 10
344.3841974941798
 20
292.1612838489725
 30
0.0
 41
2.5
 42
2.5
 43
2.5
 50
90.0
  0
INSERT
  5
1728
330
1722
100
AcDbEntity
  8
0
  6
ByBlock
 62
     2
100
AcDbBlockReference
  2
_OPEN
 10
344.3841974941798
 20
225.7612838489725
 30
0.0
 41
2.5
 42
2.5
 43
2.5
 50
270.0
  0
MTEXT
  5
1729
330
1722
100
AcDbEntity
  8
0
  6
ByBlock
 62
     6
100
AcDbMText
 10
342.5091974941798
 20
258.9612838489725
 30
0.0
 40
2.5
 41
0.0
 71
     5
 72
     1
  1
\A1;66.4
  7
STYLE3
 11
0.0000000000000001
 21
1.0
 31
0.0
 73
     1
 44
1.0
  0
POINT
  5
172A
330
1722
100
AcDbEntity
  8
DEFPOINTS
  6
ByBlock
 62
     0
100
AcDbPoint
 10
335.7658572387718
 20
292.1612838489725
 30
0.0
  0
POINT
  5
172B
330
1722
100
AcDbEntity
  8
DEFPOINTS
  6
ByBlock
 62
     0
100
AcDbPoint
 10
338.1478392002232
 20
225.7612838489725
 30
0.0
  0
POINT
  5
172C
330
1722
100
AcDbEntity
  8
DEFPOINTS
  6
ByBlock
 62
     0
100
AcDbPoint
 10
344.3841974941798
 20
225.7612838489725
 30
0.0
  0
ENDBLK
  5
172D
330
1722
100
AcDbEntity
  8
0
100
AcDbBlockEnd
  0
BLOCK
  5
1730
330
172F
100
AcDbEntity
  8
0
100
AcDbBlockBegin
  2
*D12
 70
     1
 10
0.0
 20
0.0
 30
0.0
  3
*D12
  1

  0
LINE
  5
1731
330
172F
100
AcDbEntity
  8
0
  6
ByBlock
 62
     2
100
AcDbLine
 10
315.120654647681
 20
325.7612838489725
 30
0.0
 11
352.9724961422667
 21
325.7612838489725
 31
0.0
  0
LINE
  5
1732
330
172F
100
AcDbEntity
  8
0
  6
ByBlock
 62
     2
100
AcDbLine
 10
315.120654647681
 20
224.7612838489725
 30
0.0
 11
352.9724961422667
 21
224.7612838489725
 31
0.0
  0
LINE
  5
1733
330
172F
100
AcDbEntity
  8
0
  6
ByBlock
 62
     2
100
AcDbLine
 10
351.7224961422667
 20
323.2612838489725
 30
0.0
 11
351.7224961422667
 21
227.2612838489725
 31
0.0
  0
INSERT
  5
1734
330
172F
100
AcDbEntity
  8
0
  6
ByBlock
 62
     2
100
AcDbBlockReference
  2
_OPEN
 10
351.7224961422667
 20
325.7612838489725
 30
0.0
 41
2.5
 42
2.5
 43
2.5
 50
90.0
  0
INSERT
  5
1735
330
172F
100
AcDbEntity
  8
0
  6
ByBlock
 62
     2
100
AcDbBlockReference
  2
_OPEN
 10
351.7224961422667
 20
224.7612838489725
 30
0.0
 41
2.5
 42
2.5
 43
2.5
 50
270.0
  0
MTEXT
  5
1736
330
172F
100
AcDbEntity
  8
0
  6
ByBlock
 62
     6
100
AcDbMText
 10
349.8474961422667
 20
275.2612838489725
 30
0.0
 40
2.5
 41
0.0
 71
     5
 72
     1
  1
\A1;101
  7
STYLE3
 11
0.0000000000000001
 21
1.0
 31
0.0
 73
     1
 44
1.0
  0
POINT
  5
1737
330
172F
100
AcDbEntity
  8
DEFPOINTS
  6
ByBlock
 62
     0
100
AcDbPoint
 10
315.120654647681
 20
325.7612838489725
 30
0.0
  0
POINT
  5
1738
330
172F
100
AcDbEntity
  8
DEFPOINTS
  6
ByBlock
 62
     0
100
AcDbPoint
 10
315.120654647681
 20
224.7612838489725
 30
0.0
  0
POINT
  5
1739
330
172F
100
AcDbEntity
  8
DEFPOINTS
  6
ByBlock
 62
     0
100
AcDbPoint
 10
351.7224961422667
 20
224.7612838489725
 30
0.0
  0
ENDBLK
  5
173A
330
172F
100
AcDbEntity
  8
0
100
AcDbBlockEnd
  0
BLOCK
  5
1A57
330
1A0E
100
AcDbEntity
  8
0
100
AcDbBlockBegin
  2
*D14
 70
     1
 10
0.0
 20
0.0
 30
0.0
  3
*D14
  1

  0
LINE
  5
1A58
330
1A0E
100
AcDbEntity
  8
0
  6
ByBlock
 62
     2
100
AcDbLine
 10
388.0154699529492
 20
292.1612838489725
 30
0.0
 11
388.0154699529492
 21
335.3556506559746
 31
0.0
  0
LINE
  5
1A59
330
1A0E
100
AcDbEntity
  8
0
  6
ByBlock
 62
     2
100
AcDbLine
 10
397.079211921542
 20
309.8112838489724
 30
0.0
 11
397.079211921542
 21
335.3556506559746
 31
0.0
  0
LINE
  5
1A5A
330
1A0E
100
AcDbEntity
  8
0
  6
ByBlock
 62
     2
100
AcDbLine
 10
390.5154699529492
 20
334.1056506559746
 30
0.0
 11
394.579211921542
 21
334.1056506559746
 31
0.0
  0
INSERT
  5
1A5B
330
1A0E
100
AcDbEntity
  8
0
  6
ByBlock
 62
     2
100
AcDbBlockReference
  2
_OPEN
 10
388.0154699529492
 20
334.1056506559746
 30
0.0
 41
2.5
 42
2.5
 43
2.5
 50
180.0
  0
INSERT
  5
1A5C
330
1A0E
100
AcDbEntity
  8
0
  6
ByBlock
 62
     2
100
AcDbBlockReference
  2
_OPEN
 10
397.079211921542
 20
334.1056506559746
 30
0.0
 41
2.5
 42
2.5
 43
2.5
  0
MTEXT
  5
1A5D
330
1A0E
100
AcDbEntity
  8
0
  6
ByBlock
 62
     6
100
AcDbMText
 10
392.5473409372456
 20
335.9806506559746
 30
0.0
 40
2.5
 41
0.0
 71
     5
 72
     1
  1
\A1;9
  7
STYLE3
 73
     1
 44
1.0
  0
POINT
  5
1A5E
330
1A0E
100
AcDbEntity
  8
DEFPOINTS
  6
ByBlock
 62
     0
100
AcDbPoint
 10
388.0154699529492
 20
292.1612838489725
 30
0.0
  0
POINT
  5
1A5F
330
1A0E
100
AcDbEntity
  8
DEFPOINTS
  6
ByBlock
 62
     0
100
AcDbPoint
 10
397.079211921542
 20
309.8112838489724
 30
0.0
  0
POINT
  5
1A60
330
1A0E
100
AcDbEntity
  8
DEFPOINTS
  6
ByBlock
 62
     0
100
AcDbPoint
 10
397.079211921542
 20
334.1056506559746
 30
0.0
  0
ENDBLK
  5
1A61
330
1A0E
100
AcDbEntity
  8
0
100
AcDbBlockEnd
  0
BLOCK
  5
1A62
330
1A37
100
AcDbEntity
  8
0
100
AcDbBlockBegin
  2
*D15
 70
     1
 10
0.0
 20
0.0
 30
0.0
  3
*D15
  1

  0
LINE
  5
1A63
330
1A37
100
AcDbEntity
  8
0
  6
ByBlock
 62
     2
100
AcDbLine
 10
418.9429538901349
 20
292.1612838489722
 30
0.0
 11
418.9429538901349
 21
335.3556506559746
 31
0.0
  0
LINE
  5
1A64
330
1A37
100
AcDbEntity
  8
0
  6
ByBlock
 62
     2
100
AcDbLine
 10
412.379211921542
 20
334.1056506559746
 30
0.0
 11
416.442953890135
 21
334.1056506559746
 31
0.0
  0
INSERT
  5
1A65
330
1A37
100
AcDbEntity
  8
0
  6
ByBlock
 62
     2
100
AcDbBlockReference
  2
_OPEN
 10
409.879211921542
 20
334.1056506559746
 30
0.0
 41
2.5
 42
2.5
 43
2.5
 50
180.0
  0
INSERT
  5
1A66
330
1A37
100
AcDbEntity
  8
0
  6
ByBlock
 62
     2
100
AcDbBlockReference
  2
_OPEN
 10
418.9429538901349
 20
334.1056506559746
 30
0.0
 41
2.5
 42
2.5
 43
2.5
  0
MTEXT
  5
1A67
330
1A37
100
AcDbEntity
  8
0
  6
ByBlock
 62
     6
100
AcDbMText
 10
414.4110829058385
 20
335.9806506559746
 30
0.0
 40
2.5
 41
0.0
 71
     5
 72
     1
  1
\A1;9
  7
STYLE3
 73
     1
 44
1.0
  0
POINT
  5
1A68
330
1A37
100
AcDbEntity
  8
DEFPOINTS
  6
ByBlock
 62
     0
100
AcDbPoint
 10
409.879211921542
 20
309.8112838489725
 30
0.0
  0
POINT
  5
1A69
330
1A37
100
AcDbEntity
  8
DEFPOINTS
  6
ByBlock
 62
     0
100
AcDbPoint
 10
418.9429538901349
 20
292.1612838489722
 30
0.0
  0
POINT
  5
1A6A
330
1A37
100
AcDbEntity
  8
DEFPOINTS
  6
ByBlock
 62
     0
100
AcDbPoint
 10
418.9429538901349
 20
334.1056506559746
 30
0.0
  0
ENDBLK
  5
1A6B
330
1A37
100
AcDbEntity
  8
0
100
AcDbBlockEnd
  0
BLOCK
  5
1A94
330
1A91
100
AcDbEntity
  8
0
100
AcDbBlockBegin
  2
PC_PCN針
 70
     0
 10
0.0
 20
0.0
 30
0.0
  3
PC_PCN針
  1

  0
HATCH
  5
1A95
330
1A91
100
AcDbEntity
  8
針
 62
     5
100
AcDbHatch
 10
0.0
 20
0.0
 30
0.0
210
0.0
220
0.0
230
1.0
  2
SOLID
 70
     1
 71
     1
 91
        2
 92
        7
 72
     1
 73
     1
 93
        7
 10
-2.023904563850578
 20
-0.2645931338153105
 42
-0.1640812035095904
 10
-1.421638696153195
 20
-0.4784803210162636
 42
-0.0813437861988258
 10
-1.5
 20
0.0
 42
-0.0813437861988211
 10
-1.421638696153195
 20
0.4784803210162352
 42
-0.1640812035095877
 10
-2.023904563850578
 20
0.2645931338153105
 42
0.0
 10
-14.19999999999993
 20
0.07000000000005
 42
0.0
 10
-14.20000000000004
 20
-0.0700000000000216
 42
0.0
 97
        6
330
1A99
330
1A9B
330
1A96
330
1A9C
330
1A9A
330
1AA2
 92
        7
 72
     1
 73
     1
 93
        9
 10
1.601307174430758
 20
0.4866168858272318
 42
-0.1053331282509662
 10
1.399713151580613
 20
0.5392616185973793
 42
-0.0921949713546931
 10
1.5
 20
0.0
 42
-0.0921949713546883
 10
1.399713151580613
 20
-0.5392616185973509
 42
-0.1053331282510194
 10
1.601307174430871
 20
-0.4866168858272318
 42
0.0
 10
6.657469727507077
 20
-0.256172195646343
 42
-0.2863987309427536
 10
6.842033426437637
 20
-0.359972204586029
 42
3.911320250910649
 10
6.842033426437637
 20
0.3599722045860858
 42
-0.2863987309427981
 10
6.657469727507077
 20
0.256172195646343
 42
0.0
 97
        8
330
1AA0
330
1A9D
330
1A98
330
1AA2
330
1A97
330
1A9E
330
1AA1
330
1A9F
 75
     0
 76
     1
 47
0.0259966004614645
 98
        2
 10
-6.998752094249084
 20
-0.0094903483859525
 10
3.014397170732763
 20
0.0944959703959967
450
        0
451
        0
460
0.0
461
0.0
452
        1
462
1.0
453
        2
463
0.0
 63
     5
421
      255
463
1.0
 63
    51
421
 16777113
470
LINEAR
  0
LINE
  5
1A96
102
{ACAD_REACTORS
330
1A95
102
}
330
1A91
100
AcDbEntity
  8
針
100
AcDbLine
 10
-14.20000000000004
 20
0.0700000000000216
 30
0.0
 11
-14.20000000000004
 21
-0.0699999999999932
 31
0.0
  0
ARC
  5
1A97
102
{ACAD_REACTORS
330
1A95
102
}
330
1A91
100
AcDbEntity
  8
針
100
AcDbCircle
 10
1.624072039381871
 20
-0.9860983779005323
 30
0.0
 40
0.5
100
AcDbArc
 50
92.60956348104661
 51
116.6614474826241
  0
ARC
  5
1A98
102
{ACAD_REACTORS
330
1A95
102
}
330
1A91
100
AcDbEntity
  8
針
100
AcDbCircle
 10
1.624072039381871
 20
0.9860983779005323
 30
0.0
 40
0.5
100
AcDbArc
 50
243.3385525173759
 51
267.3904365189533
  0
ARC
  5
1A99
102
{ACAD_REACTORS
330
1A95
102
}
330
1A91
100
AcDbEntity
  8
針
100
AcDbCircle
 10
-2.039884094318267
 20
1.264465452967101
 30
0.0
 40
1.0
100
AcDbArc
 50
270.9155986228672
 51
308.1881170613605
  0
ARC
  5
1A9A
102
{ACAD_REACTORS
330
1A95
102
}
330
1A91
100
AcDbEntity
  8
針
100
AcDbCircle
 10
-2.039884094318267
 20
-1.264465452967101
 30
0.0
 40
1.0
100
AcDbArc
 50
51.8118829386395
 51
89.08440137713276
  0
LINE
  5
1A9B
102
{ACAD_REACTORS
330
1A95
102
}
330
1A91
100
AcDbEntity
  8
針
100
AcDbLine
 10
-14.20000000000004
 20
0.0700000000000216
 30
0.0
 11
-2.023904563850578
 21
0.2645931338153105
 31
0.0
  0
LINE
  5
1A9C
102
{ACAD_REACTORS
330
1A95
102
}
330
1A91
100
AcDbEntity
  8
針
100
AcDbLine
 10
-2.023904563850578
 20
-0.2645931338153105
 30
0.0
 11
-14.20000000000004
 21
-0.0699999999999932
 31
0.0
  0
LINE
  5
1A9D
102
{ACAD_REACTORS
330
1A95
102
}
330
1A91
100
AcDbEntity
  8
針
100
AcDbLine
 10
1.601307174430758
 20
0.4866168858272318
 30
0.0
 11
6.657469727507077
 21
0.256172195646343
 31
0.0
  0
LINE
  5
1A9E
102
{ACAD_REACTORS
330
1A95
102
}
330
1A91
100
AcDbEntity
  8
針
100
AcDbLine
 10
1.601307174430758
 20
-0.4866168858272318
 30
0.0
 11
6.657469727507077
 21
-0.256172195646343
 31
0.0
  0
ARC
  5
1A9F
102
{ACAD_REACTORS
330
1A95
102
}
330
1A91
100
AcDbEntity
  8
針
100
AcDbCircle
 10
7.5
 20
0.0
 30
0.0
 40
0.75
100
AcDbArc
 50
208.6829815593726
 51
151.3170184406274
  0
ARC
  5
1AA0
102
{ACAD_REACTORS
330
1A95
102
}
330
1A91
100
AcDbEntity
  8
針
100
AcDbCircle
 10
6.666575673487614
 20
0.4559647924756405
 30
0.0
 40
0.2
100
AcDbArc
 50
267.3904365189468
 51
331.3170184406275
  0
ARC
  5
1AA1
102
{ACAD_REACTORS
330
1A95
102
}
330
1A91
100
AcDbEntity
  8
針
100
AcDbCircle
 10
6.666575673487614
 20
-0.4559647924756405
 30
0.0
 40
0.2
100
AcDbArc
 50
28.68298155937256
 51
92.60956348105315
  0
CIRCLE
  5
1AA2
102
{ACAD_REACTORS
330
1A95
102
}
330
1A91
100
AcDbEntity
  8
外形線
100
AcDbCircle
 10
0.0
 20
0.0
 30
0.0
 40
1.5
  0
CIRCLE
  5
1AA3
330
1A91
100
AcDbEntity
  8
外形線
 62
     4
100
AcDbCircle
 10
0.0
 20
0.0
 30
0.0
 40
0.25
  0
ENDBLK
  5
1AA4
330
1A91
100
AcDbEntity
  8
0
100
AcDbBlockEnd
  0
ENDSEC
  0
SECTION
  2
ENTITIES
  0
LWPOLYLINE
  5
10B
330
18
100
AcDbEntity
  8
C
100
AcDbPolyline
 90
        5
 70
     0
 43
0.4
 10
236.6915604445414
 20
366.8501752555372
 10
491.6915604445414
 20
366.8501752555372
 10
491.6915604445414
 20
171.8501752555372
 10
236.6915604445414
 20
171.8501752555372
 10
236.6915604445414
 20
366.8501752555372
  0
LINE
  5
16B
330
18
100
AcDbEntity
  8
中心線
 48
0.5
100
AcDbLine
 10
315.120654647681
 20
328.3254617421455
 30
0.0
 11
315.120654647681
 21
222.2121074581805
 31
0.0
  0
LINE
  5
16C
330
18
100
AcDbEntity
  8
外形線
100
AcDbLine
 10
312.120654647681
 20
324.9574362716791
 30
0.0
 11
318.120654647681
 21
324.9574362716791
 31
0.0
  0
LINE
  5
16D
330
18
100
AcDbEntity
  8
外形線
100
AcDbLine
 10
312.120654647681
 20
309.7612838489725
 30
0.0
 11
318.120654647681
 21
309.7612838489725
 31
0.0
  0
LINE
  5
16E
330
18
100
AcDbEntity
  8
外形線
100
AcDbLine
 10
318.120654647681
 20
324.9574362716791
 30
0.0
 11
318.120654647681
 21
309.7612838489725
 31
0.0
  0
LINE
  5
16F
330
18
100
AcDbEntity
  8
外形線
100
AcDbLine
 10
312.120654647681
 20
324.9574362716791
 30
0.0
 11
312.120654647681
 21
309.7612838489725
 31
0.0
  0
ARC
  5
170
330
18
100
AcDbEntity
  8
外形線
100
AcDbCircle
 10
315.120654647681
 20
319.7612838489725
 30
0.0
 40
6.0
100
AcDbArc
 50
60.0
 51
120.0
  0
CIRCLE
  5
172
330
18
100
AcDbEntity
  8
外形線
100
AcDbCircle
 10
315.120654647681
 20
292.1612838489725
 30
0.0
 40
17.5
  0
LINE
  5
17D
330
18
100
AcDbEntity
  8
中心線
 48
0.5
100
AcDbLine
 10
311.3720498313588
 20
225.7612838489725
 30
0.0
 11
319.2517032470697
 21
225.7612838489725
 31
0.0
  0
LINE
  5
305
330
18
100
AcDbEntity
  8
中心線
 48
0.5
100
AcDbLine
 10
294.2614971094867
 20
292.1612838489725
 30
0.0
 11
335.7658572387718
 21
292.1612838489725
 31
0.0
  0
CIRCLE
  5
307
330
18
100
AcDbEntity
  8
外形線
100
AcDbCircle
 10
315.120654647681
 20
292.1612838489725
 30
0.0
 40
15.0
  0
LINE
  5
30A
330
18
100
AcDbEntity
  8
目盛
100
AcDbLine
 10
315.120654647681
 20
307.1612838489725
 30
0.0
 11
315.120654647681
 21
304.6612838489725
 31
0.0
  0
TEXT
  5
351
330
18
100
AcDbEntity
  8
文字
100
AcDbText
 10
314.3202456344099
 20
302.4333550840927
 30
0.0
 40
1.8
  1
0
  7
STYLE3
100
AcDbText
  0
TEXT
  5
353
330
18
100
AcDbEntity
  8
文字
100
AcDbText
 10
321.2850144278477
 20
298.7404844264877
 30
0.0
 40
1.8
  1
10
  7
STYLE3
100
AcDbText
  0
TEXT
  5
354
330
18
100
AcDbEntity
  8
文字
100
AcDbText
 10
324.022863236312
 20
291.2185166550042
 30
0.0
 40
1.8
  1
20
  7
STYLE3
100
AcDbText
  0
TEXT
  5
355
330
18
100
AcDbEntity
  8
文字
100
AcDbText
 10
320.825043973765
 20
283.5405670865817
 30
0.0
 40
1.8
  1
30
  7
STYLE3
100
AcDbText
  0
TEXT
  5
356
330
18
100
AcDbEntity
  8
文字
100
AcDbText
 10
313.4220947431907
 20
280.1363578835841
 30
0.0
 40
1.8
  1
40
  7
STYLE3
100
AcDbText
  0
TEXT
  5
357
330
18
100
AcDbEntity
  8
文字
100
AcDbText
 10
306.4333630598381
 20
283.2891865980711
 30
0.0
 40
1.8
  1
30
  7
STYLE3
100
AcDbText
  0
TEXT
  5
358
330
18
100
AcDbEntity
  8
文字
100
AcDbText
 10
302.8184677353227
 20
291.4313841698984
 30
0.0
 40
1.8
  1
20
  7
STYLE3
100
AcDbText
  0
TEXT
  5
35A
330
18
100
AcDbEntity
  8
文字
100
AcDbText
 10
305.9139697390488
 20
299.1438681647591
 30
0.0
 40
1.8
  1
10
  7
STYLE3
100
AcDbText
  0
TEXT
  5
35E
330
18
100
AcDbEntity
  8
文字
100
AcDbText
 10
317.9926100057916
 20
291.7519440643974
 30
0.0
 40
0.8
  1
0.01mm
  7
STYLE3
100
AcDbText
  0
TEXT
  5
35F
330
18
100
AcDbEntity
  8
文字
100
AcDbText
 10
308.1802201629387
 20
291.7872327997231
 30
0.0
 40
0.8
  1
Jeweled
  7
STYLE3
100
AcDbText
  0
TEXT
  5
363
330
18
100
AcDbEntity
  8
文字
100
AcDbText
 10
312.0159711199592
 20
287.1291675065916
 30
0.0
 40
1.0
  1
PC-1BW
  7
STYLE3
100
AcDbText
  0
TEXT
  5
368
330
18
100
AcDbEntity
  8
文字
100
AcDbText
 10
311.6766472397483
 20
295.1749159048079
 30
0.0
 40
1.0
  1
PIC-TEST
  7
STYLE3
100
AcDbText
  0
INSERT
  5
B43
330
18
100
AcDbEntity
  8
文字
100
AcDbBlockReference
  2
ROGO1
 10
301.1334577592202
 20
275.1168679656769
 30
0.0
  0
INSERT
  5
B44
330
18
100
AcDbEntity
  8
文字
100
AcDbBlockReference
  2
ROGO1
 10
301.1095809474122
 20
275.1436630917189
 30
0.0
  0
INSERT
  5
BF6
330
18
100
AcDbEntity
  8
文字
100
AcDbBlockReference
  2
ROGO
 10
309.5160076645131
 20
297.1612838489725
 30
0.0
 41
0.3
 42
0.3
 43
0.3
  0
LINE
  5
BF9
330
18
100
AcDbEntity
  8
外形線
100
AcDbLine
 10
316.870654647681
 20
244.9612838489726
 30
0.0
 11
313.870654647681
 21
244.9612838489725
 31
0.0
  0
LINE
  5
C02
330
18
100
AcDbEntity
  8
外形線
100
AcDbLine
 10
315.7217913076021
 20
226.5612838489726
 30
0.0
 11
314.5195179877598
 21
226.5612838489726
 31
0.0
  0
LINE
  5
C06
330
18
100
AcDbEntity
  8
外形線
100
AcDbLine
 10
316.3706546476811
 20
244.9012838489725
 30
0.0
 11
316.370654647681
 21
243.5012838489725
 31
0.0
  0
LINE
  5
C07
330
18
100
AcDbEntity
  8
外形線
100
AcDbLine
 10
313.870654647681
 20
244.9012838489725
 30
0.0
 11
313.8706546476811
 21
243.5012838489725
 31
0.0
  0
LINE
  5
C0B
330
18
100
AcDbEntity
  8
外形線
100
AcDbLine
 10
313.870654647681
 20
242.9012838489725
 30
0.0
 11
313.8706546476811
 21
241.7612838489727
 31
0.0
  0
LINE
  5
C0C
330
18
100
AcDbEntity
  8
外形線
100
AcDbLine
 10
316.370654647681
 20
242.9012838489724
 30
0.0
 11
316.370654647681
 21
241.7612838489724
 31
0.0
  0
LINE
  5
C12
330
18
100
AcDbEntity
  8
外形線
100
AcDbLine
 10
313.8706546476811
 20
241.7612838489727
 30
0.0
 11
314.5195179877599
 21
226.5612838489726
 31
0.0
  0
LINE
  5
C13
330
18
100
AcDbEntity
  8
外形線
100
AcDbLine
 10
316.370654647681
 20
241.7612838489724
 30
0.0
 11
315.7217913076022
 21
226.5612838489726
 31
0.0
  0
ARC
  5
C14
330
18
100
AcDbEntity
  8
外形線
100
AcDbCircle
 10
315.120654647681
 20
225.7612838489725
 30
0.0
 40
1.0
100
AcDbArc
 50
126.869897645842
 51
53.13010235415791
  0
LINE
  5
C24
330
18
100
AcDbEntity
  8
隠れ線
 62
     4
 48
0.3
100
AcDbLine
 10
315.120654647681
 20
226.7612838489725
 30
0.0
 11
315.7217913076022
 21
226.5612838489726
 31
0.0
  0
LINE
  5
C25
330
18
100
AcDbEntity
  8
隠れ線
 62
     4
 48
0.3
100
AcDbLine
 10
315.120654647681
 20
226.7612838489725
 30
0.0
 11
314.5195179877599
 21
226.5612838489726
 31
0.0
  0
LINE
  5
C4D
330
18
100
AcDbEntity
  8
中心線
 48
0.5
100
AcDbLine
 10
308.0011291718134
 20
248.1612838489725
 30
0.0
 11
322.3200469811236
 21
248.1612838489725
 31
0.0
  0
LINE
  5
C4E
330
18
100
AcDbEntity
  8
外形線
100
AcDbLine
 10
311.320654647681
 20
244.6612838489725
 30
0.0
 11
312.9706546476811
 21
244.6612838489725
 31
0.0
  0
LINE
  5
C51
330
18
100
AcDbEntity
  8
外形線
100
AcDbLine
 10
312.2936209068608
 20
309.8112838489724
 30
0.0
 11
317.9476883885012
 21
309.8112838489724
 31
0.0
  0
LINE
  5
C56
330
18
100
AcDbEntity
  8
外形線
100
AcDbLine
 10
317.9058619365226
 20
309.4382228243288
 30
0.0
 11
318.0343506341887
 21
309.6613874044857
 31
0.0
  0
LINE
  5
C57
330
18
100
AcDbEntity
  8
外形線
100
AcDbLine
 10
312.3354473588395
 20
309.4382228243288
 30
0.0
 11
312.2069586611734
 21
309.6613874044857
 31
0.0
  0
ARC
  5
C58
330
18
100
AcDbEntity
  8
外形線
100
AcDbCircle
 10
312.2936209068608
 20
309.7112838489724
 30
0.0
 40
0.1
100
AcDbArc
 50
89.99999999999944
 51
209.9315118405063
  0
ARC
  5
C59
330
18
100
AcDbEntity
  8
外形線
100
AcDbCircle
 10
317.9476883885012
 20
309.7112838489724
 30
0.0
 40
0.1
100
AcDbArc
 50
330.0684881594922
 51
90.0
  0
LINE
  5
C5A
330
18
100
AcDbEntity
  8
外形線
100
AcDbLine
 10
318.9206546476811
 20
275.078836717487
 30
0.0
 11
318.9206546476811
 21
244.6612838489725
 31
0.0
  0
LINE
  5
C5B
330
18
100
AcDbEntity
  8
外形線
100
AcDbLine
 10
311.320654647681
 20
275.0788367174869
 30
0.0
 11
311.320654647681
 21
244.6612838489725
 31
0.0
  0
LINE
  5
C5C
330
18
100
AcDbEntity
  8
外形線
100
AcDbLine
 10
311.3206546476805
 20
274.1612838489726
 30
0.0
 11
318.9206546476806
 21
274.1612838489725
 31
0.0
  0
LINE
  5
C5D
330
18
100
AcDbEntity
  8
外形線
100
AcDbLine
 10
312.820654647681
 20
274.8130850952114
 30
0.0
 11
312.820654647681
 21
264.5612838489725
 31
0.0
  0
LINE
  5
C5E
330
18
100
AcDbEntity
  8
中心線
100
AcDbLine
 10
312.6130997308465
 20
271.1612838489726
 30
0.0
 11
315.6379142355792
 21
271.1612838489725
 31
0.0
  0
LINE
  5
C5F
330
18
100
AcDbEntity
  8
中心線
100
AcDbLine
 10
314.320654647681
 20
272.4905652229377
 30
0.0
 11
314.320654647681
 21
269.647768495528
 31
0.0
  0
CIRCLE
  5
C60
330
18
100
AcDbEntity
  8
外形線
100
AcDbCircle
 10
314.320654647681
 20
271.1612838489725
 30
0.0
 40
0.85
  0
LINE
  5
C80
330
18
100
AcDbEntity
  8
外形線
100
AcDbLine
 10
311.9206546476811
 20
264.5612838489725
 30
0.0
 11
317.9206546476812
 21
264.5612838489725
 31
0.0
  0
LINE
  5
C81
330
18
100
AcDbEntity
  8
外形線
100
AcDbLine
 10
311.9206546476811
 20
264.0612838489725
 30
0.0
 11
317.9206546476812
 21
264.0612838489725
 31
0.0
  0
LINE
  5
C82
330
18
100
AcDbEntity
  8
外形線
100
AcDbLine
 10
311.9206546476811
 20
250.5612838489725
 30
0.0
 11
317.9206546476811
 21
250.5612838489726
 31
0.0
  0
LINE
  5
C83
330
18
100
AcDbEntity
  8
外形線
100
AcDbLine
 10
317.9206546476812
 20
264.5612838489725
 30
0.0
 11
317.9206546476811
 21
250.5612838489726
 31
0.0
  0
LINE
  5
C84
330
18
100
AcDbEntity
  8
外形線
100
AcDbLine
 10
311.9206546476811
 20
264.5612838489725
 30
0.0
 11
311.9206546476811
 21
250.5612838489725
 31
0.0
  0
LINE
  5
C88
330
18
100
AcDbEntity
  8
外形線
100
AcDbLine
 10
318.9206546476811
 20
244.6612838489725
 30
0.0
 11
317.270654647681
 21
244.6612838489725
 31
0.0
  0
LINE
  5
C8F
330
18
100
AcDbEntity
  8
外形線
100
AcDbLine
 10
311.320654647681
 20
258.3612838489724
 30
0.0
 11
311.9206546476811
 21
258.3612838489724
 31
0.0
  0
LINE
  5
C90
330
18
100
AcDbEntity
  8
外形線
 62
     4
100
AcDbLine
 10
317.9206546476812
 20
264.5612838489725
 30
0.0
 11
318.9206546476811
 21
264.5612838489725
 31
0.0
  0
LINE
  5
C91
330
18
100
AcDbEntity
  8
外形線
 62
     4
100
AcDbLine
 10
311.9206546476811
 20
264.5612838489725
 30
0.0
 11
311.320654647681
 21
264.5612838489725
 31
0.0
  0
LINE
  5
C94
330
18
100
AcDbEntity
  8
外形線
100
AcDbLine
 10
317.270654647681
 20
244.6612838489725
 30
0.0
 11
317.2260265519223
 21
249.5703743824293
 31
0.0
  0
LINE
  5
C95
330
18
100
AcDbEntity
  8
外形線
100
AcDbLine
 10
312.9706546476811
 20
244.6612838489725
 30
0.0
 11
313.0152827434397
 21
249.5703743824293
 31
0.0
  0
ARC
  5
C99
330
18
100
AcDbEntity
  8
外形線
100
AcDbCircle
 10
316.2260678716752
 20
249.5612838489726
 30
0.0
 40
1.0
100
AcDbArc
 50
0.5208563745014782
 51
90.00000000000019
  0
ARC
  5
C9A
330
18
100
AcDbEntity
  8
外形線
100
AcDbCircle
 10
314.0152414236868
 20
249.5612838489726
 30
0.0
 40
1.0
100
AcDbArc
 50
89.99999999999982
 51
179.4791436254985
  0
LINE
  5
CAE
330
18
100
AcDbEntity
  8
外形線
100
AcDbLine
 10
316.870654647681
 20
250.3258150047788
 30
0.0
 11
316.870654647681
 21
244.9612838489726
 31
0.0
  0
LINE
  5
CAF
330
18
100
AcDbEntity
  8
外形線
100
AcDbLine
 10
313.370654647681
 20
250.3258150047788
 30
0.0
 11
313.370654647681
 21
245.4612838489725
 31
0.0
  0
LINE
  5
CB0
330
18
100
AcDbEntity
  8
外形線
100
AcDbLine
 10
313.870654647681
 20
250.5507759733496
 30
0.0
 11
313.870654647681
 21
244.9612838489725
 31
0.0
  0
LINE
  5
CB2
330
18
100
AcDbEntity
  8
外形線
100
AcDbLine
 10
313.370654647681
 20
245.4612838489725
 30
0.0
 11
313.870654647681
 21
245.4612838489725
 31
0.0
  0
LINE
  5
CBB
330
18
100
AcDbEntity
  8
外形線
100
AcDbLine
 10
310.120654647681
 20
250.1612838489725
 30
0.0
 11
310.120654647681
 21
246.1612838489725
 31
0.0
  0
LINE
  5
CBC
330
18
100
AcDbEntity
  8
外形線
100
AcDbLine
 10
310.620654647681
 20
251.1612838489725
 30
0.0
 11
310.620654647681
 21
245.1612838489725
 31
0.0
  0
LINE
  5
CBD
330
18
100
AcDbEntity
  8
外形線
100
AcDbLine
 10
310.620654647681
 20
246.1612838489725
 30
0.0
 11
310.120654647681
 21
246.1612838489725
 31
0.0
  0
LINE
  5
CBE
330
18
100
AcDbEntity
  8
外形線
100
AcDbLine
 10
311.3206546476809
 20
245.1612838489725
 30
0.0
 11
310.620654647681
 21
245.1612838489725
 31
0.0
  0
LINE
  5
CBF
330
18
100
AcDbEntity
  8
外形線
100
AcDbLine
 10
310.620654647681
 20
250.1612838489725
 30
0.0
 11
310.120654647681
 21
250.1612838489725
 31
0.0
  0
LINE
  5
CC0
330
18
100
AcDbEntity
  8
外形線
100
AcDbLine
 10
311.3206546476809
 20
251.1612838489725
 30
0.0
 11
310.620654647681
 21
251.1612838489725
 31
0.0
  0
INSERT
  5
FCB
330
18
100
AcDbEntity
  8
文字
100
AcDbBlockReference
  2
ROGO1
 10
579.0605083803766
 20
282.754069537204
 30
0.0
  0
INSERT
  5
FCC
330
18
100
AcDbEntity
  8
文字
100
AcDbBlockReference
  2
ROGO1
 10
579.0366315685687
 20
282.780864663246
 30
0.0
  0
LINE
  5
11EB
330
18
100
AcDbEntity
  8
外形線
100
AcDbLine
 10
395.0622206812146
 20
263.7328948590465
 30
0.0
 11
397.737196232984
 21
250.5612838489726
 31
0.0
  0
LINE
  5
11EC
330
18
100
AcDbEntity
  8
外形線
100
AcDbLine
 10
396.679211921542
 20
264.0612838489728
 30
0.0
 11
400.0378197450697
 21
247.5234595097415
 31
0.0
  0
LINE
  5
11ED
330
18
100
AcDbEntity
  8
外形線
100
AcDbLine
 10
409.8792119215421
 20
264.0612838489724
 30
0.0
 11
406.9206040980142
 21
247.5234595097415
 31
0.0
  0
LINE
  5
11EE
330
18
100
AcDbEntity
  8
中心線
 48
0.5
100
AcDbLine
 10
403.4792119215421
 20
329.3657857069036
 30
0.0
 11
403.4792119215421
 21
223.4815964766197
 31
0.0
  0
LINE
  5
1203
330
18
100
AcDbEntity
  8
中心線
 48
0.5
100
AcDbLine
 10
396.0460971602823
 20
248.1612838489725
 30
0.0
 11
410.7810129326225
 21
248.1612838489725
 31
0.0
  0
ARC
  5
1204
330
18
100
AcDbEntity
  8
外形線
100
AcDbCircle
 10
403.4792119215421
 20
248.1612838489724
 30
0.0
 40
3.0
100
AcDbArc
 50
54.59406822686052
 51
215.4059317731395
  0
ARC
  5
1205
330
18
100
AcDbEntity
  8
外形線
100
AcDbCircle
 10
403.4792119215421
 20
248.1612838489724
 30
0.0
 40
3.0
100
AcDbArc
 50
234.5940682268605
 51
35.4059317731395
  0
LINE
  5
1206
330
18
100
AcDbEntity
  8
外形線
100
AcDbLine
 10
405.6005322651015
 20
249.5754974113455
 30
0.0
 11
405.9244153784704
 21
249.8993805247144
 31
0.0
  0
ARC
  5
1207
330
18
100
AcDbEntity
  8
外形線
100
AcDbCircle
 10
403.2786132871585
 20
248.4009542700651
 30
0.0
 40
3.745046684690569
100
AcDbArc
 50
273.0704445438476
 51
346.7866708910927
  0
LINE
  5
1208
330
18
100
AcDbEntity
  8
外形線
100
AcDbLine
 10
402.0649983591689
 20
246.0399635054128
 30
0.0
 11
401.3578915779824
 21
246.7470702865994
 31
0.0
  0
LINE
  5
1209
330
18
100
AcDbEntity
  8
外形線
100
AcDbLine
 10
402.0649983591689
 20
246.0399635054128
 30
0.0
 11
401.7411152458001
 21
245.716080392044
 31
0.0
  0
LINE
  5
120A
330
18
100
AcDbEntity
  8
外形線
100
AcDbLine
 10
401.3578915779824
 20
246.7470702865994
 30
0.0
 11
401.0340084646135
 21
246.4231871732305
 31
0.0
  0
LINE
  5
120B
330
18
100
AcDbEntity
  8
外形線
100
AcDbLine
 10
405.6005322651015
 20
249.5754974113455
 30
0.0
 11
404.8934254839151
 21
250.2826041925321
 31
0.0
  0
LINE
  5
120C
330
18
100
AcDbEntity
  8
外形線
100
AcDbLine
 10
404.8934254839151
 20
250.2826041925321
 30
0.0
 11
405.2173085972839
 21
250.6064873059009
 31
0.0
  0
LINE
  5
120D
330
18
100
AcDbEntity
  8
外形線
100
AcDbLine
 10
402.0649983591689
 20
246.7470702865994
 30
0.0
 11
404.8934254839151
 21
249.5754974113456
 31
0.0
  0
ARC
  5
120E
330
18
100
AcDbEntity
  8
外形線
100
AcDbCircle
 10
403.6798105559254
 20
248.4009542700651
 30
0.0
 40
3.745046684690569
100
AcDbArc
 50
193.2133291089073
 51
266.9295554561525
  0
LINE
  5
120F
330
18
100
AcDbEntity
  8
外形線
100
AcDbLine
 10
397.737196232984
 20
250.5612838489726
 30
0.0
 11
399.4208788232798
 21
250.5612838489726
 31
0.0
  0
CIRCLE
  5
1210
330
18
100
AcDbEntity
  8
外形線
100
AcDbCircle
 10
403.4792119215421
 20
248.1612838489725
 30
0.0
 40
2.0
  0
LINE
  5
121B
330
18
100
AcDbEntity
  8
外形線
100
AcDbLine
 10
411.529211921542
 20
274.1612838489725
 30
0.0
 11
411.5292119215419
 21
266.2112838489723
 31
0.0
  0
LINE
  5
121C
330
18
100
AcDbEntity
  8
外形線
100
AcDbLine
 10
397.079211921542
 20
309.8112838489724
 30
0.0
 11
397.079211921542
 21
274.1612838489726
 31
0.0
  0
LINE
  5
121D
330
18
100
AcDbEntity
  8
外形線
100
AcDbLine
 10
409.879211921542
 20
309.8112838489725
 30
0.0
 11
409.8792119215421
 21
264.0612838489724
 31
0.0
  0
LINE
  5
121E
330
18
100
AcDbEntity
  8
外形線
100
AcDbLine
 10
404.0194031900914
 20
281.5175089639907
 30
0.0
 11
402.9390206529925
 21
282.8050587339544
 31
0.0
  0
LINE
  5
121F
330
18
100
AcDbEntity
  8
外形線
100
AcDbLine
 10
402.8354370365601
 20
281.6210925804231
 30
0.0
 11
404.1229868065238
 21
282.701475117522
 31
0.0
  0
ARC
  5
1220
330
18
100
AcDbEntity
  8
外形線
100
AcDbCircle
 10
403.4792119215421
 20
282.1612838489725
 30
0.0
 40
2.5
100
AcDbArc
 50
355.0
 51
175.0
  0
CIRCLE
  5
1221
330
18
100
AcDbEntity
  8
外形線
100
AcDbCircle
 10
403.4792119215421
 20
282.1612838489725
 30
0.0
 40
1.5
  0
LINE
  5
1223
330
18
100
AcDbEntity
  8
外形線
100
AcDbLine
 10
395.054998705176
 20
263.7707129836374
 30
0.0
 11
396.679211921542
 21
264.0612838489728
 31
0.0
  0
ARC
  5
122C
330
18
100
AcDbEntity
  8
外形線
100
AcDbCircle
 10
402.6512323654392
 20
272.697434217101
 30
0.0
 40
1.5
100
AcDbArc
 50
175.0
 51
355.0
  0
LINE
  5
122D
330
18
100
AcDbEntity
  8
外形線
100
AcDbLine
 10
396.6792119215421
 20
274.1612838489725
 30
0.0
 11
396.679211921542
 21
264.0612838489728
 31
0.0
  0
LINE
  5
122E
330
18
100
AcDbEntity
  8
外形線
100
AcDbLine
 10
409.8792119215421
 20
264.5612838489725
 30
0.0
 11
411.5292119215419
 21
266.2112838489723
 31
0.0
  0
LINE
  5
122F
330
18
100
AcDbEntity
  8
外形線
100
AcDbLine
 10
405.9696986667713
 20
281.9433944921034
 30
0.0
 11
404.1455244125769
 21
272.5667006029795
 31
0.0
  0
LINE
  5
1230
330
18
100
AcDbEntity
  8
中心線
 48
0.5
100
AcDbLine
 10
398.6459437439293
 20
282.1612838489725
 30
0.0
 11
408.0546962032941
 21
282.1612838489725
 31
0.0
  0
LINE
  5
1231
330
18
100
AcDbEntity
  8
外形線
100
AcDbLine
 10
400.9887251763126
 20
282.3791732058417
 30
0.0
 11
401.1569403183016
 21
272.8281678312225
 31
0.0
  0
LINE
  5
1232
330
18
100
AcDbEntity
  8
外形線
100
AcDbLine
 10
396.6792119215421
 20
274.1612838489725
 30
0.0
 11
397.079211921542
 21
274.1612838489725
 31
0.0
  0
LINE
  5
1233
330
18
100
AcDbEntity
  8
中心線
 48
0.5
100
AcDbLine
 10
386.0827102082471
 20
292.1612838489725
 30
0.0
 11
420.7171456548961
 21
292.1612838489725
 31
0.0
  0
CIRCLE
  5
1244
330
18
100
AcDbEntity
  8
外形線
100
AcDbCircle
 10
403.4792119215421
 20
292.1612838489725
 30
0.0
 40
1.0
  0
LINE
  5
1249
330
18
100
AcDbEntity
  8
外形線
100
AcDbLine
 10
406.479211921542
 20
324.9574362716791
 30
0.0
 11
406.479211921542
 21
309.7612838489724
 31
0.0
  0
LINE
  5
124A
330
18
100
AcDbEntity
  8
外形線
100
AcDbLine
 10
400.479211921542
 20
324.9574362716791
 30
0.0
 11
400.479211921542
 21
309.7612838489724
 31
0.0
  0
LINE
  5
1253
330
18
100
AcDbEntity
  8
外形線
100
AcDbLine
 10
400.479211921542
 20
309.7612838489724
 30
0.0
 11
406.479211921542
 21
309.7612838489724
 31
0.0
  0
LINE
  5
1254
330
18
100
AcDbEntity
  8
外形線
100
AcDbLine
 10
397.079211921542
 20
309.8112838489724
 30
0.0
 11
409.879211921542
 21
309.8112838489725
 31
0.0
  0
LINE
  5
1255
330
18
100
AcDbEntity
  8
外形線
100
AcDbLine
 10
409.8792119215421
 20
308.1612838489724
 30
0.0
 11
397.079211921542
 21
308.1612838489725
 31
0.0
  0
POINT
  5
1257
330
18
100
AcDbEntity
  8
DEFPOINTS
  6
ByBlock
 62
     0
100
AcDbPoint
 10
409.879211921542
 20
309.8112838489725
 30
0.0
  0
LINE
  5
1259
330
18
100
AcDbEntity
  8
外形線
100
AcDbLine
 10
400.479211921542
 20
324.9574362716791
 30
0.0
 11
406.479211921542
 21
324.9574362716791
 31
0.0
  0
ARC
  5
125A
330
18
100
AcDbEntity
  8
外形線
100
AcDbCircle
 10
403.4792119215421
 20
319.7612838489724
 30
0.0
 40
6.0
100
AcDbArc
 50
60.0
 51
120.0
  0
POINT
  5
1285
330
18
100
AcDbEntity
  8
DEFPOINTS
  6
ByBlock
 62
     0
100
AcDbPoint
 10
315.120654647681
 20
292.1612838489725
 30
0.0
  0
POINT
  5
1286
330
18
100
AcDbEntity
  8
DEFPOINTS
  6
ByBlock
 62
     0
100
AcDbPoint
 10
315.120654647681
 20
292.1612838489725
 30
0.0
  0
POINT
  5
1287
330
18
100
AcDbEntity
  8
DEFPOINTS
  6
ByBlock
 62
     0
100
AcDbPoint
 10
315.120654647681
 20
292.1612838489725
 30
0.0
  0
POINT
  5
1288
330
18
100
AcDbEntity
  8
DEFPOINTS
  6
ByBlock
 62
     0
100
AcDbPoint
 10
315.120654647681
 20
292.1612838489725
 30
0.0
  0
CIRCLE
  5
1289
330
18
100
AcDbEntity
  8
外形線
 62
     4
100
AcDbCircle
 10
315.120654647681
 20
292.1612838489725
 30
0.0
 40
0.25
  0
LINE
  5
12CA
330
18
100
AcDbEntity
  8
外形線
100
AcDbLine
 10
391.0792119215419
 20
309.6612838489725
 30
0.0
 11
394.2292119215419
 21
309.6612838489725
 31
0.0
  0
LINE
  5
12CC
330
18
100
AcDbEntity
  8
外形線
100
AcDbLine
 10
390.879211921542
 20
309.4612838489725
 30
0.0
 11
390.8792119215418
 21
274.8612838489727
 31
0.0
  0
LINE
  5
12CD
330
18
100
AcDbEntity
  8
外形線
100
AcDbLine
 10
394.579211921542
 20
309.3112838489724
 30
0.0
 11
394.5792119215419
 21
275.0112838489726
 31
0.0
  0
LINE
  5
12CE
330
18
100
AcDbEntity
  8
外形線
100
AcDbLine
 10
395.5792119215419
 20
309.3112838489725
 30
0.0
 11
395.5792119215419
 21
275.0112838489725
 31
0.0
  0
LINE
  5
12CF
330
18
100
AcDbEntity
  8
外形線
 48
0.5
100
AcDbLine
 10
390.8792119215419
 20
309.4612838489725
 30
0.0
 11
391.0792119215419
 21
309.6612838489725
 31
0.0
  0
LINE
  5
12D0
330
18
100
AcDbEntity
  8
外形線
100
AcDbLine
 10
394.2292119215419
 20
309.6612838489725
 30
0.0
 11
394.5792119215419
 21
309.3112838489725
 31
0.0
  0
LINE
  5
12EF
330
18
100
AcDbEntity
  8
外形線
100
AcDbLine
 10
394.2292119215419
 20
274.6612838489725
 30
0.0
 11
394.5792119215419
 21
275.0112838489725
 31
0.0
  0
LINE
  5
12F0
330
18
100
AcDbEntity
  8
外形線
 48
0.5
100
AcDbLine
 10
390.8792119215419
 20
274.8612838489725
 30
0.0
 11
391.0792119215419
 21
274.6612838489725
 31
0.0
  0
LINE
  5
12F1
330
18
100
AcDbEntity
  8
外形線
100
AcDbLine
 10
391.0792119215419
 20
274.6612838489725
 30
0.0
 11
394.2292119215419
 21
274.6612838489725
 31
0.0
  0
LINE
  5
12F5
330
18
100
AcDbEntity
  8
外形線
100
AcDbLine
 10
390.3792119215419
 20
308.6612838489724
 30
0.0
 11
390.3792119215419
 21
275.6612838489726
 31
0.0
  0
LINE
  5
12FF
330
18
100
AcDbEntity
  8
外形線
100
AcDbLine
 10
394.5792119215419
 20
309.3112838489724
 30
0.0
 11
395.5792119215419
 21
309.3112838489725
 31
0.0
  0
LINE
  5
1300
330
18
100
AcDbEntity
  8
外形線
100
AcDbLine
 10
394.5792119215419
 20
275.0112838489725
 30
0.0
 11
395.5792119215419
 21
275.0112838489725
 31
0.0
  0
LINE
  5
1308
330
18
100
AcDbEntity
  8
外形線
100
AcDbLine
 10
390.3792119215419
 20
308.6612838489725
 30
0.0
 11
390.879211921542
 21
309.1612838489725
 31
0.0
  0
LINE
  5
1309
330
18
100
AcDbEntity
  8
外形線
100
AcDbLine
 10
390.3792119215419
 20
275.6612838489725
 30
0.0
 11
390.879211921542
 21
275.1612838489725
 31
0.0
  0
LINE
  5
1312
330
18
100
AcDbEntity
  8
外形線
100
AcDbLine
 10
390.879211921542
 20
308.9612838489725
 30
0.0
 11
394.5792119215419
 21
308.9612838489725
 31
0.0
  0
LINE
  5
1313
330
18
100
AcDbEntity
  8
外形線
100
AcDbLine
 10
390.879211921542
 20
308.2612838489725
 30
0.0
 11
394.5792119215419
 21
308.2612838489725
 31
0.0
  0
LINE
  5
1314
330
18
100
AcDbEntity
  8
外形線
100
AcDbLine
 10
390.879211921542
 20
307.4612838489725
 30
0.0
 11
394.5792119215419
 21
307.4612838489725
 31
0.0
  0
LINE
  5
1315
330
18
100
AcDbEntity
  8
外形線
100
AcDbLine
 10
390.879211921542
 20
306.6612838489725
 30
0.0
 11
394.5792119215419
 21
306.6612838489725
 31
0.0
  0
LINE
  5
1316
330
18
100
AcDbEntity
  8
外形線
100
AcDbLine
 10
390.879211921542
 20
305.7612838489725
 30
0.0
 11
394.5792119215419
 21
305.7612838489725
 31
0.0
  0
LINE
  5
1328
330
18
100
AcDbEntity
  8
外形線
100
AcDbLine
 10
390.8792119215419
 20
292.8612838489725
 30
0.0
 11
394.5792119215419
 21
292.8612838489725
 31
0.0
  0
LINE
  5
1329
330
18
100
AcDbEntity
  8
外形線
100
AcDbLine
 10
390.8792119215419
 20
291.4612838489725
 30
0.0
 11
394.5792119215419
 21
291.4612838489725
 31
0.0
  0
LINE
  5
132A
330
18
100
AcDbEntity
  8
外形線
100
AcDbLine
 10
390.8792119215419
 20
293.6612838489725
 30
0.0
 11
394.5792119215419
 21
293.6612838489725
 31
0.0
  0
LINE
  5
132B
330
18
100
AcDbEntity
  8
外形線
100
AcDbLine
 10
390.8792119215419
 20
290.6612838489725
 30
0.0
 11
394.5792119215419
 21
290.6612838489725
 31
0.0
  0
LINE
  5
132C
330
18
100
AcDbEntity
  8
外形線
100
AcDbLine
 10
390.8792119215419
 20
292.1612838489725
 30
0.0
 11
394.5792119215419
 21
292.1612838489725
 31
0.0
  0
LINE
  5
132D
330
18
100
AcDbEntity
  8
外形線
100
AcDbLine
 10
390.879211921542
 20
278.5612838489725
 30
0.0
 11
394.5792119215419
 21
278.5612838489725
 31
0.0
  0
LINE
  5
132E
330
18
100
AcDbEntity
  8
外形線
100
AcDbLine
 10
390.879211921542
 20
277.6612838489725
 30
0.0
 11
394.5792119215419
 21
277.6612838489725
 31
0.0
  0
LINE
  5
132F
330
18
100
AcDbEntity
  8
外形線
100
AcDbLine
 10
390.879211921542
 20
276.8612838489725
 30
0.0
 11
394.5792119215419
 21
276.8612838489726
 31
0.0
  0
LINE
  5
1330
330
18
100
AcDbEntity
  8
外形線
100
AcDbLine
 10
390.879211921542
 20
276.0612838489725
 30
0.0
 11
394.5792119215419
 21
276.0612838489725
 31
0.0
  0
LINE
  5
1331
330
18
100
AcDbEntity
  8
外形線
100
AcDbLine
 10
390.879211921542
 20
275.3612838489725
 30
0.0
 11
394.5792119215419
 21
275.3612838489725
 31
0.0
  0
LINE
  5
1336
330
18
100
AcDbEntity
  8
外形線
100
AcDbLine
 10
395.5792119215419
 20
307.1612838489725
 30
0.0
 11
396.079211921542
 21
307.1612838489725
 31
0.0
  0
ARC
  5
1337
330
18
100
AcDbEntity
  8
外形線
100
AcDbCircle
 10
396.079211921542
 20
306.1612838489725
 30
0.0
 40
1.0
100
AcDbArc
 50
0.0000000000002036
 51
90.0
  0
ARC
  5
1338
330
18
100
AcDbEntity
  8
外形線
100
AcDbCircle
 10
396.079211921542
 20
278.1612838489725
 30
0.0
 40
1.0
100
AcDbArc
 50
270.0
 51
359.9999999999998
  0
LINE
  5
1339
330
18
100
AcDbEntity
  8
外形線
100
AcDbLine
 10
395.5792119215419
 20
277.1612838489725
 30
0.0
 11
396.079211921542
 21
277.1612838489725
 31
0.0
  0
ARC
  5
133C
330
18
100
AcDbEntity
  8
外形線
100
AcDbCircle
 10
450.3945015375261
 20
292.1612838489725
 30
0.0
 40
62.37903158457702
100
AcDbArc
 50
166.4545064755762
 51
193.5454935244236
  0
LINE
  5
1343
330
18
100
AcDbEntity
  8
外形線
100
AcDbLine
 10
390.2366812836527
 20
307.1544274744153
 30
0.0
 11
390.3792119215419
 21
307.1544274744153
 31
0.0
  0
ARC
  5
1345
330
18
100
AcDbEntity
  8
外形線
100
AcDbCircle
 10
390.2366812836527
 20
306.6544274744153
 30
0.0
 40
0.5
100
AcDbArc
 50
89.99999999999349
 51
166.4545064755751
  0
ARC
  5
1346
330
18
100
AcDbEntity
  8
外形線
100
AcDbCircle
 10
390.2366812836527
 20
277.6681402235297
 30
0.0
 40
0.5
100
AcDbArc
 50
193.5454935244249
 51
270.0000000000065
  0
LINE
  5
1347
330
18
100
AcDbEntity
  8
外形線
100
AcDbLine
 10
390.2366812836527
 20
277.1681402235297
 30
0.0
 11
390.3792119215419
 21
277.1681402235297
 31
0.0
  0
LINE
  5
1348
330
18
100
AcDbEntity
  8
外形線
100
AcDbLine
 10
313.0070182840447
 20
248.6612838489725
 30
0.0
 11
313.370654647681
 21
248.6612838489725
 31
0.0
  0
LINE
  5
1349
330
18
100
AcDbEntity
  8
外形線
100
AcDbLine
 10
312.9979273749537
 20
247.6612838489725
 30
0.0
 11
313.3706546476811
 21
247.6612838489725
 31
0.0
  0
LINE
  5
134A
330
18
100
AcDbEntity
  8
外形線
100
AcDbLine
 10
316.870654647681
 20
248.6612838489725
 30
0.0
 11
317.2342910113174
 21
248.6612838489725
 31
0.0
  0
LINE
  5
134B
330
18
100
AcDbEntity
  8
外形線
100
AcDbLine
 10
316.870654647681
 20
247.6612838489725
 30
0.0
 11
317.2433819204083
 21
247.6612838489725
 31
0.0
  0
LINE
  5
138E
330
18
100
AcDbEntity
  8
外形線
100
AcDbLine
 10
319.6206546476811
 20
251.1612838489725
 30
0.0
 11
319.6206546476811
 21
245.1612838489725
 31
0.0
  0
LINE
  5
138F
330
18
100
AcDbEntity
  8
外形線
100
AcDbLine
 10
320.120654647681
 20
250.1612838489725
 30
0.0
 11
320.120654647681
 21
246.1612838489725
 31
0.0
  0
LINE
  5
1390
330
18
100
AcDbEntity
  8
外形線
100
AcDbLine
 10
318.9206546476811
 20
245.1612838489725
 30
0.0
 11
319.6206546476811
 21
245.1612838489725
 31
0.0
  0
LINE
  5
1391
330
18
100
AcDbEntity
  8
外形線
100
AcDbLine
 10
319.6206546476811
 20
246.1612838489725
 30
0.0
 11
320.120654647681
 21
246.1612838489725
 31
0.0
  0
LINE
  5
1392
330
18
100
AcDbEntity
  8
外形線
100
AcDbLine
 10
318.9206546476811
 20
251.1612838489725
 30
0.0
 11
319.6206546476811
 21
251.1612838489725
 31
0.0
  0
LINE
  5
1393
330
18
100
AcDbEntity
  8
外形線
100
AcDbLine
 10
319.6206546476811
 20
250.1612838489725
 30
0.0
 11
320.120654647681
 21
250.1612838489725
 31
0.0
  0
DIMENSION
  5
13A0
330
18
100
AcDbEntity
  8
外形線
100
AcDbDimension
  2
*D4
 10
320.120654647681
 20
239.8548041321149
 30
0.0
 11
326.8170832191096
 21
239.8548041321149
 31
0.0
 12
8.070968096257956
 22
0.0
 32
0.0
 70
   160
  1
(10)
 71
     5
 42
-1.0
  3
STYLE3
100
AcDbAlignedDimension
 13
310.120654647681
 23
246.1612838489725
 33
0.0
 14
320.120654647681
 24
246.1612838489725
 34
0.0
100
AcDbRotatedDimension
1001
ACAD
1000
DSTYLE
1002
{
1070
   271
1070
     2
1002
}
  0
POINT
  5
13FC
330
18
100
AcDbEntity
  8
DEFPOINTS
  6
ByBlock
 62
     0
100
AcDbPoint
 10
315.6447725962215
 20
224.9096381620711
 30
0.0
  0
POINT
  5
13FD
330
18
100
AcDbEntity
  8
DEFPOINTS
  6
ByBlock
 62
     0
100
AcDbPoint
 10
315.120654647681
 20
225.7612838489725
 30
0.0
  0
DIMENSION
  5
140E
330
18
100
AcDbEntity
  8
文字
100
AcDbDimension
  2
*D5
 10
379.8193746045947
 20
274.6612838489725
 30
0.0
 11
377.9443746045946
 21
292.1612838489725
 31
0.0
 12
8.164461758739093
 22
0.0
 32
0.0
 70
    32
  1
2-φ35
 71
     5
 42
-1.0
  3
STYLE3
100
AcDbAlignedDimension
 13
391.0792119215419
 23
309.6612838489725
 33
0.0
 14
391.0792119215419
 24
274.6612838489725
 34
0.0
 50
90.0
100
AcDbRotatedDimension
1001
ACAD
1000
DSTYLE
1002
{
1070
   271
1070
     2
1002
}
  0
POINT
  5
1465
330
18
100
AcDbEntity
  8
DEFPOINTS
  6
ByBlock
 62
     0
100
AcDbPoint
 10
409.879211921542
 20
309.8112838489725
 30
0.0
  0
DIMENSION
  5
1474
330
18
100
AcDbEntity
  8
文字
100
AcDbDimension
  2
*D6
 10
426.8719586883849
 20
309.8112838489725
 30
0.0
 11
424.9969586883849
 21
317.7862838489724
 31
0.0
 70
    32
  1
16
 71
     5
 42
-1.0
  3
STYLE3
100
AcDbAlignedDimension
 13
403.4792119215421
 23
325.7612838489724
 33
0.0
 14
409.879211921542
 24
309.8112838489725
 34
0.0
 50
90.0
100
AcDbRotatedDimension
1001
ACAD
1000
DSTYLE
1002
{
1070
   271
1070
     2
1002
}
  0
POINT
  5
1494
330
18
100
AcDbEntity
  8
DEFPOINTS
  6
ByBlock
 62
     0
100
AcDbPoint
 10
403.479211921542
 20
329.3657857069035
 30
0.0
  0
POINT
  5
1497
330
18
100
AcDbEntity
  8
DEFPOINTS
  6
ByBlock
 62
     0
100
AcDbPoint
 10
403.4792119215421
 20
223.4815964766197
 30
0.0
  0
POINT
  5
14D3
330
18
100
AcDbEntity
  8
DEFPOINTS
  6
ByBlock
 62
     0
100
AcDbPoint
 10
403.4792119215421
 20
248.1612838489725
 30
0.0
  0
POINT
  5
14D4
330
18
100
AcDbEntity
  8
DEFPOINTS
  6
ByBlock
 62
     0
100
AcDbPoint
 10
403.4792119215421
 20
248.1612838489725
 30
0.0
  0
MTEXT
  5
14DD
330
18
100
AcDbEntity
  8
文字
 62
     6
100
AcDbMText
 10
388.7631581906862
 20
247.8686514053059
 30
0.0
 40
2.5
 41
0.0
 71
     6
 72
     1
  1
\A1;C
  7
STYLE3
 73
     1
 44
1.0
  0
LWPOLYLINE
  5
14E0
330
18
100
AcDbEntity
  8
文字
 62
     2
100
AcDbPolyline
 90
        3
 70
     0
 43
0.0
 10
397.2176629986561
 20
257.8451013768468
 10
390.4616186702916
 20
245.9181485648635
 10
385.5509043845773
 20
245.9181485648635
1001
ACAD
1000
DSTYLE
1002
{
1070
   271
1070
     2
1002
}
  0
CIRCLE
  5
14E2
102
{ACAD_REACTORS
330
14E5
102
}
330
18
100
AcDbEntity
  8
外形線
100
AcDbCircle
 10
397.2176629986561
 20
257.8451013768468
 30
0.0
 40
0.222687898198611
  0
HATCH
  5
14E5
330
18
100
AcDbEntity
  8
外形線
100
AcDbHatch
 10
0.0
 20
0.0
 30
0.0
210
0.0
220
0.0
230
1.0
  2
SOLID
 70
     1
 71
     1
 91
        1
 92
        7
 72
     1
 73
     1
 93
        2
 10
397.4403508968547
 20
257.8451013768468
 42
1.0
 10
396.9949751004575
 20
257.8451013768468
 42
1.0
 97
        1
330
14E2
 75
     0
 76
     1
 47
0.0124670341605454
 98
        1
 10
397.2756403000025
 20
257.8219294367557
450
        0
451
        0
460
0.0
461
0.0
452
        0
462
0.0
453
        0
470

  0
LWPOLYLINE
  5
14EB
330
18
100
AcDbEntity
  8
寸法線
 62
     2
100
AcDbPolyline
 90
        3
 70
     0
 43
0.0
 10
411.1281274699033
 20
269.4709715073987
 10
417.3682457695506
 20
257.6341841879383
 10
422.3980076743126
 20
257.6341841879383
1001
ACAD
1000
DSTYLE
1002
{
1070
   271
1070
     2
1002
}
  0
TEXT
  5
14EC
330
18
100
AcDbEntity
  8
寸法線
 62
     6
100
AcDbText
 10
418.8010999592517
 20
258.2591841879383
 30
0.0
 40
2.5
  1
A
  7
STYLE3
100
AcDbText
  0
CIRCLE
  5
14EE
102
{ACAD_REACTORS
330
14F1
102
}
330
18
100
AcDbEntity
  8
外形線
100
AcDbCircle
 10
411.1281274699033
 20
269.4709715073987
 30
0.0
 40
0.222687898198611
  0
HATCH
  5
14F1
330
18
100
AcDbEntity
  8
外形線
100
AcDbHatch
 10
0.0
 20
0.0
 30
0.0
210
0.0
220
0.0
230
1.0
  2
SOLID
 70
     1
 71
     1
 91
        1
 92
        7
 72
     1
 73
     1
 93
        2
 10
411.3508153681019
 20
269.4709715073987
 42
1.0
 10
410.9054395717047
 20
269.4709715073987
 42
1.0
 97
        1
330
14EE
 75
     0
 76
     1
 47
0.0200805185115556
 98
        1
 10
411.2526435733189
 20
269.3541850794205
450
        0
451
        0
460
0.0
461
0.0
452
        0
462
0.0
453
        0
470

  0
MTEXT
  5
14F3
330
18
100
AcDbEntity
  8
寸法線
 62
     6
100
AcDbMText
 10
394.0681397884881
 20
320.8003141517665
 30
0.0
 40
2.5
 41
0.0
 71
     6
 72
     1
  1
\A1;B
  7
STYLE3
 73
     1
 44
1.0
  0
LWPOLYLINE
  5
14F6
330
18
100
AcDbEntity
  8
寸法線
 62
     2
100
AcDbPolyline
 90
        3
 70
     0
 43
0.0
 10
399.3589296527197
 20
308.7552436014898
 10
395.7948300241055
 20
318.9253141517665
 10
391.0031633574388
 20
318.9253141517665
1001
ACAD
1000
DSTYLE
1002
{
1070
   271
1070
     2
1002
}
  0
CIRCLE
  5
14F8
102
{ACAD_REACTORS
330
151F
102
}
330
18
100
AcDbEntity
  8
外形線
100
AcDbCircle
 10
399.3589296527197
 20
308.7552436014898
 30
0.0
 40
0.222687898198611
  0
HATCH
  5
151F
330
18
100
AcDbEntity
  8
外形線
100
AcDbHatch
 10
0.0
 20
0.0
 30
0.0
210
0.0
220
0.0
230
1.0
  2
SOLID
 70
     1
 71
     1
 91
        1
 92
        7
 72
     1
 73
     1
 93
        2
 10
399.5816175509184
 20
308.7552436014898
 42
1.0
 10
399.1362417545211
 20
308.7552436014898
 42
1.0
 97
        1
330
14F8
 75
     0
 76
     1
 47
0.0431140550968677
 98
        1
 10
399.4761797673049
 20
308.6459084307263
450
        0
451
        0
460
0.0
461
0.0
452
        0
462
0.0
453
        0
470

  0
LINE
  5
157C
330
18
100
AcDbEntity
  8
外形線
100
AcDbLine
 10
268.6862310361137
 20
212.9334390101457
 30
0.0
 11
281.5666243560255
 21
212.9334390101458
 31
0.0
  0
LINE
  5
157F
330
18
100
AcDbEntity
  8
外形線
100
AcDbLine
 10
257.8914869244393
 20
216.2334390101458
 30
0.0
 11
270.5914869244393
 21
216.2334390101457
 31
0.0
  0
LINE
  5
1584
330
18
100
AcDbEntity
  8
外形線
100
AcDbLine
 10
268.6862310361137
 20
212.9334390101457
 30
0.0
 11
270.5914869244393
 21
216.2334390101457
 31
0.0
  0
LINE
  5
1585
330
18
100
AcDbEntity
  8
外形線
100
AcDbLine
 10
259.796742812765
 20
212.9334390101457
 30
0.0
 11
257.8914869244393
 21
216.2334390101458
 31
0.0
  0
LINE
  5
1586
330
18
100
AcDbEntity
  8
外形線
100
AcDbLine
 10
259.796742812765
 20
212.9334390101457
 30
0.0
 11
246.9163494928532
 21
212.9334390101457
 31
0.0
  0
CIRCLE
  5
1588
330
18
100
AcDbEntity
  8
外形線
100
AcDbCircle
 10
257.2014869244392
 20
214.4334390101457
 30
0.0
 40
1.5
  0
CIRCLE
  5
1589
330
18
100
AcDbEntity
  8
外形線
100
AcDbCircle
 10
271.2814869244394
 20
214.4334390101457
 30
0.0
 40
1.5
  0
LINE
  5
158C
330
18
100
AcDbEntity
  8
中心線
100
AcDbLine
 10
254.2646814198902
 20
214.4334390101457
 30
0.0
 11
260.341745600402
 21
214.4334390101457
 31
0.0
  0
LINE
  5
158D
330
18
100
AcDbEntity
  8
中心線
100
AcDbLine
 10
271.2814869244394
 20
217.8498611242872
 30
0.0
 11
271.2814869244394
 21
210.7092114404554
 31
0.0
  0
LINE
  5
158E
330
18
100
AcDbEntity
  8
中心線
100
AcDbLine
 10
257.2014869244392
 20
217.8498611242872
 30
0.0
 11
257.2014869244392
 21
210.7092114404554
 31
0.0
  0
LINE
  5
1591
330
18
100
AcDbEntity
  8
中心線
100
AcDbLine
 10
268.3730086423328
 20
214.4334390101458
 30
0.0
 11
274.6062285846177
 21
214.4334390101457
 31
0.0
  0
LINE
  5
15A3
330
18
100
AcDbEntity
  8
寸法線
100
AcDbLine
 10
246.9163494928532
 20
210.7646828759043
 30
0.0
 11
249.0851056270947
 21
212.9334390101457
 31
0.0
  0
LINE
  5
15A4
330
18
100
AcDbEntity
  8
寸法線
100
AcDbLine
 10
246.9163494928532
 20
206.2745548153696
 30
0.0
 11
253.5752336876293
 21
212.9334390101457
 31
0.0
  0
LINE
  5
15A5
330
18
100
AcDbEntity
  8
寸法線
100
AcDbLine
 10
249.9710348259673
 20
204.8391120879492
 30
0.0
 11
258.0653617481639
 21
212.9334390101458
 31
0.0
  0
LINE
  5
15A6
330
18
100
AcDbEntity
  8
寸法線
100
AcDbLine
 10
259.1630133594897
 20
214.0310906214716
 30
0.0
 11
261.3653617481639
 21
216.2334390101458
 31
0.0
  0
LINE
  5
15A7
330
18
100
AcDbEntity
  8
寸法線
100
AcDbLine
 10
254.4611628865018
 20
204.8391120879492
 30
0.0
 11
265.8554898086986
 21
216.2334390101459
 31
0.0
  0
LINE
  5
15A8
330
18
100
AcDbEntity
  8
寸法線
100
AcDbLine
 10
258.9512909470364
 20
204.8391120879492
 30
0.0
 11
270.3456178692331
 21
216.2334390101459
 31
0.0
  0
LINE
  5
15A9
330
18
100
AcDbEntity
  8
寸法線
100
AcDbLine
 10
263.441419007571
 20
204.8391120879492
 30
0.0
 11
271.5357459297677
 21
212.9334390101458
 31
0.0
  0
LINE
  5
15AA
330
18
100
AcDbEntity
  8
寸法線
100
AcDbLine
 10
267.9315470681057
 20
204.8391120879492
 30
0.0
 11
276.0258739903022
 21
212.9334390101458
 31
0.0
  0
LINE
  5
15AB
330
18
100
AcDbEntity
  8
寸法線
100
AcDbLine
 10
272.4216751286401
 20
204.8391120879492
 30
0.0
 11
280.5160020508367
 21
212.9334390101458
 31
0.0
  0
LINE
  5
15AC
330
18
100
AcDbEntity
  8
寸法線
100
AcDbLine
 10
276.9118031891748
 20
204.8391120879493
 30
0.0
 11
281.5666243560255
 21
209.4939332547999
 31
0.0
  0
DIMENSION
  5
15BA
330
18
100
AcDbEntity
  8
寸法線
100
AcDbDimension
  2
*D7
 10
272.7814869244394
 20
232.609184641293
 30
0.0
 11
264.2414869244393
 21
234.4841846412931
 31
0.0
 12
0.0
 22
13.56418447189486
 32
0.0
 70
    32
  1
8.54
 71
     5
 42
-1.0
  3
STYLE3
100
AcDbAlignedDimension
 13
255.7014869244392
 23
214.4334390101457
 33
0.0
 14
272.7814869244394
 24
214.4334390101457
 34
0.0
100
AcDbRotatedDimension
1001
ACAD
1000
DSTYLE
1002
{
1070
   271
1070
     2
1002
}
  0
DIMENSION
  5
15D5
330
18
100
AcDbEntity
  8
寸法線
100
AcDbDimension
  2
*D8
 10
270.3456178692331
 20
226.0092032388906
 30
0.0
 11
264.1185523968362
 21
228.5389651436525
 31
0.0
 12
0.0
 22
13.56418447189486
 32
0.0
 70
    32
  1
(6.35)
 71
     5
 42
-1.0
  3
STYLE3
100
AcDbAlignedDimension
 13
257.8914869244393
 23
216.2334390101458
 33
0.0
 14
270.3456178692331
 24
216.2334390101459
 34
0.0
100
AcDbRotatedDimension
1001
ACAD
1000
DSTYLE
1002
{
1070
   271
1070
     2
1002
}
  0
LINE
  5
1634
330
18
100
AcDbEntity
  8
0
  6
ByBlock
 62
     2
100
AcDbLine
 10
270.5914869244393
 20
216.2334390101457
 30
0.0
 11
282.2113806334415
 21
236.3596852926884
 31
0.0
  0
LINE
  5
1635
330
18
100
AcDbEntity
  8
0
  6
ByBlock
 62
     2
100
AcDbLine
 10
257.8914869244393
 20
216.2334390101458
 30
0.0
 11
246.2715932154369
 21
236.3596852926882
 31
0.0
  0
ARC
  5
1636
330
18
100
AcDbEntity
  8
0
  6
ByBlock
 62
     2
100
AcDbCircle
 10
264.2414869244394
 20
205.2349163820829
 30
0.0
 40
34.6897874180055
100
AcDbArc
 50
64.13004734756665
 51
115.869952652434
  0
INSERT
  5
1637
330
18
100
AcDbEntity
  8
0
  6
ByBlock
 62
     2
100
AcDbBlockReference
  2
_OPEN
 10
281.5863806334415
 20
235.2771535379579
 30
0.0
 41
2.5
 42
2.5
 43
2.5
 50
332.0650236737839
  0
INSERT
  5
1638
330
18
100
AcDbEntity
  8
0
  6
ByBlock
 62
     2
100
AcDbBlockReference
  2
_OPEN
 10
246.8965932154369
 20
235.2771535379576
 30
0.0
 41
2.5
 42
2.5
 43
2.5
 50
207.9349763262168
  0
MTEXT
  5
1639
330
18
100
AcDbEntity
  8
0
  6
ByBlock
 62
     6
100
AcDbMText
 10
265.7359480226626
 20
241.7997038000884
 30
0.0
 40
2.5
 41
0.0
 71
     5
 72
     1
  1
\A1;60°
  7
STYLE3
 73
     1
 44
1.0
  0
POINT
  5
163A
330
18
100
AcDbEntity
  8
DEFPOINTS
  6
ByBlock
 62
     0
100
AcDbPoint
 10
270.2653052932289
 20
239.3976879816801
 30
0.0
  0
POINT
  5
163B
330
18
100
AcDbEntity
  8
DEFPOINTS
  6
ByBlock
 62
     0
100
AcDbPoint
 10
259.796742812765
 20
212.9334390101457
 30
0.0
  0
POINT
  5
163C
330
18
100
AcDbEntity
  8
DEFPOINTS
  6
ByBlock
 62
     0
100
AcDbPoint
 10
268.6862310361137
 20
212.9334390101457
 30
0.0
  0
POINT
  5
163D
330
18
100
AcDbEntity
  8
DEFPOINTS
  6
ByBlock
 62
     0
100
AcDbPoint
 10
270.5914869244393
 20
216.2334390101457
 30
0.0
  0
POINT
  5
163E
330
18
100
AcDbEntity
  8
DEFPOINTS
  6
ByBlock
 62
     0
100
AcDbPoint
 10
257.8914869244393
 20
216.2334390101458
 30
0.0
  0
LINE
  5
164E
330
18
100
AcDbEntity
  8
0
  6
ByBlock
 62
     2
100
AcDbLine
 10
254.9690919741519
 20
221.2951755438264
 30
0.0
 11
246.271593215437
 21
236.3596852926883
 31
0.0
  0
LINE
  5
164F
330
18
100
AcDbEntity
  8
0
  6
ByBlock
 62
     2
100
AcDbLine
 10
255.9024488187625
 20
213.6834390101457
 30
0.0
 11
243.6756322463542
 21
234.8609065283825
 31
0.0
  0
LINE
  5
1651
330
18
100
AcDbEntity
  8
0
  6
ByBlock
 62
     2
100
AcDbLine
 10
242.135568736893
 20
232.528374773652
 30
0.0
 11
239.9705052274319
 21
231.278374773652
 31
0.0
  0
LINE
  5
1652
330
18
100
AcDbEntity
  8
0
  6
ByBlock
 62
     2
100
AcDbLine
 10
246.896593215437
 20
235.2771535379577
 30
0.0
 11
244.3006322463541
 21
233.778374773652
 31
0.0
  0
INSERT
  5
1654
330
18
100
AcDbEntity
  8
0
  6
ByBlock
 62
     2
100
AcDbBlockReference
  2
_OPEN
 10
244.3006322463541
 20
233.778374773652
 30
0.0
 41
2.5
 42
2.5
 43
2.5
 50
29.99999999999951
  0
MTEXT
  5
1655
330
18
100
AcDbEntity
  8
0
  6
ByBlock
 62
     6
100
AcDbMText
 10
242.3523608222627
 20
236.1515617879006
 30
0.0
 40
2.5
 41
0.0
 71
     5
 72
     1
  1
φ1.5
  7
STYLE3
 11
0.8660254037844429
 21
0.4999999999999926
 31
0.0
 73
     1
 44
1.0
  0
POINT
  5
1656
330
18
100
AcDbEntity
  8
DEFPOINTS
  6
ByBlock
 62
     0
100
AcDbPoint
 10
254.9690919741519
 20
221.2951755438264
 30
0.0
 50
60.00000000000049
  0
POINT
  5
1657
330
18
100
AcDbEntity
  8
DEFPOINTS
  6
ByBlock
 62
     0
100
AcDbPoint
 10
255.9024488187625
 20
213.6834390101457
 30
0.0
 50
60.00000000000049
  0
POINT
  5
1658
330
18
100
AcDbEntity
  8
DEFPOINTS
  6
ByBlock
 62
     0
100
AcDbPoint
 10
244.3006322463541
 20
233.778374773652
 30
0.0
 50
60.00000000000049
  0
LINE
  5
1664
330
18
100
AcDbEntity
  8
0
  6
ByBlock
 62
     2
100
AcDbLine
 10
270.5914869244393
 20
216.2334390101457
 30
0.0
 11
288.3476366781654
 21
216.2334390101457
 31
0.0
  0
LINE
  5
1665
330
18
100
AcDbEntity
  8
0
  6
ByBlock
 62
     2
100
AcDbLine
 10
281.5666243560255
 20
212.9334390101458
 30
0.0
 11
288.3476366781654
 21
212.9334390101458
 31
0.0
  0
LINE
  5
1666
330
18
100
AcDbEntity
  8
0
  6
ByBlock
 62
     2
100
AcDbLine
 10
287.0976366781654
 20
218.7334390101457
 30
0.0
 11
287.0976366781654
 21
221.2334390101457
 31
0.0
  0
LINE
  5
1667
330
18
100
AcDbEntity
  8
0
  6
ByBlock
 62
     2
100
AcDbLine
 10
287.0976366781654
 20
210.4334390101458
 30
0.0
 11
287.0976366781654
 21
202.06050696815
 31
0.0
  0
LINE
  5
1668
330
18
100
AcDbEntity
  8
0
  6
ByBlock
 62
     2
100
AcDbLine
 10
287.0976366781654
 20
216.2334390101457
 30
0.0
 11
287.0976366781654
 21
212.9334390101458
 31
0.0
  0
INSERT
  5
1669
330
18
100
AcDbEntity
  8
0
  6
ByBlock
 62
     2
100
AcDbBlockReference
  2
_OPEN
 10
287.0976366781654
 20
216.2334390101457
 30
0.0
 41
2.5
 42
2.5
 43
2.5
 50
270.0
  0
INSERT
  5
166A
330
18
100
AcDbEntity
  8
0
  6
ByBlock
 62
     2
100
AcDbBlockReference
  2
_OPEN
 10
287.0976366781654
 20
212.9334390101458
 30
0.0
 41
2.5
 42
2.5
 43
2.5
 50
90.0
  0
MTEXT
  5
166B
330
18
100
AcDbEntity
  8
0
  6
ByBlock
 62
     6
100
AcDbMText
 10
285.2226366781654
 20
205.9206136913671
 30
0.0
 40
2.5
 41
0.0
 71
     5
 72
     1
  1
\A1;1.65
  7
STYLE3
 11
0.0000000000000001
 21
1.0
 31
0.0
 73
     1
 44
1.0
  0
POINT
  5
166C
330
18
100
AcDbEntity
  8
DEFPOINTS
  6
ByBlock
 62
     0
100
AcDbPoint
 10
270.5914869244393
 20
216.2334390101457
 30
0.0
  0
POINT
  5
166D
330
18
100
AcDbEntity
  8
DEFPOINTS
  6
ByBlock
 62
     0
100
AcDbPoint
 10
281.5666243560255
 20
212.9334390101458
 30
0.0
  0
POINT
  5
166E
330
18
100
AcDbEntity
  8
DEFPOINTS
  6
ByBlock
 62
     0
100
AcDbPoint
 10
287.0976366781654
 20
212.9334390101458
 30
0.0
  0
TEXT
  5
166F
330
18
100
AcDbEntity
  8
文字
100
AcDbText
 10
242.3653274357227
 20
191.367658349483
 30
0.0
 40
4.0
  1
A.B.C 断面図 
  7
STYLE3
100
AcDbText
  0
TEXT
  5
1670
330
18
100
AcDbEntity
  8
文字
100
AcDbText
 10
276.5080743386524
 20
191.4798827253619
 30
0.0
 40
3.0
  1
S=2／1
  7
STYLE3
100
AcDbText
  0
LINE
  5
1671
330
18
100
AcDbEntity
  8
外形線
100
AcDbLine
 10
242.0283920984941
 20
190.6943120942093
 30
0.0
 11
291.8947726702619
 21
190.6943120942093
 31
0.0
  0
LINE
  5
1686
330
18
100
AcDbEntity
  8
0
  6
ByBlock
 62
     2
100
AcDbLine
 10
312.120654647681
 20
324.9574362716791
 30
0.0
 11
312.120654647681
 21
335.7962550034819
 31
0.0
  0
LINE
  5
1687
330
18
100
AcDbEntity
  8
0
  6
ByBlock
 62
     2
100
AcDbLine
 10
318.120654647681
 20
324.9574362716791
 30
0.0
 11
318.120654647681
 21
335.7962550034819
 31
0.0
  0
LINE
  5
1688
330
18
100
AcDbEntity
  8
0
  6
ByBlock
 62
     2
100
AcDbLine
 10
309.620654647681
 20
334.5462550034819
 30
0.0
 11
307.120654647681
 21
334.5462550034819
 31
0.0
  0
LINE
  5
1689
330
18
100
AcDbEntity
  8
0
  6
ByBlock
 62
     2
100
AcDbLine
 10
320.620654647681
 20
334.5462550034819
 30
0.0
 11
323.120654647681
 21
334.5462550034819
 31
0.0
  0
LINE
  5
168A
330
18
100
AcDbEntity
  8
0
  6
ByBlock
 62
     2
100
AcDbLine
 10
312.120654647681
 20
334.5462550034819
 30
0.0
 11
318.120654647681
 21
334.5462550034819
 31
0.0
  0
INSERT
  5
168B
330
18
100
AcDbEntity
  8
0
  6
ByBlock
 62
     2
100
AcDbBlockReference
  2
_OPEN
 10
312.120654647681
 20
334.5462550034819
 30
0.0
 41
2.5
 42
2.5
 43
2.5
  0
INSERT
  5
168C
330
18
100
AcDbEntity
  8
0
  6
ByBlock
 62
     2
100
AcDbBlockReference
  2
_OPEN
 10
318.120654647681
 20
334.5462550034819
 30
0.0
 41
2.5
 42
2.5
 43
2.5
 50
180.0
  0
MTEXT
  5
168D
330
18
100
AcDbEntity
  8
0
  6
ByBlock
 62
     6
100
AcDbMText
 10
314.595855505091
 20
337.3962001059004
 30
0.0
 40
2.5
 41
0.0
 71
     5
 72
     1
  1
\A1;φ6.0
  7
STYLE3
 73
     1
 44
1.0
  0
POINT
  5
168E
330
18
100
AcDbEntity
  8
DEFPOINTS
  6
ByBlock
 62
     0
100
AcDbPoint
 10
312.120654647681
 20
324.9574362716791
 30
0.0
  0
POINT
  5
168F
330
18
100
AcDbEntity
  8
DEFPOINTS
  6
ByBlock
 62
     0
100
AcDbPoint
 10
318.120654647681
 20
324.9574362716791
 30
0.0
  0
POINT
  5
1690
330
18
100
AcDbEntity
  8
DEFPOINTS
  6
ByBlock
 62
     0
100
AcDbPoint
 10
318.120654647681
 20
334.5462550034819
 30
0.0
  0
TEXT
  5
1691
330
18
100
AcDbEntity
  8
文字
100
AcDbText
 10
320.8335293290044
 20
338.8346743216476
 30
0.0
 40
1.5
  1
0
  7
STYLE3
100
AcDbText
  0
TEXT
  5
1692
330
18
100
AcDbEntity
  8
文字
100
AcDbText
 10
318.9666665038908
 20
337.1298898383249
 30
0.0
 40
1.5
  1
-0.03
  7
STYLE3
100
AcDbText
  0
LINE
  5
16AB
330
18
100
AcDbEntity
  8
0
  6
ByBlock
 62
     2
100
AcDbLine
 10
311.320654647681
 20
260.5055807614751
 30
0.0
 11
311.320654647681
 21
263.0483266375244
 31
0.0
  0
LINE
  5
16AC
330
18
100
AcDbEntity
  8
0
  6
ByBlock
 62
     2
100
AcDbLine
 10
318.9206546476811
 20
260.2144534720242
 30
0.0
 11
318.9206546476811
 21
263.0483266375244
 31
0.0
  0
LINE
  5
16AD
330
18
100
AcDbEntity
  8
0
  6
ByBlock
 62
     2
100
AcDbLine
 10
311.3206546476809
 20
261.7983266375244
 30
0.0
 11
318.9206546476811
 21
261.7983266375244
 31
0.0
  0
LINE
  5
16AE
330
18
100
AcDbEntity
  8
0
  6
ByBlock
 62
     2
100
AcDbLine
 10
318.9206546476811
 20
261.7983266375244
 30
0.0
 11
327.9087498857763
 21
261.7983266375244
 31
0.0
  0
MTEXT
  5
16B1
330
18
100
AcDbEntity
  8
0
  6
ByBlock
 62
     6
100
AcDbMText
 10
324.6647022667287
 20
263.6733266375244
 30
0.0
 40
2.5
 41
0.0
 71
     5
 72
     1
  1
\A1;7.6
  7
STYLE3
 73
     1
 44
1.0
  0
POINT
  5
16B2
330
18
100
AcDbEntity
  8
DEFPOINTS
  6
ByBlock
 62
     0
100
AcDbPoint
 10
311.320654647681
 20
260.5055807614751
 30
0.0
  0
POINT
  5
16B3
330
18
100
AcDbEntity
  8
DEFPOINTS
  6
ByBlock
 62
     0
100
AcDbPoint
 10
318.9206546476811
 20
260.2144534720242
 30
0.0
  0
POINT
  5
16B4
330
18
100
AcDbEntity
  8
DEFPOINTS
  6
ByBlock
 62
     0
100
AcDbPoint
 10
318.9206546476811
 20
261.7983266375244
 30
0.0
  0
INSERT
  5
16B5
330
18
100
AcDbEntity
  8
0
  6
ByBlock
 62
     2
100
AcDbBlockReference
  2
_OPEN
 10
318.9206546476811
 20
261.7983266375244
 30
0.0
 41
-2.5
 42
2.5
 43
2.5
  0
INSERT
  5
16B6
330
18
100
AcDbEntity
  8
0
  6
ByBlock
 62
     2
100
AcDbBlockReference
  2
_OPEN
 10
311.320654647681
 20
261.7983266375244
 30
0.0
 41
-2.5
 42
2.5
 43
2.5
 50
180.0
  0
LINE
  5
16B7
330
18
100
AcDbEntity
  8
寸法線
100
AcDbLine
 10
308.820654647681
 20
261.7983266375244
 30
0.0
 11
306.5236120088681
 21
261.7983266375244
 31
0.0
  0
LINE
  5
16D0
330
18
100
AcDbEntity
  8
中心線
 48
0.5
100
AcDbLine
 10
313.870654647681
 20
244.9012838489725
 30
0.0
 11
316.370654647681
 21
244.9012838489725
 31
0.0
  0
LINE
  5
16D1
330
18
100
AcDbEntity
  8
外形線
100
AcDbLine
 10
316.370654647681
 20
241.7612838489724
 30
0.0
 11
313.8706546476811
 21
241.7612838489727
 31
0.0
  0
LINE
  5
16D4
330
18
100
AcDbEntity
  8
中心線
 48
0.5
100
AcDbLine
 10
314.370654647681
 20
243.2012838489725
 30
0.0
 11
315.870654647681
 21
243.2012838489725
 31
0.0
  0
LINE
  5
16D5
330
18
100
AcDbEntity
  8
外形線
100
AcDbLine
 10
313.8706546476811
 20
243.5012838489725
 30
0.0
 11
316.370654647681
 21
243.5012838489725
 31
0.0
  0
LINE
  5
16D6
330
18
100
AcDbEntity
  8
外形線
100
AcDbLine
 10
313.870654647681
 20
242.9012838489725
 30
0.0
 11
316.370654647681
 21
242.9012838489724
 31
0.0
  0
LINE
  5
16D9
330
18
100
AcDbEntity
  8
外形線
100
AcDbLine
 10
313.8706546476811
 20
243.5012838489725
 30
0.0
 11
314.370654647681
 21
243.2012838489725
 31
0.0
  0
LINE
  5
16DA
330
18
100
AcDbEntity
  8
外形線
100
AcDbLine
 10
314.370654647681
 20
243.2012838489725
 30
0.0
 11
313.870654647681
 21
242.9012838489725
 31
0.0
  0
LINE
  5
16DB
330
18
100
AcDbEntity
  8
外形線
100
AcDbLine
 10
315.870654647681
 20
243.2012838489725
 30
0.0
 11
316.370654647681
 21
242.9012838489725
 31
0.0
  0
LINE
  5
16DC
330
18
100
AcDbEntity
  8
外形線
100
AcDbLine
 10
316.370654647681
 20
243.5012838489725
 30
0.0
 11
315.870654647681
 21
243.2012838489725
 31
0.0
  0
LINE
  5
16DD
330
18
100
AcDbEntity
  8
外形線
 48
0.5
100
AcDbLine
 10
313.870654647681
 20
244.9012838489725
 30
0.0
 11
313.9306546476811
 21
244.9612838489725
 31
0.0
  0
LINE
  5
16DE
330
18
100
AcDbEntity
  8
外形線
100
AcDbLine
 10
316.3106546476809
 20
244.9612838489726
 30
0.0
 11
316.3706546476811
 21
244.9012838489725
 31
0.0
  0
LINE
  5
16EE
330
18
100
AcDbEntity
  8
外形線
100
AcDbLine
 10
402.229211921542
 20
241.7612838489727
 30
0.0
 11
402.8780752616208
 21
226.5612838489726
 31
0.0
  0
LINE
  5
16EF
330
18
100
AcDbEntity
  8
外形線
100
AcDbLine
 10
404.729211921542
 20
241.7612838489725
 30
0.0
 11
404.0803485814632
 21
226.5612838489726
 31
0.0
  0
ARC
  5
16F0
330
18
100
AcDbEntity
  8
外形線
100
AcDbCircle
 10
403.4792119215421
 20
225.7612838489725
 30
0.0
 40
1.0
100
AcDbArc
 50
126.869897645842
 51
53.13010235415791
  0
POINT
  5
16F1
330
18
100
AcDbEntity
  8
DEFPOINTS
  6
ByBlock
 62
     0
100
AcDbPoint
 10
403.479211921542
 20
225.7612838489725
 30
0.0
  0
POINT
  5
16F2
330
18
100
AcDbEntity
  8
DEFPOINTS
  6
ByBlock
 62
     0
100
AcDbPoint
 10
404.0033298700825
 20
224.9096381620711
 30
0.0
  0
LINE
  5
16F3
330
18
100
AcDbEntity
  8
外形線
100
AcDbLine
 10
404.0803485814631
 20
226.5612838489726
 30
0.0
 11
402.8780752616208
 21
226.5612838489726
 31
0.0
  0
LINE
  5
16F4
330
18
100
AcDbEntity
  8
隠れ線
 62
     4
 48
0.3
100
AcDbLine
 10
403.4792119215421
 20
226.7612838489725
 30
0.0
 11
404.0803485814632
 21
226.5612838489726
 31
0.0
  0
LINE
  5
16F5
330
18
100
AcDbEntity
  8
隠れ線
 62
     4
 48
0.3
100
AcDbLine
 10
403.4792119215421
 20
226.7612838489725
 30
0.0
 11
402.8780752616208
 21
226.5612838489726
 31
0.0
  0
LINE
  5
16F6
330
18
100
AcDbEntity
  8
外形線
 48
0.5
100
AcDbLine
 10
402.229211921542
 20
244.9012838489725
 30
0.0
 11
402.2624182074014
 21
244.9344901348319
 31
0.0
  0
LINE
  5
16F7
330
18
100
AcDbEntity
  8
外形線
100
AcDbLine
 10
404.6960056356826
 20
244.934490134832
 30
0.0
 11
404.7292119215421
 21
244.9012838489725
 31
0.0
  0
LINE
  5
16F8
330
18
100
AcDbEntity
  8
中心線
 48
0.5
100
AcDbLine
 10
402.229211921542
 20
244.9012838489725
 30
0.0
 11
402.3465132844059
 21
244.9012838489725
 31
0.0
  0
LINE
  5
16F9
330
18
100
AcDbEntity
  8
外形線
100
AcDbLine
 10
404.7292119215421
 20
244.9012838489725
 30
0.0
 11
404.729211921542
 21
243.5012838489726
 31
0.0
  0
LINE
  5
16FA
330
18
100
AcDbEntity
  8
外形線
100
AcDbLine
 10
402.229211921542
 20
244.9012838489725
 30
0.0
 11
402.229211921542
 21
243.5012838489726
 31
0.0
  0
LINE
  5
16FB
330
18
100
AcDbEntity
  8
中心線
 48
0.5
100
AcDbLine
 10
402.729211921542
 20
243.2012838489725
 30
0.0
 11
404.229211921542
 21
243.2012838489725
 31
0.0
  0
LINE
  5
16FC
330
18
100
AcDbEntity
  8
外形線
100
AcDbLine
 10
404.729211921542
 20
243.5012838489726
 30
0.0
 11
404.229211921542
 21
243.2012838489725
 31
0.0
  0
LINE
  5
16FD
330
18
100
AcDbEntity
  8
外形線
100
AcDbLine
 10
404.229211921542
 20
243.2012838489725
 30
0.0
 11
404.729211921542
 21
242.9012838489725
 31
0.0
  0
LINE
  5
16FE
330
18
100
AcDbEntity
  8
外形線
100
AcDbLine
 10
402.729211921542
 20
243.2012838489725
 30
0.0
 11
402.229211921542
 21
242.9012838489725
 31
0.0
  0
LINE
  5
16FF
330
18
100
AcDbEntity
  8
外形線
100
AcDbLine
 10
402.229211921542
 20
243.5012838489726
 30
0.0
 11
402.729211921542
 21
243.2012838489725
 31
0.0
  0
LINE
  5
1700
330
18
100
AcDbEntity
  8
外形線
100
AcDbLine
 10
402.229211921542
 20
242.9012838489725
 30
0.0
 11
404.729211921542
 21
242.9012838489724
 31
0.0
  0
LINE
  5
1701
330
18
100
AcDbEntity
  8
外形線
100
AcDbLine
 10
402.229211921542
 20
243.5012838489726
 30
0.0
 11
404.729211921542
 21
243.5012838489726
 31
0.0
  0
LINE
  5
1702
330
18
100
AcDbEntity
  8
外形線
100
AcDbLine
 10
404.729211921542
 20
242.9012838489724
 30
0.0
 11
404.729211921542
 21
241.7612838489725
 31
0.0
  0
LINE
  5
1703
330
18
100
AcDbEntity
  8
外形線
100
AcDbLine
 10
402.229211921542
 20
242.9012838489725
 30
0.0
 11
402.229211921542
 21
241.7612838489727
 31
0.0
  0
LINE
  5
1704
330
18
100
AcDbEntity
  8
外形線
100
AcDbLine
 10
404.729211921542
 20
241.7612838489725
 30
0.0
 11
402.229211921542
 21
241.7612838489727
 31
0.0
  0
LINE
  5
1705
330
18
100
AcDbEntity
  8
中心線
 48
0.5
100
AcDbLine
 10
399.7306071052199
 20
225.7612838489725
 30
0.0
 11
407.6102605209307
 21
225.7612838489725
 31
0.0
  0
LINE
  5
1706
330
18
100
AcDbEntity
  8
中心線
 48
0.5
100
AcDbLine
 10
404.6119105586782
 20
244.9012838489725
 30
0.0
 11
404.729211921542
 21
244.9012838489725
 31
0.0
  0
DIMENSION
  5
1714
330
18
100
AcDbEntity
  8
外形線
100
AcDbDimension
  2
*D9
 10
303.2268924847844
 20
225.7612838489725
 30
0.0
 11
301.3518924847844
 21
235.2112838489725
 31
0.0
 70
    32
 71
     5
 42
-1.0
  3
STYLE3
100
AcDbAlignedDimension
 13
311.320654647681
 23
244.6612838489725
 33
0.0
 14
311.3720498313588
 24
225.7612838489725
 34
0.0
 50
90.0
100
AcDbRotatedDimension
1001
ACAD
1000
DSTYLE
1002
{
1070
   271
1070
     2
1002
}
  0
DIMENSION
  5
1721
330
18
100
AcDbEntity
  8
外形線
100
AcDbDimension
  2
*D10
 10
336.8978392002233
 20
225.7612838489725
 30
0.0
 11
335.0228392002232
 21
236.9612838489725
 31
0.0
 70
    32
 71
     5
 42
-1.0
  3
STYLE3
100
AcDbAlignedDimension
 13
322.3200469811236
 23
248.1612838489725
 33
0.0
 14
319.2517032470697
 24
225.7612838489725
 34
0.0
 50
90.0
100
AcDbRotatedDimension
1001
ACAD
1000
DSTYLE
1002
{
1070
   271
1070
     2
1002
}
  0
DIMENSION
  5
172E
330
18
100
AcDbEntity
  8
外形線
100
AcDbDimension
  2
*D11
 10
344.3841974941798
 20
225.7612838489725
 30
0.0
 11
342.5091974941798
 21
258.9612838489725
 31
0.0
 70
    32
 71
     5
 42
-1.0
  3
STYLE3
100
AcDbAlignedDimension
 13
335.7658572387718
 23
292.1612838489725
 33
0.0
 14
338.1478392002232
 24
225.7612838489725
 34
0.0
 50
90.0
100
AcDbRotatedDimension
1001
ACAD
1000
DSTYLE
1002
{
1070
   271
1070
     2
1002
}
  0
DIMENSION
  5
173B
330
18
100
AcDbEntity
  8
外形線
100
AcDbDimension
  2
*D12
 10
351.7224961422667
 20
224.7612838489725
 30
0.0
 11
349.8474961422667
 21
275.2612838489725
 31
0.0
 70
    32
 71
     5
 42
-1.0
  3
STYLE3
100
AcDbAlignedDimension
 13
315.120654647681
 23
325.7612838489725
 33
0.0
 14
315.120654647681
 24
224.7612838489725
 34
0.0
 50
90.0
100
AcDbRotatedDimension
1001
ACAD
1000
DSTYLE
1002
{
1070
   271
1070
     2
1002
}
  0
LINE
  5
17D6
330
18
100
AcDbEntity
  8
目盛
100
AcDbLine
 10
316.2975410835987
 20
307.1150438549694
 30
0.0
 11
316.1798524400069
 21
305.6196678543697
 31
0.0
  0
LINE
  5
17D7
330
18
100
AcDbEntity
  8
目盛
100
AcDbLine
 10
317.4671716232845
 20
306.9766089578996
 30
0.0
 11
317.2325199257242
 21
305.4950764470068
 31
0.0
  0
LINE
  5
17D8
330
18
100
AcDbEntity
  8
目盛
100
AcDbLine
 10
318.6223351055196
 20
306.7468326549377
 30
0.0
 11
318.2721670597357
 21
305.2882777743411
 31
0.0
  0
LINE
  5
17D9
330
18
100
AcDbEntity
  8
目盛
100
AcDbLine
 10
319.7559095633053
 20
306.4271315933998
 30
0.0
 11
319.2923840717428
 21
305.0005468189571
 31
0.0
  0
LINE
  5
17DA
330
18
100
AcDbEntity
  8
目盛
100
AcDbLine
 10
320.8609061331574
 20
306.0194768366419
 30
0.0
 11
319.9041975522446
 21
303.7097780053636
 31
0.0
  0
LINE
  5
17DB
330
18
100
AcDbEntity
  8
目盛
100
AcDbLine
 10
321.9305121437742
 20
305.526381711798
 30
0.0
 11
321.2495263941649
 21
304.1898719255154
 31
0.0
  0
LINE
  5
17DC
330
18
100
AcDbEntity
  8
目盛
100
AcDbLine
 10
322.9581331184202
 20
304.9508863142839
 30
0.0
 11
322.1743852713463
 21
303.6719260677528
 31
0.0
  0
LINE
  5
17DD
330
18
100
AcDbEntity
  8
目盛
100
AcDbLine
 10
323.9374334320681
 20
304.2965387645967
 30
0.0
 11
323.0557555536293
 21
303.0830132730343
 31
0.0
  0
LINE
  5
17DE
330
18
100
AcDbEntity
  8
目盛
100
AcDbLine
 10
324.8623753726338
 20
303.567373332973
 30
0.0
 11
323.8882033001385
 21
302.4267643845729
 31
0.0
  0
LINE
  5
17E0
330
18
100
AcDbEntity
  8
目盛
100
AcDbLine
 10
311.6189741898424
 20
306.7468326549376
 30
0.0
 11
311.9691422356262
 21
305.2882777743412
 31
0.0
  0
LINE
  5
17E1
330
18
100
AcDbEntity
  8
目盛
100
AcDbLine
 10
310.4853997320569
 20
306.4271315933999
 30
0.0
 11
310.9489252236193
 21
305.0005468189571
 31
0.0
  0
LINE
  5
17E2
330
18
100
AcDbEntity
  8
目盛
100
AcDbLine
 10
308.3107971515878
 20
305.5263817117981
 30
0.0
 11
308.9917829011972
 21
304.1898719255155
 31
0.0
  0
LINE
  5
17E3
330
18
100
AcDbEntity
  8
目盛
100
AcDbLine
 10
307.2831761769418
 20
304.950886314284
 30
0.0
 11
308.0669240240157
 21
303.6719260677528
 31
0.0
  0
LINE
  5
17E4
330
18
100
AcDbEntity
  8
目盛
100
AcDbLine
 10
309.3804031622046
 20
306.0194768366419
 30
0.0
 11
310.3371117431174
 21
303.7097780053636
 31
0.0
  0
LINE
  5
17E5
330
18
100
AcDbEntity
  8
目盛
100
AcDbLine
 10
304.5140529298828
 20
302.7678855667708
 30
0.0
 11
306.2818198828491
 21
301.0001186138044
 31
0.0
  0
LINE
  5
17E6
330
18
100
AcDbEntity
  8
目盛
100
AcDbLine
 10
306.3038758632939
 20
304.2965387645968
 30
0.0
 11
307.1855537417326
 21
303.0830132730343
 31
0.0
  0
LINE
  5
17E7
330
18
100
AcDbEntity
  8
目盛
100
AcDbLine
 10
305.3789339227283
 20
303.567373332973
 30
0.0
 11
306.3531059952235
 21
302.426764384573
 31
0.0
  0
LINE
  5
17E8
330
18
100
AcDbEntity
  8
目盛
100
AcDbLine
 10
313.9437682117633
 20
307.1150438549695
 30
0.0
 11
314.0614568553551
 21
305.6196678543698
 31
0.0
  0
LINE
  5
17E9
330
18
100
AcDbEntity
  8
目盛
100
AcDbLine
 10
312.7741376720775
 20
306.9766089578996
 30
0.0
 11
313.0087893696378
 21
305.4950764470069
 31
0.0
  0
LINE
  5
17EA
330
18
100
AcDbEntity
  8
目盛
100
AcDbLine
 10
302.3310521823697
 20
299.9987623197117
 30
0.0
 11
303.6100124289007
 21
299.2150144726378
 31
0.0
  0
LINE
  5
17EB
330
18
100
AcDbEntity
  8
目盛
100
AcDbLine
 10
301.7555567848555
 20
298.9711413450658
 30
0.0
 11
303.0920665711381
 21
298.2901555954565
 31
0.0
  0
LINE
  5
17EC
330
18
100
AcDbEntity
  8
目盛
100
AcDbLine
 10
300.8548069032538
 20
296.7965387645967
 30
0.0
 11
302.2813916776965
 21
296.3330132730344
 31
0.0
  0
LINE
  5
17ED
330
18
100
AcDbEntity
  8
目盛
100
AcDbLine
 10
300.5351058417158
 20
295.6629643068112
 30
0.0
 11
301.9936607223124
 21
295.3127962610273
 31
0.0
  0
LINE
  5
17EE
330
18
100
AcDbEntity
  8
目盛
100
AcDbLine
 10
301.2624616600117
 20
297.9015353344489
 30
0.0
 11
303.5721604912899
 21
296.9448267535361
 31
0.0
  0
LINE
  5
17EF
330
18
100
AcDbEntity
  8
目盛
100
AcDbLine
 10
300.120654647681
 20
292.1612838489725
 30
0.0
 11
302.620654647681
 21
292.1612838489725
 31
0.0
  0
LINE
  5
17F0
330
18
100
AcDbEntity
  8
目盛
100
AcDbLine
 10
300.3053295387539
 20
294.507800824576
 30
0.0
 11
301.7868620496467
 21
294.2731491270156
 31
0.0
  0
LINE
  5
17F1
330
18
100
AcDbEntity
  8
目盛
100
AcDbLine
 10
300.1668946416841
 20
293.3381702848902
 30
0.0
 11
301.6622706422838
 21
293.2204816412984
 31
0.0
  0
LINE
  5
17F2
330
18
100
AcDbEntity
  8
目盛
100
AcDbLine
 10
303.7145651636806
 20
301.9030045739253
 30
0.0
 11
304.8551741120807
 21
300.92883250143
 31
0.0
  0
LINE
  5
17F3
330
18
100
AcDbEntity
  8
目盛
100
AcDbLine
 10
302.9853997320568
 20
300.9780626333596
 30
0.0
 11
304.1989252236192
 21
300.0963847549209
 31
0.0
  0
LINE
  5
17F4
330
18
100
AcDbEntity
  8
目盛
100
AcDbLine
 10
300.5351058417159
 20
288.6596033911339
 30
0.0
 11
301.9936607223124
 21
289.0097714369177
 31
0.0
  0
LINE
  5
17F5
330
18
100
AcDbEntity
  8
目盛
100
AcDbLine
 10
300.8548069032536
 20
287.5260289333484
 30
0.0
 11
302.2813916776964
 21
287.9895544249108
 31
0.0
  0
LINE
  5
17F6
330
18
100
AcDbEntity
  8
目盛
100
AcDbLine
 10
301.7555567848555
 20
285.3514263528794
 30
0.0
 11
303.0920665711381
 21
286.0324121024887
 31
0.0
  0
LINE
  5
17F7
330
18
100
AcDbEntity
  8
目盛
100
AcDbLine
 10
302.3310521823696
 20
284.3238053782333
 30
0.0
 11
303.6100124289007
 21
285.1075532253073
 31
0.0
  0
LINE
  5
17F8
330
18
100
AcDbEntity
  8
目盛
100
AcDbLine
 10
301.2624616600117
 20
286.4210323634961
 30
0.0
 11
303.5721604912899
 21
287.3777409444088
 31
0.0
  0
LINE
  5
17F9
330
18
100
AcDbEntity
  8
目盛
100
AcDbLine
 10
304.5140529298828
 20
281.5546821311743
 30
0.0
 11
306.2818198828491
 21
283.3224490841407
 31
0.0
  0
LINE
  5
17FA
330
18
100
AcDbEntity
  8
目盛
100
AcDbLine
 10
302.9853997320568
 20
283.3445050645854
 30
0.0
 11
304.1989252236192
 21
284.2261829430242
 31
0.0
  0
LINE
  5
17FB
330
18
100
AcDbEntity
  8
目盛
100
AcDbLine
 10
303.7145651636805
 20
282.4195631240197
 30
0.0
 11
304.8551741120806
 21
283.393735196515
 31
0.0
  0
LINE
  5
17FC
330
18
100
AcDbEntity
  8
目盛
100
AcDbLine
 10
300.166894641684
 20
290.9843974130548
 30
0.0
 11
301.6622706422838
 21
291.1020860566466
 31
0.0
  0
LINE
  5
17FD
330
18
100
AcDbEntity
  8
目盛
100
AcDbLine
 10
300.3053295387539
 20
289.814766873369
 30
0.0
 11
301.7868620496466
 21
290.0494185709293
 31
0.0
  0
LINE
  5
17FE
330
18
100
AcDbEntity
  8
目盛
100
AcDbLine
 10
307.2831761769418
 20
279.3716813836612
 30
0.0
 11
308.0669240240157
 21
280.6506416301923
 31
0.0
  0
LINE
  5
17FF
330
18
100
AcDbEntity
  8
目盛
100
AcDbLine
 10
308.3107971515878
 20
278.7961859861471
 30
0.0
 11
308.991782901197
 21
280.1326957724297
 31
0.0
  0
LINE
  5
1800
330
18
100
AcDbEntity
  8
目盛
100
AcDbLine
 10
310.4853997320568
 20
277.8954361045453
 30
0.0
 11
310.9489252236191
 21
279.322020878988
 31
0.0
  0
LINE
  5
1801
330
18
100
AcDbEntity
  8
目盛
100
AcDbLine
 10
311.6189741898423
 20
277.5757350430074
 30
0.0
 11
311.9691422356262
 21
279.034289923604
 31
0.0
  0
LINE
  5
1802
330
18
100
AcDbEntity
  8
目盛
100
AcDbLine
 10
309.3804031622046
 20
278.3030908613032
 30
0.0
 11
310.3371117431174
 21
280.6127896925815
 31
0.0
  0
LINE
  5
1803
330
18
100
AcDbEntity
  8
目盛
100
AcDbLine
 10
315.120654647681
 20
277.1612838489726
 30
0.0
 11
315.120654647681
 21
279.6612838489726
 31
0.0
  0
LINE
  5
1804
330
18
100
AcDbEntity
  8
目盛
100
AcDbLine
 10
312.7741376720775
 20
277.3459587400455
 30
0.0
 11
313.0087893696378
 21
278.8274912509383
 31
0.0
  0
LINE
  5
1805
330
18
100
AcDbEntity
  8
目盛
100
AcDbLine
 10
313.9437682117633
 20
277.2075238429756
 30
0.0
 11
314.0614568553551
 21
278.7028998435754
 31
0.0
  0
LINE
  5
1806
330
18
100
AcDbEntity
  8
目盛
100
AcDbLine
 10
305.3789339227282
 20
280.7551943649721
 30
0.0
 11
306.3531059952235
 21
281.8958033133722
 31
0.0
  0
LINE
  5
1807
330
18
100
AcDbEntity
  8
目盛
100
AcDbLine
 10
306.3038758632939
 20
280.0260289333484
 30
0.0
 11
307.1855537417326
 21
281.2395544249108
 31
0.0
  0
LINE
  5
1808
330
18
100
AcDbEntity
  8
目盛
100
AcDbLine
 10
318.6223351055196
 20
277.5757350430074
 30
0.0
 11
318.2721670597358
 21
279.0342899236039
 31
0.0
  0
LINE
  5
1809
330
18
100
AcDbEntity
  8
目盛
100
AcDbLine
 10
319.7559095633052
 20
277.8954361045452
 30
0.0
 11
319.2923840717427
 21
279.322020878988
 31
0.0
  0
LINE
  5
180A
330
18
100
AcDbEntity
  8
目盛
100
AcDbLine
 10
321.9305121437742
 20
278.7961859861471
 30
0.0
 11
321.2495263941648
 21
280.1326957724295
 31
0.0
  0
LINE
  5
180B
330
18
100
AcDbEntity
  8
目盛
100
AcDbLine
 10
322.9581331184202
 20
279.3716813836611
 30
0.0
 11
322.1743852713463
 21
280.6506416301924
 31
0.0
  0
LINE
  5
180C
330
18
100
AcDbEntity
  8
目盛
100
AcDbLine
 10
320.8609061331574
 20
278.3030908613032
 30
0.0
 11
319.9041975522447
 21
280.6127896925815
 31
0.0
  0
LINE
  5
180D
330
18
100
AcDbEntity
  8
目盛
100
AcDbLine
 10
325.7272563654792
 20
281.5546821311743
 30
0.0
 11
323.9594894125129
 21
283.3224490841407
 31
0.0
  0
LINE
  5
180E
330
18
100
AcDbEntity
  8
目盛
100
AcDbLine
 10
323.9374334320682
 20
280.0260289333484
 30
0.0
 11
323.0557555536294
 21
281.2395544249108
 31
0.0
  0
LINE
  5
180F
330
18
100
AcDbEntity
  8
目盛
100
AcDbLine
 10
324.8623753726337
 20
280.7551943649721
 30
0.0
 11
323.8882033001384
 21
281.8958033133722
 31
0.0
  0
LINE
  5
1810
330
18
100
AcDbEntity
  8
目盛
100
AcDbLine
 10
316.2975410835987
 20
277.2075238429756
 30
0.0
 11
316.1798524400069
 21
278.7028998435753
 31
0.0
  0
LINE
  5
1811
330
18
100
AcDbEntity
  8
目盛
100
AcDbLine
 10
317.4671716232845
 20
277.3459587400455
 30
0.0
 11
317.2325199257242
 21
278.8274912509383
 31
0.0
  0
LINE
  5
1812
330
18
100
AcDbEntity
  8
目盛
100
AcDbLine
 10
327.9102571129924
 20
284.3238053782333
 30
0.0
 11
326.6312968664613
 21
285.1075532253072
 31
0.0
  0
LINE
  5
1813
330
18
100
AcDbEntity
  8
目盛
100
AcDbLine
 10
328.4857525105065
 20
285.3514263528792
 30
0.0
 11
327.149242724224
 21
286.0324121024886
 31
0.0
  0
LINE
  5
1814
330
18
100
AcDbEntity
  8
目盛
100
AcDbLine
 10
329.3865023921083
 20
287.5260289333482
 30
0.0
 11
327.9599176176656
 21
287.9895544249107
 31
0.0
  0
LINE
  5
1815
330
18
100
AcDbEntity
  8
目盛
100
AcDbLine
 10
329.7062034536462
 20
288.6596033911338
 30
0.0
 11
328.2476485730496
 21
289.0097714369177
 31
0.0
  0
LINE
  5
1816
330
18
100
AcDbEntity
  8
目盛
100
AcDbLine
 10
328.9788476353503
 20
286.4210323634961
 30
0.0
 11
326.6691488040721
 21
287.3777409444088
 31
0.0
  0
LINE
  5
1817
330
18
100
AcDbEntity
  8
目盛
100
AcDbLine
 10
330.120654647681
 20
292.1612838489725
 30
0.0
 11
327.620654647681
 21
292.1612838489725
 31
0.0
  0
LINE
  5
1818
330
18
100
AcDbEntity
  8
目盛
100
AcDbLine
 10
329.9359797566081
 20
289.814766873369
 30
0.0
 11
328.4544472457154
 21
290.0494185709293
 31
0.0
  0
LINE
  5
1819
330
18
100
AcDbEntity
  8
目盛
100
AcDbLine
 10
330.0744146536779
 20
290.9843974130548
 30
0.0
 11
328.5790386530782
 21
291.1020860566466
 31
0.0
  0
LINE
  5
181A
330
18
100
AcDbEntity
  8
目盛
100
AcDbLine
 10
326.5267441316815
 20
282.4195631240197
 30
0.0
 11
325.3861351832814
 21
283.393735196515
 31
0.0
  0
LINE
  5
181B
330
18
100
AcDbEntity
  8
目盛
100
AcDbLine
 10
327.2559095633052
 20
283.3445050645854
 30
0.0
 11
326.0423840717428
 21
284.2261829430242
 31
0.0
  0
LINE
  5
181C
330
18
100
AcDbEntity
  8
目盛
100
AcDbLine
 10
329.7062034536462
 20
295.6629643068111
 30
0.0
 11
328.2476485730497
 21
295.3127962610273
 31
0.0
  0
LINE
  5
181D
330
18
100
AcDbEntity
  8
目盛
100
AcDbLine
 10
329.3865023921084
 20
296.7965387645967
 30
0.0
 11
327.9599176176656
 21
296.3330132730342
 31
0.0
  0
LINE
  5
181E
330
18
100
AcDbEntity
  8
目盛
100
AcDbLine
 10
328.4857525105066
 20
298.9711413450657
 30
0.0
 11
327.149242724224
 21
298.2901555954563
 31
0.0
  0
LINE
  5
181F
330
18
100
AcDbEntity
  8
目盛
100
AcDbLine
 10
327.9102571129925
 20
299.9987623197118
 30
0.0
 11
326.6312968664613
 21
299.2150144726378
 31
0.0
  0
LINE
  5
1820
330
18
100
AcDbEntity
  8
目盛
100
AcDbLine
 10
328.9788476353503
 20
297.9015353344489
 30
0.0
 11
326.6691488040722
 21
296.9448267535362
 31
0.0
  0
LINE
  5
1821
330
18
100
AcDbEntity
  8
目盛
100
AcDbLine
 10
325.7272563654793
 20
302.7678855667707
 30
0.0
 11
323.9594894125129
 21
301.0001186138044
 31
0.0
  0
LINE
  5
1822
330
18
100
AcDbEntity
  8
目盛
100
AcDbLine
 10
327.2559095633053
 20
300.9780626333596
 30
0.0
 11
326.0423840717428
 21
300.0963847549209
 31
0.0
  0
LINE
  5
1823
330
18
100
AcDbEntity
  8
目盛
100
AcDbLine
 10
326.5267441316816
 20
301.9030045739253
 30
0.0
 11
325.3861351832814
 21
300.92883250143
 31
0.0
  0
LINE
  5
1824
330
18
100
AcDbEntity
  8
目盛
100
AcDbLine
 10
330.074414653678
 20
293.3381702848901
 30
0.0
 11
328.5790386530783
 21
293.2204816412984
 31
0.0
  0
LINE
  5
1825
330
18
100
AcDbEntity
  8
目盛
100
AcDbLine
 10
329.9359797566081
 20
294.507800824576
 30
0.0
 11
328.4544472457154
 21
294.2731491270157
 31
0.0
  0
LINE
  5
18B4
330
18
100
AcDbEntity
  8
外形線
100
AcDbLine
 10
411.5292119215417
 20
274.1612838489724
 30
0.0
 11
409.8792119215421
 21
274.1612838489724
 31
0.0
  0
ARC
  5
18B6
330
18
100
AcDbEntity
  8
外形線
100
AcDbCircle
 10
356.563922305558
 20
292.1612838489722
 30
0.0
 40
62.37903158457702
100
AcDbArc
 50
346.4545064755767
 51
13.54549352442418
  0
LINE
  5
18B7
330
18
100
AcDbEntity
  8
外形線
100
AcDbLine
 10
416.5792119215421
 20
308.6612838489726
 30
0.0
 11
416.5792119215423
 21
275.6612838489727
 31
0.0
  0
LINE
  5
18B8
330
18
100
AcDbEntity
  8
外形線
100
AcDbLine
 10
411.3792119215421
 20
309.3112838489726
 30
0.0
 11
411.3792119215423
 21
275.0112838489726
 31
0.0
  0
LINE
  5
18B9
330
18
100
AcDbEntity
  8
外形線
100
AcDbLine
 10
412.3792119215421
 20
309.3112838489726
 30
0.0
 11
412.3792119215424
 21
275.0112838489727
 31
0.0
  0
LINE
  5
18BA
330
18
100
AcDbEntity
  8
外形線
100
AcDbLine
 10
416.079211921542
 20
309.4612838489727
 30
0.0
 11
416.0792119215424
 21
274.8612838489728
 31
0.0
  0
LINE
  5
18BB
330
18
100
AcDbEntity
  8
外形線
100
AcDbLine
 10
416.0792119215422
 20
275.3612838489726
 30
0.0
 11
412.3792119215424
 21
275.3612838489726
 31
0.0
  0
LINE
  5
18BC
330
18
100
AcDbEntity
  8
外形線
100
AcDbLine
 10
416.0792119215422
 20
276.0612838489726
 30
0.0
 11
412.3792119215424
 21
276.0612838489726
 31
0.0
  0
LINE
  5
18BD
330
18
100
AcDbEntity
  8
外形線
100
AcDbLine
 10
415.8792119215424
 20
274.6612838489726
 30
0.0
 11
412.7292119215423
 21
274.6612838489726
 31
0.0
  0
LINE
  5
18BE
330
18
100
AcDbEntity
  8
外形線
100
AcDbLine
 10
416.5792119215423
 20
275.6612838489726
 30
0.0
 11
416.0792119215423
 21
275.1612838489726
 31
0.0
  0
LINE
  5
18BF
330
18
100
AcDbEntity
  8
外形線
 48
0.5
100
AcDbLine
 10
416.0792119215424
 20
274.8612838489726
 30
0.0
 11
415.8792119215424
 21
274.6612838489726
 31
0.0
  0
LINE
  5
18C0
330
18
100
AcDbEntity
  8
外形線
100
AcDbLine
 10
412.3792119215424
 20
275.0112838489727
 30
0.0
 11
411.3792119215423
 21
275.0112838489726
 31
0.0
  0
LINE
  5
18C1
330
18
100
AcDbEntity
  8
外形線
100
AcDbLine
 10
412.7292119215423
 20
274.6612838489726
 30
0.0
 11
412.3792119215424
 21
275.0112838489727
 31
0.0
  0
LINE
  5
18C3
330
18
100
AcDbEntity
  8
外形線
100
AcDbLine
 10
416.0792119215422
 20
276.8612838489726
 30
0.0
 11
412.3792119215423
 21
276.8612838489727
 31
0.0
  0
LINE
  5
18C4
330
18
100
AcDbEntity
  8
外形線
100
AcDbLine
 10
416.0792119215422
 20
277.6612838489726
 30
0.0
 11
412.3792119215423
 21
277.6612838489726
 31
0.0
  0
LINE
  5
18C5
330
18
100
AcDbEntity
  8
外形線
100
AcDbLine
 10
416.0792119215422
 20
278.5612838489726
 30
0.0
 11
412.3792119215423
 21
278.5612838489726
 31
0.0
  0
LINE
  5
18C6
330
18
100
AcDbEntity
  8
外形線
100
AcDbLine
 10
416.7217425594315
 20
277.1681402235298
 30
0.0
 11
416.5792119215423
 21
277.1681402235298
 31
0.0
  0
ARC
  5
18C7
330
18
100
AcDbEntity
  8
外形線
100
AcDbCircle
 10
416.7217425594315
 20
277.6681402235299
 30
0.0
 40
0.5
100
AcDbArc
 50
269.9999999999939
 51
346.4545064755755
  0
LINE
  5
18C8
330
18
100
AcDbEntity
  8
外形線
100
AcDbLine
 10
411.3792119215423
 20
277.1612838489726
 30
0.0
 11
410.8792119215422
 21
277.1612838489726
 31
0.0
  0
ARC
  5
18C9
330
18
100
AcDbEntity
  8
外形線
100
AcDbCircle
 10
410.8792119215422
 20
278.1612838489726
 30
0.0
 40
1.0
100
AcDbArc
 50
180.0000000000006
 51
270.0000000000004
  0
LINE
  5
18CA
330
18
100
AcDbEntity
  8
外形線
100
AcDbLine
 10
416.0792119215422
 20
290.6612838489726
 30
0.0
 11
412.3792119215422
 21
290.6612838489726
 31
0.0
  0
LINE
  5
18CB
330
18
100
AcDbEntity
  8
外形線
100
AcDbLine
 10
416.0792119215423
 20
292.1612838489726
 30
0.0
 11
412.3792119215423
 21
292.1612838489726
 31
0.0
  0
LINE
  5
18CC
330
18
100
AcDbEntity
  8
外形線
100
AcDbLine
 10
416.0792119215422
 20
293.6612838489726
 30
0.0
 11
412.3792119215422
 21
293.6612838489726
 31
0.0
  0
LINE
  5
18CD
330
18
100
AcDbEntity
  8
外形線
100
AcDbLine
 10
416.0792119215422
 20
291.4612838489727
 30
0.0
 11
412.3792119215422
 21
291.4612838489727
 31
0.0
  0
LINE
  5
18CE
330
18
100
AcDbEntity
  8
外形線
100
AcDbLine
 10
416.0792119215422
 20
292.8612838489726
 30
0.0
 11
412.3792119215422
 21
292.8612838489726
 31
0.0
  0
LINE
  5
18CF
330
18
100
AcDbEntity
  8
外形線
100
AcDbLine
 10
416.079211921542
 20
305.7612838489727
 30
0.0
 11
412.3792119215421
 21
305.7612838489727
 31
0.0
  0
LINE
  5
18D0
330
18
100
AcDbEntity
  8
外形線
100
AcDbLine
 10
416.079211921542
 20
306.6612838489726
 30
0.0
 11
412.3792119215421
 21
306.6612838489726
 31
0.0
  0
LINE
  5
18D1
330
18
100
AcDbEntity
  8
外形線
100
AcDbLine
 10
416.079211921542
 20
307.4612838489727
 30
0.0
 11
412.3792119215421
 21
307.4612838489726
 31
0.0
  0
LINE
  5
18D2
330
18
100
AcDbEntity
  8
外形線
100
AcDbLine
 10
416.079211921542
 20
308.2612838489727
 30
0.0
 11
412.3792119215421
 21
308.2612838489727
 31
0.0
  0
LINE
  5
18D3
330
18
100
AcDbEntity
  8
外形線
100
AcDbLine
 10
416.079211921542
 20
308.9612838489726
 30
0.0
 11
412.3792119215421
 21
308.9612838489726
 31
0.0
  0
LINE
  5
18D4
330
18
100
AcDbEntity
  8
外形線
100
AcDbLine
 10
415.8792119215421
 20
309.6612838489726
 30
0.0
 11
412.7292119215422
 21
309.6612838489726
 31
0.0
  0
ARC
  5
18D5
330
18
100
AcDbEntity
  8
外形線
100
AcDbCircle
 10
416.7217425594314
 20
306.6544274744154
 30
0.0
 40
0.5
100
AcDbArc
 50
13.5454935244253
 51
90.00000000000689
  0
LINE
  5
18D6
330
18
100
AcDbEntity
  8
外形線
100
AcDbLine
 10
416.7217425594313
 20
307.1544274744155
 30
0.0
 11
416.5792119215422
 21
307.1544274744155
 31
0.0
  0
LINE
  5
18D7
330
18
100
AcDbEntity
  8
外形線
100
AcDbLine
 10
416.5792119215421
 20
308.6612838489726
 30
0.0
 11
416.079211921542
 21
309.1612838489727
 31
0.0
  0
LINE
  5
18D8
330
18
100
AcDbEntity
  8
外形線
 48
0.5
100
AcDbLine
 10
416.0792119215421
 20
309.4612838489727
 30
0.0
 11
415.8792119215421
 21
309.6612838489726
 31
0.0
  0
ARC
  5
18D9
330
18
100
AcDbEntity
  8
外形線
100
AcDbCircle
 10
410.879211921542
 20
306.1612838489726
 30
0.0
 40
1.0
100
AcDbArc
 50
90.00000000000039
 51
180.0000000000001
  0
LINE
  5
18DA
330
18
100
AcDbEntity
  8
外形線
100
AcDbLine
 10
411.3792119215421
 20
307.1612838489726
 30
0.0
 11
410.879211921542
 21
307.1612838489726
 31
0.0
  0
LINE
  5
18DB
330
18
100
AcDbEntity
  8
外形線
100
AcDbLine
 10
412.3792119215421
 20
309.3112838489726
 30
0.0
 11
411.3792119215421
 21
309.3112838489726
 31
0.0
  0
LINE
  5
18DC
330
18
100
AcDbEntity
  8
外形線
100
AcDbLine
 10
412.7292119215422
 20
309.6612838489726
 30
0.0
 11
412.3792119215421
 21
309.3112838489726
 31
0.0
  0
INSERT
  5
18F8
330
18
100
AcDbEntity
  8
文字
100
AcDbBlockReference
  2
ROGO
 10
456.1589712595218
 20
297.1612838489725
 30
0.0
 41
0.3
 42
0.3
 43
0.3
  0
CIRCLE
  5
18F9
330
18
100
AcDbEntity
  8
外形線
100
AcDbCircle
 10
461.7636182426897
 20
292.1612838489725
 30
0.0
 40
15.0
  0
LINE
  5
18FA
330
18
100
AcDbEntity
  8
目盛
100
AcDbLine
 10
469.6010967134289
 20
279.3716813836611
 30
0.0
 11
468.817348866355
 21
280.6506416301924
 31
0.0
  0
TEXT
  5
18FB
330
18
100
AcDbEntity
  8
文字
100
AcDbText
 10
467.4680075687737
 20
283.5405670865817
 30
0.0
 40
1.8
  1
30
  7
STYLE3
100
AcDbText
  0
LINE
  5
18FC
330
18
100
AcDbEntity
  8
目盛
100
AcDbLine
 10
449.6283633270654
 20
283.3445050645854
 30
0.0
 11
450.8418888186279
 21
284.2261829430242
 31
0.0
  0
LINE
  5
18FD
330
18
100
AcDbEntity
  8
目盛
100
AcDbLine
 10
448.9740157773782
 20
284.3238053782333
 30
0.0
 11
450.2529760239094
 21
285.1075532253073
 31
0.0
  0
TEXT
  5
18FE
330
18
100
AcDbEntity
  8
文字
100
AcDbText
 10
449.4614313303314
 20
291.4313841698984
 30
0.0
 40
1.8
  1
20
  7
STYLE3
100
AcDbText
  0
LINE
  5
18FF
330
18
100
AcDbEntity
  8
目盛
100
AcDbLine
 10
446.8098582366927
 20
290.9843974130548
 30
0.0
 11
448.3052342372925
 21
291.1020860566466
 31
0.0
  0
LINE
  5
1900
330
18
100
AcDbEntity
  8
目盛
100
AcDbLine
 10
446.9482931337626
 20
289.814766873369
 30
0.0
 11
448.4298256446553
 21
290.0494185709293
 31
0.0
  0
LINE
  5
1901
330
18
100
AcDbEntity
  8
目盛
100
AcDbLine
 10
447.9054252550204
 20
286.4210323634961
 30
0.0
 11
450.2151240862986
 21
287.3777409444088
 31
0.0
  0
LINE
  5
1902
330
18
100
AcDbEntity
  8
目盛
100
AcDbLine
 10
448.3985203798641
 20
285.3514263528794
 30
0.0
 11
449.7350301661468
 21
286.0324121024887
 31
0.0
  0
LINE
  5
1903
330
18
100
AcDbEntity
  8
目盛
100
AcDbLine
 10
447.4977704982623
 20
287.5260289333484
 30
0.0
 11
448.9243552727051
 21
287.9895544249108
 31
0.0
  0
LINE
  5
1904
330
18
100
AcDbEntity
  8
目盛
100
AcDbLine
 10
447.1780694367246
 20
288.6596033911339
 30
0.0
 11
448.636624317321
 21
289.0097714369177
 31
0.0
  0
LINE
  5
1905
330
18
100
AcDbEntity
  8
目盛
100
AcDbLine
 10
446.8098582366928
 20
293.3381702848902
 30
0.0
 11
448.3052342372925
 21
293.2204816412984
 31
0.0
  0
LINE
  5
1906
330
18
100
AcDbEntity
  8
目盛
100
AcDbLine
 10
446.9482931337626
 20
294.507800824576
 30
0.0
 11
448.4298256446554
 21
294.2731491270156
 31
0.0
  0
LINE
  5
1907
330
18
100
AcDbEntity
  8
目盛
100
AcDbLine
 10
446.7636182426897
 20
292.1612838489725
 30
0.0
 11
449.2636182426897
 21
292.1612838489725
 31
0.0
  0
LINE
  5
1908
330
18
100
AcDbEntity
  8
目盛
100
AcDbLine
 10
447.9054252550204
 20
297.9015353344489
 30
0.0
 11
450.2151240862986
 21
296.9448267535361
 31
0.0
  0
LINE
  5
1909
330
18
100
AcDbEntity
  8
目盛
100
AcDbLine
 10
447.1780694367246
 20
295.6629643068112
 30
0.0
 11
448.6366243173211
 21
295.3127962610273
 31
0.0
  0
LINE
  5
190A
330
18
100
AcDbEntity
  8
目盛
100
AcDbLine
 10
447.4977704982625
 20
296.7965387645967
 30
0.0
 11
448.9243552727052
 21
296.3330132730344
 31
0.0
  0
TEXT
  5
190B
330
18
100
AcDbEntity
  8
文字
100
AcDbText
 10
453.0763266548468
 20
283.2891865980711
 30
0.0
 40
1.8
  1
30
  7
STYLE3
100
AcDbText
  0
LINE
  5
190C
330
18
100
AcDbEntity
  8
目盛
100
AcDbLine
 10
454.9537607465964
 20
278.7961859861471
 30
0.0
 11
455.6347464962057
 21
280.1326957724297
 31
0.0
  0
LINE
  5
190D
330
18
100
AcDbEntity
  8
目盛
100
AcDbLine
 10
452.9468394583026
 20
280.0260289333484
 30
0.0
 11
453.8285173367413
 21
281.2395544249108
 31
0.0
  0
LINE
  5
190E
330
18
100
AcDbEntity
  8
目盛
100
AcDbLine
 10
452.0218975177369
 20
280.7551943649721
 30
0.0
 11
452.9960695902322
 21
281.8958033133722
 31
0.0
  0
LINE
  5
190F
330
18
100
AcDbEntity
  8
目盛
100
AcDbLine
 10
453.9261397719505
 20
279.3716813836612
 30
0.0
 11
454.7098876190243
 21
280.6506416301923
 31
0.0
  0
LINE
  5
1910
330
18
100
AcDbEntity
  8
目盛
100
AcDbLine
 10
450.3575287586892
 20
282.4195631240197
 30
0.0
 11
451.4981377070893
 21
283.393735196515
 31
0.0
  0
LINE
  5
1911
330
18
100
AcDbEntity
  8
目盛
100
AcDbLine
 10
451.1570165248914
 20
281.5546821311743
 30
0.0
 11
452.9247834778579
 21
283.3224490841407
 31
0.0
  0
LINE
  5
1912
330
18
100
AcDbEntity
  8
目盛
100
AcDbLine
 10
459.4171012670862
 20
277.3459587400455
 30
0.0
 11
459.6517529646465
 21
278.8274912509383
 31
0.0
  0
LINE
  5
1913
330
18
100
AcDbEntity
  8
目盛
100
AcDbLine
 10
456.0233667572133
 20
278.3030908613032
 30
0.0
 11
456.9800753381261
 21
280.6127896925815
 31
0.0
  0
LINE
  5
1914
330
18
100
AcDbEntity
  8
目盛
100
AcDbLine
 10
458.261937784851
 20
277.5757350430074
 30
0.0
 11
458.6121058306349
 21
279.034289923604
 31
0.0
  0
LINE
  5
1915
330
18
100
AcDbEntity
  8
目盛
100
AcDbLine
 10
457.1283633270654
 20
277.8954361045453
 30
0.0
 11
457.5918888186278
 21
279.322020878988
 31
0.0
  0
LINE
  5
1916
330
18
100
AcDbEntity
  8
目盛
100
AcDbLine
 10
464.1101352182931
 20
277.3459587400455
 30
0.0
 11
463.8754835207329
 21
278.8274912509383
 31
0.0
  0
LINE
  5
1917
330
18
100
AcDbEntity
  8
目盛
100
AcDbLine
 10
462.9405046786073
 20
277.2075238429756
 30
0.0
 11
462.8228160350156
 21
278.7028998435753
 31
0.0
  0
LINE
  5
1918
330
18
100
AcDbEntity
  8
目盛
100
AcDbLine
 10
460.5867318067719
 20
277.2075238429756
 30
0.0
 11
460.7044204503638
 21
278.7028998435754
 31
0.0
  0
LINE
  5
1919
330
18
100
AcDbEntity
  8
目盛
100
AcDbLine
 10
461.7636182426896
 20
277.1612838489726
 30
0.0
 11
461.7636182426896
 21
279.6612838489726
 31
0.0
  0
TEXT
  5
191A
330
18
100
AcDbEntity
  8
文字
100
AcDbText
 10
460.0650583381994
 20
280.1363578835841
 30
0.0
 40
1.8
  1
40
  7
STYLE3
100
AcDbText
  0
LINE
  5
191B
330
18
100
AcDbEntity
  8
目盛
100
AcDbLine
 10
467.5038697281661
 20
278.3030908613032
 30
0.0
 11
466.5471611472534
 21
280.6127896925815
 31
0.0
  0
LINE
  5
191C
330
18
100
AcDbEntity
  8
目盛
100
AcDbLine
 10
468.5734757387828
 20
278.7961859861471
 30
0.0
 11
467.8924899891735
 21
280.1326957724295
 31
0.0
  0
LINE
  5
191D
330
18
100
AcDbEntity
  8
目盛
100
AcDbLine
 10
466.3988731583138
 20
277.8954361045452
 30
0.0
 11
465.9353476667514
 21
279.322020878988
 31
0.0
  0
LINE
  5
191E
330
18
100
AcDbEntity
  8
目盛
100
AcDbLine
 10
465.2652987005283
 20
277.5757350430074
 30
0.0
 11
464.9151306547445
 21
279.0342899236039
 31
0.0
  0
TEXT
  5
191F
330
18
100
AcDbEntity
  8
文字
100
AcDbText
 10
458.319610834757
 20
295.1749159048079
 30
0.0
 40
1.0
  1
PIC-TEST
  7
STYLE3
100
AcDbText
  0
TEXT
  5
1920
330
18
100
AcDbEntity
  8
文字
100
AcDbText
 10
458.5121759895058
 20
287.1291675065916
 30
0.0
 40
1.0
  1
PC-1BW
  7
STYLE3
100
AcDbText
  0
TEXT
  5
1921
330
18
100
AcDbEntity
  8
文字
100
AcDbText
 10
454.8231837579473
 20
291.7872327997231
 30
0.0
 40
0.8
  1
Jeweled
  7
STYLE3
100
AcDbText
  0
TEXT
  5
192A
330
18
100
AcDbEntity
  8
文字
100
AcDbText
 10
464.6355736008002
 20
291.7519440643974
 30
0.0
 40
0.8
  1
0.01mm
  7
STYLE3
100
AcDbText
  0
LINE
  5
192B
330
18
100
AcDbEntity
  8
目盛
100
AcDbLine
 10
473.8988731583139
 20
283.3445050645854
 30
0.0
 11
472.6853476667515
 21
284.2261829430242
 31
0.0
  0
LINE
  5
192C
330
18
100
AcDbEntity
  8
目盛
100
AcDbLine
 10
473.1697077266901
 20
282.4195631240197
 30
0.0
 11
472.0290987782901
 21
283.393735196515
 31
0.0
  0
LINE
  5
192D
330
18
100
AcDbEntity
  8
目盛
100
AcDbLine
 10
471.5053389676424
 20
280.7551943649721
 30
0.0
 11
470.5311668951472
 21
281.8958033133722
 31
0.0
  0
LINE
  5
192E
330
18
100
AcDbEntity
  8
目盛
100
AcDbLine
 10
470.5803970270769
 20
280.0260289333484
 30
0.0
 11
469.6987191486381
 21
281.2395544249108
 31
0.0
  0
LINE
  5
192F
330
18
100
AcDbEntity
  8
目盛
100
AcDbLine
 10
472.3702199604879
 20
281.5546821311743
 30
0.0
 11
470.6024530075215
 21
283.3224490841407
 31
0.0
  0
LINE
  5
1930
330
18
100
AcDbEntity
  8
目盛
100
AcDbLine
 10
476.7173782486866
 20
290.9843974130548
 30
0.0
 11
475.2220022480869
 21
291.1020860566466
 31
0.0
  0
LINE
  5
1931
330
18
100
AcDbEntity
  8
目盛
100
AcDbLine
 10
475.621811230359
 20
286.4210323634961
 30
0.0
 11
473.3121123990808
 21
287.3777409444088
 31
0.0
  0
LINE
  5
1932
330
18
100
AcDbEntity
  8
目盛
100
AcDbLine
 10
475.1287161055152
 20
285.3514263528792
 30
0.0
 11
473.7922063192327
 21
286.0324121024886
 31
0.0
  0
LINE
  5
1933
330
18
100
AcDbEntity
  8
目盛
100
AcDbLine
 10
474.553220708001
 20
284.3238053782333
 30
0.0
 11
473.27426046147
 21
285.1075532253072
 31
0.0
  0
LINE
  5
1934
330
18
100
AcDbEntity
  8
目盛
100
AcDbLine
 10
476.5789433516168
 20
289.814766873369
 30
0.0
 11
475.097410840724
 21
290.0494185709293
 31
0.0
  0
LINE
  5
1935
330
18
100
AcDbEntity
  8
目盛
100
AcDbLine
 10
476.3491670486549
 20
288.6596033911338
 30
0.0
 11
474.8906121680583
 21
289.0097714369177
 31
0.0
  0
LINE
  5
1936
330
18
100
AcDbEntity
  8
目盛
100
AcDbLine
 10
476.029465987117
 20
287.5260289333482
 30
0.0
 11
474.6028812126742
 21
287.9895544249107
 31
0.0
  0
LINE
  5
1937
330
18
100
AcDbEntity
  8
目盛
100
AcDbLine
 10
475.621811230359
 20
297.9015353344489
 30
0.0
 11
473.3121123990809
 21
296.9448267535362
 31
0.0
  0
TEXT
  5
1938
330
18
100
AcDbEntity
  8
文字
100
AcDbText
 10
470.6658268313207
 20
291.2185166550042
 30
0.0
 40
1.8
  1
20
  7
STYLE3
100
AcDbText
  0
LINE
  5
1939
330
18
100
AcDbEntity
  8
目盛
100
AcDbLine
 10
476.5789433516168
 20
294.507800824576
 30
0.0
 11
475.0974108407241
 21
294.2731491270157
 31
0.0
  0
LINE
  5
193A
330
18
100
AcDbEntity
  8
目盛
100
AcDbLine
 10
476.7173782486866
 20
293.3381702848901
 30
0.0
 11
475.2220022480869
 21
293.2204816412984
 31
0.0
  0
LINE
  5
193B
330
18
100
AcDbEntity
  8
目盛
100
AcDbLine
 10
476.0294659871171
 20
296.7965387645967
 30
0.0
 11
474.6028812126743
 21
296.3330132730342
 31
0.0
  0
LINE
  5
193C
330
18
100
AcDbEntity
  8
目盛
100
AcDbLine
 10
476.3491670486549
 20
295.6629643068111
 30
0.0
 11
474.8906121680583
 21
295.3127962610273
 31
0.0
  0
LINE
  5
193D
330
18
100
AcDbEntity
  8
目盛
100
AcDbLine
 10
476.7636182426897
 20
292.1612838489725
 30
0.0
 11
474.2636182426897
 21
292.1612838489725
 31
0.0
  0
LINE
  5
193E
330
18
100
AcDbEntity
  8
目盛
100
AcDbLine
 10
469.6010967134289
 20
304.9508863142839
 30
0.0
 11
468.817348866355
 21
303.6719260677528
 31
0.0
  0
TEXT
  5
193F
330
18
100
AcDbEntity
  8
文字
100
AcDbText
 10
467.9279780228564
 20
298.7404844264877
 30
0.0
 40
1.8
  1
10
  7
STYLE3
100
AcDbText
  0
LINE
  5
1940
330
18
100
AcDbEntity
  8
目盛
100
AcDbLine
 10
449.6283633270655
 20
300.9780626333596
 30
0.0
 11
450.8418888186279
 21
300.0963847549209
 31
0.0
  0
LINE
  5
1941
330
18
100
AcDbEntity
  8
目盛
100
AcDbLine
 10
448.9740157773783
 20
299.9987623197117
 30
0.0
 11
450.2529760239094
 21
299.2150144726378
 31
0.0
  0
LINE
  5
1942
330
18
100
AcDbEntity
  8
目盛
100
AcDbLine
 10
448.3985203798642
 20
298.9711413450658
 30
0.0
 11
449.7350301661468
 21
298.2901555954565
 31
0.0
  0
LINE
  5
1943
330
18
100
AcDbEntity
  8
目盛
100
AcDbLine
 10
456.0233667572133
 20
306.0194768366419
 30
0.0
 11
456.9800753381261
 21
303.7097780053636
 31
0.0
  0
LINE
  5
1944
330
18
100
AcDbEntity
  8
目盛
100
AcDbLine
 10
454.9537607465965
 20
305.5263817117981
 30
0.0
 11
455.6347464962059
 21
304.1898719255155
 31
0.0
  0
LINE
  5
1945
330
18
100
AcDbEntity
  8
目盛
100
AcDbLine
 10
457.1283633270655
 20
306.4271315933999
 30
0.0
 11
457.591888818628
 21
305.0005468189571
 31
0.0
  0
LINE
  5
1946
330
18
100
AcDbEntity
  8
目盛
100
AcDbLine
 10
458.2619377848511
 20
306.7468326549376
 30
0.0
 11
458.6121058306349
 21
305.2882777743412
 31
0.0
  0
TEXT
  5
1947
330
18
100
AcDbEntity
  8
文字
100
AcDbText
 10
452.5569333340576
 20
299.1438681647591
 30
0.0
 40
1.8
  1
10
  7
STYLE3
100
AcDbText
  0
LINE
  5
1948
330
18
100
AcDbEntity
  8
目盛
100
AcDbLine
 10
450.3575287586892
 20
301.9030045739253
 30
0.0
 11
451.4981377070894
 21
300.92883250143
 31
0.0
  0
LINE
  5
1949
330
18
100
AcDbEntity
  8
目盛
100
AcDbLine
 10
452.0218975177369
 20
303.567373332973
 30
0.0
 11
452.9960695902322
 21
302.426764384573
 31
0.0
  0
LINE
  5
194A
330
18
100
AcDbEntity
  8
目盛
100
AcDbLine
 10
452.9468394583026
 20
304.2965387645968
 30
0.0
 11
453.8285173367413
 21
303.0830132730343
 31
0.0
  0
LINE
  5
194B
330
18
100
AcDbEntity
  8
目盛
100
AcDbLine
 10
451.1570165248915
 20
302.7678855667708
 30
0.0
 11
452.9247834778579
 21
301.0001186138044
 31
0.0
  0
LINE
  5
194C
330
18
100
AcDbEntity
  8
目盛
100
AcDbLine
 10
453.9261397719505
 20
304.950886314284
 30
0.0
 11
454.7098876190244
 21
303.6719260677528
 31
0.0
  0
LINE
  5
194E
330
18
100
AcDbEntity
  8
目盛
100
AcDbLine
 10
459.4171012670862
 20
306.9766089578996
 30
0.0
 11
459.6517529646465
 21
305.4950764470069
 31
0.0
  0
LINE
  5
194F
330
18
100
AcDbEntity
  8
目盛
100
AcDbLine
 10
468.5734757387829
 20
305.526381711798
 30
0.0
 11
467.8924899891736
 21
304.1898719255154
 31
0.0
  0
LINE
  5
1950
330
18
100
AcDbEntity
  8
目盛
100
AcDbLine
 10
467.503869728166
 20
306.0194768366419
 30
0.0
 11
466.5471611472533
 21
303.7097780053636
 31
0.0
  0
LINE
  5
1951
330
18
100
AcDbEntity
  8
目盛
100
AcDbLine
 10
466.3988731583139
 20
306.4271315933998
 30
0.0
 11
465.9353476667515
 21
305.0005468189571
 31
0.0
  0
LINE
  5
1952
330
18
100
AcDbEntity
  8
目盛
100
AcDbLine
 10
465.2652987005283
 20
306.7468326549377
 30
0.0
 11
464.9151306547445
 21
305.2882777743411
 31
0.0
  0
LINE
  5
1953
330
18
100
AcDbEntity
  8
目盛
100
AcDbLine
 10
461.7636182426897
 20
307.1612838489725
 30
0.0
 11
461.7636182426897
 21
304.6612838489725
 31
0.0
  0
TEXT
  5
1954
330
18
100
AcDbEntity
  8
文字
100
AcDbText
 10
460.9632092294186
 20
302.4333550840927
 30
0.0
 40
1.8
  1
0
  7
STYLE3
100
AcDbText
  0
LINE
  5
1955
330
18
100
AcDbEntity
  8
目盛
100
AcDbLine
 10
460.586731806772
 20
307.1150438549695
 30
0.0
 11
460.7044204503638
 21
305.6196678543698
 31
0.0
  0
LINE
  5
1956
330
18
100
AcDbEntity
  8
目盛
100
AcDbLine
 10
464.1101352182931
 20
306.9766089578996
 30
0.0
 11
463.8754835207328
 21
305.4950764470068
 31
0.0
  0
LINE
  5
1957
330
18
100
AcDbEntity
  8
目盛
100
AcDbLine
 10
462.9405046786074
 20
307.1150438549694
 30
0.0
 11
462.8228160350156
 21
305.6196678543697
 31
0.0
  0
LINE
  5
1958
330
18
100
AcDbEntity
  8
目盛
100
AcDbLine
 10
474.5532207080012
 20
299.9987623197118
 30
0.0
 11
473.27426046147
 21
299.2150144726378
 31
0.0
  0
LINE
  5
1959
330
18
100
AcDbEntity
  8
目盛
100
AcDbLine
 10
475.1287161055152
 20
298.9711413450657
 30
0.0
 11
473.7922063192327
 21
298.2901555954563
 31
0.0
  0
LINE
  5
195A
330
18
100
AcDbEntity
  8
目盛
100
AcDbLine
 10
473.1697077266902
 20
301.9030045739253
 30
0.0
 11
472.0290987782902
 21
300.92883250143
 31
0.0
  0
LINE
  5
195B
330
18
100
AcDbEntity
  8
目盛
100
AcDbLine
 10
473.898873158314
 20
300.9780626333596
 30
0.0
 11
472.6853476667515
 21
300.0963847549209
 31
0.0
  0
LINE
  5
195C
330
18
100
AcDbEntity
  8
目盛
100
AcDbLine
 10
472.370219960488
 20
302.7678855667707
 30
0.0
 11
470.6024530075215
 21
301.0001186138044
 31
0.0
  0
LINE
  5
195D
330
18
100
AcDbEntity
  8
目盛
100
AcDbLine
 10
471.5053389676425
 20
303.567373332973
 30
0.0
 11
470.5311668951472
 21
302.4267643845729
 31
0.0
  0
LINE
  5
195E
330
18
100
AcDbEntity
  8
目盛
100
AcDbLine
 10
470.5803970270768
 20
304.2965387645967
 30
0.0
 11
469.698719148638
 21
303.0830132730343
 31
0.0
  0
CIRCLE
  5
195F
330
18
100
AcDbEntity
  8
外形線
100
AcDbCircle
 10
461.7636182426897
 20
292.1612838489725
 30
0.0
 40
17.5
  0
LINE
  5
1960
330
18
100
AcDbEntity
  8
中心線
 48
0.5
100
AcDbLine
 10
442.5351906086657
 20
292.1612838489725
 30
0.0
 11
481.5505417680907
 21
292.1612838489725
 31
0.0
  0
LINE
  5
1961
330
18
100
AcDbEntity
  8
中心線
 48
0.5
100
AcDbLine
 10
461.7636182426897
 20
328.1010837197511
 30
0.0
 11
461.7636182426897
 21
222.5447838907138
 31
0.0
  0
LINE
  5
1984
330
18
100
AcDbEntity
  8
外形線
100
AcDbLine
 10
458.7636182426897
 20
324.9574362716791
 30
0.0
 11
458.7636182426897
 21
309.4022234985392
 31
0.0
  0
LINE
  5
1985
330
18
100
AcDbEntity
  8
外形線
100
AcDbLine
 10
464.7636182426897
 20
324.9574362716791
 30
0.0
 11
464.7636182426897
 21
309.4022234985392
 31
0.0
  0
ARC
  5
1986
330
18
100
AcDbEntity
  8
外形線
100
AcDbCircle
 10
461.7636182426897
 20
319.7612838489724
 30
0.0
 40
6.0
100
AcDbArc
 50
60.0
 51
120.0
  0
LINE
  5
1987
330
18
100
AcDbEntity
  8
外形線
100
AcDbLine
 10
458.7636182426897
 20
324.9574362716791
 30
0.0
 11
464.7636182426897
 21
324.9574362716791
 31
0.0
  0
LINE
  5
1988
330
18
100
AcDbEntity
  8
外形線
100
AcDbLine
 10
463.0136182426897
 20
241.7612838489724
 30
0.0
 11
462.3647549026109
 21
226.5612838489726
 31
0.0
  0
LINE
  5
1989
330
18
100
AcDbEntity
  8
外形線
100
AcDbLine
 10
460.5136182426898
 20
241.7612838489727
 30
0.0
 11
461.1624815827686
 21
226.5612838489726
 31
0.0
  0
ARC
  5
198A
330
18
100
AcDbEntity
  8
外形線
100
AcDbCircle
 10
461.7636182426897
 20
225.7612838489725
 30
0.0
 40
1.0
100
AcDbArc
 50
126.869897645842
 51
53.13010235415791
  0
LINE
  5
198B
330
18
100
AcDbEntity
  8
中心線
 48
0.5
100
AcDbLine
 10
458.0150134263675
 20
225.7612838489725
 30
0.0
 11
465.8946668420783
 21
225.7612838489725
 31
0.0
  0
POINT
  5
198C
330
18
100
AcDbEntity
  8
DEFPOINTS
  6
ByBlock
 62
     0
100
AcDbPoint
 10
461.7636182426896
 20
225.7612838489725
 30
0.0
  0
POINT
  5
198D
330
18
100
AcDbEntity
  8
DEFPOINTS
  6
ByBlock
 62
     0
100
AcDbPoint
 10
462.2877361912301
 20
224.9096381620711
 30
0.0
  0
LINE
  5
198F
330
18
100
AcDbEntity
  8
隠れ線
 62
     4
 48
0.3
100
AcDbLine
 10
461.7636182426897
 20
226.7612838489725
 30
0.0
 11
461.1624815827686
 21
226.5612838489726
 31
0.0
  0
LINE
  5
1990
330
18
100
AcDbEntity
  8
隠れ線
 62
     4
 48
0.3
100
AcDbLine
 10
461.7636182426897
 20
226.7612838489725
 30
0.0
 11
462.3647549026109
 21
226.5612838489726
 31
0.0
  0
LINE
  5
1991
330
18
100
AcDbEntity
  8
外形線
100
AcDbLine
 10
462.3647549026109
 20
226.5612838489726
 30
0.0
 11
461.1624815827685
 21
226.5612838489726
 31
0.0
  0
LINE
  5
1993
330
18
100
AcDbEntity
  8
外形線
100
AcDbLine
 10
457.9636182426897
 20
275.0788367174869
 30
0.0
 11
457.9636182426897
 21
244.6612838489725
 31
0.0
  0
LINE
  5
1994
330
18
100
AcDbEntity
  8
外形線
100
AcDbLine
 10
465.5636182426897
 20
275.078836717487
 30
0.0
 11
465.5636182426897
 21
244.6612838489725
 31
0.0
  0
LINE
  5
1995
330
18
100
AcDbEntity
  8
外形線
100
AcDbLine
 10
458.5636182426898
 20
274.1612838489726
 30
0.0
 11
458.5636182426897
 21
266.2112838489722
 31
0.0
  0
LINE
  5
1996
330
18
100
AcDbEntity
  8
外形線
100
AcDbLine
 10
464.5636182426899
 20
274.1612838489726
 30
0.0
 11
464.5636182426899
 21
266.2112838489727
 31
0.0
  0
LINE
  5
1997
330
18
100
AcDbEntity
  8
外形線
100
AcDbLine
 10
459.6408909699625
 20
247.6612838489725
 30
0.0
 11
460.0136182426898
 21
247.6612838489725
 31
0.0
  0
LINE
  5
1998
330
18
100
AcDbEntity
  8
外形線
100
AcDbLine
 10
459.6499818790533
 20
248.6612838489725
 30
0.0
 11
460.0136182426897
 21
248.6612838489725
 31
0.0
  0
ARC
  5
1999
330
18
100
AcDbEntity
  8
外形線
100
AcDbCircle
 10
460.6582050186955
 20
249.5612838489726
 30
0.0
 40
1.0
100
AcDbArc
 50
89.99999999999982
 51
179.4791436254985
  0
LINE
  5
199A
330
18
100
AcDbEntity
  8
外形線
100
AcDbLine
 10
460.6582050186955
 20
250.5612838489725
 30
0.0
 11
462.8690314666839
 21
250.5612838489726
 31
0.0
  0
LINE
  5
199B
330
18
100
AcDbEntity
  8
中心線
 48
0.5
100
AcDbLine
 10
454.644092766822
 20
248.1612838489725
 30
0.0
 11
468.9630105761323
 21
248.1612838489725
 31
0.0
  0
LINE
  5
199C
330
18
100
AcDbEntity
  8
外形線
100
AcDbLine
 10
457.2636182426896
 20
251.1612838489725
 30
0.0
 11
457.2636182426896
 21
245.1612838489725
 31
0.0
  0
LINE
  5
199D
330
18
100
AcDbEntity
  8
外形線
100
AcDbLine
 10
456.7636182426897
 20
250.1612838489725
 30
0.0
 11
456.7636182426897
 21
246.1612838489725
 31
0.0
  0
LINE
  5
199E
330
18
100
AcDbEntity
  8
外形線
100
AcDbLine
 10
459.6136182426898
 20
244.6612838489725
 30
0.0
 11
459.6582463384484
 21
249.5703743824293
 31
0.0
  0
LINE
  5
199F
330
18
100
AcDbEntity
  8
外形線
100
AcDbLine
 10
457.9636182426896
 20
245.1612838489725
 30
0.0
 11
457.2636182426896
 21
245.1612838489725
 31
0.0
  0
LINE
  5
19A0
330
18
100
AcDbEntity
  8
外形線
100
AcDbLine
 10
457.2636182426896
 20
246.1612838489725
 30
0.0
 11
456.7636182426897
 21
246.1612838489725
 31
0.0
  0
LINE
  5
19A1
330
18
100
AcDbEntity
  8
外形線
100
AcDbLine
 10
457.9636182426897
 20
244.6612838489725
 30
0.0
 11
459.6136182426898
 21
244.6612838489725
 31
0.0
  0
LINE
  5
19A2
330
18
100
AcDbEntity
  8
外形線
100
AcDbLine
 10
457.9636182426896
 20
251.1612838489725
 30
0.0
 11
457.2636182426896
 21
251.1612838489725
 31
0.0
  0
LINE
  5
19A3
330
18
100
AcDbEntity
  8
外形線
100
AcDbLine
 10
457.2636182426896
 20
250.1612838489725
 30
0.0
 11
456.7636182426897
 21
250.1612838489725
 31
0.0
  0
LINE
  5
19A4
330
18
100
AcDbEntity
  8
外形線
100
AcDbLine
 10
466.7636182426897
 20
250.1612838489725
 30
0.0
 11
466.7636182426897
 21
246.1612838489725
 31
0.0
  0
LINE
  5
19A5
330
18
100
AcDbEntity
  8
外形線
100
AcDbLine
 10
466.2636182426898
 20
251.1612838489725
 30
0.0
 11
466.2636182426898
 21
245.1612838489725
 31
0.0
  0
LINE
  5
19A6
330
18
100
AcDbEntity
  8
外形線
100
AcDbLine
 10
460.5136182426897
 20
250.5507759733496
 30
0.0
 11
460.5136182426897
 21
244.9612838489725
 31
0.0
  0
LINE
  5
19A7
330
18
100
AcDbEntity
  8
外形線
100
AcDbLine
 10
460.0136182426897
 20
250.3258150047788
 30
0.0
 11
460.0136182426897
 21
245.4612838489725
 31
0.0
  0
LINE
  5
19A8
330
18
100
AcDbEntity
  8
外形線
100
AcDbLine
 10
463.5136182426897
 20
250.3258150047788
 30
0.0
 11
463.5136182426897
 21
244.9612838489726
 31
0.0
  0
LINE
  5
19A9
330
18
100
AcDbEntity
  8
外形線
100
AcDbLine
 10
463.9136182426897
 20
244.6612838489725
 30
0.0
 11
463.868990146931
 21
249.5703743824293
 31
0.0
  0
LINE
  5
19AA
330
18
100
AcDbEntity
  8
外形線
100
AcDbLine
 10
465.5636182426897
 20
244.6612838489725
 30
0.0
 11
463.9136182426897
 21
244.6612838489725
 31
0.0
  0
LINE
  5
19AB
330
18
100
AcDbEntity
  8
外形線
100
AcDbLine
 10
462.9536182426896
 20
244.9612838489726
 30
0.0
 11
463.0136182426897
 21
244.9012838489725
 31
0.0
  0
LINE
  5
19AC
330
18
100
AcDbEntity
  8
外形線
 48
0.5
100
AcDbLine
 10
460.5136182426897
 20
244.9012838489725
 30
0.0
 11
460.5736182426897
 21
244.9612838489725
 31
0.0
  0
LINE
  5
19AD
330
18
100
AcDbEntity
  8
外形線
100
AcDbLine
 10
463.0136182426896
 20
243.5012838489725
 30
0.0
 11
462.5136182426897
 21
243.2012838489725
 31
0.0
  0
LINE
  5
19AE
330
18
100
AcDbEntity
  8
外形線
100
AcDbLine
 10
462.5136182426897
 20
243.2012838489725
 30
0.0
 11
463.0136182426897
 21
242.9012838489725
 31
0.0
  0
LINE
  5
19AF
330
18
100
AcDbEntity
  8
外形線
100
AcDbLine
 10
461.0136182426897
 20
243.2012838489725
 30
0.0
 11
460.5136182426897
 21
242.9012838489725
 31
0.0
  0
LINE
  5
19B0
330
18
100
AcDbEntity
  8
外形線
100
AcDbLine
 10
460.5136182426898
 20
243.5012838489725
 30
0.0
 11
461.0136182426897
 21
243.2012838489725
 31
0.0
  0
LINE
  5
19B1
330
18
100
AcDbEntity
  8
外形線
100
AcDbLine
 10
460.5136182426897
 20
242.9012838489725
 30
0.0
 11
463.0136182426897
 21
242.9012838489724
 31
0.0
  0
LINE
  5
19B2
330
18
100
AcDbEntity
  8
外形線
100
AcDbLine
 10
460.5136182426898
 20
243.5012838489725
 30
0.0
 11
463.0136182426896
 21
243.5012838489725
 31
0.0
  0
LINE
  5
19B3
330
18
100
AcDbEntity
  8
中心線
 48
0.5
100
AcDbLine
 10
461.0136182426897
 20
243.2012838489725
 30
0.0
 11
462.5136182426897
 21
243.2012838489725
 31
0.0
  0
LINE
  5
19B4
330
18
100
AcDbEntity
  8
外形線
100
AcDbLine
 10
463.0136182426897
 20
241.7612838489724
 30
0.0
 11
460.5136182426898
 21
241.7612838489727
 31
0.0
  0
LINE
  5
19B5
330
18
100
AcDbEntity
  8
中心線
 48
0.5
100
AcDbLine
 10
460.5136182426897
 20
244.9012838489725
 30
0.0
 11
463.0136182426897
 21
244.9012838489725
 31
0.0
  0
LINE
  5
19B6
330
18
100
AcDbEntity
  8
外形線
100
AcDbLine
 10
463.5136182426897
 20
247.6612838489725
 30
0.0
 11
463.886345515417
 21
247.6612838489725
 31
0.0
  0
LINE
  5
19B7
330
18
100
AcDbEntity
  8
外形線
100
AcDbLine
 10
460.0136182426897
 20
245.4612838489725
 30
0.0
 11
460.5136182426897
 21
245.4612838489725
 31
0.0
  0
LINE
  5
19B8
330
18
100
AcDbEntity
  8
外形線
100
AcDbLine
 10
463.0136182426897
 20
242.9012838489724
 30
0.0
 11
463.0136182426897
 21
241.7612838489724
 31
0.0
  0
LINE
  5
19B9
330
18
100
AcDbEntity
  8
外形線
100
AcDbLine
 10
460.5136182426897
 20
242.9012838489725
 30
0.0
 11
460.5136182426898
 21
241.7612838489727
 31
0.0
  0
LINE
  5
19BA
330
18
100
AcDbEntity
  8
外形線
100
AcDbLine
 10
460.5136182426897
 20
244.9012838489725
 30
0.0
 11
460.5136182426898
 21
243.5012838489725
 31
0.0
  0
LINE
  5
19BB
330
18
100
AcDbEntity
  8
外形線
100
AcDbLine
 10
463.0136182426897
 20
244.9012838489725
 30
0.0
 11
463.0136182426896
 21
243.5012838489725
 31
0.0
  0
LINE
  5
19BC
330
18
100
AcDbEntity
  8
外形線
100
AcDbLine
 10
463.5136182426897
 20
244.9612838489726
 30
0.0
 11
460.5136182426897
 21
244.9612838489725
 31
0.0
  0
LINE
  5
19BD
330
18
100
AcDbEntity
  8
外形線
100
AcDbLine
 10
466.2636182426898
 20
246.1612838489725
 30
0.0
 11
466.7636182426897
 21
246.1612838489725
 31
0.0
  0
LINE
  5
19BE
330
18
100
AcDbEntity
  8
外形線
100
AcDbLine
 10
465.5636182426897
 20
245.1612838489725
 30
0.0
 11
466.2636182426898
 21
245.1612838489725
 31
0.0
  0
LINE
  5
19BF
330
18
100
AcDbEntity
  8
外形線
100
AcDbLine
 10
463.5136182426897
 20
248.6612838489725
 30
0.0
 11
463.8772546063261
 21
248.6612838489725
 31
0.0
  0
ARC
  5
19C0
330
18
100
AcDbEntity
  8
外形線
100
AcDbCircle
 10
462.8690314666839
 20
249.5612838489726
 30
0.0
 40
1.0
100
AcDbArc
 50
0.5208563745014782
 51
90.00000000000019
  0
LINE
  5
19C1
330
18
100
AcDbEntity
  8
外形線
100
AcDbLine
 10
466.2636182426898
 20
250.1612838489725
 30
0.0
 11
466.7636182426897
 21
250.1612838489725
 31
0.0
  0
LINE
  5
19C2
330
18
100
AcDbEntity
  8
外形線
100
AcDbLine
 10
465.5636182426897
 20
251.1612838489725
 30
0.0
 11
466.2636182426898
 21
251.1612838489725
 31
0.0
  0
LINE
  5
19C4
330
18
100
AcDbEntity
  8
外形線
100
AcDbLine
 10
459.2837390937014
 20
264.5612838489725
 30
0.0
 11
462.0136182426897
 21
264.5612838489725
 31
0.0
  0
LINE
  5
19CD
330
18
100
AcDbEntity
  8
中心線
100
AcDbLine
 10
461.0560633258552
 20
264.1612838489726
 30
0.0
 11
464.080877830588
 21
264.1612838489725
 31
0.0
  0
LINE
  5
19CE
330
18
100
AcDbEntity
  8
外形線
100
AcDbLine
 10
458.5636182426897
 20
274.1612838489726
 30
0.0
 11
464.5636182426899
 21
274.1612838489725
 31
0.0
  0
CIRCLE
  5
19CF
330
18
100
AcDbEntity
  8
外形線
100
AcDbCircle
 10
462.7636182426897
 20
264.1612838489725
 30
0.0
 40
0.85
  0
LINE
  5
19D0
330
18
100
AcDbEntity
  8
中心線
100
AcDbLine
 10
462.7636182426897
 20
265.4905652229377
 30
0.0
 11
462.7636182426897
 21
262.647768495528
 31
0.0
  0
LINE
  5
19DA
330
18
100
AcDbEntity
  8
外形線
100
AcDbLine
 10
463.5136182426897
 20
264.5612838489725
 30
0.0
 11
464.0636182426898
 21
264.5612838489725
 31
0.0
  0
LINE
  5
19DB
330
18
100
AcDbEntity
  8
外形線
100
AcDbLine
 10
464.0636182426897
 20
274.8130850952114
 30
0.0
 11
464.0636182426897
 21
274.1612838489725
 31
0.0
  0
LINE
  5
19DC
330
18
100
AcDbEntity
  8
外形線
100
AcDbLine
 10
458.5636182426896
 20
266.2112838489723
 30
0.0
 11
464.5636182426898
 21
266.2112838489723
 31
0.0
  0
LINE
  5
19DD
330
18
100
AcDbEntity
  8
外形線
100
AcDbLine
 10
459.2837390937014
 20
264.5612838489725
 30
0.0
 11
462.0136182426897
 21
264.5612838489725
 31
0.0
  0
LINE
  5
19DE
330
18
100
AcDbEntity
  8
外形線
100
AcDbLine
 10
463.5136182426897
 20
264.5612838489725
 30
0.0
 11
464.0636182426897
 21
264.5612838489725
 31
0.0
  0
LINE
  5
19E0
330
18
100
AcDbEntity
  8
外形線
100
AcDbLine
 10
464.5636182426898
 20
266.2112838489723
 30
0.0
 11
464.0636182426897
 21
264.5612838489725
 31
0.0
  0
LINE
  5
19E2
330
18
100
AcDbEntity
  8
外形線
100
AcDbLine
 10
458.5636182426897
 20
266.2112838489723
 30
0.0
 11
459.2837390937015
 21
264.5612838489725
 31
0.0
  0
LINE
  5
19F9
330
18
100
AcDbEntity
  8
外形線
100
AcDbLine
 10
464.0636182426898
 20
258.1612838489726
 30
0.0
 11
465.5636182426897
 21
258.1612838489725
 31
0.0
  0
LINE
  5
19FA
330
18
100
AcDbEntity
  8
外形線
100
AcDbLine
 10
464.0636182426897
 20
274.8130850952114
 30
0.0
 11
464.0636182426897
 21
274.1612838489726
 31
0.0
  0
LINE
  5
19FB
330
18
100
AcDbEntity
  8
外形線
100
AcDbLine
 10
464.0636182426898
 20
264.5612838489725
 30
0.0
 11
464.0636182426897
 21
258.1612838489726
 31
0.0
  0
DIMENSION
  5
1A1A
330
18
100
AcDbEntity
  8
外形線
100
AcDbDimension
  2
*D14
 10
397.079211921542
 20
334.1056506559746
 30
0.0
 11
392.5473409372456
 21
335.9806506559746
 31
0.0
 70
    32
  1
9
 71
     5
 42
-1.0
  3
STYLE3
100
AcDbAlignedDimension
 13
388.0154699529492
 23
292.1612838489725
 33
0.0
 14
397.079211921542
 24
309.8112838489724
 34
0.0
100
AcDbRotatedDimension
1001
ACAD
1000
DSTYLE
1002
{
1070
   271
1070
     2
1002
}
  0
DIMENSION
  5
1A42
330
18
100
AcDbEntity
  8
外形線
100
AcDbDimension
  2
*D15
 10
418.9429538901349
 20
334.1056506559746
 30
0.0
 11
414.4110829058385
 21
335.9806506559746
 31
0.0
 70
    32
  1
9
 71
     5
 42
-1.0
  3
STYLE3
100
AcDbAlignedDimension
 13
409.879211921542
 23
309.8112838489725
 33
0.0
 14
418.9429538901349
 24
292.1612838489722
 34
0.0
100
AcDbRotatedDimension
1001
ACAD
1000
DSTYLE
1002
{
1070
    75
1070
     1
1070
   271
1070
     2
1070
   279
1070
     1
1002
}
  0
LINE
  5
1A43
330
18
100
AcDbEntity
  8
0
  6
ByBlock
 62
     2
100
AcDbLine
 10
403.4792119215421
 20
329.3657857069036
 30
0.0
 11
403.4792119215421
 21
335.3556506559746
 31
0.0
  0
LINE
  5
1A44
330
18
100
AcDbEntity
  8
0
  6
ByBlock
 62
     2
100
AcDbLine
 10
399.579211921542
 20
334.1056506559746
 30
0.0
 11
400.979211921542
 21
334.1056506559746
 31
0.0
  0
MTEXT
  5
1A47
330
18
100
AcDbEntity
  8
0
  6
ByBlock
 62
     6
100
AcDbMText
 10
397.9781155032614
 20
336.1830316605213
 30
0.0
 40
2.5
 41
0.0
 71
     4
 72
     1
  1
\A1;6.4
  7
STYLE3
 73
     1
 44
1.0
  0
INSERT
  5
1A48
330
18
100
AcDbEntity
  8
0
  6
ByBlock
 62
     2
100
AcDbBlockReference
  2
_OPEN
 10
397.079211921542
 20
334.1056506559746
 30
0.0
 41
2.5
 42
2.5
 43
2.5
 50
180.0
  0
INSERT
  5
1A49
330
18
100
AcDbEntity
  8
0
  6
ByBlock
 62
     2
100
AcDbBlockReference
  2
_OPEN
 10
403.4792119215421
 20
334.1056506559746
 30
0.0
 41
2.5
 42
2.5
 43
2.5
  0
POINT
  5
1A4A
330
18
100
AcDbEntity
  8
DEFPOINTS
  6
ByBlock
 62
     0
100
AcDbPoint
 10
397.079211921542
 20
309.8112838489724
 30
0.0
  0
POINT
  5
1A4B
330
18
100
AcDbEntity
  8
DEFPOINTS
  6
ByBlock
 62
     0
100
AcDbPoint
 10
403.4792119215421
 20
329.3657857069036
 30
0.0
  0
POINT
  5
1A4C
330
18
100
AcDbEntity
  8
DEFPOINTS
  6
ByBlock
 62
     0
100
AcDbPoint
 10
403.4792119215421
 20
334.1056506559746
 30
0.0
  0
LINE
  5
1A4D
330
18
100
AcDbEntity
  8
0
  6
ByBlock
 62
     2
100
AcDbLine
 10
409.879211921542
 20
309.8112838489725
 30
0.0
 11
409.879211921542
 21
335.3556506559746
 31
0.0
  0
LINE
  5
1A4E
330
18
100
AcDbEntity
  8
0
  6
ByBlock
 62
     2
100
AcDbLine
 10
405.979211921542
 20
334.1056506559746
 30
0.0
 11
407.379211921542
 21
334.1056506559746
 31
0.0
  0
MTEXT
  5
1A51
330
18
100
AcDbEntity
  8
0
  6
ByBlock
 62
     6
100
AcDbMText
 10
404.0183567379632
 20
331.629900659807
 30
0.0
 40
2.5
 41
0.0
 71
     4
 72
     1
  1
\A1;6.4
  7
STYLE3
 73
     1
 44
1.0
  0
INSERT
  5
1A52
330
18
100
AcDbEntity
  8
0
  6
ByBlock
 62
     2
100
AcDbBlockReference
  2
_OPEN
 10
403.4792119215421
 20
334.1056506559746
 30
0.0
 41
2.5
 42
2.5
 43
2.5
 50
180.0
  0
INSERT
  5
1A53
330
18
100
AcDbEntity
  8
0
  6
ByBlock
 62
     2
100
AcDbBlockReference
  2
_OPEN
 10
409.879211921542
 20
334.1056506559746
 30
0.0
 41
2.5
 42
2.5
 43
2.5
  0
POINT
  5
1A54
330
18
100
AcDbEntity
  8
DEFPOINTS
  6
ByBlock
 62
     0
100
AcDbPoint
 10
403.4792119215421
 20
329.3657857069036
 30
0.0
  0
POINT
  5
1A55
330
18
100
AcDbEntity
  8
DEFPOINTS
  6
ByBlock
 62
     0
100
AcDbPoint
 10
409.879211921542
 20
309.8112838489725
 30
0.0
  0
POINT
  5
1A56
330
18
100
AcDbEntity
  8
DEFPOINTS
  6
ByBlock
 62
     0
100
AcDbPoint
 10
409.879211921542
 20
334.1056506559746
 30
0.0
  0
INSERT
  5
1AAD
330
18
100
AcDbEntity
  8
寸法線
100
AcDbBlockReference
  2
PC_PCN針
 10
315.1206546476809
 20
292.1612838489725
 30
0.0
 50
292.5000000000002
  0
INSERT
  5
1AB8
330
18
100
AcDbEntity
  8
寸法線
100
AcDbBlockReference
  2
PC_PCN針
 10
461.7636182426898
 20
292.1612838489726
 30
0.0
 50
247.4999999999998
  0
LINE
  5
1B08
330
18
100
AcDbEntity
  8
外形線
100
AcDbLine
 10
317.4928798089145
 20
357.5713500231842
 30
0.0
 11
427.4928798089145
 21
357.5713500231842
 31
0.0
  0
LINE
  5
1B09
330
18
100
AcDbEntity
  8
外形線
100
AcDbLine
 10
317.4928798089145
 20
356.5713500231842
 30
0.0
 11
427.4928798089145
 21
356.5713500231842
 31
0.0
  0
TEXT
  5
1B0A
330
18
100
AcDbEntity
  8
文字
100
AcDbText
 10
318.6827688089146
 20
358.9932400231842
 30
0.0
 40
4.0
  1
Model No.PC-1BW Pic Test Indicator
  7
STYLE3
100
AcDbText
  0
LINE
  5
1B0D
330
18
100
AcDbEntity
  8
外形線
100
AcDbLine
 10
350.0936248089146
 20
192.9081060231842
 30
0.0
 11
490.8850428089145
 21
192.9081060231842
 31
0.0
  0
LINE
  5
1B0E
330
18
100
AcDbEntity
  8
外形線
100
AcDbLine
 10
350.0936248089146
 20
182.1279000231842
 30
0.0
 11
490.8850428089145
 21
182.1279000231842
 31
0.0
  0
TEXT
  5
1B0F
330
18
100
AcDbEntity
  8
0
  6
Continuous
100
AcDbText
 10
351.5510918089146
 20
184.0258900231842
 30
0.0
 40
2.1
  1
Design and specifications are subject to change without notice for future improvement.
  7
STYLE3
100
AcDbText
  0
TEXT
  5
1B10
330
18
100
AcDbEntity
  8
0
  6
Continuous
100
AcDbText
 10
351.8425858089146
 20
187.9550380231842
 30
0.0
 40
3.5
  1
仕様及び外観は予告なく変更される場合がございますのでご了承下さい。
  7
STYLE3
100
AcDbText
  0
TEXT
  5
1B11
330
18
100
AcDbEntity
  8
0
  6
Continuous
100
AcDbText
 10
351.2596008089146
 20
174.2612620231842
 30
0.0
 40
2.1
  1
3RD Angle Projection
  7
STYLE3
100
AcDbText
  0
TEXT
  5
1B12
330
18
100
AcDbEntity
  8
0
  6
Continuous
100
AcDbText
 10
353.8830438089146
 20
177.7575450231842
 30
0.0
 40
3.0
  1
三　　角　　法
  7
STYLE3
100
AcDbText
  0
LINE
  5
1B13
330
18
100
AcDbEntity
  8
外形線
100
AcDbLine
 10
350.0936248089146
 20
172.5131220231842
 30
0.0
 11
350.0936248089146
 21
192.9081060231842
 31
0.0
  0
LINE
  5
1B14
330
18
100
AcDbEntity
  8
外形線
100
AcDbLine
 10
452.1163918089145
 20
182.1279000231842
 30
0.0
 11
452.1163918089145
 21
172.5131220231842
 31
0.0
  0
LINE
  5
1B15
330
18
100
AcDbEntity
  8
外形線
100
AcDbLine
 10
422.3840418089145
 20
182.1279000231842
 30
0.0
 11
422.3840418089145
 21
172.5131220231842
 31
0.0
  0
LINE
  5
1B16
330
18
100
AcDbEntity
  8
外形線
100
AcDbLine
 10
402.8539698089145
 20
182.1279000231842
 30
0.0
 11
402.8539698089145
 21
172.5131220231842
 31
0.0
  0
LINE
  5
1B17
330
18
100
AcDbEntity
  8
外形線
100
AcDbLine
 10
385.3643528089146
 20
182.1279000231842
 30
0.0
 11
385.3643528089146
 21
172.5131220231842
 31
0.0
  0
TEXT
  5
1B18
330
18
100
AcDbEntity
  8
0
  6
Continuous
100
AcDbText
 10
386.8218218089146
 20
177.7635000231842
 30
0.0
 40
3.0
  1
単位
  7
STYLE3
100
AcDbText
  0
TEXT
  5
1B19
330
18
100
AcDbEntity
  8
0
  6
Continuous
100
AcDbText
 10
386.9935428089146
 20
174.2612630231842
 30
0.0
 40
2.1
  1
Unit
  7
STYLE3
100
AcDbText
  0
TEXT
  5
1B1A
330
18
100
AcDbEntity
  8
0
  6
Continuous
100
AcDbText
 10
404.1397178089146
 20
177.4721420231842
 30
0.0
 40
3.0
  1
尺 度
  7
STYLE3
100
AcDbText
  0
TEXT
  5
1B1B
330
18
100
AcDbEntity
  8
0
  6
Continuous
100
AcDbText
 10
394.8638698089146
 20
176.0094060231842
 30
0.0
 40
2.399999999999999
  1
mm
  7
STYLE3
100
AcDbText
  0
TEXT
  5
1B1C
330
18
100
AcDbEntity
  8
0
  6
Continuous
100
AcDbText
 10
404.6029328089145
 20
174.5526200231842
 30
0.0
 40
2.1
  1
Scale
  7
STYLE3
100
AcDbText
  0
TEXT
  5
1B1D
330
18
100
AcDbEntity
  8
0
  6
Continuous
100
AcDbText
 10
414.2222218089146
 20
176.3007630231842
 30
0.0
 40
2.399999999999999
  1
1/1
  7
STYLE3
100
AcDbText
  0
TEXT
  5
1B1E
330
18
100
AcDbEntity
  8
0
  6
Continuous
100
AcDbText
 10
424.3159928089146
 20
174.2612640231842
 30
0.0
 40
2.1
  1
Date
  7
STYLE3
100
AcDbText
  0
TEXT
  5
1B1F
330
18
100
AcDbEntity
  8
0
  6
Continuous
100
AcDbText
 10
423.9326318089145
 20
177.5943470231842
 30
0.0
 40
3.0
  1
日 付
  7
STYLE3
100
AcDbText
  0
TEXT
  5
1B20
330
18
100
AcDbEntity
  8
0
  6
Continuous
100
AcDbText
 10
433.0608008089146
 20
176.0094050231842
 30
0.0
 40
2.1
  1
2010.06.14
  7
STYLE3
100
AcDbText
  0
TEXT
  5
1B21
330
18
100
AcDbEntity
  8
0
  6
Continuous
100
AcDbText
 10
453.4653548089146
 20
178.0489020231842
 30
0.0
 40
3.0
  1
株式会社　尾崎製作所
  7
STYLE3
100
AcDbText
  0
TEXT
  5
1B22
330
18
100
AcDbEntity
  8
0
  6
Continuous
100
AcDbText
 10
454.3398338089145
 20
174.2612630231842
 30
0.0
 40
2.1
  1
OZAKI MFG. CO., LTD.
  7
STYLE3
100
AcDbText
  0
ENDSEC
  0
SECTION
  2
OBJECTS
  0
DICTIONARY
  5
C
330
0
100
AcDbDictionary
281
     1
  3
ACAD_COLOR
350
1A7E
  3
ACAD_GROUP
350
D
  3
ACAD_IMAGE_DICT
350
B2C
  3
ACAD_LAYOUT
350
1A81
  3
ACAD_MATERIAL
350
1A7D
  3
ACAD_MLINESTYLE
350
1B
  3
ACAD_PLOTSETTINGS
350
1A82
  3
ACAD_PLOTSTYLENAME
350
1A7B
  3
ACAD_TABLESTYLE
350
1A7F
  3
ACDBVARIABLEDICTIONARY
350
1297
  0
DICTIONARY
  5
1A92
330
1A91
100
AcDbDictionary
280
     1
281
     1
  3
ACAD_SORTENTS
360
1A93
  0
DICTIONARY
  5
1A7E
102
{ACAD_REACTORS
330
C
102
}
330
C
100
AcDbDictionary
281
     1
  0
DICTIONARY
  5
D
102
{ACAD_REACTORS
330
C
102
}
330
C
100
AcDbDictionary
281
     1
  0
DICTIONARY
  5
B2C
102
{ACAD_REACTORS
330
C
102
}
330
C
100
AcDbDictionary
281
     1
  3
ROGO01
350
B2D
  0
DICTIONARY
  5
1A81
102
{ACAD_REACTORS
330
C
102
}
330
C
100
AcDbDictionary
281
     1
  3
Model
350
1A83
  3
レイアウト1
350
1A84
  0
DICTIONARY
  5
1A7D
102
{ACAD_REACTORS
330
C
102
}
330
C
100
AcDbDictionary
281
     1
  0
DICTIONARY
  5
1B
102
{ACAD_REACTORS
330
C
102
}
330
C
100
AcDbDictionary
281
     1
  3
STANDARD
350
1C
  0
DICTIONARY
  5
1A82
102
{ACAD_REACTORS
330
C
102
}
330
C
100
AcDbDictionary
281
     1
  0
ACDBDICTIONARYWDFLT
  5
1A7B
102
{ACAD_REACTORS
330
C
102
}
330
C
100
AcDbDictionary
281
     1
  3
Normal
350
1A7C
100
AcDbDictionaryWithDefault
340
1A7C
  0
DICTIONARY
  5
1A7F
102
{ACAD_REACTORS
330
C
102
}
330
C
100
AcDbDictionary
281
     1
  3
Standard
350
1A80
  0
DICTIONARY
  5
1297
102
{ACAD_REACTORS
330
C
102
}
330
C
100
AcDbDictionary
281
     1
  3
CTABLESTYLE
350
1A8A
  3
SORTENTS
350
1298
  0
SORTENTSTABLE
  5
1A93
102
{ACAD_REACTORS
330
1A92
102
}
330
1A92
100
AcDbSortentsTable
330
1A91
  0
IMAGEDEF
  5
B2D
102
{ACAD_REACTORS
330
B2C
102
}
330
B2C
100
AcDbRasterImageDef
 90
        0
  1
D:\ﾃｽﾄ\rogo01.TIF
 10
3388.0
 20
4668.0
 11
0.0635
 21
0.0635
280
     1
281
     5
  0
LAYOUT
  5
1A83
102
{ACAD_REACTORS
330
1A81
102
}
330
1A81
100
AcDbPlotSettings
  1

  2
A4 EPSON LP-6100.pc3
  4
A4
  6

 40
5.873749732971191
 41
5.873747825622558
 42
5.873748779296875
 43
5.873748779296875
 44
209.9733276367187
 45
297.0106506347656
 46
0.9
 47
25.0
 48
0.0
 49
0.0
140
0.0
141
0.0
142
1.0
143
1.0
 70
 28336
 72
     1
 73
     1
 74
     1
  7
AutoCAD LT 98.ctb
 75
    16
147
1.0
 76
     1
 77
     2
 78
   300
148
-236.4886379941705
149
-171.6235136330668
100
AcDbLayout
  1
Model
 70
     1
 71
     0
 10
0.0
 20
0.0
 11
12.0
 21
9.0
 12
0.0
 22
0.0
 32
0.0
 14
0.0
 24
0.0
 34
0.0
 15
0.0
 25
0.0
 35
0.0
146
0.0
 13
0.0
 23
0.0
 33
0.0
 16
1.0
 26
0.0
 36
0.0
 17
0.0
 27
1.0
 37
0.0
 76
     0
330
18
1001
ACAD_PSEXT
1000
A4 EPSON LP-6100.pc3
1000
EPSON LP-6100
1000
\\SATO-MATE2
1000

1070
     0
  0
LAYOUT
  5
1A84
102
{ACAD_REACTORS
330
1A81
102
}
330
1A81
100
AcDbPlotSettings
  1

  2
WIDR Printer
  4

  6

 40
0.0
 41
0.0
 42
0.0
 43
0.0
 44
0.0
 45
0.0
 46
0.0
 47
0.0
 48
0.0
 49
0.0
140
0.0
141
0.0
142
1.0
143
1.0
 70
   688
 72
     0
 73
     0
 74
     5
  7
AutoCad LT 98.ctb
 75
    16
147
1.0
 76
     0
 77
     2
 78
   300
148
0.0
149
0.0
100
AcDbLayout
  1
レイアウト1
 70
     1
 71
     1
 10
0.0
 20
0.0
 11
420.0
 21
297.0
 12
0.0
 22
0.0
 32
0.0
 14
1.000000000000000E+20
 24
1.000000000000000E+20
 34
1.000000000000000E+20
 15
-1.000000000000000E+20
 25
-1.000000000000000E+20
 35
-1.000000000000000E+20
146
0.0
 13
0.0
 23
0.0
 33
0.0
 16
1.0
 26
0.0
 36
0.0
 17
0.0
 27
1.0
 37
0.0
 76
     0
330
15
  0
MLINESTYLE
  5
1C
102
{ACAD_REACTORS
330
1B
102
}
330
1B
100
AcDbMlineStyle
  2
STANDARD
 70
     0
  3

 62
   256
 51
90.0
 52
90.0
 71
     2
 49
0.5
 62
   256
  6
BYLAYER
 49
-0.5
 62
   256
  6
BYLAYER
  0
ACDBPLACEHOLDER
  5
1A7C
102
{ACAD_REACTORS
330
1A7B
102
}
330
1A7B
  0
ACAD_PROXY_OBJECT
  5
1A80
102
{ACAD_REACTORS
330
1A7F
102
}
330
1A7F
100
AcDbProxyObject
 90
      499
 91
      505
 95
  2555929
 70
     0
 93
     1849
310
4214DD185B99185C992420000000000000F83F0000000000003E0FC00000000000004901028000000C1008070000C3001FDFF8000000C1003FBFF000000182007F7FE00000030400FEFFC00000060801FDFF8000000C1003FBFF000000182000000000000000C2020B0000001820100E000186003FBFF000000182007F7FE0
310
0000030400FEFFC00000060801FDFF8000000C1003FBFF000000182007F7FE0000003040000000000000012404160000003040201C00030C007F7FE00000030400FEFFC00000060801FDFF8000000C1003FBFF000000182007F7FE00000030400FEFFC000000608030
340
F
340
F
340
F
 94
        0
  0
DICTIONARYVAR
  5
1A8A
102
{ACAD_REACTORS
330
1297
102
}
330
1297
100
DictionaryVariables
280
     0
  1
STANDARD
  0
DICTIONARYVAR
  5
1298
102
{ACAD_REACTORS
330
1297
102
}
330
1297
100
DictionaryVariables
280
     0
  1
96
  0
ENDSEC
  0
EOF
