  0
SECTION
  2
HEADER
  9
$ACADVER
  1
AC1018
  9
$ACADMAINTVER
 70
     0
  9
$DWGCODEPAGE
  3
ANSI_932
  9
$INSBASE
 10
0.0
 20
0.0
 30
0.0
  9
$EXTMIN
 10
236.4886379941705
 20
171.6235136330668
 30
-1.000030515249854
  9
$EXTMAX
 10
491.9065729289581
 20
367.0613775925545
 30
0.000030519906467
  9
$LIMMIN
 10
0.0
 20
0.0
  9
$LIMMAX
 10
420.0
 20
297.0
  9
$ORTHOMODE
 70
     0
  9
$REGENMODE
 70
     1
  9
$FILLMODE
 70
     1
  9
$QTEXTMODE
 70
     0
  9
$MIRRTEXT
 70
     1
  9
$LTSCALE
 40
1.0
  9
$ATTMODE
 70
     1
  9
$TEXTSIZE
 40
1.5
  9
$TRACEWID
 40
1.0
  9
$TEXTSTYLE
  7
STYLE3
  9
$CLAYER
  8
寸法線
  9
$CELTYPE
  6
BYLAYER
  9
$CECOLOR
 62
   256
  9
$CELTSCALE
 40
1.0
  9
$DISPSILH
 70
     0
  9
$DIMSCALE
 40
1.0
  9
$DIMASZ
 40
2.5
  9
$DIMEXO
 40
0.0
  9
$DIMDLI
 40
3.75
  9
$DIMRND
 40
0.0
  9
$DIMDLE
 40
0.0
  9
$DIMEXE
 40
1.25
  9
$DIMTP
 40
0.0
  9
$DIMTM
 40
0.0
  9
$DIMTXT
 40
2.5
  9
$DIMCEN
 40
2.5
  9
$DIMTSZ
 40
0.0
  9
$DIMTOL
 70
     0
  9
$DIMLIM
 70
     0
  9
$DIMTIH
 70
     0
  9
$DIMTOH
 70
     0
  9
$DIMSE1
 70
     0
  9
$DIMSE2
 70
     0
  9
$DIMTAD
 70
     1
  9
$DIMZIN
 70
     8
  9
$DIMBLK
  1

  9
$DIMASO
 70
     1
  9
$DIMSHO
 70
     1
  9
$DIMPOST
  1

  9
$DIMAPOST
  1

  9
$DIMALT
 70
     0
  9
$DIMALTD
 70
     4
  9
$DIMALTF
 40
0.0394
  9
$DIMLFAC
 40
1.0
  9
$DIMTOFL
 70
     1
  9
$DIMTVP
 40
0.0
  9
$DIMTIX
 70
     0
  9
$DIMSOXD
 70
     0
  9
$DIMSAH
 70
     1
  9
$DIMBLK1
  1
OPEN
  9
$DIMBLK2
  1
OPEN
  9
$DIMSTYLE
  2
STYLE3
  9
$DIMCLRD
 70
     2
  9
$DIMCLRE
 70
     2
  9
$DIMCLRT
 70
     6
  9
$DIMTFAC
 40
1.0
  9
$DIMGAP
 40
0.625
  9
$DIMJUST
 70
     0
  9
$DIMSD1
 70
     0
  9
$DIMSD2
 70
     0
  9
$DIMTOLJ
 70
     1
  9
$DIMTZIN
 70
     0
  9
$DIMALTZ
 70
     0
  9
$DIMALTTZ
 70
     0
  9
$DIMUPT
 70
     0
  9
$DIMDEC
 70
     2
  9
$DIMTDEC
 70
     4
  9
$DIMALTU
 70
     8
  9
$DIMALTTD
 70
     4
  9
$DIMTXSTY
  7
STYLE3
  9
$DIMAUNIT
 70
     0
  9
$DIMADEC
 70
     0
  9
$DIMALTRND
 40
0.0
  9
$DIMAZIN
 70
     0
  9
$DIMDSEP
 70
    46
  9
$DIMATFIT
 70
     3
  9
$DIMFRAC
 70
     0
  9
$DIMLDRBLK
  1

  9
$DIMLUNIT
 70
     2
  9
$DIMLWD
 70
    -2
  9
$DIMLWE
 70
    -2
  9
$DIMTMOVE
 70
     0
  9
$LUNITS
 70
     2
  9
$LUPREC
 70
     4
  9
$SKETCHINC
 40
1.0
  9
$FILLETRAD
 40
0.0
  9
$AUNITS
 70
     0
  9
$AUPREC
 70
     0
  9
$MENU
  1
.
  9
$ELEVATION
 40
0.0
  9
$PELEVATION
 40
0.0
  9
$THICKNESS
 40
0.0
  9
$LIMCHECK
 70
     0
  9
$CHAMFERA
 40
0.1
  9
$CHAMFERB
 40
0.1
  9
$CHAMFERC
 40
20.0
  9
$CHAMFERD
 40
0.0
  9
$SKPOLY
 70
     0
  9
$TDCREATE
 40
2451066.662483449
  9
$TDUCREATE
 40
2451066.287483449
  9
$TDUPDATE
 40
2455362.543887442
  9
$TDUUPDATE
 40
2455362.168887442
  9
$TDINDWG
 40
0.9112740856
  9
$TDUSRTIMER
 40
0.9112740856
  9
$USRTIMER
 70
     1
  9
$ANGBASE
 50
0.0
  9
$ANGDIR
 70
     0
  9
$PDMODE
 70
     0
  9
$PDSIZE
 40
0.0
  9
$PLINEWID
 40
0.0
  9
$SPLFRAME
 70
     0
  9
$SPLINETYPE
 70
     6
  9
$SPLINESEGS
 70
     8
  9
$HANDSEED
  5
20BC
  9
$SURFTAB1
 70
     6
  9
$SURFTAB2
 70
     6
  9
$SURFTYPE
 70
     6
  9
$SURFU
 70
     6
  9
$SURFV
 70
     6
  9
$UCSBASE
  2

  9
$UCSNAME
  2

  9
$UCSORG
 10
0.0
 20
0.0
 30
0.0
  9
$UCSXDIR
 10
1.0
 20
0.0
 30
0.0
  9
$UCSYDIR
 10
0.0
 20
1.0
 30
0.0
  9
$UCSORTHOREF
  2

  9
$UCSORTHOVIEW
 70
     0
  9
$UCSORGTOP
 10
0.0
 20
0.0
 30
0.0
  9
$UCSORGBOTTOM
 10
0.0
 20
0.0
 30
0.0
  9
$UCSORGLEFT
 10
0.0
 20
0.0
 30
0.0
  9
$UCSORGRIGHT
 10
0.0
 20
0.0
 30
0.0
  9
$UCSORGFRONT
 10
0.0
 20
0.0
 30
0.0
  9
$UCSORGBACK
 10
0.0
 20
0.0
 30
0.0
  9
$PUCSBASE
  2

  9
$PUCSNAME
  2

  9
$PUCSORG
 10
0.0
 20
0.0
 30
0.0
  9
$PUCSXDIR
 10
1.0
 20
0.0
 30
0.0
  9
$PUCSYDIR
 10
0.0
 20
1.0
 30
0.0
  9
$PUCSORTHOREF
  2

  9
$PUCSORTHOVIEW
 70
     0
  9
$PUCSORGTOP
 10
0.0
 20
0.0
 30
0.0
  9
$PUCSORGBOTTOM
 10
0.0
 20
0.0
 30
0.0
  9
$PUCSORGLEFT
 10
0.0
 20
0.0
 30
0.0
  9
$PUCSORGRIGHT
 10
0.0
 20
0.0
 30
0.0
  9
$PUCSORGFRONT
 10
0.0
 20
0.0
 30
0.0
  9
$PUCSORGBACK
 10
0.0
 20
0.0
 30
0.0
  9
$USERI1
 70
     0
  9
$USERI2
 70
     0
  9
$USERI3
 70
     0
  9
$USERI4
 70
     0
  9
$USERI5
 70
     0
  9
$USERR1
 40
0.0
  9
$USERR2
 40
0.0
  9
$USERR3
 40
0.0
  9
$USERR4
 40
0.0
  9
$USERR5
 40
0.0
  9
$WORLDVIEW
 70
     1
  9
$SHADEDGE
 70
     3
  9
$SHADEDIF
 70
    70
  9
$TILEMODE
 70
     1
  9
$MAXACTVP
 70
    48
  9
$PINSBASE
 10
0.0
 20
0.0
 30
0.0
  9
$PLIMCHECK
 70
     0
  9
$PEXTMIN
 10
1.000000000000000E+20
 20
1.000000000000000E+20
 30
1.000000000000000E+20
  9
$PEXTMAX
 10
-1.000000000000000E+20
 20
-1.000000000000000E+20
 30
-1.000000000000000E+20
  9
$PLIMMIN
 10
0.0
 20
0.0
  9
$PLIMMAX
 10
420.0
 20
297.0
  9
$UNITMODE
 70
     0
  9
$VISRETAIN
 70
     1
  9
$PLINEGEN
 70
     0
  9
$PSLTSCALE
 70
     1
  9
$TREEDEPTH
 70
  3020
  9
$CMLSTYLE
  2
STANDARD
  9
$CMLJUST
 70
     0
  9
$CMLSCALE
 40
20.0
  9
$PROXYGRAPHICS
 70
     1
  9
$MEASUREMENT
 70
     1
  9
$CELWEIGHT
370
    -1
  9
$ENDCAPS
280
     0
  9
$JOINSTYLE
280
     0
  9
$LWDISPLAY
290
     0
  9
$INSUNITS
 70
     0
  9
$HYPERLINKBASE
  1

  9
$STYLESHEET
  1
AutoCAD LT 98.ctb
  9
$XEDIT
290
     1
  9
$CEPSNTYPE
380
     0
  9
$PSTYLEMODE
290
     1
  9
$FINGERPRINTGUID
  2
{3D9D4677-6F6D-40D8-B759-5ABE3057D6EB}
  9
$VERSIONGUID
  2
{FF2AD7B7-69AC-4DBD-B591-F15C3895C698}
  9
$EXTNAMES
290
     1
  9
$PSVPSCALE
 40
0.0
  9
$OLESTARTUP
290
     0
  9
$SORTENTS
280
    96
  9
$INDEXCTL
280
     0
  9
$HIDETEXT
280
     0
  9
$XCLIPFRAME
290
     0
  9
$HALOGAP
280
     0
  9
$OBSCOLOR
 70
   257
  9
$OBSLTYPE
280
     0
  9
$INTERSECTIONDISPLAY
280
     0
  9
$INTERSECTIONCOLOR
 70
   257
  9
$DIMASSOC
280
     1
  9
$PROJECTNAME
  1

  0
ENDSEC
  0
SECTION
  2
CLASSES
  0
CLASS
  1
HATCH
  2
AcDbHatch
  3
ObjectDBX Classes
 90
        0
 91
       31
280
     0
281
     1
  0
CLASS
  1
LWPOLYLINE
  2
AcDbPolyline
  3
ObjectDBX Classes
 90
        0
 91
        1
280
     0
281
     1
  0
CLASS
  1
IMAGEDEF
  2
AcDbRasterImageDef
  3
ISM
 90
        0
 91
        1
280
     0
281
     0
  0
CLASS
  1
DICTIONARYVAR
  2
AcDbDictionaryVar
  3
ObjectDBX Classes
 90
        0
 91
        2
280
     0
281
     0
  0
CLASS
  1
ACDBDICTIONARYWDFLT
  2
AcDbDictionaryWithDefault
  3
ObjectDBX Classes
 90
        0
 91
        1
280
     0
281
     0
  0
CLASS
  1
TABLESTYLE
  2
AcDbTableStyle
  3
ObjectDBX Classes
 90
     2047
 91
        1
280
     0
281
     0
  0
CLASS
  1
SORTENTSTABLE
  2
AcDbSortentsTable
  3
ObjectDBX Classes
 90
        0
 91
        0
280
     0
281
     0
  0
ENDSEC
  0
SECTION
  2
TABLES
  0
TABLE
  2
VPORT
  5
8
330
0
100
AcDbSymbolTable
 70
     2
  0
VPORT
  5
20BB
330
8
100
AcDbSymbolTableRecord
100
AcDbViewportTableRecord
  2
*Active
 70
     0
 10
0.0
 20
0.0
 11
1.0
 21
1.0
 12
364.1976054615643
 22
269.3424456128107
 13
0.0
 23
0.0
 14
10.0
 24
10.0
 15
10.0
 25
10.0
 16
0.0
 26
0.0
 36
1.0
 17
0.0
 27
0.0
 37
0.0
 40
196.9240834572785
 41
1.530456852791878
 42
50.0
 43
0.0
 44
0.0
 50
0.0
 51
0.0
 71
     0
 72
   100
 73
     1
 74
     1
 75
     0
 76
     0
 77
     0
 78
     0
281
     0
 65
     1
110
0.0
120
0.0
130
0.0
111
1.0
121
0.0
131
0.0
112
0.0
122
1.0
132
0.0
 79
     0
146
0.0
  0
ENDTAB
  0
TABLE
  2
LTYPE
  5
5
330
0
100
AcDbSymbolTable
 70
     5
  0
LTYPE
  5
12
330
5
100
AcDbSymbolTableRecord
100
AcDbLinetypeTableRecord
  2
BYBLOCK
 70
     0
  3

 72
    65
 73
     0
 40
0.0
  0
LTYPE
  5
13
330
5
100
AcDbSymbolTableRecord
100
AcDbLinetypeTableRecord
  2
BYLAYER
 70
     0
  3

 72
    65
 73
     0
 40
0.0
  0
LTYPE
  5
14
330
5
100
AcDbSymbolTableRecord
100
AcDbLinetypeTableRecord
  2
CONTINUOUS
 70
     0
  3
Solid line
 72
    65
 73
     0
 40
0.0
  0
LTYPE
  5
22
330
5
100
AcDbSymbolTableRecord
100
AcDbLinetypeTableRecord
  2
CENTER2
 70
     0
  3
Center (.5x) ___ _ ___ _ ___ _ ___ _ ___ _ ___
 72
    65
 73
     4
 40
28.575
 49
19.05
 74
     0
 49
-3.174999999999999
 74
     0
 49
3.174999999999999
 74
     0
 49
-3.174999999999999
 74
     0
  0
LTYPE
  5
23
330
5
100
AcDbSymbolTableRecord
100
AcDbLinetypeTableRecord
  2
HIDDEN2
 70
     0
  3
Hidden (.5x) _ _ _ _ _ _ _ _ _ _ _ _ _ _ _ _ _
 72
    65
 73
     2
 40
4.762499999999999
 49
3.174999999999999
 74
     0
 49
-1.587499999999999
 74
     0
  0
ENDTAB
  0
TABLE
  2
LAYER
  5
2
330
0
100
AcDbSymbolTable
 70
    12
  0
LAYER
  5
E
330
2
100
AcDbSymbolTableRecord
100
AcDbLayerTableRecord
  2
0
 70
     0
 62
     7
  6
CONTINUOUS
370
    -3
390
1DA8
  0
LAYER
  5
25
330
2
100
AcDbSymbolTableRecord
100
AcDbLayerTableRecord
  2
外形線
 70
     0
 62
     7
  6
CONTINUOUS
370
    -3
390
1DA8
  0
LAYER
  5
26
330
2
100
AcDbSymbolTableRecord
100
AcDbLayerTableRecord
  2
寸法線
 70
     0
 62
     2
  6
CONTINUOUS
370
    -3
390
1DA8
  0
LAYER
  5
27
330
2
100
AcDbSymbolTableRecord
100
AcDbLayerTableRecord
  2
中心線
 70
     0
 62
     4
  6
CENTER2
370
    -3
390
1DA8
  0
LAYER
  5
28
330
2
100
AcDbSymbolTableRecord
100
AcDbLayerTableRecord
  2
隠れ線
 70
     0
 62
     6
  6
HIDDEN2
370
    -3
390
1DA8
  0
LAYER
  5
2B
330
2
100
AcDbSymbolTableRecord
100
AcDbLayerTableRecord
  2
文字
 70
     0
 62
     6
  6
CONTINUOUS
370
    -3
390
1DA8
  0
LAYER
  5
2C
330
2
100
AcDbSymbolTableRecord
100
AcDbLayerTableRecord
  2
目盛
 70
     0
 62
    70
  6
CONTINUOUS
370
    -3
390
1DA8
  0
LAYER
  5
2D
330
2
100
AcDbSymbolTableRecord
100
AcDbLayerTableRecord
  2
針
 70
     0
 62
     5
  6
CONTINUOUS
370
    -3
390
1DA8
  0
LAYER
  5
53
330
2
100
AcDbSymbolTableRecord
100
AcDbLayerTableRecord
  2
DEFPOINTS
 70
     0
 62
     7
  6
CONTINUOUS
290
     0
370
    -3
390
1DA8
  0
LAYER
  5
A5
330
2
100
AcDbSymbolTableRecord
100
AcDbLayerTableRecord
  2
C
 70
     0
 62
     7
  6
CONTINUOUS
370
    -3
390
1DA8
  0
LAYER
  5
AD4
330
2
100
AcDbSymbolTableRecord
100
AcDbLayerTableRecord
  2
ROGO
 70
     0
 62
     6
  6
CONTINUOUS
370
    -3
390
1DA8
  0
LAYER
  5
1822
330
2
100
AcDbSymbolTableRecord
100
AcDbLayerTableRecord
  2
ASHADE
 70
     0
 62
     7
  6
CONTINUOUS
370
    -3
390
1DA8
  0
ENDTAB
  0
TABLE
  2
STYLE
  5
3
330
0
100
AcDbSymbolTable
 70
     3
  0
STYLE
  5
F
330
3
100
AcDbSymbolTableRecord
100
AcDbTextStyleTableRecord
  2
STANDARD
 70
     0
 40
0.0
 41
1.0
 50
0.0
 71
     0
 42
2.5
  3
txt
  4

  0
STYLE
  5
3F
330
3
100
AcDbSymbolTableRecord
100
AcDbTextStyleTableRecord
  2
STYLE3
 70
     0
 40
0.0
 41
1.0
 50
0.0
 71
     0
 42
1.5
  3
romans.shx
  4
bigfont.shx
  0
ENDTAB
  0
TABLE
  2
VIEW
  5
6
330
0
100
AcDbSymbolTable
 70
     0
  0
ENDTAB
  0
TABLE
  2
UCS
  5
7
330
0
100
AcDbSymbolTable
 70
     0
  0
ENDTAB
  0
TABLE
  2
APPID
  5
9
330
0
100
AcDbSymbolTable
 70
     7
  0
APPID
  5
10
330
9
100
AcDbSymbolTableRecord
100
AcDbRegAppTableRecord
  2
ACAD
 70
     0
  0
APPID
  5
1820
330
9
100
AcDbSymbolTableRecord
100
AcDbRegAppTableRecord
  2
AVE_RENDER
 70
     0
  0
APPID
  5
1821
330
9
100
AcDbSymbolTableRecord
100
AcDbRegAppTableRecord
  2
AVE_ENTITY_MATERIAL
 70
     0
  0
APPID
  5
182E
330
9
100
AcDbSymbolTableRecord
100
AcDbRegAppTableRecord
  2
AVE_FINISH
 70
     0
  0
APPID
  5
182F
330
9
100
AcDbSymbolTableRecord
100
AcDbRegAppTableRecord
  2
AVE_MATERIAL
 70
     0
  0
APPID
  5
1830
330
9
100
AcDbSymbolTableRecord
100
AcDbRegAppTableRecord
  2
AVE_GLOBAL
 70
     0
  0
APPID
  5
1DC2
330
9
100
AcDbSymbolTableRecord
100
AcDbRegAppTableRecord
  2
ACAD_PSEXT
 70
     0
  0
ENDTAB
  0
TABLE
  2
DIMSTYLE
  5
A
330
0
100
AcDbSymbolTable
 70
     2
100
AcDbDimStyleTable
 71
     1
340
8F
  0
DIMSTYLE
105
1D
330
A
100
AcDbSymbolTableRecord
100
AcDbDimStyleTableRecord
  2
STANDARD
 70
     0
 41
2.5
 42
0.625
 43
3.75
 44
1.25
 73
     0
 74
     0
 77
     1
 78
     8
140
2.5
141
2.5
143
0.0394
147
0.625
171
     4
172
     1
273
     8
274
     4
277
     6
340
F
  0
DIMSTYLE
105
8F
102
{ACAD_REACTORS
330
2029
330
2036
330
2043
330
2050
102
}
330
A
100
AcDbSymbolTableRecord
100
AcDbDimStyleTableRecord
  2
STYLE3
 70
     0
 41
2.5
 42
0.0
 43
3.75
 44
1.25
 73
     0
 74
     0
 77
     1
 78
     8
140
2.5
141
2.5
143
0.0394
147
0.625
171
     4
172
     1
173
     1
176
     2
177
     2
178
     6
271
     1
273
     8
274
     4
340
3F
341
45
343
45
344
45
  0
ENDTAB
  0
TABLE
  2
BLOCK_RECORD
  5
1
330
0
100
AcDbSymbolTable
 70
    12
  0
BLOCK_RECORD
  5
18
330
1
100
AcDbSymbolTableRecord
100
AcDbBlockTableRecord
  2
*MODEL_SPACE
340
1DAF
  0
BLOCK_RECORD
  5
15
330
1
100
AcDbSymbolTableRecord
100
AcDbBlockTableRecord
  2
*PAPER_SPACE
340
1DB0
  0
BLOCK_RECORD
  5
45
330
1
100
AcDbSymbolTableRecord
100
AcDbBlockTableRecord
  2
_OPEN
340
0
102
{BLKREFS
331
1637
331
1638
331
1654
331
1669
331
166A
331
168B
331
168C
331
198B
331
198C
331
1C7A
331
1C7B
331
1C83
331
1C84
331
1C97
331
1C98
331
1CAA
331
1CAB
331
1CBC
331
1CBD
331
1CC5
331
1CC6
331
1CCF
331
1CD0
331
1D88
331
1D89
331
1D91
331
1D92
331
202E
331
202F
331
203B
331
203C
331
2048
331
2049
331
2055
331
2056
102
}
  0
BLOCK_RECORD
  5
ADD
330
1
100
AcDbSymbolTableRecord
100
AcDbBlockTableRecord
  2
ROGO1
340
0
102
{BLKREFS
331
B43
331
B44
331
FCB
331
FCC
102
}
  0
BLOCK_RECORD
  5
1823
330
1
100
AcDbSymbolTableRecord
100
AcDbBlockTableRecord
  2
AVE_RENDER
340
0
102
{BLKREFS
331
1826
331
1827
331
1828
331
1829
331
182A
331
182B
331
182C
331
182D
102
}
  0
BLOCK_RECORD
  5
1831
330
1
100
AcDbSymbolTableRecord
100
AcDbBlockTableRecord
  2
AVE_GLOBAL
340
0
102
{BLKREFS
331
1834
102
}
  0
BLOCK_RECORD
  5
202A
330
1
100
AcDbSymbolTableRecord
100
AcDbBlockTableRecord
  2
*D4
340
0
  0
BLOCK_RECORD
  5
2037
330
1
100
AcDbSymbolTableRecord
100
AcDbBlockTableRecord
  2
*D5
340
0
  0
BLOCK_RECORD
  5
2044
330
1
100
AcDbSymbolTableRecord
100
AcDbBlockTableRecord
  2
*D6
340
0
  0
BLOCK_RECORD
  5
2051
330
1
100
AcDbSymbolTableRecord
100
AcDbBlockTableRecord
  2
*D7
340
0
  0
ENDTAB
  0
ENDSEC
  0
SECTION
  2
BLOCKS
  0
BLOCK
  5
19
330
18
100
AcDbEntity
  8
0
100
AcDbBlockBegin
  2
*MODEL_SPACE
 70
     0
 10
0.0
 20
0.0
 30
0.0
  3
*MODEL_SPACE
  1

  0
ENDBLK
  5
1A
330
18
100
AcDbEntity
  8
0
100
AcDbBlockEnd
  0
BLOCK
  5
16
330
15
100
AcDbEntity
 67
     1
  8
0
100
AcDbBlockBegin
  2
*PAPER_SPACE
 70
     0
 10
0.0
 20
0.0
 30
0.0
  3
*PAPER_SPACE
  1

  0
ENDBLK
  5
17
330
15
100
AcDbEntity
 67
     1
  8
0
100
AcDbBlockEnd
  0
BLOCK
  5
46
330
45
100
AcDbEntity
  8
0
100
AcDbBlockBegin
  2
_OPEN
 70
     0
 10
0.0
 20
0.0
 30
0.0
  3
_OPEN
  1

  0
LINE
  5
47
330
45
100
AcDbEntity
  8
0
  6
ByBlock
 62
     0
100
AcDbLine
 10
-1.0
 20
0.1666666666666666
 30
0.0
 11
0.0
 21
0.0
 31
0.0
  0
LINE
  5
48
330
45
100
AcDbEntity
  8
0
  6
ByBlock
 62
     0
100
AcDbLine
 10
0.0
 20
0.0
 30
0.0
 11
-1.0
 21
-0.1666666666666666
 31
0.0
  0
LINE
  5
49
330
45
100
AcDbEntity
  8
0
  6
ByBlock
 62
     0
100
AcDbLine
 10
0.0
 20
0.0
 30
0.0
 11
-1.0
 21
0.0
 31
0.0
  0
ENDBLK
  5
4A
330
45
100
AcDbEntity
  8
0
100
AcDbBlockEnd
  0
BLOCK
  5
B2A
330
ADD
100
AcDbEntity
  8
0
100
AcDbBlockBegin
  2
ROGO1
 70
     0
 10
0.0
 20
0.0
 30
0.0
  3
ROGO1
  1

  0
MTEXT
  5
B42
330
ADD
100
AcDbEntity
  8
DEFPOINTS
  6
Continuous
100
AcDbMText
 10
1039.786461861274
 20
160.9640365185991
 30
0.0
 40
1.0
 41
0.0
 71
     4
 72
     1
  1
\A1;
 73
     1
 44
1.0
  0
ENDBLK
  5
B2B
330
ADD
100
AcDbEntity
  8
0
100
AcDbBlockEnd
  0
BLOCK
  5
1824
330
1823
100
AcDbEntity
  8
ASHADE
100
AcDbBlockBegin
  2
AVE_RENDER
 70
     0
 10
0.0
 20
0.0
 30
0.0
  3
AVE_RENDER
  1
AVE_RENDER
  0
ENDBLK
  5
1825
330
1823
100
AcDbEntity
  8
0
100
AcDbBlockEnd
  0
BLOCK
  5
1832
330
1831
100
AcDbEntity
  8
ASHADE
100
AcDbBlockBegin
  2
AVE_GLOBAL
 70
     0
 10
0.0
 20
0.0
 30
0.0
  3
AVE_GLOBAL
  1
AVE_GLOBAL
  0
ENDBLK
  5
1833
330
1831
100
AcDbEntity
  8
0
100
AcDbBlockEnd
  0
BLOCK
  5
2034
330
202A
100
AcDbEntity
  8
0
100
AcDbBlockBegin
  2
*D4
 70
     1
 10
0.0
 20
0.0
 30
0.0
  3
*D4
  1

  0
LINE
  5
202B
330
202A
100
AcDbEntity
  8
寸法線
 62
     2
370
    -2
100
AcDbLine
 10
304.7710388666566
 20
250.6512555456247
 30
0.0
 11
295.6657279617689
 21
250.6512555456247
 31
0.0
  0
LINE
  5
202C
330
202A
100
AcDbEntity
  8
寸法線
 62
     2
370
    -2
100
AcDbLine
 10
306.1902123189622
 20
212.0512555456247
 30
0.0
 11
295.6657279617689
 21
212.0512555456247
 31
0.0
  0
LINE
  5
202D
330
202A
100
AcDbEntity
  8
寸法線
 62
     2
370
    -2
100
AcDbLine
 10
296.9157279617689
 20
248.1512555456247
 30
0.0
 11
296.9157279617689
 21
214.5512555456247
 31
0.0
  0
INSERT
  5
202E
330
202A
100
AcDbEntity
  8
寸法線
 62
     2
370
    -2
100
AcDbBlockReference
  2
_OPEN
 10
296.9157279617689
 20
250.6512555456247
 30
0.0
 41
2.5
 42
2.5
 43
2.5
 50
90.0
  0
INSERT
  5
202F
330
202A
100
AcDbEntity
  8
寸法線
 62
     2
370
    -2
100
AcDbBlockReference
  2
_OPEN
 10
296.9157279617689
 20
212.0512555456247
 30
0.0
 41
2.5
 42
2.5
 43
2.5
 50
270.0
  0
MTEXT
  5
2030
330
202A
100
AcDbEntity
  8
寸法線
 62
     6
100
AcDbMText
 10
295.0407279617688
 20
231.3512555456247
 30
0.0
 40
2.5
 41
0.0
 71
     5
 72
     1
  1
\A1;38.6
  7
STYLE3
 11
0.0000000000000001
 21
1.0
 31
0.0
 73
     1
 44
1.0
  0
POINT
  5
2031
330
202A
100
AcDbEntity
  8
DEFPOINTS
 62
     0
100
AcDbPoint
 10
304.7710388666566
 20
250.6512555456247
 30
0.0
  0
POINT
  5
2032
330
202A
100
AcDbEntity
  8
DEFPOINTS
 62
     0
100
AcDbPoint
 10
306.1902123189622
 20
212.0512555456247
 30
0.0
  0
POINT
  5
2033
330
202A
100
AcDbEntity
  8
DEFPOINTS
 62
     0
100
AcDbPoint
 10
296.9157279617689
 20
212.0512555456247
 30
0.0
  0
ENDBLK
  5
2035
330
202A
100
AcDbEntity
  8
0
100
AcDbBlockEnd
  0
BLOCK
  5
2041
330
2037
100
AcDbEntity
  8
0
100
AcDbBlockBegin
  2
*D5
 70
     1
 10
0.0
 20
0.0
 30
0.0
  3
*D5
  1

  0
LINE
  5
2038
330
2037
100
AcDbEntity
  8
寸法線
 62
     2
370
    -2
100
AcDbLine
 10
316.662090675737
 20
254.6512555456247
 30
0.0
 11
334.1250810858642
 21
254.6512555456247
 31
0.0
  0
LINE
  5
2039
330
2037
100
AcDbEntity
  8
寸法線
 62
     2
370
    -2
100
AcDbLine
 10
311.5343625291942
 20
212.0512555456247
 30
0.0
 11
334.1250810858642
 21
212.0512555456247
 31
0.0
  0
LINE
  5
203A
330
2037
100
AcDbEntity
  8
寸法線
 62
     2
370
    -2
100
AcDbLine
 10
332.8750810858642
 20
252.1512555456247
 30
0.0
 11
332.8750810858642
 21
214.5512555456247
 31
0.0
  0
INSERT
  5
203B
330
2037
100
AcDbEntity
  8
寸法線
 62
     2
370
    -2
100
AcDbBlockReference
  2
_OPEN
 10
332.8750810858642
 20
254.6512555456247
 30
0.0
 41
2.5
 42
2.5
 43
2.5
 50
90.0
  0
INSERT
  5
203C
330
2037
100
AcDbEntity
  8
寸法線
 62
     2
370
    -2
100
AcDbBlockReference
  2
_OPEN
 10
332.8750810858642
 20
212.0512555456247
 30
0.0
 41
2.5
 42
2.5
 43
2.5
 50
270.0
  0
MTEXT
  5
203D
330
2037
100
AcDbEntity
  8
寸法線
 62
     6
100
AcDbMText
 10
331.0000810858641
 20
233.3512555456247
 30
0.0
 40
2.5
 41
0.0
 71
     5
 72
     1
  1
\A1;42.6
  7
STYLE3
 11
0.0000000000000001
 21
1.0
 31
0.0
 73
     1
 44
1.0
  0
POINT
  5
203E
330
2037
100
AcDbEntity
  8
DEFPOINTS
 62
     0
100
AcDbPoint
 10
316.662090675737
 20
254.6512555456247
 30
0.0
  0
POINT
  5
203F
330
2037
100
AcDbEntity
  8
DEFPOINTS
 62
     0
100
AcDbPoint
 10
311.5343625291942
 20
212.0512555456247
 30
0.0
  0
POINT
  5
2040
330
2037
100
AcDbEntity
  8
DEFPOINTS
 62
     0
100
AcDbPoint
 10
332.8750810858642
 20
212.0512555456247
 30
0.0
  0
ENDBLK
  5
2042
330
2037
100
AcDbEntity
  8
0
100
AcDbBlockEnd
  0
BLOCK
  5
204E
330
2044
100
AcDbEntity
  8
0
100
AcDbBlockBegin
  2
*D6
 70
     1
 10
0.0
 20
0.0
 30
0.0
  3
*D6
  1

  0
LINE
  5
2045
330
2044
100
AcDbEntity
  8
寸法線
 62
     2
370
    -2
100
AcDbLine
 10
329.5260694536606
 20
292.8512555456247
 30
0.0
 11
342.3095724191422
 21
292.8512555456247
 31
0.0
  0
LINE
  5
2046
330
2044
100
AcDbEntity
  8
寸法線
 62
     2
370
    -2
100
AcDbLine
 10
334.1250810858642
 20
212.0512555456247
 30
0.0
 11
342.3095724191422
 21
212.0512555456247
 31
0.0
  0
LINE
  5
2047
330
2044
100
AcDbEntity
  8
寸法線
 62
     2
370
    -2
100
AcDbLine
 10
341.0595724191422
 20
290.3512555456247
 30
0.0
 11
341.0595724191422
 21
214.5512555456247
 31
0.0
  0
INSERT
  5
2048
330
2044
100
AcDbEntity
  8
寸法線
 62
     2
370
    -2
100
AcDbBlockReference
  2
_OPEN
 10
341.0595724191422
 20
292.8512555456247
 30
0.0
 41
2.5
 42
2.5
 43
2.5
 50
90.0
  0
INSERT
  5
2049
330
2044
100
AcDbEntity
  8
寸法線
 62
     2
370
    -2
100
AcDbBlockReference
  2
_OPEN
 10
341.0595724191422
 20
212.0512555456247
 30
0.0
 41
2.5
 42
2.5
 43
2.5
 50
270.0
  0
MTEXT
  5
204A
330
2044
100
AcDbEntity
  8
寸法線
 62
     6
100
AcDbMText
 10
339.1845724191422
 20
252.4512555456248
 30
0.0
 40
2.5
 41
0.0
 71
     5
 72
     1
  1
\A1;80.8
  7
STYLE3
 11
0.0000000000000001
 21
1.0
 31
0.0
 73
     1
 44
1.0
  0
POINT
  5
204B
330
2044
100
AcDbEntity
  8
DEFPOINTS
 62
     0
100
AcDbPoint
 10
329.5260694536606
 20
292.8512555456247
 30
0.0
  0
POINT
  5
204C
330
2044
100
AcDbEntity
  8
DEFPOINTS
 62
     0
100
AcDbPoint
 10
334.1250810858642
 20
212.0512555456247
 30
0.0
  0
POINT
  5
204D
330
2044
100
AcDbEntity
  8
DEFPOINTS
 62
     0
100
AcDbPoint
 10
341.0595724191422
 20
212.0512555456247
 30
0.0
  0
ENDBLK
  5
204F
330
2044
100
AcDbEntity
  8
0
100
AcDbBlockEnd
  0
BLOCK
  5
205B
330
2051
100
AcDbEntity
  8
0
100
AcDbBlockBegin
  2
*D7
 70
     1
 10
0.0
 20
0.0
 30
0.0
  3
*D7
  1

  0
LINE
  5
2052
330
2051
100
AcDbEntity
  8
寸法線
 62
     2
370
    -2
100
AcDbLine
 10
333.2940970699295
 20
325.8512555456247
 30
0.0
 11
352.7550683217973
 21
325.8512555456247
 31
0.0
  0
LINE
  5
2053
330
2051
100
AcDbEntity
  8
寸法線
 62
     2
370
    -2
100
AcDbLine
 10
308.5736145639469
 20
211.0512555456248
 30
0.0
 11
352.7550683217973
 21
211.0512555456247
 31
0.0
  0
LINE
  5
2054
330
2051
100
AcDbEntity
  8
寸法線
 62
     2
370
    -2
100
AcDbLine
 10
351.5050683217974
 20
323.3512555456247
 30
0.0
 11
351.5050683217974
 21
213.5512555456247
 31
0.0
  0
INSERT
  5
2055
330
2051
100
AcDbEntity
  8
寸法線
 62
     2
370
    -2
100
AcDbBlockReference
  2
_OPEN
 10
351.5050683217974
 20
325.8512555456247
 30
0.0
 41
2.5
 42
2.5
 43
2.5
 50
90.0
  0
INSERT
  5
2056
330
2051
100
AcDbEntity
  8
寸法線
 62
     2
370
    -2
100
AcDbBlockReference
  2
_OPEN
 10
351.5050683217974
 20
211.0512555456247
 30
0.0
 41
2.5
 42
2.5
 43
2.5
 50
270.0
  0
MTEXT
  5
2057
330
2051
100
AcDbEntity
  8
寸法線
 62
     6
100
AcDbMText
 10
349.6300683217973
 20
268.4512555456248
 30
0.0
 40
2.5
 41
0.0
 71
     5
 72
     1
  1
\A1;114.8
  7
STYLE3
 11
0.0000000000000001
 21
1.0
 31
0.0
 73
     1
 44
1.0
  0
POINT
  5
2058
330
2051
100
AcDbEntity
  8
DEFPOINTS
 62
     0
100
AcDbPoint
 10
333.2940970699295
 20
325.8512555456247
 30
0.0
  0
POINT
  5
2059
330
2051
100
AcDbEntity
  8
DEFPOINTS
 62
     0
100
AcDbPoint
 10
308.5736145639469
 20
211.0512555456248
 30
0.0
  0
POINT
  5
205A
330
2051
100
AcDbEntity
  8
DEFPOINTS
 62
     0
100
AcDbPoint
 10
351.5050683217974
 20
211.0512555456247
 30
0.0
  0
ENDBLK
  5
205C
330
2051
100
AcDbEntity
  8
0
100
AcDbBlockEnd
  0
ENDSEC
  0
SECTION
  2
ENTITIES
  0
LWPOLYLINE
  5
10B
330
18
100
AcDbEntity
  8
C
100
AcDbPolyline
 90
        5
 70
     0
 43
0.4
 10
236.6915604445414
 20
366.8501752555372
 10
491.6915604445414
 20
366.8501752555372
 10
491.6915604445414
 20
171.8501752555372
 10
236.6915604445414
 20
171.8501752555372
 10
236.6915604445414
 20
366.8501752555372
  0
LINE
  5
16C
330
18
100
AcDbEntity
  8
外形線
100
AcDbLine
 10
305.5736145639469
 20
325.0474079683314
 30
0.0
 11
311.5736145639469
 21
325.0474079683314
 31
0.0
  0
LINE
  5
16E
330
18
100
AcDbEntity
  8
外形線
100
AcDbLine
 10
311.5736145639469
 20
325.0474079683314
 30
0.0
 11
311.5736145639469
 21
310.0921951951914
 31
0.0
  0
LINE
  5
16F
330
18
100
AcDbEntity
  8
外形線
100
AcDbLine
 10
305.5736145639469
 20
325.0474079683314
 30
0.0
 11
305.5736145639469
 21
310.0921951951914
 31
0.0
  0
ARC
  5
170
330
18
100
AcDbEntity
  8
外形線
100
AcDbCircle
 10
308.5736145639469
 20
319.8512555456247
 30
0.0
 40
6.0
100
AcDbArc
 50
60.0
 51
120.0
  0
CIRCLE
  5
172
330
18
100
AcDbEntity
  8
外形線
100
AcDbCircle
 10
308.5736145639469
 20
292.8512555456247
 30
0.0
 40
17.5
  0
CIRCLE
  5
307
330
18
100
AcDbEntity
  8
外形線
100
AcDbCircle
 10
308.5736145639469
 20
292.8512555456247
 30
0.0
 40
15.0
  0
LINE
  5
30A
330
18
100
AcDbEntity
  8
目盛
100
AcDbLine
 10
308.5736145639469
 20
307.8512555456247
 30
0.0
 11
308.5736145639469
 21
305.3512555456247
 31
0.0
  0
TEXT
  5
351
330
18
100
AcDbEntity
  8
文字
100
AcDbText
 10
307.7732055506757
 20
303.1233267807449
 30
0.0
 40
1.8
  1
0
  7
STYLE3
100
AcDbText
  0
TEXT
  5
352
330
18
100
AcDbEntity
  8
文字
100
AcDbText
 10
313.3660542604815
 20
300.4732773359403
 30
0.0
 40
1.8
  1
10
  7
STYLE3
100
AcDbText
  0
TEXT
  5
353
330
18
100
AcDbEntity
  8
文字
100
AcDbText
 10
316.9029031610143
 20
295.2186400588606
 30
0.0
 40
1.8
  1
20
  7
STYLE3
100
AcDbText
  0
TEXT
  5
354
330
18
100
AcDbEntity
  8
文字
100
AcDbText
 10
316.811428210181
 20
288.5061103267483
 30
0.0
 40
1.8
  1
30
  7
STYLE3
100
AcDbText
  0
TEXT
  5
355
330
18
100
AcDbEntity
  8
文字
100
AcDbText
 10
313.4475100162705
 20
283.5666600665529
 30
0.0
 40
1.8
  1
40
  7
STYLE3
100
AcDbText
  0
TEXT
  5
356
330
18
100
AcDbEntity
  8
文字
100
AcDbText
 10
306.8750546594566
 20
280.8263295802364
 30
0.0
 40
1.8
  1
50
  7
STYLE3
100
AcDbText
  0
TEXT
  5
357
330
18
100
AcDbEntity
  8
文字
100
AcDbText
 10
300.7168168498645
 20
283.4812493709503
 30
0.0
 40
1.8
  1
40
  7
STYLE3
100
AcDbText
  0
TEXT
  5
358
330
18
100
AcDbEntity
  8
文字
100
AcDbText
 10
296.3910286547224
 20
288.5530080487344
 30
0.0
 40
1.8
  1
30
  7
STYLE3
100
AcDbText
  0
TEXT
  5
359
330
18
100
AcDbEntity
  8
文字
100
AcDbText
 10
296.6630565979007
 20
295.6854048516296
 30
0.0
 40
1.8
  1
20
  7
STYLE3
100
AcDbText
  0
TEXT
  5
35A
330
18
100
AcDbEntity
  8
文字
100
AcDbText
 10
300.2785706412625
 20
300.6802159283844
 30
0.0
 40
1.8
  1
10
  7
STYLE3
100
AcDbText
  0
TEXT
  5
35E
330
18
100
AcDbEntity
  8
文字
100
AcDbText
 10
312.2284132075957
 20
292.4419157610496
 30
0.0
 40
0.8
  1
0.01mm
  7
STYLE3
100
AcDbText
  0
TEXT
  5
35F
330
18
100
AcDbEntity
  8
文字
100
AcDbText
 10
301.6331800792046
 20
292.4772044963753
 30
0.0
 40
0.8
  1
Jeweled
  7
STYLE3
100
AcDbText
  0
TEXT
  5
363
330
18
100
AcDbEntity
  8
文字
100
AcDbText
 10
305.5302475894045
 20
285.869659337017
 30
0.0
 40
1.0
  1
PCN-1L
  7
STYLE3
100
AcDbText
  0
TEXT
  5
368
330
18
100
AcDbEntity
  8
文字
100
AcDbText
 10
304.2852630624708
 20
295.8648876014601
 30
0.0
 40
0.8
  1
MADE IN JAPAN
  7
STYLE3
100
AcDbText
  0
INSERT
  5
B43
330
18
100
AcDbEntity
  8
文字
100
AcDbBlockReference
  2
ROGO1
 10
301.1334577592202
 20
275.1168679656769
 30
0.0
  0
INSERT
  5
B44
330
18
100
AcDbEntity
  8
文字
100
AcDbBlockReference
  2
ROGO1
 10
301.1095809474122
 20
275.1436630917189
 30
0.0
  0
LINE
  5
CBB
330
18
100
AcDbEntity
  8
外形線
100
AcDbLine
 10
303.5736145639469
 20
256.6512555456248
 30
0.0
 11
303.5736145639469
 21
252.6512555456247
 31
0.0
  0
LINE
  5
CBC
330
18
100
AcDbEntity
  8
外形線
100
AcDbLine
 10
304.0736145639469
 20
257.6512555456247
 30
0.0
 11
304.0736145639469
 21
251.6512555456247
 31
0.0
  0
LINE
  5
CBD
330
18
100
AcDbEntity
  8
外形線
100
AcDbLine
 10
304.0736145639469
 20
252.6512555456247
 30
0.0
 11
303.5736145639469
 21
252.6512555456247
 31
0.0
  0
LINE
  5
CBE
330
18
100
AcDbEntity
  8
外形線
100
AcDbLine
 10
304.573614563947
 20
251.6512555456247
 30
0.0
 11
304.0736145639469
 21
251.6512555456247
 31
0.0
  0
LINE
  5
CBF
330
18
100
AcDbEntity
  8
外形線
100
AcDbLine
 10
304.0736145639469
 20
256.6512555456248
 30
0.0
 11
303.5736145639469
 21
256.6512555456248
 31
0.0
  0
LINE
  5
CC0
330
18
100
AcDbEntity
  8
外形線
100
AcDbLine
 10
304.573614563947
 20
257.6512555456247
 30
0.0
 11
304.0736145639469
 21
257.6512555456247
 31
0.0
  0
INSERT
  5
FCB
330
18
100
AcDbEntity
  8
文字
100
AcDbBlockReference
  2
ROGO1
 10
579.0605083803766
 20
282.754069537204
 30
0.0
  0
INSERT
  5
FCC
330
18
100
AcDbEntity
  8
文字
100
AcDbBlockReference
  2
ROGO1
 10
579.0366315685687
 20
282.780864663246
 30
0.0
  0
ARC
  5
1204
330
18
100
AcDbEntity
  8
外形線
100
AcDbCircle
 10
390.193511205536
 20
254.6512555456246
 30
0.0
 40
3.0
100
AcDbArc
 50
54.59406822686052
 51
215.4059317731395
  0
ARC
  5
1205
330
18
100
AcDbEntity
  8
外形線
100
AcDbCircle
 10
390.193511205536
 20
254.6512555456246
 30
0.0
 40
3.0
100
AcDbArc
 50
234.5940682268605
 51
35.4059317731395
  0
LINE
  5
1206
330
18
100
AcDbEntity
  8
外形線
100
AcDbLine
 10
392.3148315490956
 20
256.0654691079977
 30
0.0
 11
392.6387146624644
 21
256.3893522213666
 31
0.0
  0
LINE
  5
1208
330
18
100
AcDbEntity
  8
外形線
100
AcDbLine
 10
388.7792976431629
 20
252.5299352020651
 30
0.0
 11
388.0721908619764
 21
253.2370419832516
 31
0.0
  0
LINE
  5
1209
330
18
100
AcDbEntity
  8
外形線
100
AcDbLine
 10
388.7792976431629
 20
252.5299352020651
 30
0.0
 11
388.4554145297942
 21
252.2060520886962
 31
0.0
  0
LINE
  5
120A
330
18
100
AcDbEntity
  8
外形線
100
AcDbLine
 10
388.0721908619764
 20
253.2370419832516
 30
0.0
 11
387.7483077486075
 21
252.9131588698827
 31
0.0
  0
LINE
  5
120B
330
18
100
AcDbEntity
  8
外形線
100
AcDbLine
 10
392.3148315490956
 20
256.0654691079977
 30
0.0
 11
391.6077247679091
 21
256.7725758891843
 31
0.0
  0
LINE
  5
120C
330
18
100
AcDbEntity
  8
外形線
100
AcDbLine
 10
391.6077247679091
 20
256.7725758891843
 30
0.0
 11
391.9316078812779
 21
257.0964590025532
 31
0.0
  0
LINE
  5
120D
330
18
100
AcDbEntity
  8
外形線
100
AcDbLine
 10
388.7792976431629
 20
253.2370419832516
 30
0.0
 11
391.6077247679091
 21
256.0654691079979
 31
0.0
  0
CIRCLE
  5
1210
330
18
100
AcDbEntity
  8
外形線
100
AcDbCircle
 10
390.193511205536
 20
254.6512555456247
 30
0.0
 40
2.0
  0
LINE
  5
121E
330
18
100
AcDbEntity
  8
外形線
100
AcDbLine
 10
385.1837024740854
 20
304.057480660643
 30
0.0
 11
384.1033199369865
 21
305.3450304306067
 31
0.0
  0
LINE
  5
121F
330
18
100
AcDbEntity
  8
外形線
100
AcDbLine
 10
383.9997363205541
 20
304.1610642770754
 30
0.0
 11
385.2872860905178
 21
305.2414468141743
 31
0.0
  0
CIRCLE
  5
1221
330
18
100
AcDbEntity
  8
外形線
100
AcDbCircle
 10
384.643511205536
 20
304.7012555456248
 30
0.0
 40
1.5
  0
LINE
  5
1249
330
18
100
AcDbEntity
  8
外形線
100
AcDbLine
 10
393.193511205536
 20
324.8474079683314
 30
0.0
 11
393.193511205536
 21
309.6512555456248
 31
0.0
  0
LINE
  5
124A
330
18
100
AcDbEntity
  8
外形線
100
AcDbLine
 10
387.193511205536
 20
324.8474079683314
 30
0.0
 11
387.193511205536
 21
309.6512555456248
 31
0.0
  0
LINE
  5
1253
330
18
100
AcDbEntity
  8
外形線
100
AcDbLine
 10
387.193511205536
 20
309.6512555456248
 30
0.0
 11
393.193511205536
 21
309.6512555456248
 31
0.0
  0
LINE
  5
1259
330
18
100
AcDbEntity
  8
外形線
100
AcDbLine
 10
387.193511205536
 20
324.8474079683314
 30
0.0
 11
393.193511205536
 21
324.8474079683314
 31
0.0
  0
ARC
  5
125A
330
18
100
AcDbEntity
  8
外形線
100
AcDbCircle
 10
390.193511205536
 20
319.6512555456248
 30
0.0
 40
6.0
100
AcDbArc
 50
60.0
 51
120.0
  0
CIRCLE
  5
1284
330
18
100
AcDbEntity
  8
外形線
100
AcDbCircle
 10
308.5736145639469
 20
292.8512555456247
 30
0.0
 40
1.5
  0
POINT
  5
1285
330
18
100
AcDbEntity
  8
DEFPOINTS
  6
ByBlock
 62
     0
100
AcDbPoint
 10
308.5736145639469
 20
292.8512555456247
 30
0.0
  0
POINT
  5
1286
330
18
100
AcDbEntity
  8
DEFPOINTS
  6
ByBlock
 62
     0
100
AcDbPoint
 10
308.5736145639469
 20
292.8512555456247
 30
0.0
  0
POINT
  5
1287
330
18
100
AcDbEntity
  8
DEFPOINTS
  6
ByBlock
 62
     0
100
AcDbPoint
 10
308.5736145639469
 20
292.8512555456247
 30
0.0
  0
POINT
  5
1288
330
18
100
AcDbEntity
  8
DEFPOINTS
  6
ByBlock
 62
     0
100
AcDbPoint
 10
308.5736145639469
 20
292.8512555456247
 30
0.0
  0
CIRCLE
  5
1289
330
18
100
AcDbEntity
  8
外形線
 62
     4
100
AcDbCircle
 10
308.5736145639469
 20
292.8512555456247
 30
0.0
 40
0.25
  0
LINE
  5
1294
330
18
100
AcDbEntity
  8
針
100
AcDbLine
 10
300.1704327917876
 20
304.2981518980885
 30
0.0
 11
300.283695171
 21
304.3804418334095
 31
0.0
  0
LINE
  5
12CA
330
18
100
AcDbEntity
  8
外形線
100
AcDbLine
 10
376.7572531741288
 20
310.3512555456247
 30
0.0
 11
379.9072531741288
 21
310.3512555456247
 31
0.0
  0
LINE
  5
12CC
330
18
100
AcDbEntity
  8
外形線
100
AcDbLine
 10
376.5572531741288
 20
310.1512555456247
 30
0.0
 11
376.5572531741287
 21
275.5512555456249
 31
0.0
  0
LINE
  5
12CD
330
18
100
AcDbEntity
  8
外形線
100
AcDbLine
 10
380.2572531741288
 20
310.0012555456246
 30
0.0
 11
380.2572531741288
 21
275.7012555456248
 31
0.0
  0
LINE
  5
12CE
330
18
100
AcDbEntity
  8
外形線
100
AcDbLine
 10
381.2572531741288
 20
310.0012555456247
 30
0.0
 11
381.2572531741288
 21
275.7012555456248
 31
0.0
  0
LINE
  5
12CF
330
18
100
AcDbEntity
  8
外形線
 48
0.5
100
AcDbLine
 10
376.5572531741288
 20
310.1512555456247
 30
0.0
 11
376.7572531741288
 21
310.3512555456247
 31
0.0
  0
LINE
  5
12D0
330
18
100
AcDbEntity
  8
外形線
100
AcDbLine
 10
379.9072531741288
 20
310.3512555456247
 30
0.0
 11
380.2572531741288
 21
310.0012555456247
 31
0.0
  0
LINE
  5
12EF
330
18
100
AcDbEntity
  8
外形線
100
AcDbLine
 10
379.9072531741288
 20
275.3512555456247
 30
0.0
 11
380.2572531741288
 21
275.7012555456248
 31
0.0
  0
LINE
  5
12F0
330
18
100
AcDbEntity
  8
外形線
 48
0.5
100
AcDbLine
 10
376.5572531741288
 20
275.5512555456247
 30
0.0
 11
376.7572531741288
 21
275.3512555456247
 31
0.0
  0
LINE
  5
12F1
330
18
100
AcDbEntity
  8
外形線
100
AcDbLine
 10
376.7572531741288
 20
275.3512555456247
 30
0.0
 11
379.9072531741288
 21
275.3512555456247
 31
0.0
  0
LINE
  5
12F5
330
18
100
AcDbEntity
  8
外形線
100
AcDbLine
 10
376.0572531741288
 20
309.3512555456247
 30
0.0
 11
376.0572531741288
 21
276.3512555456248
 31
0.0
  0
LINE
  5
12FF
330
18
100
AcDbEntity
  8
外形線
100
AcDbLine
 10
380.2572531741288
 20
310.0012555456246
 30
0.0
 11
381.2572531741288
 21
310.0012555456247
 31
0.0
  0
LINE
  5
1300
330
18
100
AcDbEntity
  8
外形線
100
AcDbLine
 10
380.2572531741288
 20
275.7012555456248
 30
0.0
 11
381.2572531741288
 21
275.7012555456248
 31
0.0
  0
LINE
  5
1308
330
18
100
AcDbEntity
  8
外形線
100
AcDbLine
 10
376.0572531741288
 20
309.3512555456247
 30
0.0
 11
376.5572531741288
 21
309.8512555456247
 31
0.0
  0
LINE
  5
1309
330
18
100
AcDbEntity
  8
外形線
100
AcDbLine
 10
376.0572531741288
 20
276.3512555456247
 30
0.0
 11
376.5572531741288
 21
275.8512555456247
 31
0.0
  0
LINE
  5
1312
330
18
100
AcDbEntity
  8
外形線
100
AcDbLine
 10
376.5572531741289
 20
309.6512555456247
 30
0.0
 11
380.2572531741288
 21
309.6512555456247
 31
0.0
  0
LINE
  5
1313
330
18
100
AcDbEntity
  8
外形線
100
AcDbLine
 10
376.5572531741289
 20
308.9512555456248
 30
0.0
 11
380.2572531741288
 21
308.9512555456248
 31
0.0
  0
LINE
  5
1314
330
18
100
AcDbEntity
  8
外形線
100
AcDbLine
 10
376.5572531741289
 20
308.1512555456247
 30
0.0
 11
380.2572531741288
 21
308.1512555456247
 31
0.0
  0
LINE
  5
1315
330
18
100
AcDbEntity
  8
外形線
100
AcDbLine
 10
376.5572531741289
 20
307.3512555456247
 30
0.0
 11
380.2572531741288
 21
307.3512555456247
 31
0.0
  0
LINE
  5
1316
330
18
100
AcDbEntity
  8
外形線
100
AcDbLine
 10
376.5572531741289
 20
306.4512555456247
 30
0.0
 11
380.2572531741288
 21
306.4512555456247
 31
0.0
  0
LINE
  5
1328
330
18
100
AcDbEntity
  8
外形線
100
AcDbLine
 10
376.5572531741288
 20
293.5512555456247
 30
0.0
 11
380.2572531741288
 21
293.5512555456247
 31
0.0
  0
LINE
  5
1329
330
18
100
AcDbEntity
  8
外形線
100
AcDbLine
 10
376.5572531741288
 20
292.1512555456247
 30
0.0
 11
380.2572531741288
 21
292.1512555456247
 31
0.0
  0
LINE
  5
132A
330
18
100
AcDbEntity
  8
外形線
100
AcDbLine
 10
376.5572531741288
 20
294.3512555456247
 30
0.0
 11
380.2572531741288
 21
294.3512555456247
 31
0.0
  0
LINE
  5
132B
330
18
100
AcDbEntity
  8
外形線
100
AcDbLine
 10
376.5572531741288
 20
291.3512555456247
 30
0.0
 11
380.2572531741288
 21
291.3512555456247
 31
0.0
  0
LINE
  5
132C
330
18
100
AcDbEntity
  8
外形線
100
AcDbLine
 10
376.5572531741288
 20
292.8512555456247
 30
0.0
 11
380.2572531741287
 21
292.8512555456247
 31
0.0
  0
LINE
  5
132D
330
18
100
AcDbEntity
  8
外形線
100
AcDbLine
 10
376.5572531741289
 20
279.2512555456247
 30
0.0
 11
380.2572531741288
 21
279.2512555456247
 31
0.0
  0
LINE
  5
132E
330
18
100
AcDbEntity
  8
外形線
100
AcDbLine
 10
376.5572531741289
 20
278.3512555456247
 30
0.0
 11
380.2572531741288
 21
278.3512555456247
 31
0.0
  0
LINE
  5
132F
330
18
100
AcDbEntity
  8
外形線
100
AcDbLine
 10
376.5572531741289
 20
277.5512555456247
 30
0.0
 11
380.2572531741288
 21
277.5512555456248
 31
0.0
  0
LINE
  5
1330
330
18
100
AcDbEntity
  8
外形線
100
AcDbLine
 10
376.5572531741289
 20
276.7512555456247
 30
0.0
 11
380.2572531741288
 21
276.7512555456247
 31
0.0
  0
LINE
  5
1331
330
18
100
AcDbEntity
  8
外形線
100
AcDbLine
 10
376.5572531741289
 20
276.0512555456247
 30
0.0
 11
380.2572531741288
 21
276.0512555456247
 31
0.0
  0
LINE
  5
1336
330
18
100
AcDbEntity
  8
外形線
100
AcDbLine
 10
381.2572531741288
 20
307.8512555456247
 30
0.0
 11
381.7572531741289
 21
307.8512555456247
 31
0.0
  0
ARC
  5
1337
330
18
100
AcDbEntity
  8
外形線
100
AcDbCircle
 10
381.7572531741289
 20
306.8512555456247
 30
0.0
 40
1.0
100
AcDbArc
 50
64.13462858156407
 51
90.0
  0
ARC
  5
1338
330
18
100
AcDbEntity
  8
外形線
100
AcDbCircle
 10
381.7572531741289
 20
278.8512555456247
 30
0.0
 40
1.0
100
AcDbArc
 50
270.0
 51
295.8653714184359
  0
LINE
  5
1339
330
18
100
AcDbEntity
  8
外形線
100
AcDbLine
 10
381.2572531741288
 20
277.8512555456247
 30
0.0
 11
381.7572531741289
 21
277.8512555456247
 31
0.0
  0
ARC
  5
133C
330
18
100
AcDbEntity
  8
外形線
100
AcDbCircle
 10
436.072542790113
 20
292.8512555456247
 30
0.0
 40
62.37903158457702
100
AcDbArc
 50
166.4545064755762
 51
193.5454935244236
  0
LINE
  5
1343
330
18
100
AcDbEntity
  8
外形線
100
AcDbLine
 10
375.9147225362396
 20
307.8443991710675
 30
0.0
 11
376.0572531741287
 21
307.8443991710675
 31
0.0
  0
ARC
  5
1345
330
18
100
AcDbEntity
  8
外形線
100
AcDbCircle
 10
375.9147225362395
 20
307.3443991710675
 30
0.0
 40
0.5
100
AcDbArc
 50
89.99999999999349
 51
166.4545064755751
  0
ARC
  5
1346
330
18
100
AcDbEntity
  8
外形線
100
AcDbCircle
 10
375.9147225362395
 20
278.3581119201819
 30
0.0
 40
0.5
100
AcDbArc
 50
193.5454935244249
 51
270.0000000000065
  0
LINE
  5
1347
330
18
100
AcDbEntity
  8
外形線
100
AcDbLine
 10
375.9147225362396
 20
277.8581119201819
 30
0.0
 11
376.0572531741287
 21
277.8581119201819
 31
0.0
  0
LINE
  5
138E
330
18
100
AcDbEntity
  8
外形線
100
AcDbLine
 10
313.073614563947
 20
257.6512555456247
 30
0.0
 11
313.073614563947
 21
251.6512555456247
 31
0.0
  0
LINE
  5
138F
330
18
100
AcDbEntity
  8
外形線
100
AcDbLine
 10
313.5736145639469
 20
256.6512555456248
 30
0.0
 11
313.5736145639469
 21
252.6512555456247
 31
0.0
  0
LINE
  5
1390
330
18
100
AcDbEntity
  8
外形線
100
AcDbLine
 10
312.573614563947
 20
251.6512555456247
 30
0.0
 11
313.073614563947
 21
251.6512555456247
 31
0.0
  0
LINE
  5
1391
330
18
100
AcDbEntity
  8
外形線
100
AcDbLine
 10
313.073614563947
 20
252.6512555456247
 30
0.0
 11
313.5736145639469
 21
252.6512555456247
 31
0.0
  0
LINE
  5
1392
330
18
100
AcDbEntity
  8
外形線
100
AcDbLine
 10
312.573614563947
 20
257.6512555456247
 30
0.0
 11
313.073614563947
 21
257.6512555456247
 31
0.0
  0
LINE
  5
1393
330
18
100
AcDbEntity
  8
外形線
100
AcDbLine
 10
313.073614563947
 20
256.6512555456248
 30
0.0
 11
313.5736145639469
 21
256.6512555456248
 31
0.0
  0
POINT
  5
14D3
330
18
100
AcDbEntity
  8
DEFPOINTS
  6
ByBlock
 62
     0
100
AcDbPoint
 10
390.193511205536
 20
254.6512555456247
 30
0.0
  0
POINT
  5
14D4
330
18
100
AcDbEntity
  8
DEFPOINTS
  6
ByBlock
 62
     0
100
AcDbPoint
 10
390.193511205536
 20
254.6512555456247
 30
0.0
  0
CIRCLE
  5
14E2
102
{ACAD_REACTORS
330
14E5
102
}
330
18
100
AcDbEntity
  8
寸法線
100
AcDbCircle
 10
382.5503696158731
 20
265.9884435631051
 30
0.0
 40
0.222687898198611
  0
HATCH
  5
14E5
330
18
100
AcDbEntity
  8
寸法線
100
AcDbHatch
 10
0.0
 20
0.0
 30
0.0
210
0.0
220
0.0
230
1.0
  2
SOLID
 70
     1
 71
     1
 91
        1
 92
        7
 72
     1
 73
     1
 93
        2
 10
382.7730575140717
 20
265.9884435631051
 42
1.0
 10
382.3276817176745
 20
265.9884435631051
 42
1.0
 97
        1
330
14E2
 75
     0
 76
     1
 47
0.0124670341605454
 98
        1
 10
382.6083469172195
 20
265.9652716230139
450
        0
451
        0
460
0.0
461
0.0
452
        0
462
0.0
453
        0
470

  0
TEXT
  5
14EC
330
18
100
AcDbEntity
  8
寸法線
 62
     6
100
AcDbText
 10
407.3950732099438
 20
290.5985862307371
 30
0.0
 40
2.5
  1
A
  7
STYLE3
100
AcDbText
  0
CIRCLE
  5
14EE
102
{ACAD_REACTORS
330
14F1
102
}
330
18
100
AcDbEntity
  8
寸法線
100
AcDbCircle
 10
398.7810328396713
 20
280.672316295879
 30
0.0
 40
0.222687898198611
  0
HATCH
  5
14F1
330
18
100
AcDbEntity
  8
寸法線
100
AcDbHatch
 10
0.0
 20
0.0
 30
0.0
210
0.0
220
0.0
230
1.0
  2
SOLID
 70
     1
 71
     1
 91
        1
 92
        7
 72
     1
 73
     1
 93
        2
 10
399.0037207378699
 20
280.672316295879
 42
1.0
 10
398.5583449414726
 20
280.672316295879
 42
1.0
 97
        1
330
14EE
 75
     0
 76
     1
 47
0.0200805185115556
 98
        1
 10
398.9055489430869
 20
280.5555298679008
450
        0
451
        0
460
0.0
461
0.0
452
        0
462
0.0
453
        0
470

  0
CIRCLE
  5
14F8
102
{ACAD_REACTORS
330
151F
102
}
330
18
100
AcDbEntity
  8
寸法線
100
AcDbCircle
 10
384.963035505958
 20
308.904651042479
 30
0.0
 40
0.222687898198611
  0
HATCH
  5
151F
330
18
100
AcDbEntity
  8
寸法線
100
AcDbHatch
 10
0.0
 20
0.0
 30
0.0
210
0.0
220
0.0
230
1.0
  2
SOLID
 70
     1
 71
     1
 91
        1
 92
        7
 72
     1
 73
     1
 93
        2
 10
385.1857234041566
 20
308.904651042479
 42
1.0
 10
384.7403476077594
 20
308.904651042479
 42
1.0
 97
        1
330
14F8
 75
     0
 76
     1
 47
0.0431140550968677
 98
        1
 10
385.0802856205432
 20
308.7953158717155
450
        0
451
        0
460
0.0
461
0.0
452
        0
462
0.0
453
        0
470

  0
LINE
  5
157C
330
18
100
AcDbEntity
  8
外形線
100
AcDbLine
 10
459.4544444645692
 20
273.7649809288513
 30
0.0
 11
472.3348377844811
 21
273.7649809288514
 31
0.0
  0
LINE
  5
157F
330
18
100
AcDbEntity
  8
外形線
100
AcDbLine
 10
448.6597003528949
 20
277.0649809288514
 30
0.0
 11
461.3597003528949
 21
277.0649809288514
 31
0.0
  0
LINE
  5
1584
330
18
100
AcDbEntity
  8
外形線
100
AcDbLine
 10
459.4544444645692
 20
273.7649809288513
 30
0.0
 11
461.3597003528949
 21
277.0649809288514
 31
0.0
  0
LINE
  5
1585
330
18
100
AcDbEntity
  8
外形線
100
AcDbLine
 10
450.5649562412206
 20
273.7649809288513
 30
0.0
 11
448.6597003528949
 21
277.0649809288514
 31
0.0
  0
LINE
  5
1586
330
18
100
AcDbEntity
  8
外形線
100
AcDbLine
 10
450.5649562412206
 20
273.7649809288513
 30
0.0
 11
437.6845629213088
 21
273.7649809288513
 31
0.0
  0
CIRCLE
  5
1588
330
18
100
AcDbEntity
  8
外形線
100
AcDbCircle
 10
447.9697003528948
 20
275.2649809288513
 30
0.0
 40
1.5
  0
CIRCLE
  5
1589
330
18
100
AcDbEntity
  8
外形線
100
AcDbCircle
 10
462.0497003528949
 20
275.2649809288513
 30
0.0
 40
1.5
  0
LINE
  5
158C
330
18
100
AcDbEntity
  8
中心線
100
AcDbLine
 10
445.0328948483457
 20
275.2649809288513
 30
0.0
 11
451.1099590288575
 21
275.2649809288513
 31
0.0
  0
LINE
  5
158D
330
18
100
AcDbEntity
  8
中心線
100
AcDbLine
 10
462.0497003528949
 20
278.6814030429928
 30
0.0
 11
462.0497003528949
 21
271.540753359161
 31
0.0
  0
LINE
  5
158E
330
18
100
AcDbEntity
  8
中心線
100
AcDbLine
 10
447.9697003528948
 20
278.6814030429928
 30
0.0
 11
447.9697003528948
 21
271.540753359161
 31
0.0
  0
LINE
  5
1591
330
18
100
AcDbEntity
  8
中心線
100
AcDbLine
 10
459.1412220707884
 20
275.2649809288514
 30
0.0
 11
465.3744420130733
 21
275.2649809288513
 31
0.0
  0
LINE
  5
15A3
330
18
100
AcDbEntity
  8
寸法線
100
AcDbLine
 10
437.6845629213088
 20
271.5962247946099
 30
0.0
 11
439.8533190555503
 21
273.7649809288513
 31
0.0
  0
LINE
  5
15A4
330
18
100
AcDbEntity
  8
寸法線
100
AcDbLine
 10
437.6845629213088
 20
267.1060967340753
 30
0.0
 11
444.3434471160848
 21
273.7649809288513
 31
0.0
  0
LINE
  5
15A5
330
18
100
AcDbEntity
  8
寸法線
100
AcDbLine
 10
440.7392482544229
 20
265.6706540066549
 30
0.0
 11
448.8335751766195
 21
273.7649809288514
 31
0.0
  0
LINE
  5
15A6
330
18
100
AcDbEntity
  8
寸法線
100
AcDbLine
 10
449.9312267879453
 20
274.8626325401772
 30
0.0
 11
452.1335751766194
 21
277.0649809288514
 31
0.0
  0
LINE
  5
15A7
330
18
100
AcDbEntity
  8
寸法線
100
AcDbLine
 10
445.2293763149574
 20
265.6706540066548
 30
0.0
 11
456.6237032371542
 21
277.0649809288515
 31
0.0
  0
LINE
  5
15A8
330
18
100
AcDbEntity
  8
寸法線
100
AcDbLine
 10
449.7195043754921
 20
265.6706540066548
 30
0.0
 11
461.1138312976887
 21
277.0649809288515
 31
0.0
  0
LINE
  5
15A9
330
18
100
AcDbEntity
  8
寸法線
100
AcDbLine
 10
454.2096324360265
 20
265.6706540066548
 30
0.0
 11
462.3039593582233
 21
273.7649809288515
 31
0.0
  0
LINE
  5
15AA
330
18
100
AcDbEntity
  8
寸法線
100
AcDbLine
 10
458.6997604965613
 20
265.6706540066548
 30
0.0
 11
466.7940874187578
 21
273.7649809288514
 31
0.0
  0
LINE
  5
15AB
330
18
100
AcDbEntity
  8
寸法線
100
AcDbLine
 10
463.1898885570957
 20
265.6706540066548
 30
0.0
 11
471.2842154792923
 21
273.7649809288514
 31
0.0
  0
LINE
  5
15AC
330
18
100
AcDbEntity
  8
寸法線
100
AcDbLine
 10
467.6800166176304
 20
265.6706540066549
 30
0.0
 11
472.3348377844811
 21
270.3254751735055
 31
0.0
  0
LINE
  5
1634
330
18
100
AcDbEntity
  8
0
  6
ByBlock
 62
     2
100
AcDbLine
 10
461.3597003528949
 20
277.0649809288514
 30
0.0
 11
472.9795940618971
 21
297.191227211394
 31
0.0
  0
LINE
  5
1635
330
18
100
AcDbEntity
  8
0
  6
ByBlock
 62
     2
100
AcDbLine
 10
448.6597003528949
 20
277.0649809288514
 30
0.0
 11
437.0398066438926
 21
297.1912272113938
 31
0.0
  0
ARC
  5
1636
330
18
100
AcDbEntity
  8
0
  6
ByBlock
 62
     2
100
AcDbCircle
 10
455.009700352895
 20
266.0664583007886
 30
0.0
 40
34.6897874180055
100
AcDbArc
 50
64.13004734756665
 51
115.869952652434
  0
INSERT
  5
1637
330
18
100
AcDbEntity
  8
0
  6
ByBlock
 62
     2
100
AcDbBlockReference
  2
_OPEN
 10
472.3545940618971
 20
296.1086954566635
 30
0.0
 41
2.5
 42
2.5
 43
2.5
 50
332.0650236737839
  0
INSERT
  5
1638
330
18
100
AcDbEntity
  8
0
  6
ByBlock
 62
     2
100
AcDbBlockReference
  2
_OPEN
 10
437.6648066438925
 20
296.1086954566633
 30
0.0
 41
2.5
 42
2.5
 43
2.5
 50
207.9349763262168
  0
MTEXT
  5
1639
330
18
100
AcDbEntity
  8
0
  6
ByBlock
 62
     6
100
AcDbMText
 10
456.5041614511182
 20
302.6312457187941
 30
0.0
 40
2.5
 41
0.0
 71
     5
 72
     1
  1
\A1;60°
  7
STYLE3
 73
     1
 44
1.0
  0
POINT
  5
163A
330
18
100
AcDbEntity
  8
DEFPOINTS
  6
ByBlock
 62
     0
100
AcDbPoint
 10
461.0335187216845
 20
300.2292299003858
 30
0.0
  0
POINT
  5
163B
330
18
100
AcDbEntity
  8
DEFPOINTS
  6
ByBlock
 62
     0
100
AcDbPoint
 10
450.5649562412206
 20
273.7649809288513
 30
0.0
  0
POINT
  5
163C
330
18
100
AcDbEntity
  8
DEFPOINTS
  6
ByBlock
 62
     0
100
AcDbPoint
 10
459.4544444645692
 20
273.7649809288513
 30
0.0
  0
POINT
  5
163D
330
18
100
AcDbEntity
  8
DEFPOINTS
  6
ByBlock
 62
     0
100
AcDbPoint
 10
461.3597003528949
 20
277.0649809288514
 30
0.0
  0
POINT
  5
163E
330
18
100
AcDbEntity
  8
DEFPOINTS
  6
ByBlock
 62
     0
100
AcDbPoint
 10
448.6597003528949
 20
277.0649809288514
 30
0.0
  0
LINE
  5
164E
330
18
100
AcDbEntity
  8
0
  6
ByBlock
 62
     2
100
AcDbLine
 10
445.7373054026076
 20
282.1267174625321
 30
0.0
 11
437.0398066438926
 21
297.1912272113939
 31
0.0
  0
LINE
  5
164F
330
18
100
AcDbEntity
  8
0
  6
ByBlock
 62
     2
100
AcDbLine
 10
446.670662247218
 20
274.5149809288514
 30
0.0
 11
434.4438456748098
 21
295.6924484470881
 31
0.0
  0
LINE
  5
1651
330
18
100
AcDbEntity
  8
0
  6
ByBlock
 62
     2
100
AcDbLine
 10
432.9037821653486
 20
293.3599166923576
 30
0.0
 11
430.7387186558875
 21
292.1099166923576
 31
0.0
  0
LINE
  5
1652
330
18
100
AcDbEntity
  8
0
  6
ByBlock
 62
     2
100
AcDbLine
 10
437.6648066438925
 20
296.1086954566633
 30
0.0
 11
435.0688456748097
 21
294.6099166923576
 31
0.0
  0
INSERT
  5
1654
330
18
100
AcDbEntity
  8
0
  6
ByBlock
 62
     2
100
AcDbBlockReference
  2
_OPEN
 10
435.0688456748097
 20
294.6099166923576
 30
0.0
 41
2.5
 42
2.5
 43
2.5
 50
29.99999999999951
  0
MTEXT
  5
1655
330
18
100
AcDbEntity
  8
0
  6
ByBlock
 62
     6
100
AcDbMText
 10
433.1205742507184
 20
296.9831037066062
 30
0.0
 40
2.5
 41
0.0
 71
     5
 72
     1
  1
φ1.5
  7
STYLE3
 11
0.8660254037844429
 21
0.4999999999999926
 31
0.0
 73
     1
 44
1.0
  0
POINT
  5
1656
330
18
100
AcDbEntity
  8
DEFPOINTS
  6
ByBlock
 62
     0
100
AcDbPoint
 10
445.7373054026076
 20
282.1267174625321
 30
0.0
 50
60.00000000000049
  0
POINT
  5
1657
330
18
100
AcDbEntity
  8
DEFPOINTS
  6
ByBlock
 62
     0
100
AcDbPoint
 10
446.670662247218
 20
274.5149809288514
 30
0.0
 50
60.00000000000049
  0
POINT
  5
1658
330
18
100
AcDbEntity
  8
DEFPOINTS
  6
ByBlock
 62
     0
100
AcDbPoint
 10
435.0688456748097
 20
294.6099166923576
 30
0.0
 50
60.00000000000049
  0
LINE
  5
1664
330
18
100
AcDbEntity
  8
0
  6
ByBlock
 62
     2
100
AcDbLine
 10
461.3597003528949
 20
277.0649809288514
 30
0.0
 11
479.115850106621
 21
277.0649809288514
 31
0.0
  0
LINE
  5
1665
330
18
100
AcDbEntity
  8
0
  6
ByBlock
 62
     2
100
AcDbLine
 10
472.3348377844811
 20
273.7649809288514
 30
0.0
 11
479.115850106621
 21
273.7649809288514
 31
0.0
  0
LINE
  5
1666
330
18
100
AcDbEntity
  8
0
  6
ByBlock
 62
     2
100
AcDbLine
 10
477.8658501066209
 20
279.5649809288514
 30
0.0
 11
477.8658501066209
 21
282.0649809288513
 31
0.0
  0
LINE
  5
1667
330
18
100
AcDbEntity
  8
0
  6
ByBlock
 62
     2
100
AcDbLine
 10
477.8658501066209
 20
271.2649809288514
 30
0.0
 11
477.8658501066209
 21
262.8920488868557
 31
0.0
  0
LINE
  5
1668
330
18
100
AcDbEntity
  8
0
  6
ByBlock
 62
     2
100
AcDbLine
 10
477.8658501066209
 20
277.0649809288514
 30
0.0
 11
477.8658501066209
 21
273.7649809288514
 31
0.0
  0
INSERT
  5
1669
330
18
100
AcDbEntity
  8
0
  6
ByBlock
 62
     2
100
AcDbBlockReference
  2
_OPEN
 10
477.8658501066209
 20
277.0649809288514
 30
0.0
 41
2.5
 42
2.5
 43
2.5
 50
270.0
  0
INSERT
  5
166A
330
18
100
AcDbEntity
  8
0
  6
ByBlock
 62
     2
100
AcDbBlockReference
  2
_OPEN
 10
477.8658501066209
 20
273.7649809288514
 30
0.0
 41
2.5
 42
2.5
 43
2.5
 50
90.0
  0
MTEXT
  5
166B
330
18
100
AcDbEntity
  8
0
  6
ByBlock
 62
     6
100
AcDbMText
 10
475.990850106621
 20
266.7521556100727
 30
0.0
 40
2.5
 41
0.0
 71
     5
 72
     1
  1
\A1;1.65
  7
STYLE3
 11
0.0000000000000001
 21
1.0
 31
0.0
 73
     1
 44
1.0
  0
POINT
  5
166C
330
18
100
AcDbEntity
  8
DEFPOINTS
  6
ByBlock
 62
     0
100
AcDbPoint
 10
461.3597003528949
 20
277.0649809288514
 30
0.0
  0
POINT
  5
166D
330
18
100
AcDbEntity
  8
DEFPOINTS
  6
ByBlock
 62
     0
100
AcDbPoint
 10
472.3348377844811
 20
273.7649809288514
 30
0.0
  0
POINT
  5
166E
330
18
100
AcDbEntity
  8
DEFPOINTS
  6
ByBlock
 62
     0
100
AcDbPoint
 10
477.8658501066209
 20
273.7649809288514
 30
0.0
  0
TEXT
  5
166F
330
18
100
AcDbEntity
  8
文字
100
AcDbText
 10
433.1335408641783
 20
252.1992002681886
 30
0.0
 40
4.0
  1
A.B.C 断面図 
  7
STYLE3
100
AcDbText
  0
TEXT
  5
1670
330
18
100
AcDbEntity
  8
文字
100
AcDbText
 10
467.276287767108
 20
252.3114246440676
 30
0.0
 40
3.0
  1
S=2／1
  7
STYLE3
100
AcDbText
  0
LINE
  5
1671
330
18
100
AcDbEntity
  8
外形線
100
AcDbLine
 10
432.7966055269497
 20
251.525854012915
 30
0.0
 11
482.6629860987175
 21
251.525854012915
 31
0.0
  0
LINE
  5
1686
330
18
100
AcDbEntity
  8
0
  6
ByBlock
 62
     2
100
AcDbLine
 10
305.5736145639469
 20
325.0474079683314
 30
0.0
 11
305.5736145639469
 21
336.554344083888
 31
0.0
  0
LINE
  5
1687
330
18
100
AcDbEntity
  8
0
  6
ByBlock
 62
     2
100
AcDbLine
 10
311.5736145639469
 20
325.0474079683314
 30
0.0
 11
311.5736145639469
 21
336.554344083888
 31
0.0
  0
LINE
  5
1688
330
18
100
AcDbEntity
  8
0
  6
ByBlock
 62
     2
100
AcDbLine
 10
303.0736145639469
 20
335.304344083888
 30
0.0
 11
300.573614563947
 21
335.304344083888
 31
0.0
  0
LINE
  5
1689
330
18
100
AcDbEntity
  8
0
  6
ByBlock
 62
     2
100
AcDbLine
 10
314.0736145639469
 20
335.304344083888
 30
0.0
 11
316.5736145639469
 21
335.304344083888
 31
0.0
  0
LINE
  5
168A
330
18
100
AcDbEntity
  8
0
  6
ByBlock
 62
     2
100
AcDbLine
 10
305.5736145639469
 20
335.304344083888
 30
0.0
 11
311.5736145639469
 21
335.304344083888
 31
0.0
  0
INSERT
  5
168B
330
18
100
AcDbEntity
  8
0
  6
ByBlock
 62
     2
100
AcDbBlockReference
  2
_OPEN
 10
305.5736145639469
 20
335.304344083888
 30
0.0
 41
2.5
 42
2.5
 43
2.5
  0
INSERT
  5
168C
330
18
100
AcDbEntity
  8
0
  6
ByBlock
 62
     2
100
AcDbBlockReference
  2
_OPEN
 10
311.5736145639469
 20
335.304344083888
 30
0.0
 41
2.5
 42
2.5
 43
2.5
 50
180.0
  0
MTEXT
  5
168D
330
18
100
AcDbEntity
  8
0
  6
ByBlock
 62
     6
100
AcDbMText
 10
308.0488154213569
 20
338.1234537163753
 30
0.0
 40
2.5
 41
0.0
 71
     5
 72
     1
  1
\A1;φ6.0
  7
STYLE3
 73
     1
 44
1.0
  0
POINT
  5
168E
330
18
100
AcDbEntity
  8
DEFPOINTS
  6
ByBlock
 62
     0
100
AcDbPoint
 10
305.5736145639469
 20
325.0474079683314
 30
0.0
  0
POINT
  5
168F
330
18
100
AcDbEntity
  8
DEFPOINTS
  6
ByBlock
 62
     0
100
AcDbPoint
 10
311.5736145639469
 20
325.0474079683314
 30
0.0
  0
POINT
  5
1690
330
18
100
AcDbEntity
  8
DEFPOINTS
  6
ByBlock
 62
     0
100
AcDbPoint
 10
311.5736145639469
 20
335.304344083888
 30
0.0
  0
TEXT
  5
1691
330
18
100
AcDbEntity
  8
文字
100
AcDbText
 10
313.5870851298236
 20
340.7083462128447
 30
0.0
 40
1.0
  1
0
  7
STYLE3
100
AcDbText
  0
TEXT
  5
1692
330
18
100
AcDbEntity
  8
文字
100
AcDbText
 10
312.3774027365684
 20
339.4798053867261
 30
0.0
 40
1.0
  1
-0.03
  7
STYLE3
100
AcDbText
  0
LINE
  5
16EE
330
18
100
AcDbEntity
  8
中心線
 48
0.5
100
AcDbLine
 10
308.5736145639469
 20
327.4949074333704
 30
0.0
 11
308.5736145639469
 21
209.1476704037826
 31
0.0
  0
LINE
  5
16EF
330
18
100
AcDbEntity
  8
外形線
100
AcDbLine
 10
310.9236145639469
 20
250.6512555456248
 30
0.0
 11
312.5736145639469
 21
250.6512555456247
 31
0.0
  0
LINE
  5
16F2
330
18
100
AcDbEntity
  8
外形線
100
AcDbLine
 10
304.573614563947
 20
275.8145305082239
 30
0.0
 11
304.573614563947
 21
250.6512555456247
 31
0.0
  0
LINE
  5
16F3
330
18
100
AcDbEntity
  8
外形線
100
AcDbLine
 10
311.7736145639469
 20
275.6463143948971
 30
0.0
 11
311.7736145639469
 21
260.5512555456247
 31
0.0
  0
LINE
  5
16F9
330
18
100
AcDbEntity
  8
中心線
 48
0.5
100
AcDbLine
 10
300.4455688445191
 20
254.6512555456247
 30
0.0
 11
316.662090675737
 21
254.6512555456247
 31
0.0
  0
LINE
  5
16FD
330
18
100
AcDbEntity
  8
外形線
100
AcDbLine
 10
310.9236145639469
 20
250.6512555456248
 30
0.0
 11
310.8352408711023
 21
258.1630194374251
 31
0.0
  0
ARC
  5
16FE
330
18
100
AcDbEntity
  8
外形線
100
AcDbCircle
 10
309.8353100680715
 20
258.1512555456247
 30
0.0
 40
1.0
100
AcDbArc
 50
0.674036897984668
 51
90.0
  0
LINE
  5
16FF
330
18
100
AcDbEntity
  8
外形線
100
AcDbLine
 10
306.2236145639469
 20
250.6512555456248
 30
0.0
 11
306.3119882567916
 21
258.1630194374251
 31
0.0
  0
LINE
  5
1700
330
18
100
AcDbEntity
  8
外形線
100
AcDbLine
 10
306.2236145639469
 20
250.6512555456248
 30
0.0
 11
304.573614563947
 21
250.6512555456247
 31
0.0
  0
ARC
  5
1701
330
18
100
AcDbEntity
  8
外形線
100
AcDbCircle
 10
307.3119190598224
 20
258.1512555456247
 30
0.0
 40
1.0
100
AcDbArc
 50
90.0
 51
179.3259631020153
  0
LINE
  5
1702
330
18
100
AcDbEntity
  8
外形線
100
AcDbLine
 10
312.573614563947
 20
275.8145305082239
 30
0.0
 11
312.5736145639469
 21
250.6512555456247
 31
0.0
  0
LINE
  5
1703
330
18
100
AcDbEntity
  8
外形線
100
AcDbLine
 10
311.7736145639469
 20
260.5512555456247
 30
0.0
 11
312.5736145639469
 21
260.5512555456247
 31
0.0
  0
LINE
  5
1704
330
18
100
AcDbEntity
  8
外形線
100
AcDbLine
 10
305.5736145639469
 20
271.6512555456247
 30
0.0
 11
311.573614563947
 21
271.6512555456247
 31
0.0
  0
LINE
  5
1707
330
18
100
AcDbEntity
  8
中心線
 48
0.5
100
AcDbLine
 10
287.1469836843185
 20
292.8512555456247
 30
0.0
 11
329.5260694536606
 21
292.8512555456247
 31
0.0
  0
INSERT
  5
1826
330
18
100
AcDbEntity
  8
ASHADE
 62
     1
100
AcDbBlockReference
  2
AVE_RENDER
 10
0.0
 20
0.0
 30
0.0
1001
AVE_RENDER
1002
{
1070
     7
1000
Pref
1070
    30
1070
    20
1070
     1
1070
     0
1000

1070
    10
1070
     1
1070
    10
1040
1.0
1070
     1
1040
0.3
1040
0.7
1040
0.0
1040
10.0
1010
-1.0
1020
-1.0
1030
-1.0
1040
0.3
1070
    49
1070
     0
1070
     0
1010
1.0
1020
1.0
1030
1.0
1040
45.0
1070
     1
1070
     0
1000
WCS
1040
0.0
1070
     0
1040
10.0
1002
}
  0
INSERT
  5
1827
330
18
100
AcDbEntity
  8
ASHADE
 62
     3
100
AcDbBlockReference
  2
AVE_RENDER
 10
0.0
 20
0.0
 30
0.0
1001
AVE_RENDER
1002
{
1070
     0
1000
Full Opt
1070
     0
1070
     1
1070
     1
1070
     1
1070
     0
1070
     0
1070
     0
1070
     1
1070
     1
1040
0.0001
1040
0.0001
1002
}
  0
INSERT
  5
1828
330
18
100
AcDbEntity
  8
ASHADE
 62
     4
100
AcDbBlockReference
  2
AVE_RENDER
 10
0.0
 20
0.0
 30
0.0
1001
AVE_RENDER
1002
{
1070
     0
1000
Quick Opt
1070
     0
1070
     1
1070
     1
1070
     1
1070
     0
1070
     0
1070
     1
1002
}
  0
INSERT
  5
1829
330
18
100
AcDbEntity
  8
ASHADE
 62
     5
100
AcDbBlockReference
  2
AVE_RENDER
 10
0.0
 20
0.0
 30
0.0
1001
AVE_RENDER
1002
{
1070
     1
1000
Scanl Opt
1070
     2
1070
     0
1070
     2
1040
2.0
1040
4.0
1070
     0
1070
     1
1070
     0
1040
0.03
1002
}
  0
INSERT
  5
182A
330
18
100
AcDbEntity
  8
ASHADE
 62
     6
100
AcDbBlockReference
  2
AVE_RENDER
 10
0.0
 20
0.0
 30
0.0
1001
AVE_RENDER
1002
{
1070
     2
1000
Raytr Opt
1070
     2
1070
     0
1070
     2
1040
2.0
1040
4.0
1070
     0
1070
     1
1070
     1
1040
0.03
1070
     3
1040
0.03
1002
}
  0
INSERT
  5
182B
330
18
100
AcDbEntity
  8
ASHADE
 62
     7
100
AcDbBlockReference
  2
AVE_RENDER
 10
0.0
 20
0.0
 30
0.0
1001
AVE_RENDER
1002
{
1070
     0
1000
RFile Opt
1070
     1
1070
   640
1070
   480
1070
 10000
1070
     1
1070
     8
1070
     8
1070
     0
1070
     0
1070
     0
1070
     0
1070
     0
1070
     0
1070
     0
1002
}
  0
INSERT
  5
182C
330
18
100
AcDbEntity
  8
ASHADE
 62
     8
100
AcDbBlockReference
  2
AVE_RENDER
 10
0.0
 20
0.0
 30
0.0
1001
AVE_RENDER
1002
{
1070
     0
1000
Fog Opt
1070
     0
1070
     0
1040
0.0
1040
1.0
1040
0.0
1040
1.0
1010
0.5
1020
0.5
1030
0.5
1002
}
  0
INSERT
  5
182D
330
18
100
AcDbEntity
  8
ASHADE
 62
     9
100
AcDbBlockReference
  2
AVE_RENDER
 10
0.0
 20
0.0
 30
0.0
1001
AVE_RENDER
1002
{
1070
     0
1000
BG Opt
1070
     0
1070
     1
1010
0.0
1020
0.0
1030
0.0
1010
1.0
1020
0.0
1030
0.0
1010
0.0
1020
1.0
1030
0.0
1010
0.0
1020
0.0
1030
1.0
1040
0.5
1040
0.33
1040
0.0
1000

1070
     1
1000

1070
     1
1070
     1
1040
1.0
1040
1.0
1040
0.0
1040
0.0
1070
     0
1002
}
  0
INSERT
  5
1834
330
18
100
AcDbEntity
  8
ASHADE
 62
     1
100
AcDbBlockReference
  2
AVE_GLOBAL
 10
0.0
 20
0.0
 30
0.0
1001
AVE_MATERIAL
1002
{
1000
*GLOBAL*
1000
1
1000
Global finish.
1002
{
1002
}
1002
{
1070
    63
1002
{
1002
{
1010
-1.0
1020
-1.0
1030
-1.0
1002
}
1040
0.1000000014901161
1000

1040
0.0
1002
{
1002
}
1040
0.0
1002
{
1002
}
1040
0.0
1002
}
1002
{
1002
{
1010
-1.0
1020
-1.0
1030
-1.0
1002
}
1040
0.6999999880790711
1000

1040
0.0
1002
{
1002
}
1040
0.0
1002
{
1002
}
1040
0.0
1002
}
1002
{
1002
{
1010
-1.0
1020
-1.0
1030
-1.0
1002
}
1040
0.2000000029802322
1000

1040
0.0
1002
{
1002
}
1040
0.0
1002
{
1002
}
1040
0.0
1002
}
1002
{
1070
     0
1002
{
1070
     1
1002
{
1040
1.0
1040
1.0
1000

1040
0.0
1002
{
1002
}
1040
0.0
1002
{
1002
}
1040
0.0
1002
}
1002
}
1040
1.0
1040
0.0
1040
0.0
1002
}
1002
{
1040
1.0
1040
1.0
1000

1040
0.0
1002
{
1002
}
1040
0.0
1002
{
1002
}
1040
0.0
1002
}
1002
{
1040
0.5
1040
1.0
1000

1040
0.0
1002
{
1002
}
1040
0.0
1002
{
1002
}
1040
0.0
1002
}
1002
{
1070
     0
1040
0.0
1002
{
1002
}
1040
1.0
1002
{
1002
}
1040
0.0
1002
}
1002
{
1040
0.0
1002
{
1002
{
1010
0.0
1020
0.0
1030
0.0
1002
}
1040
1.0
1000

1040
0.0
1002
{
1002
}
1040
0.0
1002
{
1002
}
1040
0.0
1002
}
1002
}
1002
{
1002
{
1070
     1
1002
{
1040
0.0
1040
1.0
1000

1040
0.0
1002
{
1002
}
1040
0.0
1002
{
1002
}
1040
0.0
1002
}
1002
}
1040
0.0
1002
{
1002
}
1010
1.0
1020
0.0
1030
0.0
1010
0.0
1020
1.0
1030
0.0
1010
0.0
1020
0.0
1030
1.0
1070
     0
1002
}
1002
{
1002
{
1040
1.0
1040
1.0
1002
{
1070
     1
1002
{
1040
1.0
1040
1.0
1000

1040
0.0
1002
{
1002
}
1040
0.0
1002
{
1002
}
1040
0.0
1002
}
1002
}
1002
}
1070
     0
1040
0.0
1002
{
1002
}
1002
}
1002
{
1002
}
1002
}
1002
{
1071
        3
1070
     3
1070
     0
1002
{
1070
     2
1070
     0
1070
     0
1040
0.0
1002
}
1070
     0
1070
     2
1002
{
1002
}
1002
}
1002
{
1040
8030.0
1040
190.3000030517578
1040
0.3050000071525574
1040
228.0
1040
545.0
1040
14.0
1040
17.39999961853027
1040
0.4560000002384186
1002
}
1002
}
  0
ARC
  5
1837
330
18
100
AcDbEntity
  8
外形線
100
AcDbCircle
 10
390.193511205536
 20
254.6512555456246
 30
0.0
 40
4.0
100
AcDbArc
 50
199.9281732991189
 51
341.6307198030625
  0
LINE
  5
1838
330
18
100
AcDbEntity
  8
中心線
 48
0.5
100
AcDbLine
 10
382.234534071713
 20
254.6512555456247
 30
0.0
 11
398.4510559029309
 21
254.6512555456247
 31
0.0
  0
LINE
  5
183A
330
18
100
AcDbEntity
  8
中心線
 48
0.5
100
AcDbLine
 10
390.193511205536
 20
327.8658710786969
 30
0.0
 11
390.193511205536
 21
209.2154550424824
 31
0.0
  0
LINE
  5
183F
330
18
100
AcDbEntity
  8
外形線
100
AcDbLine
 10
382.193511205536
 20
308.0012555456248
 30
0.0
 11
398.043511205536
 21
308.0012555456248
 31
0.0
  0
LINE
  5
1852
330
18
100
AcDbEntity
  8
外形線
100
AcDbLine
 10
382.193511205536
 20
309.6512555456247
 30
0.0
 11
397.693511205536
 21
309.6512555456249
 31
0.0
  0
LINE
  5
1854
330
18
100
AcDbEntity
  8
外形線
100
AcDbLine
 10
398.043511205536
 20
307.6512555456248
 30
0.0
 11
399.693511205536
 21
307.6512555456247
 31
0.0
  0
LINE
  5
1855
330
18
100
AcDbEntity
  8
外形線
100
AcDbLine
 10
399.693511205536
 20
307.6512555456247
 30
0.0
 11
399.693511205536
 21
270.1012555456248
 31
0.0
  0
LINE
  5
1858
330
18
100
AcDbEntity
  8
外形線
100
AcDbLine
 10
398.043511205536
 20
268.4512555456247
 30
0.0
 11
399.693511205536
 21
270.1012555456248
 31
0.0
  0
LINE
  5
187E
330
18
100
AcDbEntity
  8
外形線
100
AcDbLine
 10
382.193511205536
 20
309.6512555456247
 30
0.0
 11
382.193511205536
 21
271.6512555456249
 31
0.0
  0
LINE
  5
187F
330
18
100
AcDbEntity
  8
外形線
100
AcDbLine
 10
398.043511205536
 20
308.0012555456248
 30
0.0
 11
398.043511205536
 21
263.9512555456247
 31
0.0
  0
LINE
  5
1882
330
18
100
AcDbEntity
  8
外形線
100
AcDbLine
 10
397.693511205536
 20
308.0012555456248
 30
0.0
 11
397.693511205536
 21
309.6512555456249
 31
0.0
  0
LINE
  5
1886
330
18
100
AcDbEntity
  8
外形線
100
AcDbLine
 10
398.043511205536
 20
263.9512555456247
 30
0.0
 11
393.9896916622442
 21
253.3906945831531
 31
0.0
  0
LINE
  5
1889
330
18
100
AcDbEntity
  8
外形線
100
AcDbLine
 10
382.193511205536
 20
271.6512555456249
 30
0.0
 11
386.4330286335781
 21
253.2878880874533
 31
0.0
  0
LINE
  5
188A
330
18
100
AcDbEntity
  8
外形線
100
AcDbLine
 10
380.5858005986404
 20
271.2800863059575
 30
0.0
 11
383.3859618167465
 21
259.1512555456247
 31
0.0
  0
LINE
  5
188B
330
18
100
AcDbEntity
  8
外形線
100
AcDbLine
 10
382.193511205536
 20
271.6512555456249
 30
0.0
 11
380.5858005986404
 21
271.2800863059575
 31
0.0
  0
LINE
  5
188C
330
18
100
AcDbEntity
  8
外形線
100
AcDbLine
 10
383.3859618167465
 20
259.1512555456247
 30
0.0
 11
385.0793635946056
 21
259.1512555456248
 31
0.0
  0
LINE
  5
188D
330
18
100
AcDbEntity
  8
外形線
100
AcDbLine
 10
311.5736145639469
 20
259.1512555456248
 30
0.0
 11
305.5736145639469
 21
259.1512555456247
 31
0.0
  0
LINE
  5
188E
330
18
100
AcDbEntity
  8
外形線
100
AcDbLine
 10
311.573614563947
 20
271.2800863059575
 30
0.0
 11
305.5736145639469
 21
271.2800863059575
 31
0.0
  0
LINE
  5
188F
330
18
100
AcDbEntity
  8
外形線
100
AcDbLine
 10
311.573614563947
 20
271.6512555456247
 30
0.0
 11
311.5736145639469
 21
259.1512555456248
 31
0.0
  0
LINE
  5
1890
330
18
100
AcDbEntity
  8
外形線
100
AcDbLine
 10
305.5736145639469
 20
271.6512555456247
 30
0.0
 11
305.5736145639469
 21
259.1512555456247
 31
0.0
  0
LINE
  5
1891
330
18
100
AcDbEntity
  8
中心線
 48
0.5
100
AcDbLine
 10
308.0950224143796
 20
260.6512555456248
 30
0.0
 11
312.0334016784043
 21
260.6512555456248
 31
0.0
  0
LINE
  5
1892
330
18
100
AcDbEntity
  8
中心線
 48
0.5
100
AcDbLine
 10
309.7736145639469
 20
262.839361359732
 30
0.0
 11
309.773614563947
 21
258.1017890543811
 31
0.0
  0
CIRCLE
  5
1897
330
18
100
AcDbEntity
  8
外形線
100
AcDbCircle
 10
309.7736145639469
 20
260.6512555456248
 30
0.0
 40
1.0
  0
CIRCLE
  5
1898
330
18
100
AcDbEntity
  8
外形線
100
AcDbCircle
 10
309.7736145639469
 20
260.6512555456248
 30
0.0
 40
0.675
  0
LINE
  5
18A8
330
18
100
AcDbEntity
  8
中心線
 48
0.5
100
AcDbLine
 10
384.643511205536
 20
307.3804787015745
 30
0.0
 11
384.643511205536
 21
302.1003596885289
 31
0.0
  0
LINE
  5
18B7
330
18
100
AcDbEntity
  8
外形線
100
AcDbLine
 10
384.7446047174735
 20
260.6012555456248
 30
0.0
 11
396.7575666881674
 21
260.6012555456248
 31
0.0
  0
LINE
  5
18B9
330
18
100
AcDbEntity
  8
中心線
 48
0.5
100
AcDbLine
 10
381.6590298994191
 20
304.7012555456248
 30
0.0
 11
387.4978013338339
 21
304.7012555456249
 31
0.0
  0
LINE
  5
18BD
330
18
100
AcDbEntity
  8
中心線
 48
0.5
100
AcDbLine
 10
383.1590298994191
 20
262.9012555456248
 30
0.0
 11
388.9978013338339
 21
262.9012555456248
 31
0.0
  0
LINE
  5
18BE
330
18
100
AcDbEntity
  8
外形線
100
AcDbLine
 10
386.6837024740854
 20
262.257480660643
 30
0.0
 11
385.6033199369865
 21
263.5450304306067
 31
0.0
  0
LINE
  5
18BF
330
18
100
AcDbEntity
  8
外形線
100
AcDbLine
 10
385.4997363205541
 20
262.3610642770754
 30
0.0
 11
386.7872860905178
 21
263.4414468141743
 31
0.0
  0
CIRCLE
  5
18C0
330
18
100
AcDbEntity
  8
外形線
100
AcDbCircle
 10
386.143511205536
 20
262.9012555456248
 30
0.0
 40
1.5
  0
LINE
  5
18C1
330
18
100
AcDbEntity
  8
中心線
 48
0.5
100
AcDbLine
 10
386.143511205536
 20
265.5804787015745
 30
0.0
 11
386.143511205536
 21
260.3003596885288
 31
0.0
  0
LINE
  5
18C2
330
18
100
AcDbEntity
  8
中心線
 48
0.5
100
AcDbLine
 10
392.559029899419
 20
262.9012555456248
 30
0.0
 11
398.3978013338338
 21
262.9012555456249
 31
0.0
  0
LINE
  5
18C3
330
18
100
AcDbEntity
  8
外形線
100
AcDbLine
 10
396.0837024740854
 20
262.2574806606431
 30
0.0
 11
395.0033199369865
 21
263.5450304306067
 31
0.0
  0
LINE
  5
18C4
330
18
100
AcDbEntity
  8
外形線
100
AcDbLine
 10
394.8997363205541
 20
262.3610642770755
 30
0.0
 11
396.1872860905178
 21
263.4414468141744
 31
0.0
  0
CIRCLE
  5
18C5
330
18
100
AcDbEntity
  8
外形線
100
AcDbCircle
 10
395.543511205536
 20
262.9012555456248
 30
0.0
 40
1.5
  0
LINE
  5
18C6
330
18
100
AcDbEntity
  8
中心線
 48
0.5
100
AcDbLine
 10
395.543511205536
 20
265.5804787015745
 30
0.0
 11
395.5435112055359
 21
260.3003596885289
 31
0.0
  0
LINE
  5
18C7
330
18
100
AcDbEntity
  8
中心線
 48
0.5
100
AcDbLine
 10
395.543511205536
 20
307.3804787015744
 30
0.0
 11
395.5435112055359
 21
302.1003596885287
 31
0.0
  0
LINE
  5
18C9
330
18
100
AcDbEntity
  8
中心線
 48
0.5
100
AcDbLine
 10
392.559029899419
 20
304.7012555456249
 30
0.0
 11
398.3978013338338
 21
304.7012555456249
 31
0.0
  0
LINE
  5
18CA
330
18
100
AcDbEntity
  8
外形線
100
AcDbLine
 10
396.0837024740854
 20
304.0574806606431
 30
0.0
 11
395.0033199369864
 21
305.3450304306068
 31
0.0
  0
LINE
  5
18CB
330
18
100
AcDbEntity
  8
外形線
100
AcDbLine
 10
394.899736320554
 20
304.1610642770755
 30
0.0
 11
396.1872860905177
 21
305.2414468141744
 31
0.0
  0
CIRCLE
  5
18CC
330
18
100
AcDbEntity
  8
外形線
100
AcDbCircle
 10
395.5435112055359
 20
304.7012555456249
 30
0.0
 40
1.5
  0
LINE
  5
18CF
330
18
100
AcDbEntity
  8
中心線
 48
0.5
100
AcDbLine
 10
370.3312386571037
 20
292.8512555456247
 30
0.0
 11
403.9949381338751
 21
292.8512555456247
 31
0.0
  0
LINE
  5
192E
330
18
100
AcDbEntity
  8
外形線
100
AcDbLine
 10
307.3236145639468
 20
236.7126933733908
 30
0.0
 11
307.8228018085588
 21
212.7117706524515
 31
0.0
  0
LINE
  5
192F
330
18
100
AcDbEntity
  8
外形線
100
AcDbLine
 10
309.8236145639469
 20
236.7126933733908
 30
0.0
 11
309.324427319335
 21
212.7117706524516
 31
0.0
  0
LINE
  5
1930
330
18
100
AcDbEntity
  8
中心線
 48
0.5
100
AcDbLine
 10
306.1902123189622
 20
212.0512555456247
 30
0.0
 11
311.5343625291942
 21
212.0512555456247
 31
0.0
  0
LINE
  5
1932
330
18
100
AcDbEntity
  8
外形線
100
AcDbLine
 10
307.8236145639469
 20
212.7126933733908
 30
0.0
 11
309.3236145639469
 21
212.7126933733908
 31
0.0
  0
ARC
  5
1933
330
18
100
AcDbEntity
  8
外形線
100
AcDbCircle
 10
308.5736145639469
 20
212.0512555456247
 30
0.0
 40
1.0
100
AcDbArc
 50
138.5903778907302
 51
41.40962210926974
  0
LINE
  5
1935
330
18
100
AcDbEntity
  8
外形線
100
AcDbLine
 10
309.8236145639469
 20
246.3512555456247
 30
0.0
 11
307.3236145639469
 21
246.3512555456248
 31
0.0
  0
LINE
  5
1936
330
18
100
AcDbEntity
  8
外形線
 62
     4
100
AcDbLine
 10
309.3039993216764
 20
246.0512555456247
 30
0.0
 11
307.8432298062176
 21
246.0512555456247
 31
0.0
  0
LINE
  5
1937
330
18
100
AcDbEntity
  8
外形線
100
AcDbLine
 10
309.8236145639469
 20
245.7512555456248
 30
0.0
 11
307.3236145639469
 21
245.7512555456248
 31
0.0
  0
LINE
  5
193A
330
18
100
AcDbEntity
  8
外形線
100
AcDbLine
 10
307.3236145639469
 20
250.9512555456247
 30
0.0
 11
308.5736145639469
 21
250.9512555456247
 31
0.0
  0
LINE
  5
193B
330
18
100
AcDbEntity
  8
外形線
100
AcDbLine
 10
307.3236145639469
 20
250.9512555456246
 30
0.0
 11
307.3236145639468
 21
246.3512555456248
 31
0.0
  0
LINE
  5
193C
330
18
100
AcDbEntity
  8
外形線
100
AcDbLine
 10
307.3236145639469
 20
246.3512555456248
 30
0.0
 11
307.8432298062176
 21
246.0512555456248
 31
0.0
  0
LINE
  5
193D
330
18
100
AcDbEntity
  8
外形線
100
AcDbLine
 10
307.3236145639469
 20
245.7512555456248
 30
0.0
 11
307.8432298062176
 21
246.0512555456248
 31
0.0
  0
LINE
  5
193F
330
18
100
AcDbEntity
  8
外形線
100
AcDbLine
 10
309.7236145639467
 20
251.0512555456247
 30
0.0
 11
309.8236145639469
 21
250.9512555456246
 31
0.0
  0
LINE
  5
1940
330
18
100
AcDbEntity
  8
外形線
100
AcDbLine
 10
308.5736145639469
 20
250.9512555456247
 30
0.0
 11
309.8236145639469
 21
250.9512555456247
 31
0.0
  0
LINE
  5
1941
330
18
100
AcDbEntity
  8
外形線
100
AcDbLine
 10
309.8236145639469
 20
250.9512555456246
 30
0.0
 11
309.8236145639468
 21
246.3512555456247
 31
0.0
  0
LINE
  5
1942
330
18
100
AcDbEntity
  8
外形線
100
AcDbLine
 10
309.8236145639469
 20
246.3512555456248
 30
0.0
 11
309.3039993216762
 21
246.0512555456248
 31
0.0
  0
LINE
  5
1943
330
18
100
AcDbEntity
  8
外形線
100
AcDbLine
 10
309.8236145639469
 20
245.7512555456248
 30
0.0
 11
309.3039993216763
 21
246.0512555456248
 31
0.0
  0
LINE
  5
1945
330
18
100
AcDbEntity
  8
外形線
100
AcDbLine
 10
309.8236145639469
 20
250.8912555456247
 30
0.0
 11
310.3736145639469
 21
250.8912555456248
 31
0.0
  0
LINE
  5
1946
330
18
100
AcDbEntity
  8
外形線
100
AcDbLine
 10
309.7236145639467
 20
251.0512555456247
 30
0.0
 11
307.0736145639469
 21
251.0512555456247
 31
0.0
  0
LINE
  5
1947
330
18
100
AcDbEntity
  8
外形線
100
AcDbLine
 10
307.4236145639471
 20
251.0512555456247
 30
0.0
 11
307.3236145639469
 21
250.9512555456246
 31
0.0
  0
LINE
  5
1948
330
18
100
AcDbEntity
  8
外形線
100
AcDbLine
 10
309.573614563947
 20
259.1512555456248
 30
0.0
 11
309.5736145639469
 21
251.1512555456247
 31
0.0
  0
LINE
  5
1949
330
18
100
AcDbEntity
  8
外形線
100
AcDbLine
 10
306.973614563947
 20
258.3912555456247
 30
0.0
 11
306.9736145639468
 21
251.1512555456248
 31
0.0
  0
LINE
  5
194A
330
18
100
AcDbEntity
  8
外形線
100
AcDbLine
 10
307.0736145639469
 20
258.4912555456248
 30
0.0
 11
309.4736145639469
 21
258.4912555456248
 31
0.0
  0
LINE
  5
194B
330
18
100
AcDbEntity
  8
外形線
100
AcDbLine
 10
306.973614563947
 20
258.3912555456247
 30
0.0
 11
307.0736145639469
 21
258.4912555456248
 31
0.0
  0
LINE
  5
194C
330
18
100
AcDbEntity
  8
外形線
100
AcDbLine
 10
309.4736145639469
 20
258.4912555456248
 30
0.0
 11
309.5736145639469
 21
258.3912555456247
 31
0.0
  0
LINE
  5
194D
330
18
100
AcDbEntity
  8
外形線
100
AcDbLine
 10
306.9736145639469
 20
251.1512555456247
 30
0.0
 11
307.0736145639469
 21
251.0512555456247
 31
0.0
  0
LINE
  5
194E
330
18
100
AcDbEntity
  8
外形線
100
AcDbLine
 10
309.5736145639469
 20
251.1512555456247
 30
0.0
 11
309.4736145639469
 21
251.0512555456247
 31
0.0
  0
LINE
  5
194F
330
18
100
AcDbEntity
  8
外形線
100
AcDbLine
 10
310.3736145639469
 20
258.9940059652154
 30
0.0
 11
310.3736145639469
 21
250.8912555456248
 31
0.0
  0
LINE
  5
1952
330
18
100
AcDbEntity
  8
外形線
100
AcDbLine
 10
306.5706941480037
 20
256.6512555456248
 30
0.0
 11
306.5706941480037
 21
252.6512555456247
 31
0.0
  0
LINE
  5
1953
330
18
100
AcDbEntity
  8
外形線
100
AcDbLine
 10
306.5706941480037
 20
256.6512555456248
 30
0.0
 11
306.294202799241
 21
256.6512555456248
 31
0.0
  0
LINE
  5
1954
330
18
100
AcDbEntity
  8
外形線
100
AcDbLine
 10
306.5706941480037
 20
252.6512555456247
 30
0.0
 11
306.2471439757116
 21
252.6512555456247
 31
0.0
  0
LINE
  5
1955
330
18
100
AcDbEntity
  8
外形線
100
AcDbLine
 10
306.5706941480037
 20
255.3012555456247
 30
0.0
 11
306.9736145639469
 21
255.3012555456247
 31
0.0
  0
LINE
  5
1956
330
18
100
AcDbEntity
  8
外形線
100
AcDbLine
 10
306.5706941480037
 20
254.0012555456248
 30
0.0
 11
306.9736145639469
 21
254.0012555456248
 31
0.0
  0
LINE
  5
1957
330
18
100
AcDbEntity
  8
外形線
100
AcDbLine
 10
310.3736145639469
 20
255.3012555456247
 30
0.0
 11
310.868908681594
 21
255.3012555456247
 31
0.0
  0
LINE
  5
1958
330
18
100
AcDbEntity
  8
外形線
100
AcDbLine
 10
310.3736145639469
 20
254.0012555456248
 30
0.0
 11
310.8842027992411
 21
254.0012555456248
 31
0.0
  0
LINE
  5
1985
330
18
100
AcDbEntity
  8
0
  6
ByBlock
 62
     2
100
AcDbLine
 10
399.693511205536
 20
307.6512555456247
 30
0.0
 11
399.693511205536
 21
336.554344083888
 31
0.0
  0
LINE
  5
1986
330
18
100
AcDbEntity
  8
0
  6
ByBlock
 62
     2
100
AcDbLine
 10
395.5435112055361
 20
335.304344083888
 30
0.0
 11
393.0435112055361
 21
335.304344083888
 31
0.0
  0
LINE
  5
1987
330
18
100
AcDbEntity
  8
0
  6
ByBlock
 62
     2
100
AcDbLine
 10
402.193511205536
 20
335.304344083888
 30
0.0
 11
411.0301371369092
 21
335.304344083888
 31
0.0
  0
MTEXT
  5
1988
330
18
100
AcDbEntity
  8
0
  6
ByBlock
 62
     6
100
AcDbMText
 10
406.5966720828765
 20
337.5381797781468
 30
0.0
 40
2.5
 41
0.0
 71
     5
 72
     1
  1
\A1;1.65
  7
STYLE3
 73
     1
 44
1.0
  0
LINE
  5
1989
330
18
100
AcDbEntity
  8
0
  6
ByBlock
 62
     2
100
AcDbLine
 10
398.043511205536
 20
335.304344083888
 30
0.0
 11
399.693511205536
 21
335.304344083888
 31
0.0
  0
LINE
  5
198A
330
18
100
AcDbEntity
  8
0
  6
ByBlock
 62
     2
100
AcDbLine
 10
398.043511205536
 20
335.304344083888
 30
0.0
 11
399.693511205536
 21
335.304344083888
 31
0.0
  0
INSERT
  5
198B
330
18
100
AcDbEntity
  8
0
  6
ByBlock
 62
     2
100
AcDbBlockReference
  2
_OPEN
 10
398.043511205536
 20
335.304344083888
 30
0.0
 41
2.5
 42
2.5
 43
2.5
  0
INSERT
  5
198C
330
18
100
AcDbEntity
  8
0
  6
ByBlock
 62
     2
100
AcDbBlockReference
  2
_OPEN
 10
399.693511205536
 20
335.304344083888
 30
0.0
 41
2.5
 42
2.5
 43
2.5
 50
180.0
  0
POINT
  5
198D
330
18
100
AcDbEntity
  8
DEFPOINTS
  6
ByBlock
 62
     0
100
AcDbPoint
 10
398.043511205536
 20
308.0012555456248
 30
0.0
  0
POINT
  5
198E
330
18
100
AcDbEntity
  8
DEFPOINTS
  6
ByBlock
 62
     0
100
AcDbPoint
 10
399.693511205536
 20
307.6512555456247
 30
0.0
  0
POINT
  5
198F
330
18
100
AcDbEntity
  8
DEFPOINTS
  6
ByBlock
 62
     0
100
AcDbPoint
 10
399.693511205536
 20
335.304344083888
 30
0.0
  0
TEXT
  5
1AA1
330
18
100
AcDbEntity
  8
文字
100
AcDbText
 10
300.949204007047
 20
297.3512555456247
 30
0.0
 40
1.5
  1
NEW PIC-TEST
  7
STYLE3
100
AcDbText
  0
LINE
  5
1B17
330
18
100
AcDbEntity
  8
隠れ線
 62
     4
 48
0.3
100
AcDbLine
 10
308.5736145639469
 20
213.1633388376616
 30
0.0
 11
309.3236145639469
 21
212.7126933733908
 31
0.0
  0
LINE
  5
1B18
330
18
100
AcDbEntity
  8
隠れ線
 62
     4
 48
0.3
100
AcDbLine
 10
308.5736145639469
 20
213.1633388376616
 30
0.0
 11
307.8236145639469
 21
212.7126933733908
 31
0.0
  0
LINE
  5
1B2A
330
18
100
AcDbEntity
  8
外形線
100
AcDbLine
 10
307.3236145639468
 20
236.7126933733908
 30
0.0
 11
309.8236145639469
 21
236.7126933733908
 31
0.0
  0
LINE
  5
1B2B
330
18
100
AcDbEntity
  8
外形線
100
AcDbLine
 10
307.3236145639469
 20
245.7512555456247
 30
0.0
 11
307.3236145639468
 21
236.7126933733908
 31
0.0
  0
LINE
  5
1B2C
330
18
100
AcDbEntity
  8
外形線
100
AcDbLine
 10
309.8236145639468
 20
245.7512555456248
 30
0.0
 11
309.8236145639469
 21
236.7126933733908
 31
0.0
  0
LINE
  5
1B78
330
18
100
AcDbEntity
  8
外形線
100
AcDbLine
 10
391.4435112055359
 20
245.5912555456247
 30
0.0
 11
391.443511205536
 21
236.5526933733907
 31
0.0
  0
LINE
  5
1B79
330
18
100
AcDbEntity
  8
外形線
100
AcDbLine
 10
388.943511205536
 20
245.5912555456246
 30
0.0
 11
388.9435112055359
 21
236.5526933733907
 31
0.0
  0
LINE
  5
1B7A
330
18
100
AcDbEntity
  8
外形線
100
AcDbLine
 10
388.9435112055359
 20
236.5526933733907
 30
0.0
 11
389.443511205536
 21
212.5126933733907
 31
0.0
  0
LINE
  5
1B7B
330
18
100
AcDbEntity
  8
外形線
100
AcDbLine
 10
391.443511205536
 20
236.5526933733907
 30
0.0
 11
390.943511205536
 21
212.5126933733907
 31
0.0
  0
LINE
  5
1B7C
330
18
100
AcDbEntity
  8
隠れ線
 62
     4
 48
0.3
100
AcDbLine
 10
390.193511205536
 20
212.9633388376614
 30
0.0
 11
389.443511205536
 21
212.5126933733907
 31
0.0
  0
ARC
  5
1B7D
330
18
100
AcDbEntity
  8
外形線
100
AcDbCircle
 10
390.193511205536
 20
211.8512555456246
 30
0.0
 40
1.0
100
AcDbArc
 50
138.5903778907302
 51
41.40962210926974
  0
LINE
  5
1B7E
330
18
100
AcDbEntity
  8
外形線
100
AcDbLine
 10
389.443511205536
 20
212.5126933733907
 30
0.0
 11
390.943511205536
 21
212.5126933733907
 31
0.0
  0
LINE
  5
1B7F
330
18
100
AcDbEntity
  8
中心線
 48
0.5
100
AcDbLine
 10
387.8101089605513
 20
211.8512555456246
 30
0.0
 11
393.1542591707834
 21
211.8512555456246
 31
0.0
  0
LINE
  5
1B80
330
18
100
AcDbEntity
  8
隠れ線
 62
     4
 48
0.3
100
AcDbLine
 10
390.193511205536
 20
212.9633388376614
 30
0.0
 11
390.943511205536
 21
212.5126933733907
 31
0.0
  0
LINE
  5
1B82
330
18
100
AcDbEntity
  8
外形線
100
AcDbLine
 10
388.9435112055359
 20
236.5526933733907
 30
0.0
 11
391.443511205536
 21
236.5526933733907
 31
0.0
  0
LINE
  5
1B83
330
18
100
AcDbEntity
  8
外形線
100
AcDbLine
 10
391.443511205536
 20
250.7912555456246
 30
0.0
 11
391.4435112055359
 21
246.1912555456247
 31
0.0
  0
LINE
  5
1B84
330
18
100
AcDbEntity
  8
外形線
100
AcDbLine
 10
388.943511205536
 20
250.7912555456246
 30
0.0
 11
388.9435112055359
 21
246.1912555456247
 31
0.0
  0
LINE
  5
1B85
330
18
100
AcDbEntity
  8
外形線
100
AcDbLine
 10
391.443511205536
 20
246.1912555456247
 30
0.0
 11
388.943511205536
 21
246.1912555456247
 31
0.0
  0
LINE
  5
1B86
330
18
100
AcDbEntity
  8
外形線
 62
     4
100
AcDbLine
 10
390.9238959632655
 20
245.8912555456246
 30
0.0
 11
389.4631264478066
 21
245.8912555456246
 31
0.0
  0
LINE
  5
1B87
330
18
100
AcDbEntity
  8
外形線
100
AcDbLine
 10
391.443511205536
 20
245.5912555456247
 30
0.0
 11
388.943511205536
 21
245.5912555456247
 31
0.0
  0
LINE
  5
1B88
330
18
100
AcDbEntity
  8
外形線
100
AcDbLine
 10
388.943511205536
 20
246.1912555456247
 30
0.0
 11
389.4631264478068
 21
245.8912555456247
 31
0.0
  0
LINE
  5
1B89
330
18
100
AcDbEntity
  8
外形線
100
AcDbLine
 10
388.943511205536
 20
245.5912555456247
 30
0.0
 11
389.4631264478067
 21
245.8912555456247
 31
0.0
  0
LINE
  5
1B8A
330
18
100
AcDbEntity
  8
外形線
100
AcDbLine
 10
391.443511205536
 20
246.1912555456247
 30
0.0
 11
390.9238959632653
 21
245.8912555456247
 31
0.0
  0
LINE
  5
1B8B
330
18
100
AcDbEntity
  8
外形線
100
AcDbLine
 10
391.443511205536
 20
245.5912555456247
 30
0.0
 11
390.9238959632654
 21
245.8912555456247
 31
0.0
  0
LINE
  5
1B8D
330
18
100
AcDbEntity
  8
外形線
100
AcDbLine
 10
388.943511205536
 20
250.7912555456246
 30
0.0
 11
389.1445116821805
 21
250.7912555456246
 31
0.0
  0
LINE
  5
1B8F
330
18
100
AcDbEntity
  8
外形線
100
AcDbLine
 10
388.9891337927104
 20
250.8368781327988
 30
0.0
 11
388.943511205536
 21
250.7912555456246
 31
0.0
  0
LINE
  5
1B94
330
18
100
AcDbEntity
  8
外形線
100
AcDbLine
 10
391.2425107288915
 20
250.7912555456246
 30
0.0
 11
391.443511205536
 21
250.7912555456246
 31
0.0
  0
LINE
  5
1B95
330
18
100
AcDbEntity
  8
外形線
100
AcDbLine
 10
391.3978886183617
 20
250.8368781327988
 30
0.0
 11
391.443511205536
 21
250.7912555456246
 31
0.0
  0
LINE
  5
1BFF
330
18
100
AcDbEntity
  8
目盛
100
AcDbLine
 10
309.5154723568867
 20
307.8216564720488
 30
0.0
 11
309.4212865775926
 21
306.3246163794064
 31
0.0
  0
LINE
  5
1C00
330
18
100
AcDbEntity
  8
目盛
100
AcDbLine
 10
310.4536130674115
 20
307.7329760653419
 30
0.0
 11
310.265613217065
 21
306.2448040133702
 31
0.0
  0
LINE
  5
1C01
330
18
100
AcDbEntity
  8
目盛
100
AcDbLine
 10
311.3843342827327
 20
307.5855643065551
 30
0.0
 11
311.1032623108542
 21
306.112133430462
 31
0.0
  0
LINE
  5
1C02
330
18
100
AcDbEntity
  8
目盛
100
AcDbLine
 10
312.3039628714197
 20
307.3800029625542
 30
0.0
 11
311.9309280406725
 21
305.9271282208612
 31
0.0
  0
LINE
  5
1C05
330
18
100
AcDbEntity
  8
目盛
100
AcDbLine
 10
303.9383596483227
 20
307.1171032900521
 30
0.0
 11
304.7109021342601
 21
304.7394619993141
 31
0.0
  0
LINE
  5
1C06
330
18
100
AcDbEntity
  8
目盛
100
AcDbLine
 10
307.6317567710072
 20
307.8216564720488
 30
0.0
 11
307.7259425503012
 21
306.3246163794064
 31
0.0
  0
LINE
  5
1C07
330
18
100
AcDbEntity
  8
目盛
100
AcDbLine
 10
306.6936160604824
 20
307.7329760653419
 30
0.0
 11
306.8816159108288
 21
306.2448040133702
 31
0.0
  0
LINE
  5
1C08
330
18
100
AcDbEntity
  8
目盛
100
AcDbLine
 10
305.762894845161
 20
307.5855643065551
 30
0.0
 11
306.0439668170396
 21
306.112133430462
 31
0.0
  0
LINE
  5
1C09
330
18
100
AcDbEntity
  8
目盛
100
AcDbLine
 10
304.8432662564741
 20
307.3800029625542
 30
0.0
 11
305.2163010872214
 21
305.9271282208612
 31
0.0
  0
LINE
  5
1C0A
330
18
100
AcDbEntity
  8
目盛
100
AcDbLine
 10
299.7568357795599
 20
304.9865104612489
 30
0.0
 11
301.226298910291
 21
302.9639679753115
 31
0.0
  0
LINE
  5
1C0B
330
18
100
AcDbEntity
  8
目盛
100
AcDbLine
 10
303.0517462736767
 20
306.7979028339485
 30
0.0
 11
303.6039331027038
 21
305.4032381051161
 31
0.0
  0
LINE
  5
1C0C
330
18
100
AcDbEntity
  8
目盛
100
AcDbLine
 10
302.1869251904708
 20
306.423661332615
 30
0.0
 11
302.8255941278184
 21
305.066420753916
 31
0.0
  0
LINE
  5
1C0D
330
18
100
AcDbEntity
  8
目盛
100
AcDbLine
 10
301.3473094524212
 20
305.9958557462826
 30
0.0
 11
302.0699399635738
 21
304.6813957262169
 31
0.0
  0
LINE
  5
1C0E
330
18
100
AcDbEntity
  8
目盛
100
AcDbLine
 10
300.536212639262
 20
305.516174428155
 30
0.0
 11
301.3399528317304
 21
304.2496825399019
 31
0.0
  0
LINE
  5
1C0F
330
18
100
AcDbEntity
  8
目盛
100
AcDbLine
 10
296.4383596483227
 20
301.6680343300118
 30
0.0
 11
298.4609021342601
 21
300.1985711992806
 31
0.0
  0
LINE
  5
1C10
330
18
100
AcDbEntity
  8
目盛
100
AcDbLine
 10
299.0122547177166
 20
304.4089541872616
 30
0.0
 11
299.9683907023396
 21
303.2531843230978
 31
0.0
  0
LINE
  5
1C11
330
18
100
AcDbEntity
  8
目盛
100
AcDbLine
 10
298.3054079750166
 20
303.7857849569459
 30
0.0
 11
299.3322286339096
 21
302.6923320158137
 31
0.0
  0
LINE
  5
1C12
330
18
100
AcDbEntity
  8
目盛
100
AcDbLine
 10
297.6390851526257
 20
303.119462134555
 30
0.0
 11
298.7325380937578
 21
302.092641475662
 31
0.0
  0
LINE
  5
1C13
330
18
100
AcDbEntity
  8
目盛
100
AcDbLine
 10
297.0159159223101
 20
302.4126153918551
 30
0.0
 11
298.1716857864737
 21
301.456479407232
 31
0.0
  0
LINE
  5
1C14
330
18
100
AcDbEntity
  8
目盛
100
AcDbLine
 10
294.3077668195196
 20
297.486510461249
 30
0.0
 11
296.6854081102575
 21
296.7139679753115
 31
0.0
  0
LINE
  5
1C15
330
18
100
AcDbEntity
  8
目盛
100
AcDbLine
 10
295.9086956814167
 20
300.8886574703097
 30
0.0
 11
297.1751875696698
 21
300.0849172778412
 31
0.0
  0
LINE
  5
1C16
330
18
100
AcDbEntity
  8
目盛
100
AcDbLine
 10
295.4290143632889
 20
300.0775606571504
 30
0.0
 11
296.7434743833548
 21
299.3549301459978
 31
0.0
  0
LINE
  5
1C17
330
18
100
AcDbEntity
  8
目盛
100
AcDbLine
 10
295.0012087769566
 20
299.2379449191008
 30
0.0
 11
296.3584493556556
 21
298.5992759817532
 31
0.0
  0
LINE
  5
1C18
330
18
100
AcDbEntity
  8
目盛
100
AcDbLine
 10
294.6269672756232
 20
298.3731238358949
 30
0.0
 11
296.0216320044555
 21
297.8209370068679
 31
0.0
  0
LINE
  5
1C19
330
18
100
AcDbEntity
  8
目盛
100
AcDbLine
 10
293.5736145639469
 20
292.8512555456247
 30
0.0
 11
296.0736145639469
 21
292.8512555456247
 31
0.0
  0
LINE
  5
1C1A
330
18
100
AcDbEntity
  8
目盛
100
AcDbLine
 10
294.0448671470175
 20
296.5816038530975
 30
0.0
 11
295.4977418887104
 21
296.2085690223503
 31
0.0
  0
LINE
  5
1C1B
330
18
100
AcDbEntity
  8
目盛
100
AcDbLine
 10
293.8393058030166
 20
295.6619752644106
 30
0.0
 11
295.3127366791096
 21
295.380903292532
 31
0.0
  0
LINE
  5
1C1C
330
18
100
AcDbEntity
  8
目盛
100
AcDbLine
 10
293.6918940442297
 20
294.7312540490893
 30
0.0
 11
295.1800660962015
 21
294.5432541987429
 31
0.0
  0
LINE
  5
1C1D
330
18
100
AcDbEntity
  8
目盛
100
AcDbLine
 10
293.6032136375228
 20
293.7931133385644
 30
0.0
 11
295.1002537301653
 21
293.6989275592704
 31
0.0
  0
LINE
  5
1C1E
330
18
100
AcDbEntity
  8
目盛
100
AcDbLine
 10
294.3077668195197
 20
288.2160006300005
 30
0.0
 11
296.6854081102575
 21
288.9885431159379
 31
0.0
  0
LINE
  5
1C1F
330
18
100
AcDbEntity
  8
目盛
100
AcDbLine
 10
293.6032136375228
 20
291.9093977526851
 30
0.0
 11
295.1002537301653
 21
292.003583531979
 31
0.0
  0
LINE
  5
1C20
330
18
100
AcDbEntity
  8
目盛
100
AcDbLine
 10
293.6918940442297
 20
290.9712570421601
 30
0.0
 11
295.1800660962015
 21
291.1592568925066
 31
0.0
  0
LINE
  5
1C21
330
18
100
AcDbEntity
  8
目盛
100
AcDbLine
 10
293.8393058030166
 20
290.0405358268389
 30
0.0
 11
295.3127366791097
 21
290.3216077987175
 31
0.0
  0
LINE
  5
1C22
330
18
100
AcDbEntity
  8
目盛
100
AcDbLine
 10
294.0448671470175
 20
289.120907238152
 30
0.0
 11
295.4977418887104
 21
289.4939420688992
 31
0.0
  0
LINE
  5
1C23
330
18
100
AcDbEntity
  8
目盛
100
AcDbLine
 10
296.4383596483227
 20
284.0344767612377
 30
0.0
 11
298.4609021342601
 21
285.5039398919688
 31
0.0
  0
LINE
  5
1C24
330
18
100
AcDbEntity
  8
目盛
100
AcDbLine
 10
294.6269672756232
 20
287.3293872553545
 30
0.0
 11
296.0216320044556
 21
287.8815740843816
 31
0.0
  0
LINE
  5
1C25
330
18
100
AcDbEntity
  8
目盛
100
AcDbLine
 10
295.0012087769567
 20
286.4645661721486
 30
0.0
 11
296.3584493556557
 21
287.1032351094962
 31
0.0
  0
LINE
  5
1C26
330
18
100
AcDbEntity
  8
目盛
100
AcDbLine
 10
295.4290143632889
 20
285.624950434099
 30
0.0
 11
296.7434743833548
 21
286.3475809452516
 31
0.0
  0
LINE
  5
1C27
330
18
100
AcDbEntity
  8
目盛
100
AcDbLine
 10
295.9086956814167
 20
284.8138536209398
 30
0.0
 11
297.1751875696697
 21
285.6175938134082
 31
0.0
  0
LINE
  5
1C28
330
18
100
AcDbEntity
  8
目盛
100
AcDbLine
 10
299.7568357795599
 20
280.7160006300005
 30
0.0
 11
301.2262989102911
 21
282.7385431159379
 31
0.0
  0
LINE
  5
1C29
330
18
100
AcDbEntity
  8
目盛
100
AcDbLine
 10
297.0159159223102
 20
283.2898956993944
 30
0.0
 11
298.1716857864739
 21
284.2460316840174
 31
0.0
  0
LINE
  5
1C2A
330
18
100
AcDbEntity
  8
目盛
100
AcDbLine
 10
297.6390851526259
 20
282.5830489566944
 30
0.0
 11
298.732538093758
 21
283.6098696155874
 31
0.0
  0
LINE
  5
1C2B
330
18
100
AcDbEntity
  8
目盛
100
AcDbLine
 10
298.3054079750167
 20
281.9167261343035
 30
0.0
 11
299.3322286339097
 21
283.0101790754357
 31
0.0
  0
LINE
  5
1C2C
330
18
100
AcDbEntity
  8
目盛
100
AcDbLine
 10
299.0122547177167
 20
281.2935569039879
 30
0.0
 11
299.9683907023398
 21
282.4493267681516
 31
0.0
  0
LINE
  5
1C2D
330
18
100
AcDbEntity
  8
目盛
100
AcDbLine
 10
303.9383596483227
 20
278.5854078011974
 30
0.0
 11
304.7109021342601
 21
280.9630490919353
 31
0.0
  0
LINE
  5
1C2E
330
18
100
AcDbEntity
  8
目盛
100
AcDbLine
 10
300.536212639262
 20
280.1863366630945
 30
0.0
 11
301.3399528317304
 21
281.4528285513476
 31
0.0
  0
LINE
  5
1C2F
330
18
100
AcDbEntity
  8
目盛
100
AcDbLine
 10
301.3473094524212
 20
279.7066553449667
 30
0.0
 11
302.0699399635738
 21
281.0211153650325
 31
0.0
  0
LINE
  5
1C30
330
18
100
AcDbEntity
  8
目盛
100
AcDbLine
 10
302.1869251904708
 20
279.2788497586344
 30
0.0
 11
302.8255941278185
 21
280.6360903373334
 31
0.0
  0
LINE
  5
1C31
330
18
100
AcDbEntity
  8
目盛
100
AcDbLine
 10
303.0517462736767
 20
278.904608257301
 30
0.0
 11
303.6039331027038
 21
280.2992729861334
 31
0.0
  0
LINE
  5
1C32
330
18
100
AcDbEntity
  8
目盛
100
AcDbLine
 10
308.573614563947
 20
277.8512555456247
 30
0.0
 11
308.573614563947
 21
280.3512555456247
 31
0.0
  0
LINE
  5
1C33
330
18
100
AcDbEntity
  8
目盛
100
AcDbLine
 10
304.8432662564742
 20
278.3225081286952
 30
0.0
 11
305.2163010872214
 21
279.7753828703882
 31
0.0
  0
LINE
  5
1C34
330
18
100
AcDbEntity
  8
目盛
100
AcDbLine
 10
305.7628948451612
 20
278.1169467846943
 30
0.0
 11
306.0439668170397
 21
279.5903776607874
 31
0.0
  0
LINE
  5
1C35
330
18
100
AcDbEntity
  8
目盛
100
AcDbLine
 10
306.6936160604825
 20
277.9695350259075
 30
0.0
 11
306.8816159108289
 21
279.4577070778792
 31
0.0
  0
LINE
  5
1C36
330
18
100
AcDbEntity
  8
目盛
100
AcDbLine
 10
307.6317567710073
 20
277.8808546192006
 30
0.0
 11
307.7259425503013
 21
279.377894711843
 31
0.0
  0
LINE
  5
1C37
330
18
100
AcDbEntity
  8
目盛
100
AcDbLine
 10
313.2088694795712
 20
278.5854078011975
 30
0.0
 11
312.4363269936338
 21
280.9630490919353
 31
0.0
  0
LINE
  5
1C38
330
18
100
AcDbEntity
  8
目盛
100
AcDbLine
 10
309.5154723568866
 20
277.8808546192006
 30
0.0
 11
309.4212865775926
 21
279.377894711843
 31
0.0
  0
LINE
  5
1C39
330
18
100
AcDbEntity
  8
目盛
100
AcDbLine
 10
310.4536130674115
 20
277.9695350259076
 30
0.0
 11
310.265613217065
 21
279.4577070778792
 31
0.0
  0
LINE
  5
1C3A
330
18
100
AcDbEntity
  8
目盛
100
AcDbLine
 10
311.3843342827328
 20
278.1169467846944
 30
0.0
 11
311.1032623108542
 21
279.5903776607874
 31
0.0
  0
LINE
  5
1C3B
330
18
100
AcDbEntity
  8
目盛
100
AcDbLine
 10
312.3039628714197
 20
278.3225081286953
 30
0.0
 11
311.9309280406725
 21
279.7753828703882
 31
0.0
  0
LINE
  5
1C3C
330
18
100
AcDbEntity
  8
目盛
100
AcDbLine
 10
317.390393348334
 20
280.7160006300005
 30
0.0
 11
315.9209302176029
 21
282.7385431159379
 31
0.0
  0
LINE
  5
1C3D
330
18
100
AcDbEntity
  8
目盛
100
AcDbLine
 10
314.0954828542172
 20
278.9046082573009
 30
0.0
 11
313.5432960251901
 21
280.2992729861333
 31
0.0
  0
LINE
  5
1C3E
330
18
100
AcDbEntity
  8
目盛
100
AcDbLine
 10
314.9603039374231
 20
279.2788497586345
 30
0.0
 11
314.3216350000755
 21
280.6360903373334
 31
0.0
  0
LINE
  5
1C3F
330
18
100
AcDbEntity
  8
目盛
100
AcDbLine
 10
315.7999196754727
 20
279.7066553449667
 30
0.0
 11
315.0772891643201
 21
281.0211153650325
 31
0.0
  0
LINE
  5
1C40
330
18
100
AcDbEntity
  8
目盛
100
AcDbLine
 10
316.6110164886319
 20
280.1863366630944
 30
0.0
 11
315.8072762961634
 21
281.4528285513475
 31
0.0
  0
LINE
  5
1C41
330
18
100
AcDbEntity
  8
目盛
100
AcDbLine
 10
320.7088694795711
 20
284.0344767612375
 30
0.0
 11
318.6863269936338
 21
285.5039398919688
 31
0.0
  0
LINE
  5
1C42
330
18
100
AcDbEntity
  8
目盛
100
AcDbLine
 10
318.1349744101773
 20
281.2935569039879
 30
0.0
 11
317.1788384255542
 21
282.4493267681516
 31
0.0
  0
LINE
  5
1C43
330
18
100
AcDbEntity
  8
目盛
100
AcDbLine
 10
318.8418211528773
 20
281.9167261343035
 30
0.0
 11
317.8150004939843
 21
283.0101790754357
 31
0.0
  0
LINE
  5
1C44
330
18
100
AcDbEntity
  8
目盛
100
AcDbLine
 10
319.5081439752681
 20
282.5830489566944
 30
0.0
 11
318.414691034136
 21
283.6098696155874
 31
0.0
  0
LINE
  5
1C45
330
18
100
AcDbEntity
  8
目盛
100
AcDbLine
 10
320.1313132055838
 20
283.2898956993943
 30
0.0
 11
318.9755433414201
 21
284.2460316840174
 31
0.0
  0
LINE
  5
1C46
330
18
100
AcDbEntity
  8
目盛
100
AcDbLine
 10
322.8394623083743
 20
288.2160006300006
 30
0.0
 11
320.4618210176363
 21
288.9885431159379
 31
0.0
  0
LINE
  5
1C47
330
18
100
AcDbEntity
  8
目盛
100
AcDbLine
 10
321.2385334464772
 20
284.8138536209399
 30
0.0
 11
319.9720415582242
 21
285.6175938134084
 31
0.0
  0
LINE
  5
1C48
330
18
100
AcDbEntity
  8
目盛
100
AcDbLine
 10
321.7182147646049
 20
285.6249504340991
 30
0.0
 11
320.4037547445391
 21
286.3475809452517
 31
0.0
  0
LINE
  5
1C49
330
18
100
AcDbEntity
  8
目盛
100
AcDbLine
 10
322.1460203509373
 20
286.4645661721487
 30
0.0
 11
320.7887797722382
 21
287.1032351094963
 31
0.0
  0
LINE
  5
1C4A
330
18
100
AcDbEntity
  8
目盛
100
AcDbLine
 10
322.5202618522707
 20
287.3293872553546
 30
0.0
 11
321.1255971234383
 21
287.8815740843817
 31
0.0
  0
LINE
  5
1C4B
330
18
100
AcDbEntity
  8
目盛
100
AcDbLine
 10
323.5736145639469
 20
292.8512555456247
 30
0.0
 11
321.0736145639469
 21
292.8512555456247
 31
0.0
  0
LINE
  5
1C4C
330
18
100
AcDbEntity
  8
目盛
100
AcDbLine
 10
323.1023619808764
 20
289.1209072381519
 30
0.0
 11
321.6494872391834
 21
289.4939420688991
 31
0.0
  0
LINE
  5
1C4D
330
18
100
AcDbEntity
  8
目盛
100
AcDbLine
 10
323.3079233248773
 20
290.0405358268388
 30
0.0
 11
321.8344924487843
 21
290.3216077987174
 31
0.0
  0
LINE
  5
1C4E
330
18
100
AcDbEntity
  8
目盛
100
AcDbLine
 10
323.4553350836641
 20
290.9712570421601
 30
0.0
 11
321.9671630316924
 21
291.1592568925065
 31
0.0
  0
LINE
  5
1C4F
330
18
100
AcDbEntity
  8
目盛
100
AcDbLine
 10
323.544015490371
 20
291.9093977526849
 30
0.0
 11
322.0469753977286
 21
292.003583531979
 31
0.0
  0
LINE
  5
1C50
330
18
100
AcDbEntity
  8
目盛
100
AcDbLine
 10
322.8394623083742
 20
297.486510461249
 30
0.0
 11
320.4618210176363
 21
296.7139679753115
 31
0.0
  0
LINE
  5
1C51
330
18
100
AcDbEntity
  8
目盛
100
AcDbLine
 10
323.544015490371
 20
293.7931133385644
 30
0.0
 11
322.0469753977285
 21
293.6989275592704
 31
0.0
  0
LINE
  5
1C52
330
18
100
AcDbEntity
  8
目盛
100
AcDbLine
 10
323.4553350836641
 20
294.7312540490893
 30
0.0
 11
321.9671630316924
 21
294.5432541987429
 31
0.0
  0
LINE
  5
1C53
330
18
100
AcDbEntity
  8
目盛
100
AcDbLine
 10
323.3079233248773
 20
295.6619752644106
 30
0.0
 11
321.8344924487842
 21
295.380903292532
 31
0.0
  0
LINE
  5
1C54
330
18
100
AcDbEntity
  8
目盛
100
AcDbLine
 10
323.1023619808764
 20
296.5816038530975
 30
0.0
 11
321.6494872391834
 21
296.2085690223503
 31
0.0
  0
LINE
  5
1C55
330
18
100
AcDbEntity
  8
目盛
100
AcDbLine
 10
320.7088694795711
 20
301.6680343300118
 30
0.0
 11
318.6863269936338
 21
300.1985711992806
 31
0.0
  0
LINE
  5
1C56
330
18
100
AcDbEntity
  8
目盛
100
AcDbLine
 10
322.5202618522707
 20
298.3731238358949
 30
0.0
 11
321.1255971234383
 21
297.8209370068679
 31
0.0
  0
LINE
  5
1C57
330
18
100
AcDbEntity
  8
目盛
100
AcDbLine
 10
322.1460203509372
 20
299.2379449191008
 30
0.0
 11
320.7887797722382
 21
298.5992759817532
 31
0.0
  0
LINE
  5
1C58
330
18
100
AcDbEntity
  8
目盛
100
AcDbLine
 10
321.7182147646049
 20
300.0775606571504
 30
0.0
 11
320.4037547445391
 21
299.3549301459978
 31
0.0
  0
LINE
  5
1C59
330
18
100
AcDbEntity
  8
目盛
100
AcDbLine
 10
321.2385334464772
 20
300.8886574703096
 30
0.0
 11
319.9720415582242
 21
300.0849172778412
 31
0.0
  0
LINE
  5
1C5A
330
18
100
AcDbEntity
  8
目盛
100
AcDbLine
 10
317.390393348334
 20
304.9865104612489
 30
0.0
 11
315.9209302176029
 21
302.9639679753115
 31
0.0
  0
LINE
  5
1C5B
330
18
100
AcDbEntity
  8
目盛
100
AcDbLine
 10
320.1313132055838
 20
302.4126153918551
 30
0.0
 11
318.9755433414201
 21
301.456479407232
 31
0.0
  0
LINE
  5
1C5C
330
18
100
AcDbEntity
  8
目盛
100
AcDbLine
 10
319.508143975268
 20
303.1194621345551
 30
0.0
 11
318.414691034136
 21
302.092641475662
 31
0.0
  0
LINE
  5
1C5D
330
18
100
AcDbEntity
  8
目盛
100
AcDbLine
 10
318.8418211528772
 20
303.7857849569459
 30
0.0
 11
317.8150004939842
 21
302.6923320158138
 31
0.0
  0
LINE
  5
1C5E
330
18
100
AcDbEntity
  8
目盛
100
AcDbLine
 10
318.1349744101773
 20
304.4089541872616
 30
0.0
 11
317.1788384255542
 21
303.2531843230979
 31
0.0
  0
LINE
  5
1C5F
330
18
100
AcDbEntity
  8
目盛
100
AcDbLine
 10
313.2088694795712
 20
307.1171032900521
 30
0.0
 11
312.4363269936338
 21
304.7394619993141
 31
0.0
  0
LINE
  5
1C60
330
18
100
AcDbEntity
  8
目盛
100
AcDbLine
 10
316.6110164886319
 20
305.516174428155
 30
0.0
 11
315.8072762961634
 21
304.2496825399019
 31
0.0
  0
LINE
  5
1C61
330
18
100
AcDbEntity
  8
目盛
100
AcDbLine
 10
315.7999196754726
 20
305.9958557462827
 30
0.0
 11
315.07728916432
 21
304.6813957262169
 31
0.0
  0
LINE
  5
1C62
330
18
100
AcDbEntity
  8
目盛
100
AcDbLine
 10
314.960303937423
 20
306.4236613326151
 30
0.0
 11
314.3216350000754
 21
305.066420753916
 31
0.0
  0
LINE
  5
1C63
330
18
100
AcDbEntity
  8
目盛
100
AcDbLine
 10
314.0954828542171
 20
306.7979028339485
 30
0.0
 11
313.54329602519
 21
305.4032381051162
 31
0.0
  0
LINE
  5
1C77
330
18
100
AcDbEntity
  8
0
  6
ByBlock
 62
     2
100
AcDbLine
 10
390.193511205536
 20
325.6512555456248
 30
0.0
 11
411.999804607034
 21
325.6512555456248
 31
0.0
  0
LINE
  5
1C78
330
18
100
AcDbEntity
  8
0
  6
ByBlock
 62
     2
100
AcDbLine
 10
397.693511205536
 20
309.6512555456249
 30
0.0
 11
411.999804607034
 21
309.6512555456249
 31
0.0
  0
LINE
  5
1C79
330
18
100
AcDbEntity
  8
0
  6
ByBlock
 62
     2
100
AcDbLine
 10
410.749804607034
 20
323.1512555456248
 30
0.0
 11
410.749804607034
 21
312.1512555456249
 31
0.0
  0
INSERT
  5
1C7A
330
18
100
AcDbEntity
  8
0
  6
ByBlock
 62
     2
100
AcDbBlockReference
  2
_OPEN
 10
410.749804607034
 20
325.6512555456248
 30
0.0
 41
2.5
 42
2.5
 43
2.5
 50
90.0
  0
INSERT
  5
1C7B
330
18
100
AcDbEntity
  8
0
  6
ByBlock
 62
     2
100
AcDbBlockReference
  2
_OPEN
 10
410.749804607034
 20
309.6512555456249
 30
0.0
 41
2.5
 42
2.5
 43
2.5
 50
270.0
  0
MTEXT
  5
1C7C
330
18
100
AcDbEntity
  8
0
  6
ByBlock
 62
     6
100
AcDbMText
 10
408.874804607034
 20
317.6512555456249
 30
0.0
 40
2.5
 41
0.0
 71
     5
 72
     1
  1
\A1;16
  7
STYLE3
 11
0.0000000000000001
 21
1.0
 31
0.0
 73
     1
 44
1.0
  0
POINT
  5
1C7D
330
18
100
AcDbEntity
  8
DEFPOINTS
  6
ByBlock
 62
     0
100
AcDbPoint
 10
390.193511205536
 20
325.6512555456248
 30
0.0
  0
POINT
  5
1C7E
330
18
100
AcDbEntity
  8
DEFPOINTS
  6
ByBlock
 62
     0
100
AcDbPoint
 10
397.693511205536
 20
309.6512555456249
 30
0.0
  0
POINT
  5
1C7F
330
18
100
AcDbEntity
  8
DEFPOINTS
  6
ByBlock
 62
     0
100
AcDbPoint
 10
410.749804607034
 20
309.6512555456249
 30
0.0
  0
LINE
  5
1C80
330
18
100
AcDbEntity
  8
0
  6
ByBlock
 62
     2
100
AcDbLine
 10
373.693511205536
 20
292.8512555456247
 30
0.0
 11
373.693511205536
 21
341.9540228967766
 31
0.0
  0
LINE
  5
1C81
330
18
100
AcDbEntity
  8
0
  6
ByBlock
 62
     2
100
AcDbLine
 10
399.693511205536
 20
336.554344083888
 30
0.0
 11
399.693511205536
 21
341.9540228967766
 31
0.0
  0
LINE
  5
1C82
330
18
100
AcDbEntity
  8
0
  6
ByBlock
 62
     2
100
AcDbLine
 10
376.193511205536
 20
340.7040228967766
 30
0.0
 11
397.193511205536
 21
340.7040228967766
 31
0.0
  0
INSERT
  5
1C83
330
18
100
AcDbEntity
  8
0
  6
ByBlock
 62
     2
100
AcDbBlockReference
  2
_OPEN
 10
373.693511205536
 20
340.7040228967766
 30
0.0
 41
2.5
 42
2.5
 43
2.5
 50
180.0
  0
INSERT
  5
1C84
330
18
100
AcDbEntity
  8
0
  6
ByBlock
 62
     2
100
AcDbBlockReference
  2
_OPEN
 10
399.693511205536
 20
340.7040228967766
 30
0.0
 41
2.5
 42
2.5
 43
2.5
  0
MTEXT
  5
1C85
330
18
100
AcDbEntity
  8
0
  6
ByBlock
 62
     6
100
AcDbMText
 10
386.693511205536
 20
342.5790228967766
 30
0.0
 40
2.5
 41
0.0
 71
     5
 72
     1
  1
\A1;26
  7
STYLE3
 73
     1
 44
1.0
  0
POINT
  5
1C86
330
18
100
AcDbEntity
  8
DEFPOINTS
  6
ByBlock
 62
     0
100
AcDbPoint
 10
373.693511205536
 20
292.8512555456247
 30
0.0
  0
POINT
  5
1C87
330
18
100
AcDbEntity
  8
DEFPOINTS
  6
ByBlock
 62
     0
100
AcDbPoint
 10
399.693511205536
 20
336.554344083888
 30
0.0
  0
POINT
  5
1C88
330
18
100
AcDbEntity
  8
DEFPOINTS
  6
ByBlock
 62
     0
100
AcDbPoint
 10
399.693511205536
 20
340.7040228967766
 30
0.0
  0
LINE
  5
1C89
330
18
100
AcDbEntity
  8
寸法線
 62
     2
100
AcDbLine
 10
398.7810328396713
 20
280.672316295879
 30
0.0
 11
405.9622190202428
 21
289.9735862307371
 31
0.0
1001
ACAD
1000
DSTYLE
1002
{
1070
   271
1070
     2
1002
}
  0
LINE
  5
1C8A
330
18
100
AcDbEntity
  8
寸法線
 62
     2
100
AcDbLine
 10
405.9622190202428
 20
289.9735862307371
 30
0.0
 11
410.9919809250047
 21
289.9735862307371
 31
0.0
1001
ACAD
1000
DSTYLE
1002
{
1070
   271
1070
     2
1002
}
  0
POINT
  5
1C91
330
18
100
AcDbEntity
  8
DEFPOINTS
  6
ByBlock
 62
     0
100
AcDbPoint
 10
333.2940970699295
 20
325.8512555456247
 30
0.0
  0
POINT
  5
1C92
330
18
100
AcDbEntity
  8
DEFPOINTS
  6
ByBlock
 62
     0
100
AcDbPoint
 10
308.5736145639469
 20
211.0512555456248
 30
0.0
  0
LINE
  5
1C94
330
18
100
AcDbEntity
  8
0
  6
ByBlock
 62
     2
100
AcDbLine
 10
376.7572531741288
 20
310.3512555456247
 30
0.0
 11
364.2474158571815
 21
310.3512555456247
 31
0.0
  0
LINE
  5
1C95
330
18
100
AcDbEntity
  8
0
  6
ByBlock
 62
     2
100
AcDbLine
 10
376.7572531741288
 20
275.3512555456247
 30
0.0
 11
364.2474158571815
 21
275.3512555456247
 31
0.0
  0
LINE
  5
1C96
330
18
100
AcDbEntity
  8
0
  6
ByBlock
 62
     2
100
AcDbLine
 10
365.4974158571815
 20
307.8512555456247
 30
0.0
 11
365.4974158571815
 21
277.8512555456247
 31
0.0
  0
INSERT
  5
1C97
330
18
100
AcDbEntity
  8
0
  6
ByBlock
 62
     2
100
AcDbBlockReference
  2
_OPEN
 10
365.4974158571815
 20
310.3512555456247
 30
0.0
 41
2.5
 42
2.5
 43
2.5
 50
90.0
  0
INSERT
  5
1C98
330
18
100
AcDbEntity
  8
0
  6
ByBlock
 62
     2
100
AcDbBlockReference
  2
_OPEN
 10
365.4974158571815
 20
275.3512555456247
 30
0.0
 41
2.5
 42
2.5
 43
2.5
 50
270.0
  0
MTEXT
  5
1C99
330
18
100
AcDbEntity
  8
0
  6
ByBlock
 62
     6
100
AcDbMText
 10
363.6224158571815
 20
292.8512555456247
 30
0.0
 40
2.5
 41
0.0
 71
     5
 72
     1
  1
\A1;φ35
  7
STYLE3
 11
0.0000000000000001
 21
1.0
 31
0.0
 73
     1
 44
1.0
  0
POINT
  5
1C9A
330
18
100
AcDbEntity
  8
DEFPOINTS
  6
ByBlock
 62
     0
100
AcDbPoint
 10
376.7572531741288
 20
310.3512555456247
 30
0.0
  0
POINT
  5
1C9B
330
18
100
AcDbEntity
  8
DEFPOINTS
  6
ByBlock
 62
     0
100
AcDbPoint
 10
376.7572531741288
 20
275.3512555456247
 30
0.0
  0
POINT
  5
1C9C
330
18
100
AcDbEntity
  8
DEFPOINTS
  6
ByBlock
 62
     0
100
AcDbPoint
 10
365.4974158571815
 20
275.3512555456247
 30
0.0
  0
POINT
  5
1CA3
330
18
100
AcDbEntity
  8
DEFPOINTS
  6
ByBlock
 62
     0
100
AcDbPoint
 10
316.662090675737
 20
254.6512555456247
 30
0.0
  0
LINE
  5
1CA6
330
18
100
AcDbEntity
  8
0
  6
ByBlock
 62
     2
100
AcDbLine
 10
303.5736145639469
 20
252.6512555456247
 30
0.0
 11
303.5736145639469
 21
230.4422791978826
 31
0.0
  0
LINE
  5
1CA7
330
18
100
AcDbEntity
  8
0
  6
ByBlock
 62
     2
100
AcDbLine
 10
313.5736145639469
 20
252.6512555456247
 30
0.0
 11
313.5736145639469
 21
230.4422791978826
 31
0.0
  0
LINE
  5
1CA8
330
18
100
AcDbEntity
  8
0
  6
ByBlock
 62
     2
100
AcDbLine
 10
306.0736145639469
 20
231.6922791978826
 30
0.0
 11
311.0736145639469
 21
231.6922791978826
 31
0.0
  0
LINE
  5
1CA9
330
18
100
AcDbEntity
  8
0
  6
ByBlock
 62
     2
100
AcDbLine
 10
313.5736145639469
 20
231.6922791978826
 30
0.0
 11
324.4664717068041
 21
231.6922791978826
 31
0.0
  0
INSERT
  5
1CAA
330
18
100
AcDbEntity
  8
0
  6
ByBlock
 62
     2
100
AcDbBlockReference
  2
_OPEN
 10
303.5736145639469
 20
231.6922791978826
 30
0.0
 41
2.5
 42
2.5
 43
2.5
 50
180.0
  0
INSERT
  5
1CAB
330
18
100
AcDbEntity
  8
0
  6
ByBlock
 62
     2
100
AcDbBlockReference
  2
_OPEN
 10
313.5736145639469
 20
231.6922791978826
 30
0.0
 41
2.5
 42
2.5
 43
2.5
  0
MTEXT
  5
1CAC
330
18
100
AcDbEntity
  8
0
  6
ByBlock
 62
     6
100
AcDbMText
 10
320.2700431353755
 20
234.2220411026445
 30
0.0
 40
2.5
 41
0.0
 71
     5
 72
     1
  1
\A1;(10)
  7
STYLE3
 73
     1
 44
1.0
  0
POINT
  5
1CAD
330
18
100
AcDbEntity
  8
DEFPOINTS
  6
ByBlock
 62
     0
100
AcDbPoint
 10
303.5736145639469
 20
252.6512555456247
 30
0.0
  0
POINT
  5
1CAE
330
18
100
AcDbEntity
  8
DEFPOINTS
  6
ByBlock
 62
     0
100
AcDbPoint
 10
313.5736145639469
 20
252.6512555456247
 30
0.0
  0
POINT
  5
1CAF
330
18
100
AcDbEntity
  8
DEFPOINTS
  6
ByBlock
 62
     0
100
AcDbPoint
 10
313.5736145639469
 20
231.6922791978826
 30
0.0
  0
POINT
  5
1CB6
330
18
100
AcDbEntity
  8
DEFPOINTS
  6
ByBlock
 62
     0
100
AcDbPoint
 10
304.573614563947
 20
250.6512555456247
 30
0.0
  0
LINE
  5
1CB9
330
18
100
AcDbEntity
  8
0
  6
ByBlock
 62
     2
100
AcDbLine
 10
448.6597003528949
 20
277.0649809288514
 30
0.0
 11
448.6597003528949
 21
288.0907451575962
 31
0.0
  0
LINE
  5
1CBA
330
18
100
AcDbEntity
  8
0
  6
ByBlock
 62
     2
100
AcDbLine
 10
461.1138312976887
 20
277.0649809288515
 30
0.0
 11
461.1138312976887
 21
288.0907451575962
 31
0.0
  0
LINE
  5
1CBB
330
18
100
AcDbEntity
  8
0
  6
ByBlock
 62
     2
100
AcDbLine
 10
451.1597003528948
 20
286.8407451575962
 30
0.0
 11
458.6138312976888
 21
286.8407451575962
 31
0.0
  0
INSERT
  5
1CBC
330
18
100
AcDbEntity
  8
0
  6
ByBlock
 62
     2
100
AcDbBlockReference
  2
_OPEN
 10
448.6597003528949
 20
286.8407451575962
 30
0.0
 41
2.5
 42
2.5
 43
2.5
 50
180.0
  0
INSERT
  5
1CBD
330
18
100
AcDbEntity
  8
0
  6
ByBlock
 62
     2
100
AcDbBlockReference
  2
_OPEN
 10
461.1138312976887
 20
286.8407451575962
 30
0.0
 41
2.5
 42
2.5
 43
2.5
  0
MTEXT
  5
1CBE
330
18
100
AcDbEntity
  8
0
  6
ByBlock
 62
     6
100
AcDbMText
 10
454.8867658252918
 20
289.3705070623581
 30
0.0
 40
2.5
 41
0.0
 71
     5
 72
     1
  1
\A1;(6.35)
  7
STYLE3
 73
     1
 44
1.0
  0
POINT
  5
1CBF
330
18
100
AcDbEntity
  8
DEFPOINTS
  6
ByBlock
 62
     0
100
AcDbPoint
 10
448.6597003528949
 20
277.0649809288514
 30
0.0
  0
POINT
  5
1CC0
330
18
100
AcDbEntity
  8
DEFPOINTS
  6
ByBlock
 62
     0
100
AcDbPoint
 10
461.1138312976887
 20
277.0649809288515
 30
0.0
  0
POINT
  5
1CC1
330
18
100
AcDbEntity
  8
DEFPOINTS
  6
ByBlock
 62
     0
100
AcDbPoint
 10
461.1138312976887
 20
286.8407451575962
 30
0.0
  0
LINE
  5
1CC2
330
18
100
AcDbEntity
  8
0
  6
ByBlock
 62
     2
100
AcDbLine
 10
446.4697003528948
 20
275.2649809288513
 30
0.0
 11
446.4697003528948
 21
294.6907265599987
 31
0.0
  0
LINE
  5
1CC3
330
18
100
AcDbEntity
  8
0
  6
ByBlock
 62
     2
100
AcDbLine
 10
463.549700352895
 20
275.2649809288513
 30
0.0
 11
463.549700352895
 21
294.6907265599987
 31
0.0
  0
LINE
  5
1CC4
330
18
100
AcDbEntity
  8
0
  6
ByBlock
 62
     2
100
AcDbLine
 10
448.9697003528948
 20
293.4407265599987
 30
0.0
 11
461.049700352895
 21
293.4407265599987
 31
0.0
  0
INSERT
  5
1CC5
330
18
100
AcDbEntity
  8
0
  6
ByBlock
 62
     2
100
AcDbBlockReference
  2
_OPEN
 10
446.4697003528948
 20
293.4407265599987
 30
0.0
 41
2.5
 42
2.5
 43
2.5
 50
180.0
  0
INSERT
  5
1CC6
330
18
100
AcDbEntity
  8
0
  6
ByBlock
 62
     2
100
AcDbBlockReference
  2
_OPEN
 10
463.549700352895
 20
293.4407265599987
 30
0.0
 41
2.5
 42
2.5
 43
2.5
  0
MTEXT
  5
1CC7
330
18
100
AcDbEntity
  8
0
  6
ByBlock
 62
     6
100
AcDbMText
 10
455.0097003528949
 20
295.3157265599987
 30
0.0
 40
2.5
 41
0.0
 71
     5
 72
     1
  1
\A1;8.54
  7
STYLE3
 73
     1
 44
1.0
  0
POINT
  5
1CC8
330
18
100
AcDbEntity
  8
DEFPOINTS
  6
ByBlock
 62
     0
100
AcDbPoint
 10
446.4697003528948
 20
275.2649809288513
 30
0.0
  0
POINT
  5
1CC9
330
18
100
AcDbEntity
  8
DEFPOINTS
  6
ByBlock
 62
     0
100
AcDbPoint
 10
463.549700352895
 20
275.2649809288513
 30
0.0
  0
POINT
  5
1CCA
330
18
100
AcDbEntity
  8
DEFPOINTS
  6
ByBlock
 62
     0
100
AcDbPoint
 10
463.549700352895
 20
293.4407265599987
 30
0.0
  0
LINE
  5
1CCB
330
18
100
AcDbEntity
  8
0
  6
ByBlock
 62
     2
100
AcDbLine
 10
304.5736145639469
 20
265.979228873337
 30
0.0
 11
304.5736145639469
 21
268.0007344878562
 31
0.0
  0
LINE
  5
1CCC
330
18
100
AcDbEntity
  8
0
  6
ByBlock
 62
     2
100
AcDbLine
 10
312.573614563947
 20
266.5964332729386
 30
0.0
 11
312.573614563947
 21
268.0007344878562
 31
0.0
  0
LINE
  5
1CCD
330
18
100
AcDbEntity
  8
0
  6
ByBlock
 62
     2
100
AcDbLine
 10
307.0736145639469
 20
266.7507344878562
 30
0.0
 11
310.073614563947
 21
266.7507344878562
 31
0.0
  0
LINE
  5
1CCE
330
18
100
AcDbEntity
  8
0
  6
ByBlock
 62
     2
100
AcDbLine
 10
312.573614563947
 20
266.7507344878562
 30
0.0
 11
317.9902812306137
 21
266.7507344878562
 31
0.0
  0
INSERT
  5
1CCF
330
18
100
AcDbEntity
  8
0
  6
ByBlock
 62
     2
100
AcDbBlockReference
  2
_OPEN
 10
304.5736145639469
 20
266.7507344878562
 30
0.0
 41
2.5
 42
2.5
 43
2.5
 50
180.0
  0
INSERT
  5
1CD0
330
18
100
AcDbEntity
  8
0
  6
ByBlock
 62
     2
100
AcDbBlockReference
  2
_OPEN
 10
312.573614563947
 20
266.7507344878562
 30
0.0
 41
2.5
 42
2.5
 43
2.5
  0
MTEXT
  5
1CD1
330
18
100
AcDbEntity
  8
0
  6
ByBlock
 62
     6
100
AcDbMText
 10
316.5319478972803
 20
268.6257344878562
 30
0.0
 40
2.5
 41
0.0
 71
     5
 72
     1
  1
\A1;8
  7
STYLE3
 73
     1
 44
1.0
  0
POINT
  5
1CD2
330
18
100
AcDbEntity
  8
DEFPOINTS
  6
ByBlock
 62
     0
100
AcDbPoint
 10
304.5736145639469
 20
265.979228873337
 30
0.0
  0
POINT
  5
1CD3
330
18
100
AcDbEntity
  8
DEFPOINTS
  6
ByBlock
 62
     0
100
AcDbPoint
 10
312.573614563947
 20
266.5964332729386
 30
0.0
  0
POINT
  5
1CD4
330
18
100
AcDbEntity
  8
DEFPOINTS
  6
ByBlock
 62
     0
100
AcDbPoint
 10
312.573614563947
 20
266.7507344878562
 30
0.0
  0
HATCH
  5
1CD5
330
18
100
AcDbEntity
  8
ROGO
 62
     4
100
AcDbHatch
 10
0.0
 20
0.0
 30
0.0
210
0.0
220
0.0
230
0.9999999999999998
  2
SOLID
 70
     1
 71
     1
 91
        1
 92
        7
 72
     0
 73
     1
 93
       11
 10
314.4834636379944
 20
289.3500799016842
 10
313.9363009832752
 20
289.3500799016842
 10
313.6801032030478
 20
289.1879551023409
 10
313.7609438641439
 20
289.3500799016842
 10
313.213769237684
 20
289.3500799016842
 10
312.4733321631231
 20
287.8651438495566
 10
313.0205067895831
 20
287.8651438495566
 10
313.213769237684
 20
288.2527289483681
 10
313.4070316857848
 20
287.8651438495566
 10
313.9541943405041
 20
287.8651438495566
 10
313.5839758032237
 20
288.6076118756204
 97
       11
330
1D23
330
1D26
330
1D25
330
1D24
330
1CDA
330
1CD7
330
1D20
330
1D1F
330
1D21
330
1D1E
330
1D22
 75
     0
 76
     1
 47
0.0514683685270805
 98
        1
 10
313.1666774501706
 20
288.71301339855
450
        0
451
        0
460
0.0
461
0.0
452
        0
462
0.0
453
        0
470

  0
HATCH
  5
1CD6
330
18
100
AcDbEntity
  8
ROGO
 62
     4
100
AcDbHatch
 10
0.0
 20
0.0
 30
0.0
210
0.0
220
0.0
230
0.9999999999999998
  2
SOLID
 70
     1
 71
     1
 91
        1
 92
        5
 93
        8
 72
     1
 10
313.0147332603392
 20
289.3500799016842
 11
312.063046986951
 21
289.3500799016842
 72
     4
 94
        3
 73
     0
 74
     0
 95
       26
 96
       22
 40
0.0
 40
0.0
 40
0.0
 40
0.0
 40
0.7089867102952115
 40
1.183598414482279
 40
1.525832104103439
 40
1.781366926528389
 40
2.112809002752968
 40
2.354729406992515
 40
2.791581270399936
 40
3.147172406765291
 40
3.389031356825354
 40
3.626186440486682
 40
4.050410779375985
 40
4.350388020238963
 40
4.511948940797758
 40
4.741441456013356
 40
4.907163150576407
 40
5.147239172635527
 40
5.28310143501293
 40
5.578752957634333
 40
5.713750011164293
 40
5.713750011164293
 40
5.713750011164293
 40
5.713750011164293
 10
312.0630469869509
 20
289.3500799016842
 10
312.0045322805123
 20
289.3465888139559
 10
311.9068465090318
 20
289.3407607133159
 10
311.7995881261963
 20
289.2756023976131
 10
311.7210043556813
 20
289.2377222162389
 10
311.6649585058527
 20
289.1862273368397
 10
311.6238766707352
 20
289.1330368880502
 10
311.57208530527
 20
289.0696608583198
 10
311.5298509266727
 20
288.9958620362794
 10
311.5083435252465
 20
288.9145228688099
 10
311.4892924731902
 20
288.8496950803918
 10
311.4751638940531
 20
288.7774529703987
 10
311.4787586045606
 20
288.699406078161
 10
311.4839063945238
 20
288.626920120236
 10
311.5068900249328
 20
288.5751759989138
 10
311.5330643088663
 20
288.5383377501776
 10
311.5651143610878
 20
288.497764503259
 10
311.6001841269891
 20
288.470892973206
 10
311.6291896859828
 20
288.4222133907918
 10
311.6799629385176
 20
288.4160015249963
 10
311.7122364377658
 20
288.4036380580693
 10
311.7223533348064
 20
288.3997624348838
 72
     1
 10
311.7223533348063
 20
288.3997624348838
 11
312.5408742789955
 21
288.3997624348838
 72
     1
 10
312.5408742789955
 20
288.3997624348838
 11
312.7171786757748
 21
288.7533384022696
 72
     1
 10
312.7171786757748
 20
288.7533384022695
 11
312.1095050503381
 21
288.7533384022695
 72
     4
 94
        3
 73
     0
 74
     0
 95
       16
 96
       12
 40
0.0
 40
0.0
 40
0.0
 40
0.0
 40
0.2141121027475241
 40
0.4304326162973471
 40
0.5594580803306056
 40
0.6831669452691567
 40
0.8190286678446897
 40
0.9139043619204622
 40
1.003933161420314
 40
1.186498641432482
 40
1.560280494298353
 40
1.560280494298353
 40
1.560280494298353
 40
1.560280494298353
 10
312.1095050503381
 20
288.7533384022695
 10
312.0911754723196
 20
288.7587312328825
 10
312.0543272600004
 20
288.7695725172386
 10
312.0512433621854
 20
288.8221270810304
 10
312.0554447267958
 20
288.8595765082572
 10
312.0730400511683
 20
288.8868418781843
 10
312.0943862315004
 20
288.906681022213
 10
312.1023343611676
 20
288.9325184053391
 10
312.1256971641735
 20
288.9520288621378
 10
312.1671256738384
 20
288.9848232145865
 10
312.2129384338276
 20
288.9918076789159
 10
312.2437177281671
 20
288.9965001899859
 72
     1
 10
312.243717728167
 20
288.9965001899859
 11
312.8384269965248
 21
288.9965001899859
 72
     1
 10
312.8384269965248
 20
288.9965001899859
 11
313.0147332603392
 21
289.3500799016842
 97
        8
330
1CD8
330
1CFC
330
1D08
330
1D01
330
1D1C
330
1D1B
330
1D1D
330
1CD9
 75
     0
 76
     1
 47
0.0514683685270805
 98
        1
 10
312.2272661770288
 20
289.1760735412025
450
        0
451
        0
460
0.0
461
0.0
452
        0
462
0.0
453
        0
470

  0
LINE
  5
1CD7
102
{ACAD_REACTORS
330
1CDB
330
1CD5
330
1CE0
102
}
330
18
100
AcDbEntity
  8
ROGO
 62
     4
100
AcDbLine
 10
302.968967580779
 20
287.8651438495566
 30
0.0
 11
313.0205067895831
 21
287.8651438495566
 31
0.0
  0
LINE
  5
1CD8
102
{ACAD_REACTORS
330
1CD6
102
}
330
18
100
AcDbEntity
  8
ROGO
 62
     4
100
AcDbLine
 10
312.0630469869512
 20
289.3500799016843
 30
0.0
 11
313.0147332603392
 21
289.3500799016843
 31
0.0
  0
LINE
  5
1CD9
102
{ACAD_REACTORS
330
1CD6
102
}
330
18
100
AcDbEntity
  8
ROGO
 62
     4
100
AcDbLine
 10
313.0147332603392
 20
289.3500799016843
 30
0.0
 11
312.8384269965248
 21
288.9965001899859
 31
0.0
  0
LINE
  5
1CDA
102
{ACAD_REACTORS
330
1CDB
330
1CD5
102
}
330
18
100
AcDbEntity
  8
ROGO
 62
     4
100
AcDbLine
 10
313.213769237684
 20
289.3500799016843
 30
0.0
 11
312.4733321631231
 21
287.8651438495566
 31
0.0
  0
HATCH
  5
1CDB
330
18
100
AcDbEntity
  8
ROGO
 62
     4
100
AcDbHatch
 10
0.0
 20
0.0
 30
0.0
210
0.0
220
0.0
230
0.9999999999999998
  2
SOLID
 70
     1
 71
     1
 91
        1
 92
        7
 72
     0
 73
     1
 93
        4
 10
312.5475499224716
 20
288.0139865133713
 10
303.7265699667703
 20
288.0139865133713
 10
303.6592293235499
 20
287.8651438495566
 10
312.4733321631231
 20
287.8651438495566
 97
        4
330
1CDF
330
1CE9
330
1CD7
330
1CDA
 75
     0
 76
     1
 47
0.0514683685270805
 98
        1
 10
309.2963030760646
 20
287.9746200208669
450
        0
451
        0
460
0.0
461
0.0
452
        0
462
0.0
453
        0
470

  0
HATCH
  5
1CDC
330
18
100
AcDbEntity
  8
ROGO
 62
     4
100
AcDbHatch
 10
0.0
 20
0.0
 30
0.0
210
0.0
220
0.0
230
0.9999999999999998
  2
SOLID
 70
     1
 71
     1
 91
        2
 92
        7
 72
     0
 73
     1
 93
        8
 10
307.7669959343283
 20
289.3500799016842
 10
307.2177496069891
 20
289.3500799016842
 10
306.5324572124747
 20
288.3997624348838
 10
307.0587629917398
 20
288.3997624348838
 10
307.1892384236158
 20
288.5806970007605
 10
307.7955071177016
 20
288.5806970007605
 10
307.9259825495776
 20
288.3997624348838
 10
308.4522883288427
 20
288.3997624348838
 97
        8
330
1CDE
330
1CE6
330
1CEB
330
1CE7
330
1CDD
330
1CFF
330
1D05
330
1CFE
 92
       22
 72
     0
 73
     1
 93
        3
 10
307.6578907452368
 20
288.7715341434427
 10
307.3268547960806
 20
288.7715341434427
 10
307.4923727706587
 20
289.0010633539959
 97
        3
330
1D0A
330
1D09
330
1D0B
 75
     0
 76
     1
 47
0.0514683685270805
 98
        2
 10
307.8308215255825
 20
288.8631950255364
 10
307.8308215255825
 20
288.8631950255364
450
        0
451
        0
460
0.0
461
0.0
452
        0
462
0.0
453
        0
470

  0
LINE
  5
1CDD
102
{ACAD_REACTORS
330
1CDC
102
}
330
18
100
AcDbEntity
  8
ROGO
 62
     4
100
AcDbLine
 10
307.1892384236158
 20
288.5806970007605
 30
0.0
 11
307.7955071177016
 21
288.5806970007605
 31
0.0
  0
LINE
  5
1CDE
102
{ACAD_REACTORS
330
1CDC
102
}
330
18
100
AcDbEntity
  8
ROGO
 62
     4
100
AcDbLine
 10
307.2177496069891
 20
289.3500799016843
 30
0.0
 11
307.7669959343283
 21
289.3500799016843
 31
0.0
  0
LINE
  5
1CDF
102
{ACAD_REACTORS
330
1CDB
102
}
330
18
100
AcDbEntity
  8
ROGO
 62
     4
100
AcDbLine
 10
303.7162475701892
 20
288.0139865133714
 30
0.0
 11
312.5475499224717
 21
288.0139865133714
 31
0.0
  0
HATCH
  5
1CE0
330
18
100
AcDbEntity
  8
ROGO
 62
     4
100
AcDbHatch
 10
0.0
 20
0.0
 30
0.0
210
0.0
220
0.0
230
0.9999999999999998
  2
SOLID
 70
     1
 71
     1
 91
        2
 92
        5
 93
        6
 72
     4
 94
        3
 73
     0
 74
     0
 95
       18
 96
       14
 40
0.108740278791501
 40
0.108740278791501
 40
0.108740278791501
 40
0.108740278791501
 40
0.6623149649549278
 40
1.384304701649787
 40
2.097394834876493
 40
2.774073369849618
 40
3.428974823686337
 40
4.005208313035923
 40
4.455173659284313
 40
4.720999734343524
 40
5.086034088486724
 40
5.569973738255373
 40
6.060470601257719
 40
6.060470601257719
 40
6.060470601257719
 40
6.060470601257719
 10
304.5463590927309
 20
288.3997624348838
 10
304.5917709438355
 20
288.4001006031887
 10
304.6964103774893
 20
288.4008798213675
 10
304.8428001263739
 20
288.4790844419267
 10
304.9816194346387
 20
288.5787114306065
 10
305.0934289437623
 20
288.7031849588555
 10
305.163089636626
 20
288.8454991131186
 10
305.173879857765
 20
288.9818941580494
 10
305.1672926928569
 20
289.089780942912
 10
305.1202240910088
 20
289.1649807103562
 10
305.0712905356715
 20
289.2413007841292
 10
304.9815629418439
 20
289.3074120667509
 10
304.9080441709815
 20
289.3363786360579
 10
304.870658380731
 20
289.3500799016843
 72
     1
 10
304.8706583807311
 20
289.3500799016842
 11
303.7037001293173
 21
289.3500799016842
 72
     1
 10
303.7037001293173
 20
289.3500799016842
 11
302.968967580779
 21
287.8651438495566
 72
     1
 10
302.968967580779
 20
287.8651438495566
 11
303.65922932355
 21
287.8651438495566
 72
     1
 10
303.65922932355
 20
287.8651438495566
 11
303.9011059366851
 21
288.3997624348838
 72
     1
 10
303.9011059366851
 20
288.3997624348838
 11
304.5463590927308
 21
288.3997624348838
 97
        6
330
1CE2
330
1CEC
330
1CE3
330
1CD7
330
1CE9
330
1CE8
 92
       20
 93
        4
 72
     1
 10
304.0504510523735
 20
288.7298591459298
 11
304.164793393497
 21
288.982589411424
 72
     1
 10
304.164793393497
 20
288.9825894114239
 11
304.4586044782893
 21
288.9825894114239
 72
     4
 94
        3
 73
     0
 74
     0
 95
       15
 96
       11
 40
0.0
 40
0.0
 40
0.0
 40
0.0
 40
0.458245544397197
 40
0.6671803073175111
 40
0.9043351724393449
 40
1.065896092998139
 40
1.321406364485703
 40
1.474450037341961
 40
1.737022829061231
 40
1.824547148828933
 40
1.824547148828933
 40
1.824547148828933
 40
1.824547148828933
 10
304.458604478289
 20
288.9825894114239
 10
304.5004546013058
 20
288.9827811073264
 10
304.5613860784953
 20
288.9830602060161
 10
304.5947055803567
 20
288.9076877925253
 10
304.5797701909431
 20
288.8591597161903
 10
304.5609951891963
 20
288.8093365069024
 10
304.5278155088527
 20
288.7754808847504
 10
304.4832835179065
 20
288.7428722133484
 10
304.4411986583709
 20
288.7389247876605
 10
304.413827181428
 20
288.7316722749702
 10
304.4069843089167
 20
288.7298591459298
 72
     1
 10
304.4069843089167
 20
288.7298591459298
 11
304.0504510523735
 21
288.7298591459298
 97
        4
330
1CEF
330
1CED
330
1CF1
330
1CEE
 75
     0
 76
     1
 47
0.0514683685270805
 98
        2
 10
303.7099373401198
 20
288.8882253807749
 10
303.7099373401198
 20
288.8882253807749
450
        0
451
        0
460
0.0
461
0.0
452
        0
462
0.0
453
        0
470

  0
HATCH
  5
1CE1
330
18
100
AcDbEntity
  8
ROGO
 62
     4
100
AcDbHatch
 10
0.0
 20
0.0
 30
0.0
210
0.0
220
0.0
230
0.9999999999999998
  2
SOLID
 70
     1
 71
     1
 91
        1
 92
        1
 93
       12
 72
     1
 10
305.5600683605206
 20
289.3500799016842
 11
306.8454122698009
 21
289.3500799016842
 72
     1
 10
306.8454122698008
 20
289.3500799016842
 11
306.7377015879314
 21
289.1323905193023
 72
     1
 10
306.7377015879314
 20
289.1323905193023
 11
306.0621573091335
 21
289.1323905193023
 72
     1
 10
306.0621573091335
 20
289.1323905193023
 11
305.9779409406567
 21
288.9621844736067
 72
     1
 10
305.9779409406567
 20
288.9621844736067
 11
306.6534852194545
 21
288.9621844736067
 72
     1
 10
306.6534852194545
 20
288.9621844736067
 11
306.5671292229712
 21
288.7876541186488
 72
     1
 10
306.5671292229712
 20
288.7876541186488
 11
305.8915849441733
 21
288.7876541186488
 72
     1
 10
305.8915849441733
 20
288.7876541186488
 11
305.8073650103802
 21
288.6174408672474
 72
     1
 10
305.8073650103803
 20
288.6174408672474
 11
306.4829092891781
 21
288.6174408672474
 72
     1
 10
306.4829092891781
 20
288.6174408672474
 11
306.3752040252759
 21
288.3997624348838
 72
     1
 10
306.3752040252759
 20
288.3997624348838
 11
305.0898601159957
 21
288.3997624348838
 72
     1
 10
305.0898601159957
 20
288.3997624348838
 11
305.5600683605206
 21
289.3500799016842
 97
       12
330
1CF0
330
1CF2
330
1CF4
330
1CF3
330
1CF5
330
1CF8
330
1CF7
330
1CF9
330
1CF6
330
1CE5
330
1CEA
330
1CE4
 75
     0
 76
     1
 98
        1
 10
252.9834753834875
 20
223.6398794365185
450
        0
451
        0
460
0.0
461
0.0
452
        0
462
0.0
453
        0
470

  0
SPLINE
  5
1CE2
102
{ACAD_REACTORS
330
1CE0
102
}
330
18
100
AcDbEntity
  8
ROGO
 62
     4
100
AcDbSpline
210
0.0
220
0.0
230
1.0
 70
     8
 71
     3
 72
    18
 73
    14
 74
     0
 42
0.0000000001
 43
0.0000000001
 40
0.1087402787915014
 40
0.1087402787915014
 40
0.1087402787915014
 40
0.1087402787915014
 40
0.5992371417938475
 40
1.083176791562496
 40
1.448211145705696
 40
1.714037220764907
 40
2.164002567013297
 40
2.740236056362883
 40
3.395137510199602
 40
4.071816045172726
 40
4.784906178399433
 40
5.506895915094292
 40
6.060470601257719
 40
6.060470601257719
 40
6.060470601257719
 40
6.060470601257719
 10
304.870658380731
 20
289.3500799016844
 30
0.0
 10
304.9080441709815
 20
289.336378636058
 30
0.0
 10
304.9815629418439
 20
289.307412066751
 30
0.0
 10
305.0712905356715
 20
289.2413007841293
 30
0.0
 10
305.1202240910088
 20
289.1649807103563
 30
0.0
 10
305.1672926928569
 20
289.089780942912
 30
0.0
 10
305.173879857765
 20
288.9818941580494
 30
0.0
 10
305.163089636626
 20
288.8454991131187
 30
0.0
 10
305.0934289437623
 20
288.7031849588556
 30
0.0
 10
304.9816194346387
 20
288.5787114306065
 30
0.0
 10
304.8428001263739
 20
288.4790844419267
 30
0.0
 10
304.6964103774893
 20
288.4008798213675
 30
0.0
 10
304.5917709438355
 20
288.4001006031888
 30
0.0
 10
304.5463590927309
 20
288.3997624348838
 30
0.0
  0
LINE
  5
1CE3
102
{ACAD_REACTORS
330
1CE0
102
}
330
18
100
AcDbEntity
  8
ROGO
 62
     4
100
AcDbLine
 10
303.7037001293173
 20
289.3500799016843
 30
0.0
 11
302.968967580779
 21
287.8651438495566
 31
0.0
  0
LINE
  5
1CE4
102
{ACAD_REACTORS
330
1CE1
102
}
330
18
100
AcDbEntity
  8
ROGO
 62
     4
100
AcDbLine
 10
305.5600683605206
 20
289.3500799016843
 30
0.0
 11
305.0898601159957
 21
288.3997624348838
 31
0.0
  0
LINE
  5
1CE5
102
{ACAD_REACTORS
330
1CE1
102
}
330
18
100
AcDbEntity
  8
ROGO
 62
     4
100
AcDbLine
 10
306.4829092891781
 20
288.6174408672474
 30
0.0
 11
306.3752040252759
 21
288.3997624348838
 31
0.0
  0
LINE
  5
1CE6
102
{ACAD_REACTORS
330
1CDC
102
}
330
18
100
AcDbEntity
  8
ROGO
 62
     4
100
AcDbLine
 10
307.2177496069891
 20
289.3500799016843
 30
0.0
 11
306.5324572124747
 21
288.3997624348838
 31
0.0
  0
LINE
  5
1CE7
102
{ACAD_REACTORS
330
1CDC
102
}
330
18
100
AcDbEntity
  8
ROGO
 62
     4
100
AcDbLine
 10
307.1892384236158
 20
288.5806970007605
 30
0.0
 11
307.0587629917398
 21
288.3997624348838
 31
0.0
  0
LINE
  5
1CE8
102
{ACAD_REACTORS
330
1CE0
102
}
330
18
100
AcDbEntity
  8
ROGO
 62
     4
100
AcDbLine
 10
304.5463590929545
 20
288.3997624348838
 30
0.0
 11
303.901105936685
 21
288.3997624348838
 31
0.0
  0
LINE
  5
1CE9
102
{ACAD_REACTORS
330
1CDB
330
1CE0
102
}
330
18
100
AcDbEntity
  8
ROGO
 62
     4
100
AcDbLine
 10
303.9011059366851
 20
288.3997624348838
 30
0.0
 11
303.65922932355
 21
287.8651438495566
 31
0.0
  0
LINE
  5
1CEA
102
{ACAD_REACTORS
330
1CE1
102
}
330
18
100
AcDbEntity
  8
ROGO
 62
     4
100
AcDbLine
 10
305.0898601159957
 20
288.3997624348838
 30
0.0
 11
306.3752040252759
 21
288.3997624348838
 31
0.0
  0
LINE
  5
1CEB
102
{ACAD_REACTORS
330
1CDC
102
}
330
18
100
AcDbEntity
  8
ROGO
 62
     4
100
AcDbLine
 10
306.5324572124747
 20
288.3997624348838
 30
0.0
 11
307.0587629917398
 21
288.3997624348838
 31
0.0
  0
LINE
  5
1CEC
102
{ACAD_REACTORS
330
1CE0
102
}
330
18
100
AcDbEntity
  8
ROGO
 62
     4
100
AcDbLine
 10
303.7037001293173
 20
289.3500799016843
 30
0.0
 11
304.870658380731
 21
289.3500799016843
 31
0.0
  0
LINE
  5
1CED
102
{ACAD_REACTORS
330
1CE0
102
}
330
18
100
AcDbEntity
  8
ROGO
 62
     4
100
AcDbLine
 10
304.458604478289
 20
288.982589411424
 30
0.0
 11
304.164793393497
 21
288.982589411424
 31
0.0
  0
LINE
  5
1CEE
102
{ACAD_REACTORS
330
1CE0
102
}
330
18
100
AcDbEntity
  8
ROGO
 62
     4
100
AcDbLine
 10
304.4069843089167
 20
288.7298591459298
 30
0.0
 11
304.0504510523735
 21
288.7298591459299
 31
0.0
  0
LINE
  5
1CEF
102
{ACAD_REACTORS
330
1CE0
102
}
330
18
100
AcDbEntity
  8
ROGO
 62
     4
100
AcDbLine
 10
304.164793393497
 20
288.982589411424
 30
0.0
 11
304.0504510523735
 21
288.7298591459299
 31
0.0
  0
LINE
  5
1CF0
102
{ACAD_REACTORS
330
1CE1
102
}
330
18
100
AcDbEntity
  8
ROGO
 62
     4
100
AcDbLine
 10
305.5600683605206
 20
289.3500799016843
 30
0.0
 11
306.8454122698008
 21
289.3500799016844
 31
0.0
  0
SPLINE
  5
1CF1
102
{ACAD_REACTORS
330
1CE0
102
}
330
18
100
AcDbEntity
  8
ROGO
 62
     4
100
AcDbSpline
210
0.0
220
0.0
230
1.0
 70
     8
 71
     3
 72
    15
 73
    11
 74
     9
 42
0.0000000001
 43
0.0000000001
 44
0.0000000001
 40
0.0
 40
0.0
 40
0.0
 40
0.0
 40
0.1114278057886432
 40
0.1622327562563865
 40
0.2198997572250677
 40
0.259185199493265
 40
0.3213155338880433
 40
0.3585299069784071
 40
0.4223775764185746
 40
0.4436601464819452
 40
0.4436601464819452
 40
0.4436601464819452
 40
0.4436601464819452
 10
304.458604478289
 20
288.982589411424
 30
0.0
 10
304.5004546013059
 20
288.9827811073264
 30
0.0
 10
304.5613860784954
 20
288.9830602060161
 30
0.0
 10
304.5947055803567
 20
288.9076877925254
 30
0.0
 10
304.5797701909431
 20
288.8591597161904
 30
0.0
 10
304.5609951891963
 20
288.8093365069024
 30
0.0
 10
304.5278155088528
 20
288.7754808847505
 30
0.0
 10
304.4832835179064
 20
288.7428722133486
 30
0.0
 10
304.441198658371
 20
288.7389247876605
 30
0.0
 10
304.413827181428
 20
288.7316722749702
 30
0.0
 10
304.4069843089167
 20
288.7298591459298
 30
0.0
 11
304.458604478289
 21
288.982589411424
 31
0.0
 11
304.5670069230188
 21
288.9568005401907
 31
0.0
 11
304.5876550501329
 21
288.9103807401188
 31
0.0
 11
304.577331134989
 21
288.8536453915536
 31
0.0
 11
304.5618451138599
 21
288.817540971827
 31
0.0
 11
304.5205488596316
 21
288.7711211717551
 31
0.0
 11
304.4895768173735
 21
288.7504900747684
 31
0.0
 11
304.4276324360309
 21
288.7350169201765
 31
0.0
 11
304.4069843089167
 21
288.7298591459298
 31
0.0
  0
LINE
  5
1CF2
102
{ACAD_REACTORS
330
1CE1
102
}
330
18
100
AcDbEntity
  8
ROGO
 62
     4
100
AcDbLine
 10
306.8454122698008
 20
289.3500799016843
 30
0.0
 11
306.7377015879314
 21
289.1323905193024
 31
0.0
  0
LINE
  5
1CF3
102
{ACAD_REACTORS
330
1CE1
102
}
330
18
100
AcDbEntity
  8
ROGO
 62
     4
100
AcDbLine
 10
306.0621573091335
 20
289.1323905193024
 30
0.0
 11
305.9779409406566
 21
288.9621844736067
 31
0.0
  0
LINE
  5
1CF4
102
{ACAD_REACTORS
330
1CE1
102
}
330
18
100
AcDbEntity
  8
ROGO
 62
     4
100
AcDbLine
 10
306.0621573091335
 20
289.1323905193024
 30
0.0
 11
306.7377015879314
 21
289.1323905193024
 31
0.0
  0
LINE
  5
1CF5
102
{ACAD_REACTORS
330
1CE1
102
}
330
18
100
AcDbEntity
  8
ROGO
 62
     4
100
AcDbLine
 10
305.9779409406566
 20
288.9621844736067
 30
0.0
 11
306.6534852194545
 21
288.9621844736067
 31
0.0
  0
LINE
  5
1CF6
102
{ACAD_REACTORS
330
1CE1
102
}
330
18
100
AcDbEntity
  8
ROGO
 62
     4
100
AcDbLine
 10
305.8073650103803
 20
288.6174408672474
 30
0.0
 11
306.4829092891781
 21
288.6174408672474
 31
0.0
  0
LINE
  5
1CF7
102
{ACAD_REACTORS
330
1CE1
102
}
330
18
100
AcDbEntity
  8
ROGO
 62
     4
100
AcDbLine
 10
305.8915849441733
 20
288.7876541186488
 30
0.0
 11
306.5671292229712
 21
288.7876541186489
 31
0.0
  0
LINE
  5
1CF8
102
{ACAD_REACTORS
330
1CE1
102
}
330
18
100
AcDbEntity
  8
ROGO
 62
     4
100
AcDbLine
 10
306.6534852194545
 20
288.9621844736067
 30
0.0
 11
306.5671292229712
 21
288.7876541186488
 31
0.0
  0
LINE
  5
1CF9
102
{ACAD_REACTORS
330
1CE1
102
}
330
18
100
AcDbEntity
  8
ROGO
 62
     4
100
AcDbLine
 10
305.8915849441733
 20
288.7876541186488
 30
0.0
 11
305.8073650103802
 21
288.6174408672474
 31
0.0
  0
HATCH
  5
1CFA
330
18
100
AcDbEntity
  8
ROGO
 62
     4
100
AcDbHatch
 10
0.0
 20
0.0
 30
0.0
210
0.0
220
0.0
230
0.9999999999999998
  2
SOLID
 70
     1
 71
     1
 91
        2
 92
        7
 72
     1
 73
     1
 93
        4
 10
310.8186740713084
 20
289.3500799016842
 42
0.0
 10
310.4344000715306
 20
289.3500799016842
 42
0.9597396185052668
 10
310.4344000715305
 20
288.3997624348838
 42
0.0
 10
310.8462896970353
 20
288.3997624348838
 42
0.9713627655772736
 97
        4
330
1D1A
330
1D02
330
1D07
330
1D03
 92
       22
 72
     1
 73
     1
 93
        8
 10
310.7602472609514
 20
288.8694166832175
 42
0.0
 10
310.7476005325027
 20
288.7789362054739
 42
-0.3696060376523694
 10
310.6447327183052
 20
288.726161169503
 42
0.0
 10
310.6102938300773
 20
288.7309747964683
 42
-0.3541938351274232
 10
310.5212500139603
 20
288.8123798831805
 42
0.0
 10
310.533896742409
 20
288.9028603609241
 42
-0.3439742752229287
 10
310.6450617354989
 20
288.9656786685461
 42
0.0
 10
310.6775755926167
 20
288.9611341089677
 42
-0.3460733018205655
 97
        8
330
1D12
330
1D18
330
1D14
330
1D17
330
1D13
330
1D16
330
1D11
330
1D15
 75
     0
 76
     1
 47
0.0514683685270805
 98
        2
 10
310.912090335265
 20
288.963316110194
 10
310.912090335265
 20
288.963316110194
450
        0
451
        0
460
0.0
461
0.0
452
        0
462
0.0
453
        0
470

  0
HATCH
  5
1CFB
330
18
100
AcDbEntity
  8
ROGO
 62
     4
100
AcDbHatch
 10
0.0
 20
0.0
 30
0.0
210
0.0
220
0.0
230
0.9999999999999998
  2
SOLID
 70
     1
 71
     1
 91
        1
 92
        5
 93
        8
 72
     1
 10
309.9527258512582
 20
289.3500799016842
 11
309.00103957787
 21
289.3500799016842
 72
     4
 94
        3
 73
     0
 74
     0
 95
       26
 96
       22
 40
0.0
 40
0.0
 40
0.0
 40
0.0
 40
0.7089867102952115
 40
1.183598414482279
 40
1.525832104103439
 40
1.781366926528389
 40
2.112809002752968
 40
2.354729406992515
 40
2.791581270399936
 40
3.147172406765291
 40
3.389031356825354
 40
3.626186440486682
 40
4.050410779375985
 40
4.350388020238963
 40
4.511948940797758
 40
4.741441456013356
 40
4.907163150576407
 40
5.147239172635527
 40
5.28310143501293
 40
5.578752957634333
 40
5.713750011164293
 40
5.713750011164293
 40
5.713750011164293
 40
5.713750011164293
 10
309.0010395778699
 20
289.3500799016842
 10
308.9425248714313
 20
289.3465888139559
 10
308.8448390999507
 20
289.3407607133159
 10
308.7375807171153
 20
289.2756023976131
 10
308.6589969466002
 20
289.2377222162389
 10
308.6029510967716
 20
289.1862273368397
 10
308.5618692616542
 20
289.1330368880502
 10
308.5100778961889
 20
289.0696608583198
 10
308.4678435175916
 20
288.9958620362795
 10
308.4463361161654
 20
288.9145228688099
 10
308.4272850641091
 20
288.8496950803918
 10
308.413156484972
 20
288.7774529703987
 10
308.4167511954795
 20
288.699406078161
 10
308.4218989854428
 20
288.626920120236
 10
308.4448826158518
 20
288.5751759989138
 10
308.4710568997852
 20
288.5383377501776
 10
308.5031069520066
 20
288.497764503259
 10
308.5381767179081
 20
288.470892973206
 10
308.5671822769017
 20
288.4222133907918
 10
308.6179555294365
 20
288.4160015249963
 10
308.6502290286847
 20
288.4036380580693
 10
308.6603459257253
 20
288.3997624348838
 72
     1
 10
308.6603459257253
 20
288.3997624348838
 11
309.4788668699144
 21
288.3997624348838
 72
     1
 10
309.4788668699144
 20
288.3997624348838
 11
309.6551712666937
 21
288.7533384022696
 72
     1
 10
309.6551712666937
 20
288.7533384022696
 11
309.0474976412569
 21
288.7533384022696
 72
     4
 94
        3
 73
     0
 74
     0
 95
       16
 96
       12
 40
0.0
 40
0.0
 40
0.0
 40
0.0
 40
0.2141121027475241
 40
0.4304326162973471
 40
0.5594580803306056
 40
0.6831669452691567
 40
0.8190286678446897
 40
0.9139043619204622
 40
1.003933161420314
 40
1.186498641432482
 40
1.560280494298353
 40
1.560280494298353
 40
1.560280494298353
 40
1.560280494298353
 10
309.0474976412571
 20
288.7533384022696
 10
309.0291680632385
 20
288.7587312328825
 10
308.9923198509193
 20
288.7695725172386
 10
308.9892359531043
 20
288.8221270810305
 10
308.9934373177148
 20
288.8595765082572
 10
309.0110326420872
 20
288.8868418781843
 10
309.0323788224194
 20
288.906681022213
 10
309.0403269520864
 20
288.9325184053392
 10
309.0636897550925
 20
288.9520288621378
 10
309.1051182647574
 20
288.9848232145865
 10
309.1509310247465
 20
288.9918076789159
 10
309.181710319086
 20
288.9965001899859
 72
     1
 10
309.181710319086
 20
288.9965001899859
 11
309.7764195874437
 21
288.9965001899859
 72
     1
 10
309.7764195874437
 20
288.9965001899859
 11
309.9527258512582
 21
289.3500799016842
 97
        8
330
1D10
330
1CFD
330
1D04
330
1D00
330
1D0F
330
1D0C
330
1D0E
330
1D0D
 75
     0
 76
     1
 47
0.0514683685270805
 98
        1
 10
309.3338795032442
 20
289.1385280924189
450
        0
451
        0
460
0.0
461
0.0
452
        0
462
0.0
453
        0
470

  0
SPLINE
  5
1CFC
102
{ACAD_REACTORS
330
1CD6
102
}
330
18
100
AcDbEntity
  8
ROGO
 62
     4
100
AcDbSpline
210
0.0
220
0.0
230
1.0
 70
     8
 71
     3
 72
    26
 73
    22
 74
    20
 42
0.0000000001
 43
0.0000000001
 44
0.0000000001
 40
0.0
 40
0.0
 40
0.0
 40
0.0
 40
0.1723984759424608
 40
0.2878059064036966
 40
0.3710240621887089
 40
0.4331603664333254
 40
0.5137544142125283
 40
0.572580212192407
 40
0.6788058922657624
 40
0.7652720686804436
 40
0.8240829233522806
 40
0.8817499774613361
 40
0.984905126098422
 40
1.057848128260907
 40
1.097133570529052
 40
1.152937380796412
 40
1.193234564309735
 40
1.251611879021434
 40
1.284648389624301
 40
1.356539542405996
 40
1.389365667278746
 40
1.389365667278746
 40
1.389365667278746
 40
1.389365667278746
 10
312.0630469869509
 20
289.3500799016843
 30
0.0
 10
312.0045322805123
 20
289.346588813956
 30
0.0
 10
311.9068465090318
 20
289.3407607133159
 30
0.0
 10
311.7995881261963
 20
289.2756023976131
 30
0.0
 10
311.7210043556813
 20
289.2377222162389
 30
0.0
 10
311.6649585058527
 20
289.1862273368398
 30
0.0
 10
311.6238766707352
 20
289.1330368880502
 30
0.0
 10
311.57208530527
 20
289.0696608583199
 30
0.0
 10
311.5298509266728
 20
288.9958620362796
 30
0.0
 10
311.5083435252464
 20
288.9145228688099
 30
0.0
 10
311.4892924731902
 20
288.8496950803918
 30
0.0
 10
311.4751638940532
 20
288.7774529703989
 30
0.0
 10
311.4787586045603
 20
288.6994060781609
 30
0.0
 10
311.4839063945238
 20
288.6269201202361
 30
0.0
 10
311.5068900249328
 20
288.5751759989138
 30
0.0
 10
311.5330643088663
 20
288.5383377501777
 30
0.0
 10
311.5651143610878
 20
288.497764503259
 30
0.0
 10
311.6001841269891
 20
288.4708929732061
 30
0.0
 10
311.6291896859828
 20
288.4222133907918
 30
0.0
 10
311.6799629385176
 20
288.4160015249964
 30
0.0
 10
311.7122364377657
 20
288.4036380580694
 30
0.0
 10
311.7223533348064
 20
288.3997624348838
 30
0.0
 11
312.0630469869509
 21
289.3500799016843
 31
0.0
 11
311.8927001608786
 21
289.3235621085184
 31
0.0
 11
311.7894595253077
 21
289.2719845341999
 31
0.0
 11
311.7171912288213
 21
289.2307225083746
 31
0.0
 11
311.6707331654341
 21
289.1894603144013
 31
0.0
 11
311.6191129960617
 21
289.1275671915894
 31
0.0
 11
311.5829788478186
 21
289.0811473915176
 31
0.0
 11
311.5313583816199
 21
288.9883076232258
 31
0.0
 11
311.5055484453469
 21
288.9057834034272
 31
0.0
 11
311.4900624242178
 21
288.849048054862
 31
0.0
 11
311.4797382122476
 21
288.7923127062968
 31
0.0
 11
311.4797382122476
 21
288.6891575576597
 31
0.0
 11
311.4900624242178
 21
288.6169488863544
 31
0.0
 11
311.5055484453469
 21
288.5808444666279
 31
0.0
 11
311.536520487605
 21
288.5344246665559
 31
0.0
 11
311.5623307207044
 21
288.503478021076
 31
0.0
 11
311.6036266781064
 21
288.4622159952508
 31
0.0
 11
311.6242748052206
 21
288.4364271240174
 31
0.0
 11
311.6913812925483
 21
288.4106384209322
 31
0.0
 11
311.7223533348064
 21
288.3997624348838
 31
0.0
  0
SPLINE
  5
1CFD
102
{ACAD_REACTORS
330
1CFB
102
}
330
18
100
AcDbEntity
  8
ROGO
 62
     4
100
AcDbSpline
210
0.0
220
0.0
230
1.0
 70
     8
 71
     3
 72
    26
 73
    22
 74
    20
 42
0.0000000001
 43
0.0000000001
 44
0.0000000001
 40
0.0
 40
0.0
 40
0.0
 40
0.0
 40
0.1723984759425082
 40
0.2878059064037186
 40
0.3710240621887309
 40
0.4331603664333474
 40
0.5137544142125066
 40
0.572580212192465
 40
0.6788058922657929
 40
0.7652720686804741
 40
0.8240829233522561
 40
0.8817499774613677
 40
0.9849051260984536
 40
1.057848128260939
 40
1.097133570529084
 40
1.152937380796444
 40
1.19323456430973
 40
1.251611879021469
 40
1.284648389624336
 40
1.356539542406011
 40
1.38936566727878
 40
1.38936566727878
 40
1.38936566727878
 40
1.38936566727878
 10
309.0010395778699
 20
289.3500799016843
 30
0.0
 10
308.9425248714313
 20
289.346588813956
 30
0.0
 10
308.8448390999507
 20
289.3407607133159
 30
0.0
 10
308.7375807171152
 20
289.2756023976131
 30
0.0
 10
308.6589969466003
 20
289.2377222162389
 30
0.0
 10
308.6029510967716
 20
289.1862273368397
 30
0.0
 10
308.5618692616541
 20
289.1330368880503
 30
0.0
 10
308.5100778961889
 20
289.0696608583199
 30
0.0
 10
308.4678435175918
 20
288.9958620362796
 30
0.0
 10
308.4463361161653
 20
288.91452286881
 30
0.0
 10
308.4272850641092
 20
288.8496950803918
 30
0.0
 10
308.413156484972
 20
288.7774529703987
 30
0.0
 10
308.4167511954795
 20
288.699406078161
 30
0.0
 10
308.4218989854427
 20
288.626920120236
 30
0.0
 10
308.4448826158518
 20
288.5751759989139
 30
0.0
 10
308.4710568997851
 20
288.5383377501777
 30
0.0
 10
308.5031069520068
 20
288.497764503259
 30
0.0
 10
308.538176717908
 20
288.4708929732061
 30
0.0
 10
308.5671822769017
 20
288.4222133907918
 30
0.0
 10
308.6179555294365
 20
288.4160015249964
 30
0.0
 10
308.6502290286848
 20
288.4036380580694
 30
0.0
 10
308.6603459257253
 20
288.3997624348838
 30
0.0
 11
309.0010395778699
 21
289.3500799016843
 31
0.0
 11
308.8306927517975
 21
289.3235621085184
 31
0.0
 11
308.7274521162267
 21
289.2719845341999
 31
0.0
 11
308.6551838197402
 21
289.2307225083746
 31
0.0
 11
308.608725756353
 21
289.1894603144013
 31
0.0
 11
308.5571055869807
 21
289.1275671915895
 31
0.0
 11
308.5209714387374
 21
289.0811473915176
 31
0.0
 11
308.4693509725389
 21
288.9883076232258
 31
0.0
 11
308.4435410362659
 21
288.9057834034272
 31
0.0
 11
308.4280550151368
 21
288.849048054862
 31
0.0
 11
308.4177308031665
 21
288.7923127062968
 31
0.0
 11
308.4177308031665
 21
288.6891575576597
 31
0.0
 11
308.4280550151368
 21
288.6169488863544
 31
0.0
 11
308.4435410362659
 21
288.5808444666279
 31
0.0
 11
308.474513078524
 21
288.5344246665559
 31
0.0
 11
308.5003233116233
 21
288.503478021076
 31
0.0
 11
308.5416192690253
 21
288.4622159952508
 31
0.0
 11
308.5622673961395
 21
288.4364271240174
 31
0.0
 11
308.6293738834672
 21
288.4106384209322
 31
0.0
 11
308.6603459257253
 21
288.3997624348838
 31
0.0
  0
LINE
  5
1CFE
102
{ACAD_REACTORS
330
1CDC
102
}
330
18
100
AcDbEntity
  8
ROGO
 62
     4
100
AcDbLine
 10
307.7669959343283
 20
289.3500799016843
 30
0.0
 11
308.4522883288427
 21
288.3997624348838
 31
0.0
  0
LINE
  5
1CFF
102
{ACAD_REACTORS
330
1CDC
102
}
330
18
100
AcDbEntity
  8
ROGO
 62
     4
100
AcDbLine
 10
307.7955071177016
 20
288.5806970007605
 30
0.0
 11
307.9259825495776
 21
288.3997624348838
 31
0.0
  0
LINE
  5
1D00
102
{ACAD_REACTORS
330
1CFB
102
}
330
18
100
AcDbEntity
  8
ROGO
 62
     4
100
AcDbLine
 10
309.6551712666937
 20
288.7533384022697
 30
0.0
 11
309.4788668699144
 21
288.3997624348838
 31
0.0
  0
LINE
  5
1D01
102
{ACAD_REACTORS
330
1CD6
102
}
330
18
100
AcDbEntity
  8
ROGO
 62
     4
100
AcDbLine
 10
312.7171786757747
 20
288.7533384022697
 30
0.0
 11
312.5408742789955
 21
288.3997624348838
 31
0.0
  0
ARC
  5
1D02
102
{ACAD_REACTORS
330
1CFA
102
}
330
18
100
AcDbEntity
  8
ROGO
 62
     4
100
AcDbCircle
 10
310.453931389734
 20
288.8749211682841
 30
0.0
 40
0.4755599797263065
100
AcDbArc
 50
92.3538081120337
 51
270.0
  0
ARC
  5
1D03
102
{ACAD_REACTORS
330
1CFA
102
}
330
18
100
AcDbEntity
  8
ROGO
 62
     4
100
AcDbCircle
 10
310.8186740713084
 20
288.874519921958
 30
0.0
 40
0.4755599797263065
100
AcDbArc
 50
273.3290215232082
 51
90.0000000000006
  0
LINE
  5
1D04
102
{ACAD_REACTORS
330
1CFB
102
}
330
18
100
AcDbEntity
  8
ROGO
 62
     4
100
AcDbLine
 10
308.6603459257253
 20
288.3997624348838
 30
0.0
 11
309.4788668699144
 21
288.3997624348838
 31
0.0
  0
LINE
  5
1D05
102
{ACAD_REACTORS
330
1CDC
102
}
330
18
100
AcDbEntity
  8
ROGO
 62
     4
100
AcDbLine
 10
308.4522883288427
 20
288.3997624348838
 30
0.0
 11
307.9259825495776
 21
288.3997624348838
 31
0.0
  0
LINE
  5
1D06
330
18
100
AcDbEntity
  8
ROGO
 62
     4
100
AcDbLine
 10
310.4344000715309
 20
288.3997624348838
 30
0.0
 11
310.846289697035
 21
288.3997624348838
 31
0.0
  0
LINE
  5
1D07
102
{ACAD_REACTORS
330
1CFA
102
}
330
18
100
AcDbEntity
  8
ROGO
 62
     4
100
AcDbLine
 10
310.4344000715306
 20
288.3997624348838
 30
0.0
 11
310.8462896970353
 21
288.3997624348838
 31
0.0
  0
LINE
  5
1D08
102
{ACAD_REACTORS
330
1CD6
102
}
330
18
100
AcDbEntity
  8
ROGO
 62
     4
100
AcDbLine
 10
311.7223533348063
 20
288.3997624348838
 30
0.0
 11
312.5408742789955
 21
288.3997624348838
 31
0.0
  0
LINE
  5
1D09
102
{ACAD_REACTORS
330
1CDC
102
}
330
18
100
AcDbEntity
  8
ROGO
 62
     4
100
AcDbLine
 10
307.4923727706587
 20
289.001063353996
 30
0.0
 11
307.3268547960806
 21
288.7715341434428
 31
0.0
  0
LINE
  5
1D0A
102
{ACAD_REACTORS
330
1CDC
102
}
330
18
100
AcDbEntity
  8
ROGO
 62
     4
100
AcDbLine
 10
307.3268547960806
 20
288.7715341434429
 30
0.0
 11
307.6578907452367
 21
288.7715341434429
 31
0.0
  0
LINE
  5
1D0B
102
{ACAD_REACTORS
330
1CDC
102
}
330
18
100
AcDbEntity
  8
ROGO
 62
     4
100
AcDbLine
 10
307.4923727706587
 20
289.001063353996
 30
0.0
 11
307.6578907452367
 21
288.7715341434428
 31
0.0
  0
SPLINE
  5
1D0C
102
{ACAD_REACTORS
330
1CFB
102
}
330
18
100
AcDbEntity
  8
ROGO
 62
     4
100
AcDbSpline
210
0.0
220
0.0
230
1.0
 70
     8
 71
     3
 72
    16
 73
    12
 74
    10
 42
0.0000000001
 43
0.0000000001
 44
0.0000000001
 40
0.0
 40
0.0
 40
0.0
 40
0.0
 40
0.0908894635587698
 40
0.1352824120537892
 40
0.1571739758861179
 40
0.1802441192684364
 40
0.2132804986121064
 40
0.2433617673669269
 40
0.2747358298621628
 40
0.3273367126566702
 40
0.3794005943324437
 40
0.3794005943324437
 40
0.3794005943324437
 40
0.3794005943324437
 10
309.181710319086
 20
288.9965001899859
 30
0.0
 10
309.1509310247464
 20
288.991807678916
 30
0.0
 10
309.1051182647574
 20
288.9848232145867
 30
0.0
 10
309.0636897550926
 20
288.9520288621378
 30
0.0
 10
309.0403269520864
 20
288.9325184053393
 30
0.0
 10
309.0323788224193
 20
288.906681022213
 30
0.0
 10
309.0110326420872
 20
288.8868418781843
 30
0.0
 10
308.9934373177148
 20
288.8595765082574
 30
0.0
 10
308.9892359531041
 20
288.8221270810304
 30
0.0
 10
308.9923198509193
 20
288.7695725172388
 30
0.0
 10
309.0291680632386
 20
288.7587312328826
 30
0.0
 10
309.0474976412571
 20
288.7533384022697
 30
0.0
 11
309.181710319086
 21
288.9965001899859
 31
0.0
 11
309.0939560014705
 21
288.9728343004858
 31
0.0
 11
309.0578218532272
 21
288.9470455974005
 31
0.0
 11
309.0423358320982
 21
288.9315722746605
 31
0.0
 11
309.0320116201279
 21
288.9109411776739
 31
0.0
 11
309.0113634930138
 21
288.8851524745886
 31
0.0
 11
308.9958774718847
 21
288.8593636033554
 31
0.0
 11
308.9907153658996
 21
288.8284171260234
 31
0.0
 11
309.0010395778699
 21
288.7768393835568
 31
0.0
 11
309.0474976412571
 21
288.7533384022697
 31
0.0
  0
LINE
  5
1D0D
102
{ACAD_REACTORS
330
1CFB
102
}
330
18
100
AcDbEntity
  8
ROGO
 62
     4
100
AcDbLine
 10
309.9527258512582
 20
289.3500799016843
 30
0.0
 11
309.7764195874437
 21
288.9965001899859
 31
0.0
  0
LINE
  5
1D0E
102
{ACAD_REACTORS
330
1CFB
102
}
330
18
100
AcDbEntity
  8
ROGO
 62
     4
100
AcDbLine
 10
309.181710319086
 20
288.9965001899859
 30
0.0
 11
309.7764195874437
 21
288.9965001899859
 31
0.0
  0
LINE
  5
1D0F
102
{ACAD_REACTORS
330
1CFB
102
}
330
18
100
AcDbEntity
  8
ROGO
 62
     4
100
AcDbLine
 10
309.047497641257
 20
288.7533384022697
 30
0.0
 11
309.6551712666937
 21
288.7533384022697
 31
0.0
  0
LINE
  5
1D10
102
{ACAD_REACTORS
330
1CFB
102
}
330
18
100
AcDbEntity
  8
ROGO
 62
     4
100
AcDbLine
 10
309.0010395778701
 20
289.3500799016844
 30
0.0
 11
309.9527258512582
 21
289.3500799016844
 31
0.0
  0
LINE
  5
1D11
102
{ACAD_REACTORS
330
1CFA
102
}
330
18
100
AcDbEntity
  8
ROGO
 62
     4
100
AcDbLine
 10
310.6431367043886
 20
288.965947735933
 30
0.0
 11
310.6775755926167
 21
288.9611341089678
 31
0.0
  0
LINE
  5
1D12
102
{ACAD_REACTORS
330
1CFA
102
}
330
18
100
AcDbEntity
  8
ROGO
 62
     4
100
AcDbLine
 10
310.7602472609514
 20
288.8694166832177
 30
0.0
 11
310.7476005325028
 21
288.7789362054741
 31
0.0
  0
LINE
  5
1D13
102
{ACAD_REACTORS
330
1CFA
102
}
330
18
100
AcDbEntity
  8
ROGO
 62
     4
100
AcDbLine
 10
310.5212500139603
 20
288.8123798831806
 30
0.0
 11
310.533896742409
 21
288.9028603609241
 31
0.0
  0
LINE
  5
1D14
102
{ACAD_REACTORS
330
1CFA
102
}
330
18
100
AcDbEntity
  8
ROGO
 62
     4
100
AcDbLine
 10
310.6102938300769
 20
288.7309747964684
 30
0.0
 11
310.644732718305
 21
288.7261611695032
 31
0.0
  0
ARC
  5
1D15
102
{ACAD_REACTORS
330
1CFA
102
}
330
18
100
AcDbEntity
  8
ROGO
 62
     4
100
AcDbCircle
 10
310.6605908851979
 20
288.8627067982317
 30
0.0
 40
0.0998820093152177
100
AcDbArc
 50
3.851923331663601
 51
80.20940670206341
  0
ARC
  5
1D16
102
{ACAD_REACTORS
330
1CFA
102
}
330
18
100
AcDbEntity
  8
ROGO
 62
     4
100
AcDbCircle
 10
310.6297335225721
 20
288.8630344348732
 30
0.0
 40
0.1037824301982561
100
AcDbArc
 50
82.57970078354313
 51
157.4341870372611
  0
ARC
  5
1D17
102
{ACAD_REACTORS
330
1CFA
102
}
330
18
100
AcDbEntity
  8
ROGO
 62
     4
100
AcDbCircle
 10
310.6160216335451
 20
288.8266422843236
 30
0.0
 40
0.0958388019806556
100
AcDbArc
 50
188.5583509056651
 51
266.5736774635929
  0
ARC
  5
1D18
102
{ACAD_REACTORS
330
1CFA
102
}
330
18
100
AcDbEntity
  8
ROGO
 62
     4
100
AcDbCircle
 10
310.6653463016453
 20
288.8126229115908
 30
0.0
 40
0.0888850530907803
100
AcDbArc
 50
256.5902863289752
 51
337.7287536965499
  0
LINE
  5
1D19
330
18
100
AcDbEntity
  8
ROGO
 62
     4
100
AcDbLine
 10
310.4344000715307
 20
289.3500799016843
 30
0.0
 11
310.7037134806772
 21
289.3500799016843
 31
0.0
  0
LINE
  5
1D1A
102
{ACAD_REACTORS
330
1CFA
102
}
330
18
100
AcDbEntity
  8
ROGO
 62
     4
100
AcDbLine
 10
310.4344000715306
 20
289.3500799016843
 30
0.0
 11
310.8186740713084
 21
289.3500799016843
 31
0.0
  0
SPLINE
  5
1D1B
102
{ACAD_REACTORS
330
1CD6
102
}
330
18
100
AcDbEntity
  8
ROGO
 62
     4
100
AcDbSpline
210
0.0
220
0.0
230
1.0
 70
     8
 71
     3
 72
    16
 73
    12
 74
    10
 42
0.0000000001
 43
0.0000000001
 44
0.0000000001
 40
0.0
 40
0.0
 40
0.0
 40
0.0
 40
0.0908894635588099
 40
0.1352824120538293
 40
0.1571739758861982
 40
0.1802441192684659
 40
0.2132804986121358
 40
0.2433617673669563
 40
0.2747358298622484
 40
0.3273367126567001
 40
0.3794005943324992
 40
0.3794005943324992
 40
0.3794005943324992
 40
0.3794005943324992
 10
312.2437177281671
 20
288.9965001899859
 30
0.0
 10
312.2129384338277
 20
288.991807678916
 30
0.0
 10
312.1671256738385
 20
288.9848232145867
 30
0.0
 10
312.1256971641734
 20
288.9520288621378
 30
0.0
 10
312.1023343611676
 20
288.9325184053392
 30
0.0
 10
312.0943862315004
 20
288.9066810222131
 30
0.0
 10
312.0730400511683
 20
288.8868418781843
 30
0.0
 10
312.0554447267957
 20
288.8595765082572
 30
0.0
 10
312.0512433621854
 20
288.8221270810305
 30
0.0
 10
312.0543272600004
 20
288.7695725172387
 30
0.0
 10
312.0911754723195
 20
288.7587312328825
 30
0.0
 10
312.1095050503381
 20
288.7533384022696
 30
0.0
 11
312.2437177281671
 21
288.9965001899859
 31
0.0
 11
312.1559634105515
 21
288.9728343004858
 31
0.0
 11
312.1198292623083
 21
288.9470455974005
 31
0.0
 11
312.1043432411793
 21
288.9315722746605
 31
0.0
 11
312.094019029209
 21
288.9109411776739
 31
0.0
 11
312.0733709020949
 21
288.8851524745886
 31
0.0
 11
312.0578848809657
 21
288.8593636033554
 31
0.0
 11
312.0527227749806
 21
288.8284171260234
 31
0.0
 11
312.0630469869509
 21
288.7768393835568
 31
0.0
 11
312.1095050503381
 21
288.7533384022696
 31
0.0
  0
LINE
  5
1D1C
102
{ACAD_REACTORS
330
1CD6
102
}
330
18
100
AcDbEntity
  8
ROGO
 62
     4
100
AcDbLine
 10
312.1095050503381
 20
288.7533384022697
 30
0.0
 11
312.7171786757748
 21
288.7533384022697
 31
0.0
  0
LINE
  5
1D1D
102
{ACAD_REACTORS
330
1CD6
102
}
330
18
100
AcDbEntity
  8
ROGO
 62
     4
100
AcDbLine
 10
312.243717728167
 20
288.9965001899859
 30
0.0
 11
312.8384269965248
 21
288.9965001899859
 31
0.0
  0
LINE
  5
1D1E
102
{ACAD_REACTORS
330
1CD5
102
}
330
18
100
AcDbEntity
  8
ROGO
 62
     4
100
AcDbLine
 10
313.5839758032237
 20
288.6076118756204
 30
0.0
 11
313.9541943405041
 21
287.8651438495566
 31
0.0
  0
LINE
  5
1D1F
102
{ACAD_REACTORS
330
1CD5
102
}
330
18
100
AcDbEntity
  8
ROGO
 62
     4
100
AcDbLine
 10
313.213769237684
 20
288.2527289483682
 30
0.0
 11
313.4070316857848
 21
287.8651438495566
 31
0.0
  0
LINE
  5
1D20
102
{ACAD_REACTORS
330
1CD5
102
}
330
18
100
AcDbEntity
  8
ROGO
 62
     4
100
AcDbLine
 10
313.213769237684
 20
288.2527289483682
 30
0.0
 11
313.0205067895831
 21
287.8651438495566
 31
0.0
  0
LINE
  5
1D21
102
{ACAD_REACTORS
330
1CD5
102
}
330
18
100
AcDbEntity
  8
ROGO
 62
     4
100
AcDbLine
 10
313.4070316857848
 20
287.8651438495566
 30
0.0
 11
313.9541943405041
 21
287.8651438495566
 31
0.0
  0
LINE
  5
1D22
102
{ACAD_REACTORS
330
1CD5
102
}
330
18
100
AcDbEntity
  8
ROGO
 62
     4
100
AcDbLine
 10
313.5839758032237
 20
288.6076118756204
 30
0.0
 11
314.4834636379944
 21
289.3500799016843
 31
0.0
  0
LINE
  5
1D23
102
{ACAD_REACTORS
330
1CD5
102
}
330
18
100
AcDbEntity
  8
ROGO
 62
     4
100
AcDbLine
 10
313.9363009832752
 20
289.3500799016843
 30
0.0
 11
314.4834636379944
 21
289.3500799016843
 31
0.0
  0
LINE
  5
1D24
102
{ACAD_REACTORS
330
1CD5
102
}
330
18
100
AcDbEntity
  8
ROGO
 62
     4
100
AcDbLine
 10
313.213769237684
 20
289.3500799016843
 30
0.0
 11
313.7609438641439
 21
289.3500799016843
 31
0.0
  0
LINE
  5
1D25
102
{ACAD_REACTORS
330
1CD5
102
}
330
18
100
AcDbEntity
  8
ROGO
 62
     4
100
AcDbLine
 10
313.7609438641439
 20
289.3500799016843
 30
0.0
 11
313.6801032030477
 21
289.1879551023409
 31
0.0
  0
LINE
  5
1D26
102
{ACAD_REACTORS
330
1CD5
102
}
330
18
100
AcDbEntity
  8
ROGO
 62
     4
100
AcDbLine
 10
313.6801032030477
 20
289.1879551023409
 30
0.0
 11
313.9363009832752
 21
289.3500799016843
 31
0.0
  0
HATCH
  5
1D27
330
18
100
AcDbEntity
  8
ROGO
 62
     4
100
AcDbHatch
 10
0.0
 20
0.0
 30
0.0
210
0.0
220
0.0
230
0.9999999999999998
  2
SOLID
 70
     1
 71
     1
 91
        1
 92
        7
 72
     0
 73
     1
 93
       11
 10
314.4834636379944
 20
289.2705092667315
 10
313.9363009832752
 20
289.2705092667315
 10
313.6801032030478
 20
289.1083844673882
 10
313.7609438641439
 20
289.2705092667315
 10
313.213769237684
 20
289.2705092667315
 10
312.4733321631231
 20
287.7855732146039
 10
313.0205067895831
 20
287.7855732146039
 10
313.213769237684
 20
288.1731583134154
 10
313.4070316857848
 20
287.7855732146039
 10
313.9541943405041
 20
287.7855732146039
 10
313.5839758032237
 20
288.5280412406677
 97
       11
330
1D75
330
1D78
330
1D77
330
1D76
330
1D2C
330
1D29
330
1D72
330
1D71
330
1D73
330
1D70
330
1D74
 75
     0
 76
     1
 47
0.0514683685270805
 98
        1
 10
313.1666774501706
 20
288.6334427635973
450
        0
451
        0
460
0.0
461
0.0
452
        0
462
0.0
453
        0
470

  0
HATCH
  5
1D28
330
18
100
AcDbEntity
  8
ROGO
 62
     4
100
AcDbHatch
 10
0.0
 20
0.0
 30
0.0
210
0.0
220
0.0
230
0.9999999999999998
  2
SOLID
 70
     1
 71
     1
 91
        1
 92
        5
 93
        8
 72
     1
 10
313.0147332603392
 20
289.2705092667315
 11
312.063046986951
 21
289.2705092667315
 72
     4
 94
        3
 73
     0
 74
     0
 95
       26
 96
       22
 40
0.0
 40
0.0
 40
0.0
 40
0.0
 40
0.7089867102952115
 40
1.183598414482279
 40
1.525832104103439
 40
1.781366926528389
 40
2.112809002752968
 40
2.354729406992515
 40
2.791581270399936
 40
3.147172406765291
 40
3.389031356825354
 40
3.626186440486682
 40
4.050410779375985
 40
4.350388020238963
 40
4.511948940797758
 40
4.741441456013356
 40
4.907163150576407
 40
5.147239172635527
 40
5.28310143501293
 40
5.578752957634333
 40
5.713750011164293
 40
5.713750011164293
 40
5.713750011164293
 40
5.713750011164293
 10
312.0630469869509
 20
289.2705092667315
 10
312.0045322805123
 20
289.2670181790032
 10
311.9068465090318
 20
289.2611900783632
 10
311.7995881261963
 20
289.1960317626604
 10
311.7210043556813
 20
289.1581515812862
 10
311.6649585058527
 20
289.1066567018871
 10
311.6238766707352
 20
289.0534662530975
 10
311.57208530527
 20
288.9900902233671
 10
311.5298509266727
 20
288.9162914013267
 10
311.5083435252465
 20
288.8349522338572
 10
311.4892924731902
 20
288.7701244454391
 10
311.4751638940531
 20
288.697882335446
 10
311.4787586045606
 20
288.6198354432083
 10
311.4839063945238
 20
288.5473494852833
 10
311.5068900249328
 20
288.4956053639612
 10
311.5330643088663
 20
288.458767115225
 10
311.5651143610878
 20
288.4181938683063
 10
311.6001841269891
 20
288.3913223382533
 10
311.6291896859828
 20
288.3426427558391
 10
311.6799629385176
 20
288.3364308900436
 10
311.7122364377658
 20
288.3240674231166
 10
311.7223533348064
 20
288.3201917999311
 72
     1
 10
311.7223533348063
 20
288.3201917999311
 11
312.5408742789955
 21
288.3201917999311
 72
     1
 10
312.5408742789955
 20
288.3201917999311
 11
312.7171786757748
 21
288.6737677673169
 72
     1
 10
312.7171786757748
 20
288.6737677673169
 11
312.1095050503381
 21
288.6737677673169
 72
     4
 94
        3
 73
     0
 74
     0
 95
       16
 96
       12
 40
0.0
 40
0.0
 40
0.0
 40
0.0
 40
0.2141121027475241
 40
0.4304326162973471
 40
0.5594580803306056
 40
0.6831669452691567
 40
0.8190286678446897
 40
0.9139043619204622
 40
1.003933161420314
 40
1.186498641432482
 40
1.560280494298353
 40
1.560280494298353
 40
1.560280494298353
 40
1.560280494298353
 10
312.1095050503381
 20
288.6737677673169
 10
312.0911754723196
 20
288.6791605979298
 10
312.0543272600004
 20
288.6900018822859
 10
312.0512433621854
 20
288.7425564460777
 10
312.0554447267958
 20
288.7800058733045
 10
312.0730400511683
 20
288.8072712432316
 10
312.0943862315004
 20
288.8271103872603
 10
312.1023343611676
 20
288.8529477703865
 10
312.1256971641735
 20
288.8724582271851
 10
312.1671256738384
 20
288.9052525796338
 10
312.2129384338276
 20
288.9122370439632
 10
312.2437177281671
 20
288.9169295550331
 72
     1
 10
312.243717728167
 20
288.9169295550332
 11
312.8384269965248
 21
288.9169295550332
 72
     1
 10
312.8384269965248
 20
288.9169295550332
 11
313.0147332603392
 21
289.2705092667315
 97
        8
330
1D2A
330
1D4E
330
1D5A
330
1D53
330
1D6E
330
1D6D
330
1D6F
330
1D2B
 75
     0
 76
     1
 47
0.0514683685270805
 98
        1
 10
312.2272661770288
 20
289.0965029062499
450
        0
451
        0
460
0.0
461
0.0
452
        0
462
0.0
453
        0
470

  0
LINE
  5
1D29
102
{ACAD_REACTORS
330
1D2D
330
1D27
330
1D32
102
}
330
18
100
AcDbEntity
  8
ROGO
 62
     4
100
AcDbLine
 10
302.968967580779
 20
287.7855732146039
 30
0.0
 11
313.0205067895831
 21
287.7855732146039
 31
0.0
  0
LINE
  5
1D2A
102
{ACAD_REACTORS
330
1D28
102
}
330
18
100
AcDbEntity
  8
ROGO
 62
     4
100
AcDbLine
 10
312.0630469869512
 20
289.2705092667316
 30
0.0
 11
313.0147332603392
 21
289.2705092667316
 31
0.0
  0
LINE
  5
1D2B
102
{ACAD_REACTORS
330
1D28
102
}
330
18
100
AcDbEntity
  8
ROGO
 62
     4
100
AcDbLine
 10
313.0147332603392
 20
289.2705092667316
 30
0.0
 11
312.8384269965248
 21
288.9169295550333
 31
0.0
  0
LINE
  5
1D2C
102
{ACAD_REACTORS
330
1D2D
330
1D27
102
}
330
18
100
AcDbEntity
  8
ROGO
 62
     4
100
AcDbLine
 10
313.213769237684
 20
289.2705092667316
 30
0.0
 11
312.4733321631231
 21
287.7855732146039
 31
0.0
  0
HATCH
  5
1D2D
330
18
100
AcDbEntity
  8
ROGO
 62
     4
100
AcDbHatch
 10
0.0
 20
0.0
 30
0.0
210
0.0
220
0.0
230
0.9999999999999998
  2
SOLID
 70
     1
 71
     1
 91
        1
 92
        7
 72
     0
 73
     1
 93
        4
 10
312.5475499224716
 20
287.9344158784186
 10
303.7265699667703
 20
287.9344158784186
 10
303.6592293235499
 20
287.7855732146039
 10
312.4733321631231
 20
287.7855732146039
 97
        4
330
1D31
330
1D3B
330
1D29
330
1D2C
 75
     0
 76
     1
 47
0.0514683685270805
 98
        1
 10
309.2963030760646
 20
287.8950493859142
450
        0
451
        0
460
0.0
461
0.0
452
        0
462
0.0
453
        0
470

  0
HATCH
  5
1D2E
330
18
100
AcDbEntity
  8
ROGO
 62
     4
100
AcDbHatch
 10
0.0
 20
0.0
 30
0.0
210
0.0
220
0.0
230
0.9999999999999998
  2
SOLID
 70
     1
 71
     1
 91
        2
 92
        7
 72
     0
 73
     1
 93
        8
 10
307.7669959343283
 20
289.2705092667315
 10
307.2177496069891
 20
289.2705092667315
 10
306.5324572124747
 20
288.3201917999311
 10
307.0587629917398
 20
288.3201917999311
 10
307.1892384236158
 20
288.5011263658078
 10
307.7955071177016
 20
288.5011263658078
 10
307.9259825495776
 20
288.3201917999311
 10
308.4522883288427
 20
288.3201917999311
 97
        8
330
1D30
330
1D38
330
1D3D
330
1D39
330
1D2F
330
1D51
330
1D57
330
1D50
 92
       22
 72
     0
 73
     1
 93
        3
 10
307.6578907452368
 20
288.69196350849
 10
307.3268547960806
 20
288.69196350849
 10
307.4923727706587
 20
288.9214927190432
 97
        3
330
1D5C
330
1D5B
330
1D5D
 75
     0
 76
     1
 47
0.0514683685270805
 98
        2
 10
307.8308215255825
 20
288.7836243905837
 10
307.8308215255825
 20
288.7836243905837
450
        0
451
        0
460
0.0
461
0.0
452
        0
462
0.0
453
        0
470

  0
LINE
  5
1D2F
102
{ACAD_REACTORS
330
1D2E
102
}
330
18
100
AcDbEntity
  8
ROGO
 62
     4
100
AcDbLine
 10
307.1892384236158
 20
288.5011263658078
 30
0.0
 11
307.7955071177016
 21
288.5011263658078
 31
0.0
  0
LINE
  5
1D30
102
{ACAD_REACTORS
330
1D2E
102
}
330
18
100
AcDbEntity
  8
ROGO
 62
     4
100
AcDbLine
 10
307.2177496069891
 20
289.2705092667316
 30
0.0
 11
307.7669959343283
 21
289.2705092667316
 31
0.0
  0
LINE
  5
1D31
102
{ACAD_REACTORS
330
1D2D
102
}
330
18
100
AcDbEntity
  8
ROGO
 62
     4
100
AcDbLine
 10
303.7162475701892
 20
287.9344158784187
 30
0.0
 11
312.5475499224717
 21
287.9344158784187
 31
0.0
  0
HATCH
  5
1D32
330
18
100
AcDbEntity
  8
ROGO
 62
     4
100
AcDbHatch
 10
0.0
 20
0.0
 30
0.0
210
0.0
220
0.0
230
0.9999999999999998
  2
SOLID
 70
     1
 71
     1
 91
        2
 92
        5
 93
        6
 72
     4
 94
        3
 73
     0
 74
     0
 95
       18
 96
       14
 40
0.108740278791501
 40
0.108740278791501
 40
0.108740278791501
 40
0.108740278791501
 40
0.6623149649549278
 40
1.384304701649787
 40
2.097394834876493
 40
2.774073369849618
 40
3.428974823686337
 40
4.005208313035923
 40
4.455173659284313
 40
4.720999734343524
 40
5.086034088486724
 40
5.569973738255373
 40
6.060470601257719
 40
6.060470601257719
 40
6.060470601257719
 40
6.060470601257719
 10
304.5463590927309
 20
288.3201917999311
 10
304.5917709438355
 20
288.320529968236
 10
304.6964103774893
 20
288.3213091864148
 10
304.8428001263739
 20
288.399513806974
 10
304.9816194346387
 20
288.4991407956538
 10
305.0934289437623
 20
288.6236143239028
 10
305.163089636626
 20
288.7659284781659
 10
305.173879857765
 20
288.9023235230967
 10
305.1672926928569
 20
289.0102103079593
 10
305.1202240910088
 20
289.0854100754036
 10
305.0712905356715
 20
289.1617301491765
 10
304.9815629418439
 20
289.2278414317982
 10
304.9080441709815
 20
289.2568080011052
 10
304.870658380731
 20
289.2705092667316
 72
     1
 10
304.8706583807311
 20
289.2705092667315
 11
303.7037001293173
 21
289.2705092667315
 72
     1
 10
303.7037001293173
 20
289.2705092667315
 11
302.968967580779
 21
287.7855732146039
 72
     1
 10
302.968967580779
 20
287.7855732146039
 11
303.65922932355
 21
287.7855732146039
 72
     1
 10
303.65922932355
 20
287.7855732146039
 11
303.9011059366851
 21
288.3201917999311
 72
     1
 10
303.9011059366851
 20
288.3201917999311
 11
304.5463590927308
 21
288.3201917999311
 97
        6
330
1D34
330
1D3E
330
1D35
330
1D29
330
1D3B
330
1D3A
 92
       20
 93
        4
 72
     1
 10
304.0504510523735
 20
288.6502885109771
 11
304.164793393497
 21
288.9030187764713
 72
     1
 10
304.164793393497
 20
288.9030187764713
 11
304.4586044782893
 21
288.9030187764713
 72
     4
 94
        3
 73
     0
 74
     0
 95
       15
 96
       11
 40
0.0
 40
0.0
 40
0.0
 40
0.0
 40
0.458245544397197
 40
0.6671803073175111
 40
0.9043351724393449
 40
1.065896092998139
 40
1.321406364485703
 40
1.474450037341961
 40
1.737022829061231
 40
1.824547148828933
 40
1.824547148828933
 40
1.824547148828933
 40
1.824547148828933
 10
304.458604478289
 20
288.9030187764713
 10
304.5004546013058
 20
288.9032104723737
 10
304.5613860784953
 20
288.9034895710635
 10
304.5947055803567
 20
288.8281171575727
 10
304.5797701909431
 20
288.7795890812376
 10
304.5609951891963
 20
288.7297658719497
 10
304.5278155088527
 20
288.6959102497978
 10
304.4832835179065
 20
288.6633015783957
 10
304.4411986583709
 20
288.6593541527078
 10
304.413827181428
 20
288.6521016400176
 10
304.4069843089167
 20
288.6502885109771
 72
     1
 10
304.4069843089167
 20
288.6502885109771
 11
304.0504510523735
 21
288.6502885109771
 97
        4
330
1D41
330
1D3F
330
1D43
330
1D40
 75
     0
 76
     1
 47
0.0514683685270805
 98
        2
 10
303.7099373401198
 20
288.8086547458222
 10
303.7099373401198
 20
288.8086547458222
450
        0
451
        0
460
0.0
461
0.0
452
        0
462
0.0
453
        0
470

  0
HATCH
  5
1D33
330
18
100
AcDbEntity
  8
ROGO
 62
     4
100
AcDbHatch
 10
0.0
 20
0.0
 30
0.0
210
0.0
220
0.0
230
0.9999999999999998
  2
SOLID
 70
     1
 71
     1
 91
        1
 92
        1
 93
       12
 72
     1
 10
305.5600683605206
 20
289.2705092667315
 11
306.8454122698009
 21
289.2705092667315
 72
     1
 10
306.8454122698008
 20
289.2705092667315
 11
306.7377015879314
 21
289.0528198843496
 72
     1
 10
306.7377015879314
 20
289.0528198843496
 11
306.0621573091335
 21
289.0528198843496
 72
     1
 10
306.0621573091335
 20
289.0528198843496
 11
305.9779409406567
 21
288.882613838654
 72
     1
 10
305.9779409406567
 20
288.882613838654
 11
306.6534852194545
 21
288.882613838654
 72
     1
 10
306.6534852194545
 20
288.882613838654
 11
306.5671292229712
 21
288.7080834836961
 72
     1
 10
306.5671292229712
 20
288.7080834836961
 11
305.8915849441733
 21
288.7080834836961
 72
     1
 10
305.8915849441733
 20
288.7080834836961
 11
305.8073650103802
 21
288.5378702322947
 72
     1
 10
305.8073650103803
 20
288.5378702322947
 11
306.4829092891781
 21
288.5378702322947
 72
     1
 10
306.4829092891781
 20
288.5378702322947
 11
306.3752040252759
 21
288.3201917999311
 72
     1
 10
306.3752040252759
 20
288.3201917999311
 11
305.0898601159957
 21
288.3201917999311
 72
     1
 10
305.0898601159957
 20
288.3201917999311
 11
305.5600683605206
 21
289.2705092667315
 97
       12
330
1D42
330
1D44
330
1D46
330
1D45
330
1D47
330
1D4A
330
1D49
330
1D4B
330
1D48
330
1D37
330
1D3C
330
1D36
 75
     0
 76
     1
 98
        1
 10
252.9834753834875
 20
223.5603088015658
450
        0
451
        0
460
0.0
461
0.0
452
        0
462
0.0
453
        0
470

  0
SPLINE
  5
1D34
102
{ACAD_REACTORS
330
1D32
102
}
330
18
100
AcDbEntity
  8
ROGO
 62
     4
100
AcDbSpline
210
0.0
220
0.0
230
1.0
 70
     8
 71
     3
 72
    18
 73
    14
 74
     0
 42
0.0000000001
 43
0.0000000001
 40
0.1087402787915014
 40
0.1087402787915014
 40
0.1087402787915014
 40
0.1087402787915014
 40
0.5992371417938475
 40
1.083176791562496
 40
1.448211145705696
 40
1.714037220764907
 40
2.164002567013297
 40
2.740236056362883
 40
3.395137510199602
 40
4.071816045172726
 40
4.784906178399433
 40
5.506895915094292
 40
6.060470601257719
 40
6.060470601257719
 40
6.060470601257719
 40
6.060470601257719
 10
304.870658380731
 20
289.2705092667317
 30
0.0
 10
304.9080441709815
 20
289.2568080011053
 30
0.0
 10
304.9815629418439
 20
289.2278414317983
 30
0.0
 10
305.0712905356715
 20
289.1617301491766
 30
0.0
 10
305.1202240910088
 20
289.0854100754036
 30
0.0
 10
305.1672926928569
 20
289.0102103079594
 30
0.0
 10
305.173879857765
 20
288.9023235230967
 30
0.0
 10
305.163089636626
 20
288.765928478166
 30
0.0
 10
305.0934289437623
 20
288.6236143239029
 30
0.0
 10
304.9816194346387
 20
288.4991407956538
 30
0.0
 10
304.8428001263739
 20
288.3995138069741
 30
0.0
 10
304.6964103774893
 20
288.3213091864149
 30
0.0
 10
304.5917709438355
 20
288.3205299682361
 30
0.0
 10
304.5463590927309
 20
288.3201917999311
 30
0.0
  0
LINE
  5
1D35
102
{ACAD_REACTORS
330
1D32
102
}
330
18
100
AcDbEntity
  8
ROGO
 62
     4
100
AcDbLine
 10
303.7037001293173
 20
289.2705092667316
 30
0.0
 11
302.968967580779
 21
287.7855732146039
 31
0.0
  0
LINE
  5
1D36
102
{ACAD_REACTORS
330
1D33
102
}
330
18
100
AcDbEntity
  8
ROGO
 62
     4
100
AcDbLine
 10
305.5600683605206
 20
289.2705092667316
 30
0.0
 11
305.0898601159957
 21
288.3201917999311
 31
0.0
  0
LINE
  5
1D37
102
{ACAD_REACTORS
330
1D33
102
}
330
18
100
AcDbEntity
  8
ROGO
 62
     4
100
AcDbLine
 10
306.4829092891781
 20
288.5378702322948
 30
0.0
 11
306.3752040252759
 21
288.3201917999311
 31
0.0
  0
LINE
  5
1D38
102
{ACAD_REACTORS
330
1D2E
102
}
330
18
100
AcDbEntity
  8
ROGO
 62
     4
100
AcDbLine
 10
307.2177496069891
 20
289.2705092667316
 30
0.0
 11
306.5324572124747
 21
288.3201917999311
 31
0.0
  0
LINE
  5
1D39
102
{ACAD_REACTORS
330
1D2E
102
}
330
18
100
AcDbEntity
  8
ROGO
 62
     4
100
AcDbLine
 10
307.1892384236158
 20
288.5011263658078
 30
0.0
 11
307.0587629917398
 21
288.3201917999311
 31
0.0
  0
LINE
  5
1D3A
102
{ACAD_REACTORS
330
1D32
102
}
330
18
100
AcDbEntity
  8
ROGO
 62
     4
100
AcDbLine
 10
304.5463590929545
 20
288.3201917999311
 30
0.0
 11
303.901105936685
 21
288.3201917999311
 31
0.0
  0
LINE
  5
1D3B
102
{ACAD_REACTORS
330
1D2D
330
1D32
102
}
330
18
100
AcDbEntity
  8
ROGO
 62
     4
100
AcDbLine
 10
303.9011059366851
 20
288.3201917999311
 30
0.0
 11
303.65922932355
 21
287.7855732146039
 31
0.0
  0
LINE
  5
1D3C
102
{ACAD_REACTORS
330
1D33
102
}
330
18
100
AcDbEntity
  8
ROGO
 62
     4
100
AcDbLine
 10
305.0898601159957
 20
288.3201917999311
 30
0.0
 11
306.3752040252759
 21
288.3201917999311
 31
0.0
  0
LINE
  5
1D3D
102
{ACAD_REACTORS
330
1D2E
102
}
330
18
100
AcDbEntity
  8
ROGO
 62
     4
100
AcDbLine
 10
306.5324572124747
 20
288.3201917999311
 30
0.0
 11
307.0587629917398
 21
288.3201917999311
 31
0.0
  0
LINE
  5
1D3E
102
{ACAD_REACTORS
330
1D32
102
}
330
18
100
AcDbEntity
  8
ROGO
 62
     4
100
AcDbLine
 10
303.7037001293173
 20
289.2705092667316
 30
0.0
 11
304.870658380731
 21
289.2705092667316
 31
0.0
  0
LINE
  5
1D3F
102
{ACAD_REACTORS
330
1D32
102
}
330
18
100
AcDbEntity
  8
ROGO
 62
     4
100
AcDbLine
 10
304.458604478289
 20
288.9030187764713
 30
0.0
 11
304.164793393497
 21
288.9030187764713
 31
0.0
  0
LINE
  5
1D40
102
{ACAD_REACTORS
330
1D32
102
}
330
18
100
AcDbEntity
  8
ROGO
 62
     4
100
AcDbLine
 10
304.4069843089167
 20
288.6502885109771
 30
0.0
 11
304.0504510523735
 21
288.6502885109772
 31
0.0
  0
LINE
  5
1D41
102
{ACAD_REACTORS
330
1D32
102
}
330
18
100
AcDbEntity
  8
ROGO
 62
     4
100
AcDbLine
 10
304.164793393497
 20
288.9030187764713
 30
0.0
 11
304.0504510523735
 21
288.6502885109772
 31
0.0
  0
LINE
  5
1D42
102
{ACAD_REACTORS
330
1D33
102
}
330
18
100
AcDbEntity
  8
ROGO
 62
     4
100
AcDbLine
 10
305.5600683605206
 20
289.2705092667316
 30
0.0
 11
306.8454122698008
 21
289.2705092667317
 31
0.0
  0
SPLINE
  5
1D43
102
{ACAD_REACTORS
330
1D32
102
}
330
18
100
AcDbEntity
  8
ROGO
 62
     4
100
AcDbSpline
210
0.0
220
0.0
230
1.0
 70
     8
 71
     3
 72
    15
 73
    11
 74
     9
 42
0.0000000001
 43
0.0000000001
 44
0.0000000001
 40
0.0
 40
0.0
 40
0.0
 40
0.0
 40
0.1114278057886432
 40
0.1622327562563865
 40
0.2198997572250677
 40
0.259185199493265
 40
0.3213155338880433
 40
0.3585299069784071
 40
0.4223775764185746
 40
0.4436601464819452
 40
0.4436601464819452
 40
0.4436601464819452
 40
0.4436601464819452
 10
304.458604478289
 20
288.9030187764713
 30
0.0
 10
304.5004546013059
 20
288.9032104723737
 30
0.0
 10
304.5613860784954
 20
288.9034895710635
 30
0.0
 10
304.5947055803567
 20
288.8281171575727
 30
0.0
 10
304.5797701909431
 20
288.7795890812376
 30
0.0
 10
304.5609951891963
 20
288.7297658719498
 30
0.0
 10
304.5278155088528
 20
288.6959102497978
 30
0.0
 10
304.4832835179064
 20
288.6633015783958
 30
0.0
 10
304.441198658371
 20
288.6593541527079
 30
0.0
 10
304.413827181428
 20
288.6521016400176
 30
0.0
 10
304.4069843089167
 20
288.6502885109771
 30
0.0
 11
304.458604478289
 21
288.9030187764713
 31
0.0
 11
304.5670069230188
 21
288.877229905238
 31
0.0
 11
304.5876550501329
 21
288.8308101051661
 31
0.0
 11
304.577331134989
 21
288.7740747566009
 31
0.0
 11
304.5618451138599
 21
288.7379703368742
 31
0.0
 11
304.5205488596316
 21
288.6915505368023
 31
0.0
 11
304.4895768173735
 21
288.6709194398157
 31
0.0
 11
304.4276324360309
 21
288.6554462852238
 31
0.0
 11
304.4069843089167
 21
288.6502885109771
 31
0.0
  0
LINE
  5
1D44
102
{ACAD_REACTORS
330
1D33
102
}
330
18
100
AcDbEntity
  8
ROGO
 62
     4
100
AcDbLine
 10
306.8454122698008
 20
289.2705092667316
 30
0.0
 11
306.7377015879314
 21
289.0528198843497
 31
0.0
  0
LINE
  5
1D45
102
{ACAD_REACTORS
330
1D33
102
}
330
18
100
AcDbEntity
  8
ROGO
 62
     4
100
AcDbLine
 10
306.0621573091335
 20
289.0528198843497
 30
0.0
 11
305.9779409406566
 21
288.882613838654
 31
0.0
  0
LINE
  5
1D46
102
{ACAD_REACTORS
330
1D33
102
}
330
18
100
AcDbEntity
  8
ROGO
 62
     4
100
AcDbLine
 10
306.0621573091335
 20
289.0528198843497
 30
0.0
 11
306.7377015879314
 21
289.0528198843497
 31
0.0
  0
LINE
  5
1D47
102
{ACAD_REACTORS
330
1D33
102
}
330
18
100
AcDbEntity
  8
ROGO
 62
     4
100
AcDbLine
 10
305.9779409406566
 20
288.882613838654
 30
0.0
 11
306.6534852194545
 21
288.882613838654
 31
0.0
  0
LINE
  5
1D48
102
{ACAD_REACTORS
330
1D33
102
}
330
18
100
AcDbEntity
  8
ROGO
 62
     4
100
AcDbLine
 10
305.8073650103803
 20
288.5378702322948
 30
0.0
 11
306.4829092891781
 21
288.5378702322948
 31
0.0
  0
LINE
  5
1D49
102
{ACAD_REACTORS
330
1D33
102
}
330
18
100
AcDbEntity
  8
ROGO
 62
     4
100
AcDbLine
 10
305.8915849441733
 20
288.7080834836961
 30
0.0
 11
306.5671292229712
 21
288.7080834836962
 31
0.0
  0
LINE
  5
1D4A
102
{ACAD_REACTORS
330
1D33
102
}
330
18
100
AcDbEntity
  8
ROGO
 62
     4
100
AcDbLine
 10
306.6534852194545
 20
288.882613838654
 30
0.0
 11
306.5671292229712
 21
288.7080834836961
 31
0.0
  0
LINE
  5
1D4B
102
{ACAD_REACTORS
330
1D33
102
}
330
18
100
AcDbEntity
  8
ROGO
 62
     4
100
AcDbLine
 10
305.8915849441733
 20
288.7080834836961
 30
0.0
 11
305.8073650103802
 21
288.5378702322948
 31
0.0
  0
HATCH
  5
1D4C
330
18
100
AcDbEntity
  8
ROGO
 62
     4
100
AcDbHatch
 10
0.0
 20
0.0
 30
0.0
210
0.0
220
0.0
230
0.9999999999999998
  2
SOLID
 70
     1
 71
     1
 91
        2
 92
        7
 72
     1
 73
     1
 93
        4
 10
310.8186740713084
 20
289.2705092667315
 42
0.0
 10
310.4344000715306
 20
289.2705092667315
 42
0.9597396185052668
 10
310.4344000715305
 20
288.3201917999311
 42
0.0
 10
310.8462896970353
 20
288.3201917999311
 42
0.9713627655772736
 97
        4
330
1D6C
330
1D54
330
1D59
330
1D55
 92
       22
 72
     1
 73
     1
 93
        8
 10
310.7602472609514
 20
288.7898460482648
 42
0.0
 10
310.7476005325027
 20
288.6993655705212
 42
-0.3696060376523694
 10
310.6447327183052
 20
288.6465905345503
 42
0.0
 10
310.6102938300773
 20
288.6514041615157
 42
-0.3541938351274232
 10
310.5212500139603
 20
288.7328092482278
 42
0.0
 10
310.533896742409
 20
288.8232897259714
 42
-0.3439742752229287
 10
310.6450617354989
 20
288.8861080335934
 42
0.0
 10
310.6775755926167
 20
288.881563474015
 42
-0.3460733018205655
 97
        8
330
1D64
330
1D6A
330
1D66
330
1D69
330
1D65
330
1D68
330
1D63
330
1D67
 75
     0
 76
     1
 47
0.0514683685270805
 98
        2
 10
310.912090335265
 20
288.8837454752414
 10
310.912090335265
 20
288.8837454752414
450
        0
451
        0
460
0.0
461
0.0
452
        0
462
0.0
453
        0
470

  0
HATCH
  5
1D4D
330
18
100
AcDbEntity
  8
ROGO
 62
     4
100
AcDbHatch
 10
0.0
 20
0.0
 30
0.0
210
0.0
220
0.0
230
0.9999999999999998
  2
SOLID
 70
     1
 71
     1
 91
        1
 92
        5
 93
        8
 72
     1
 10
309.9527258512582
 20
289.2705092667315
 11
309.00103957787
 21
289.2705092667315
 72
     4
 94
        3
 73
     0
 74
     0
 95
       26
 96
       22
 40
0.0
 40
0.0
 40
0.0
 40
0.0
 40
0.7089867102952115
 40
1.183598414482279
 40
1.525832104103439
 40
1.781366926528389
 40
2.112809002752968
 40
2.354729406992515
 40
2.791581270399936
 40
3.147172406765291
 40
3.389031356825354
 40
3.626186440486682
 40
4.050410779375985
 40
4.350388020238963
 40
4.511948940797758
 40
4.741441456013356
 40
4.907163150576407
 40
5.147239172635527
 40
5.28310143501293
 40
5.578752957634333
 40
5.713750011164293
 40
5.713750011164293
 40
5.713750011164293
 40
5.713750011164293
 10
309.0010395778699
 20
289.2705092667315
 10
308.9425248714313
 20
289.2670181790032
 10
308.8448390999507
 20
289.2611900783632
 10
308.7375807171153
 20
289.1960317626604
 10
308.6589969466002
 20
289.1581515812862
 10
308.6029510967716
 20
289.1066567018871
 10
308.5618692616542
 20
289.0534662530975
 10
308.5100778961889
 20
288.9900902233671
 10
308.4678435175916
 20
288.9162914013268
 10
308.4463361161654
 20
288.8349522338572
 10
308.4272850641091
 20
288.7701244454391
 10
308.413156484972
 20
288.697882335446
 10
308.4167511954795
 20
288.6198354432083
 10
308.4218989854428
 20
288.5473494852833
 10
308.4448826158518
 20
288.4956053639612
 10
308.4710568997852
 20
288.458767115225
 10
308.5031069520066
 20
288.4181938683063
 10
308.5381767179081
 20
288.3913223382533
 10
308.5671822769017
 20
288.3426427558391
 10
308.6179555294365
 20
288.3364308900436
 10
308.6502290286847
 20
288.3240674231166
 10
308.6603459257253
 20
288.3201917999311
 72
     1
 10
308.6603459257253
 20
288.3201917999311
 11
309.4788668699144
 21
288.3201917999311
 72
     1
 10
309.4788668699144
 20
288.3201917999311
 11
309.6551712666937
 21
288.6737677673169
 72
     1
 10
309.6551712666937
 20
288.6737677673169
 11
309.0474976412569
 21
288.6737677673169
 72
     4
 94
        3
 73
     0
 74
     0
 95
       16
 96
       12
 40
0.0
 40
0.0
 40
0.0
 40
0.0
 40
0.2141121027475241
 40
0.4304326162973471
 40
0.5594580803306056
 40
0.6831669452691567
 40
0.8190286678446897
 40
0.9139043619204622
 40
1.003933161420314
 40
1.186498641432482
 40
1.560280494298353
 40
1.560280494298353
 40
1.560280494298353
 40
1.560280494298353
 10
309.0474976412571
 20
288.6737677673169
 10
309.0291680632385
 20
288.6791605979299
 10
308.9923198509193
 20
288.690001882286
 10
308.9892359531043
 20
288.7425564460778
 10
308.9934373177148
 20
288.7800058733045
 10
309.0110326420872
 20
288.8072712432316
 10
309.0323788224194
 20
288.8271103872603
 10
309.0403269520864
 20
288.8529477703865
 10
309.0636897550925
 20
288.8724582271851
 10
309.1051182647574
 20
288.9052525796338
 10
309.1509310247465
 20
288.9122370439632
 10
309.181710319086
 20
288.9169295550332
 72
     1
 10
309.181710319086
 20
288.9169295550332
 11
309.7764195874437
 21
288.9169295550332
 72
     1
 10
309.7764195874437
 20
288.9169295550332
 11
309.9527258512582
 21
289.2705092667315
 97
        8
330
1D62
330
1D4F
330
1D56
330
1D52
330
1D61
330
1D5E
330
1D60
330
1D5F
 75
     0
 76
     1
 47
0.0514683685270805
 98
        1
 10
309.3338795032442
 20
289.0589574574662
450
        0
451
        0
460
0.0
461
0.0
452
        0
462
0.0
453
        0
470

  0
SPLINE
  5
1D4E
102
{ACAD_REACTORS
330
1D28
102
}
330
18
100
AcDbEntity
  8
ROGO
 62
     4
100
AcDbSpline
210
0.0
220
0.0
230
1.0
 70
     8
 71
     3
 72
    26
 73
    22
 74
    20
 42
0.0000000001
 43
0.0000000001
 44
0.0000000001
 40
0.0
 40
0.0
 40
0.0
 40
0.0
 40
0.1723984759424608
 40
0.2878059064036966
 40
0.3710240621887089
 40
0.4331603664333254
 40
0.5137544142125283
 40
0.572580212192407
 40
0.6788058922657624
 40
0.7652720686804436
 40
0.8240829233522806
 40
0.8817499774613361
 40
0.984905126098422
 40
1.057848128260907
 40
1.097133570529052
 40
1.152937380796412
 40
1.193234564309735
 40
1.251611879021434
 40
1.284648389624301
 40
1.356539542405996
 40
1.389365667278746
 40
1.389365667278746
 40
1.389365667278746
 40
1.389365667278746
 10
312.0630469869509
 20
289.2705092667316
 30
0.0
 10
312.0045322805123
 20
289.2670181790032
 30
0.0
 10
311.9068465090318
 20
289.2611900783631
 30
0.0
 10
311.7995881261963
 20
289.1960317626605
 30
0.0
 10
311.7210043556813
 20
289.1581515812863
 30
0.0
 10
311.6649585058527
 20
289.1066567018871
 30
0.0
 10
311.6238766707352
 20
289.0534662530975
 30
0.0
 10
311.57208530527
 20
288.9900902233673
 30
0.0
 10
311.5298509266728
 20
288.9162914013269
 30
0.0
 10
311.5083435252464
 20
288.8349522338572
 30
0.0
 10
311.4892924731902
 20
288.7701244454391
 30
0.0
 10
311.4751638940532
 20
288.6978823354461
 30
0.0
 10
311.4787586045603
 20
288.6198354432082
 30
0.0
 10
311.4839063945238
 20
288.5473494852833
 30
0.0
 10
311.5068900249328
 20
288.4956053639612
 30
0.0
 10
311.5330643088663
 20
288.458767115225
 30
0.0
 10
311.5651143610878
 20
288.4181938683063
 30
0.0
 10
311.6001841269891
 20
288.3913223382534
 30
0.0
 10
311.6291896859828
 20
288.342642755839
 30
0.0
 10
311.6799629385176
 20
288.3364308900436
 30
0.0
 10
311.7122364377657
 20
288.3240674231166
 30
0.0
 10
311.7223533348064
 20
288.3201917999311
 30
0.0
 11
312.0630469869509
 21
289.2705092667316
 31
0.0
 11
311.8927001608786
 21
289.2439914735657
 31
0.0
 11
311.7894595253077
 21
289.1924138992472
 31
0.0
 11
311.7171912288213
 21
289.1511518734219
 31
0.0
 11
311.6707331654341
 21
289.1098896794487
 31
0.0
 11
311.6191129960617
 21
289.0479965566367
 31
0.0
 11
311.5829788478186
 21
289.0015767565649
 31
0.0
 11
311.5313583816199
 21
288.908736988273
 31
0.0
 11
311.5055484453469
 21
288.8262127684745
 31
0.0
 11
311.4900624242178
 21
288.7694774199093
 31
0.0
 11
311.4797382122476
 21
288.7127420713441
 31
0.0
 11
311.4797382122476
 21
288.609586922707
 31
0.0
 11
311.4900624242178
 21
288.5373782514018
 31
0.0
 11
311.5055484453469
 21
288.5012738316752
 31
0.0
 11
311.536520487605
 21
288.4548540316032
 31
0.0
 11
311.5623307207044
 21
288.4239073861233
 31
0.0
 11
311.6036266781064
 21
288.382645360298
 31
0.0
 11
311.6242748052206
 21
288.3568564890648
 31
0.0
 11
311.6913812925483
 21
288.3310677859795
 31
0.0
 11
311.7223533348064
 21
288.3201917999311
 31
0.0
  0
SPLINE
  5
1D4F
102
{ACAD_REACTORS
330
1D4D
102
}
330
18
100
AcDbEntity
  8
ROGO
 62
     4
100
AcDbSpline
210
0.0
220
0.0
230
1.0
 70
     8
 71
     3
 72
    26
 73
    22
 74
    20
 42
0.0000000001
 43
0.0000000001
 44
0.0000000001
 40
0.0
 40
0.0
 40
0.0
 40
0.0
 40
0.1723984759425082
 40
0.2878059064037186
 40
0.3710240621887309
 40
0.4331603664333474
 40
0.5137544142125066
 40
0.572580212192465
 40
0.6788058922657929
 40
0.7652720686804741
 40
0.8240829233522561
 40
0.8817499774613677
 40
0.9849051260984536
 40
1.057848128260939
 40
1.097133570529084
 40
1.152937380796444
 40
1.19323456430973
 40
1.251611879021469
 40
1.284648389624336
 40
1.356539542406011
 40
1.38936566727878
 40
1.38936566727878
 40
1.38936566727878
 40
1.38936566727878
 10
309.0010395778699
 20
289.2705092667316
 30
0.0
 10
308.9425248714313
 20
289.2670181790034
 30
0.0
 10
308.8448390999507
 20
289.2611900783634
 30
0.0
 10
308.7375807171152
 20
289.1960317626604
 30
0.0
 10
308.6589969466003
 20
289.1581515812863
 30
0.0
 10
308.6029510967716
 20
289.1066567018871
 30
0.0
 10
308.5618692616541
 20
289.0534662530976
 30
0.0
 10
308.5100778961889
 20
288.9900902233672
 30
0.0
 10
308.4678435175918
 20
288.9162914013269
 30
0.0
 10
308.4463361161653
 20
288.8349522338573
 30
0.0
 10
308.4272850641092
 20
288.7701244454391
 30
0.0
 10
308.413156484972
 20
288.6978823354461
 30
0.0
 10
308.4167511954795
 20
288.6198354432083
 30
0.0
 10
308.4218989854427
 20
288.5473494852833
 30
0.0
 10
308.4448826158518
 20
288.4956053639612
 30
0.0
 10
308.4710568997851
 20
288.458767115225
 30
0.0
 10
308.5031069520068
 20
288.4181938683064
 30
0.0
 10
308.538176717908
 20
288.3913223382535
 30
0.0
 10
308.5671822769017
 20
288.3426427558391
 30
0.0
 10
308.6179555294365
 20
288.3364308900437
 30
0.0
 10
308.6502290286848
 20
288.3240674231167
 30
0.0
 10
308.6603459257253
 20
288.3201917999311
 30
0.0
 11
309.0010395778699
 21
289.2705092667316
 31
0.0
 11
308.8306927517975
 21
289.2439914735657
 31
0.0
 11
308.7274521162267
 21
289.1924138992472
 31
0.0
 11
308.6551838197402
 21
289.1511518734219
 31
0.0
 11
308.608725756353
 21
289.1098896794487
 31
0.0
 11
308.5571055869807
 21
289.0479965566368
 31
0.0
 11
308.5209714387374
 21
289.0015767565649
 31
0.0
 11
308.4693509725389
 21
288.908736988273
 31
0.0
 11
308.4435410362659
 21
288.8262127684745
 31
0.0
 11
308.4280550151368
 21
288.7694774199093
 31
0.0
 11
308.4177308031665
 21
288.7127420713441
 31
0.0
 11
308.4177308031665
 21
288.609586922707
 31
0.0
 11
308.4280550151368
 21
288.5373782514018
 31
0.0
 11
308.4435410362659
 21
288.5012738316752
 31
0.0
 11
308.474513078524
 21
288.4548540316032
 31
0.0
 11
308.5003233116233
 21
288.4239073861233
 31
0.0
 11
308.5416192690253
 21
288.382645360298
 31
0.0
 11
308.5622673961395
 21
288.3568564890648
 31
0.0
 11
308.6293738834672
 21
288.3310677859796
 31
0.0
 11
308.6603459257253
 21
288.3201917999311
 31
0.0
  0
LINE
  5
1D50
102
{ACAD_REACTORS
330
1D2E
102
}
330
18
100
AcDbEntity
  8
ROGO
 62
     4
100
AcDbLine
 10
307.7669959343283
 20
289.2705092667316
 30
0.0
 11
308.4522883288427
 21
288.3201917999311
 31
0.0
  0
LINE
  5
1D51
102
{ACAD_REACTORS
330
1D2E
102
}
330
18
100
AcDbEntity
  8
ROGO
 62
     4
100
AcDbLine
 10
307.7955071177016
 20
288.5011263658078
 30
0.0
 11
307.9259825495776
 21
288.3201917999311
 31
0.0
  0
LINE
  5
1D52
102
{ACAD_REACTORS
330
1D4D
102
}
330
18
100
AcDbEntity
  8
ROGO
 62
     4
100
AcDbLine
 10
309.6551712666937
 20
288.673767767317
 30
0.0
 11
309.4788668699144
 21
288.3201917999311
 31
0.0
  0
LINE
  5
1D53
102
{ACAD_REACTORS
330
1D28
102
}
330
18
100
AcDbEntity
  8
ROGO
 62
     4
100
AcDbLine
 10
312.7171786757747
 20
288.673767767317
 30
0.0
 11
312.5408742789955
 21
288.3201917999311
 31
0.0
  0
ARC
  5
1D54
102
{ACAD_REACTORS
330
1D4C
102
}
330
18
100
AcDbEntity
  8
ROGO
 62
     4
100
AcDbCircle
 10
310.453931389734
 20
288.7953505333314
 30
0.0
 40
0.4755599797263065
100
AcDbArc
 50
92.3538081120337
 51
270.0
  0
ARC
  5
1D55
102
{ACAD_REACTORS
330
1D4C
102
}
330
18
100
AcDbEntity
  8
ROGO
 62
     4
100
AcDbCircle
 10
310.8186740713084
 20
288.7949492870053
 30
0.0
 40
0.4755599797263065
100
AcDbArc
 50
273.3290215232082
 51
90.0000000000006
  0
LINE
  5
1D56
102
{ACAD_REACTORS
330
1D4D
102
}
330
18
100
AcDbEntity
  8
ROGO
 62
     4
100
AcDbLine
 10
308.6603459257253
 20
288.3201917999311
 30
0.0
 11
309.4788668699144
 21
288.3201917999311
 31
0.0
  0
LINE
  5
1D57
102
{ACAD_REACTORS
330
1D2E
102
}
330
18
100
AcDbEntity
  8
ROGO
 62
     4
100
AcDbLine
 10
308.4522883288427
 20
288.3201917999311
 30
0.0
 11
307.9259825495776
 21
288.3201917999311
 31
0.0
  0
LINE
  5
1D58
330
18
100
AcDbEntity
  8
ROGO
 62
     4
100
AcDbLine
 10
310.4344000715309
 20
288.3201917999311
 30
0.0
 11
310.846289697035
 21
288.3201917999311
 31
0.0
  0
LINE
  5
1D59
102
{ACAD_REACTORS
330
1D4C
102
}
330
18
100
AcDbEntity
  8
ROGO
 62
     4
100
AcDbLine
 10
310.4344000715306
 20
288.3201917999311
 30
0.0
 11
310.8462896970353
 21
288.3201917999311
 31
0.0
  0
LINE
  5
1D5A
102
{ACAD_REACTORS
330
1D28
102
}
330
18
100
AcDbEntity
  8
ROGO
 62
     4
100
AcDbLine
 10
311.7223533348063
 20
288.3201917999311
 30
0.0
 11
312.5408742789955
 21
288.3201917999311
 31
0.0
  0
LINE
  5
1D5B
102
{ACAD_REACTORS
330
1D2E
102
}
330
18
100
AcDbEntity
  8
ROGO
 62
     4
100
AcDbLine
 10
307.4923727706587
 20
288.9214927190433
 30
0.0
 11
307.3268547960806
 21
288.6919635084901
 31
0.0
  0
LINE
  5
1D5C
102
{ACAD_REACTORS
330
1D2E
102
}
330
18
100
AcDbEntity
  8
ROGO
 62
     4
100
AcDbLine
 10
307.3268547960806
 20
288.6919635084902
 30
0.0
 11
307.6578907452367
 21
288.6919635084902
 31
0.0
  0
LINE
  5
1D5D
102
{ACAD_REACTORS
330
1D2E
102
}
330
18
100
AcDbEntity
  8
ROGO
 62
     4
100
AcDbLine
 10
307.4923727706587
 20
288.9214927190433
 30
0.0
 11
307.6578907452367
 21
288.6919635084901
 31
0.0
  0
SPLINE
  5
1D5E
102
{ACAD_REACTORS
330
1D4D
102
}
330
18
100
AcDbEntity
  8
ROGO
 62
     4
100
AcDbSpline
210
0.0
220
0.0
230
1.0
 70
     8
 71
     3
 72
    16
 73
    12
 74
    10
 42
0.0000000001
 43
0.0000000001
 44
0.0000000001
 40
0.0
 40
0.0
 40
0.0
 40
0.0
 40
0.0908894635587698
 40
0.1352824120537892
 40
0.1571739758861179
 40
0.1802441192684364
 40
0.2132804986121064
 40
0.2433617673669269
 40
0.2747358298621628
 40
0.3273367126566702
 40
0.3794005943324437
 40
0.3794005943324437
 40
0.3794005943324437
 40
0.3794005943324437
 10
309.181710319086
 20
288.9169295550333
 30
0.0
 10
309.1509310247464
 20
288.9122370439633
 30
0.0
 10
309.1051182647574
 20
288.905252579634
 30
0.0
 10
309.0636897550926
 20
288.8724582271851
 30
0.0
 10
309.0403269520864
 20
288.8529477703866
 30
0.0
 10
309.0323788224193
 20
288.8271103872603
 30
0.0
 10
309.0110326420872
 20
288.8072712432316
 30
0.0
 10
308.9934373177148
 20
288.7800058733047
 30
0.0
 10
308.9892359531041
 20
288.7425564460777
 30
0.0
 10
308.9923198509193
 20
288.6900018822861
 30
0.0
 10
309.0291680632386
 20
288.67916059793
 30
0.0
 10
309.0474976412571
 20
288.673767767317
 30
0.0
 11
309.181710319086
 21
288.9169295550333
 31
0.0
 11
309.0939560014705
 21
288.8932636655331
 31
0.0
 11
309.0578218532272
 21
288.8674749624478
 31
0.0
 11
309.0423358320982
 21
288.8520016397079
 31
0.0
 11
309.0320116201279
 21
288.8313705427212
 31
0.0
 11
309.0113634930138
 21
288.805581839636
 31
0.0
 11
308.9958774718847
 21
288.7797929684026
 31
0.0
 11
308.9907153658996
 21
288.7488464910708
 31
0.0
 11
309.0010395778699
 21
288.6972687486041
 31
0.0
 11
309.0474976412571
 21
288.673767767317
 31
0.0
  0
LINE
  5
1D5F
102
{ACAD_REACTORS
330
1D4D
102
}
330
18
100
AcDbEntity
  8
ROGO
 62
     4
100
AcDbLine
 10
309.9527258512582
 20
289.2705092667316
 30
0.0
 11
309.7764195874437
 21
288.9169295550333
 31
0.0
  0
LINE
  5
1D60
102
{ACAD_REACTORS
330
1D4D
102
}
330
18
100
AcDbEntity
  8
ROGO
 62
     4
100
AcDbLine
 10
309.181710319086
 20
288.9169295550333
 30
0.0
 11
309.7764195874437
 21
288.9169295550333
 31
0.0
  0
LINE
  5
1D61
102
{ACAD_REACTORS
330
1D4D
102
}
330
18
100
AcDbEntity
  8
ROGO
 62
     4
100
AcDbLine
 10
309.047497641257
 20
288.673767767317
 30
0.0
 11
309.6551712666937
 21
288.673767767317
 31
0.0
  0
LINE
  5
1D62
102
{ACAD_REACTORS
330
1D4D
102
}
330
18
100
AcDbEntity
  8
ROGO
 62
     4
100
AcDbLine
 10
309.0010395778701
 20
289.2705092667317
 30
0.0
 11
309.9527258512582
 21
289.2705092667317
 31
0.0
  0
LINE
  5
1D63
102
{ACAD_REACTORS
330
1D4C
102
}
330
18
100
AcDbEntity
  8
ROGO
 62
     4
100
AcDbLine
 10
310.6431367043886
 20
288.8863771009803
 30
0.0
 11
310.6775755926167
 21
288.8815634740151
 31
0.0
  0
LINE
  5
1D64
102
{ACAD_REACTORS
330
1D4C
102
}
330
18
100
AcDbEntity
  8
ROGO
 62
     4
100
AcDbLine
 10
310.7602472609514
 20
288.789846048265
 30
0.0
 11
310.7476005325028
 21
288.6993655705214
 31
0.0
  0
LINE
  5
1D65
102
{ACAD_REACTORS
330
1D4C
102
}
330
18
100
AcDbEntity
  8
ROGO
 62
     4
100
AcDbLine
 10
310.5212500139603
 20
288.7328092482279
 30
0.0
 11
310.533896742409
 21
288.8232897259714
 31
0.0
  0
LINE
  5
1D66
102
{ACAD_REACTORS
330
1D4C
102
}
330
18
100
AcDbEntity
  8
ROGO
 62
     4
100
AcDbLine
 10
310.6102938300769
 20
288.6514041615157
 30
0.0
 11
310.644732718305
 21
288.6465905345504
 31
0.0
  0
ARC
  5
1D67
102
{ACAD_REACTORS
330
1D4C
102
}
330
18
100
AcDbEntity
  8
ROGO
 62
     4
100
AcDbCircle
 10
310.6605908851979
 20
288.783136163279
 30
0.0
 40
0.0998820093152177
100
AcDbArc
 50
3.851923331663601
 51
80.20940670206341
  0
ARC
  5
1D68
102
{ACAD_REACTORS
330
1D4C
102
}
330
18
100
AcDbEntity
  8
ROGO
 62
     4
100
AcDbCircle
 10
310.6297335225721
 20
288.7834637999205
 30
0.0
 40
0.1037824301982561
100
AcDbArc
 50
82.57970078354313
 51
157.4341870372611
  0
ARC
  5
1D69
102
{ACAD_REACTORS
330
1D4C
102
}
330
18
100
AcDbEntity
  8
ROGO
 62
     4
100
AcDbCircle
 10
310.6160216335451
 20
288.7470716493709
 30
0.0
 40
0.0958388019806556
100
AcDbArc
 50
188.5583509056651
 51
266.5736774635929
  0
ARC
  5
1D6A
102
{ACAD_REACTORS
330
1D4C
102
}
330
18
100
AcDbEntity
  8
ROGO
 62
     4
100
AcDbCircle
 10
310.6653463016453
 20
288.7330522766381
 30
0.0
 40
0.0888850530907803
100
AcDbArc
 50
256.5902863289752
 51
337.7287536965499
  0
LINE
  5
1D6B
330
18
100
AcDbEntity
  8
ROGO
 62
     4
100
AcDbLine
 10
310.4344000715307
 20
289.2705092667316
 30
0.0
 11
310.7037134806772
 21
289.2705092667316
 31
0.0
  0
LINE
  5
1D6C
102
{ACAD_REACTORS
330
1D4C
102
}
330
18
100
AcDbEntity
  8
ROGO
 62
     4
100
AcDbLine
 10
310.4344000715306
 20
289.2705092667316
 30
0.0
 11
310.8186740713084
 21
289.2705092667316
 31
0.0
  0
SPLINE
  5
1D6D
102
{ACAD_REACTORS
330
1D28
102
}
330
18
100
AcDbEntity
  8
ROGO
 62
     4
100
AcDbSpline
210
0.0
220
0.0
230
1.0
 70
     8
 71
     3
 72
    16
 73
    12
 74
    10
 42
0.0000000001
 43
0.0000000001
 44
0.0000000001
 40
0.0
 40
0.0
 40
0.0
 40
0.0
 40
0.0908894635588099
 40
0.1352824120538293
 40
0.1571739758861982
 40
0.1802441192684659
 40
0.2132804986121358
 40
0.2433617673669563
 40
0.2747358298622484
 40
0.3273367126567001
 40
0.3794005943324992
 40
0.3794005943324992
 40
0.3794005943324992
 40
0.3794005943324992
 10
312.2437177281671
 20
288.9169295550332
 30
0.0
 10
312.2129384338277
 20
288.9122370439633
 30
0.0
 10
312.1671256738385
 20
288.9052525796341
 30
0.0
 10
312.1256971641734
 20
288.8724582271851
 30
0.0
 10
312.1023343611676
 20
288.8529477703865
 30
0.0
 10
312.0943862315004
 20
288.8271103872603
 30
0.0
 10
312.0730400511683
 20
288.8072712432316
 30
0.0
 10
312.0554447267957
 20
288.7800058733046
 30
0.0
 10
312.0512433621854
 20
288.7425564460778
 30
0.0
 10
312.0543272600004
 20
288.690001882286
 30
0.0
 10
312.0911754723195
 20
288.6791605979299
 30
0.0
 10
312.1095050503381
 20
288.6737677673169
 30
0.0
 11
312.2437177281671
 21
288.9169295550332
 31
0.0
 11
312.1559634105515
 21
288.8932636655331
 31
0.0
 11
312.1198292623083
 21
288.8674749624478
 31
0.0
 11
312.1043432411793
 21
288.8520016397078
 31
0.0
 11
312.094019029209
 21
288.8313705427212
 31
0.0
 11
312.0733709020949
 21
288.805581839636
 31
0.0
 11
312.0578848809657
 21
288.7797929684026
 31
0.0
 11
312.0527227749806
 21
288.7488464910707
 31
0.0
 11
312.0630469869509
 21
288.6972687486041
 31
0.0
 11
312.1095050503381
 21
288.6737677673169
 31
0.0
  0
LINE
  5
1D6E
102
{ACAD_REACTORS
330
1D28
102
}
330
18
100
AcDbEntity
  8
ROGO
 62
     4
100
AcDbLine
 10
312.1095050503381
 20
288.673767767317
 30
0.0
 11
312.7171786757748
 21
288.673767767317
 31
0.0
  0
LINE
  5
1D6F
102
{ACAD_REACTORS
330
1D28
102
}
330
18
100
AcDbEntity
  8
ROGO
 62
     4
100
AcDbLine
 10
312.243717728167
 20
288.9169295550333
 30
0.0
 11
312.8384269965248
 21
288.9169295550333
 31
0.0
  0
LINE
  5
1D70
102
{ACAD_REACTORS
330
1D27
102
}
330
18
100
AcDbEntity
  8
ROGO
 62
     4
100
AcDbLine
 10
313.5839758032237
 20
288.5280412406677
 30
0.0
 11
313.9541943405041
 21
287.7855732146039
 31
0.0
  0
LINE
  5
1D71
102
{ACAD_REACTORS
330
1D27
102
}
330
18
100
AcDbEntity
  8
ROGO
 62
     4
100
AcDbLine
 10
313.213769237684
 20
288.1731583134156
 30
0.0
 11
313.4070316857848
 21
287.7855732146039
 31
0.0
  0
LINE
  5
1D72
102
{ACAD_REACTORS
330
1D27
102
}
330
18
100
AcDbEntity
  8
ROGO
 62
     4
100
AcDbLine
 10
313.213769237684
 20
288.1731583134155
 30
0.0
 11
313.0205067895831
 21
287.7855732146039
 31
0.0
  0
LINE
  5
1D73
102
{ACAD_REACTORS
330
1D27
102
}
330
18
100
AcDbEntity
  8
ROGO
 62
     4
100
AcDbLine
 10
313.4070316857848
 20
287.7855732146039
 30
0.0
 11
313.9541943405041
 21
287.7855732146039
 31
0.0
  0
LINE
  5
1D74
102
{ACAD_REACTORS
330
1D27
102
}
330
18
100
AcDbEntity
  8
ROGO
 62
     4
100
AcDbLine
 10
313.5839758032237
 20
288.5280412406677
 30
0.0
 11
314.4834636379944
 21
289.2705092667316
 31
0.0
  0
LINE
  5
1D75
102
{ACAD_REACTORS
330
1D27
102
}
330
18
100
AcDbEntity
  8
ROGO
 62
     4
100
AcDbLine
 10
313.9363009832752
 20
289.2705092667316
 30
0.0
 11
314.4834636379944
 21
289.2705092667316
 31
0.0
  0
LINE
  5
1D76
102
{ACAD_REACTORS
330
1D27
102
}
330
18
100
AcDbEntity
  8
ROGO
 62
     4
100
AcDbLine
 10
313.213769237684
 20
289.2705092667316
 30
0.0
 11
313.7609438641439
 21
289.2705092667316
 31
0.0
  0
LINE
  5
1D77
102
{ACAD_REACTORS
330
1D27
102
}
330
18
100
AcDbEntity
  8
ROGO
 62
     4
100
AcDbLine
 10
313.7609438641439
 20
289.2705092667316
 30
0.0
 11
313.6801032030477
 21
289.1083844673882
 31
0.0
  0
LINE
  5
1D78
102
{ACAD_REACTORS
330
1D27
102
}
330
18
100
AcDbEntity
  8
ROGO
 62
     4
100
AcDbLine
 10
313.6801032030477
 20
289.1083844673882
 30
0.0
 11
313.9363009832752
 21
289.2705092667316
 31
0.0
  0
POINT
  5
1D7F
330
18
100
AcDbEntity
  8
DEFPOINTS
  6
ByBlock
 62
     0
100
AcDbPoint
 10
329.5260694536606
 20
292.8512555456247
 30
0.0
  0
LINE
  5
1D82
330
18
100
AcDbEntity
  8
文字
 62
     2
100
AcDbLine
 10
382.5503696158731
 20
265.9884435631051
 30
0.0
 11
375.7943252875086
 21
254.0614907511217
 31
0.0
1001
ACAD
1000
DSTYLE
1002
{
1070
   271
1070
     2
1002
}
  0
LINE
  5
1D83
330
18
100
AcDbEntity
  8
文字
 62
     2
100
AcDbLine
 10
375.7943252875086
 20
254.0614907511217
 30
0.0
 11
370.8836110017943
 21
254.0614907511217
 31
0.0
1001
ACAD
1000
DSTYLE
1002
{
1070
   271
1070
     2
1002
}
  0
TEXT
  5
1D84
330
18
100
AcDbEntity
  8
外形線
 62
     6
100
AcDbText
 10
371.9530076650461
 20
254.7619935915641
 30
0.0
 40
2.5
  1
C
  7
STYLE3
100
AcDbText
  0
LINE
  5
1D85
330
18
100
AcDbEntity
  8
0
  6
ByBlock
 62
     2
100
AcDbLine
 10
308.5736145639469
 20
325.8512555456247
 30
0.0
 11
333.2940970699295
 21
325.8512555456247
 31
0.0
  0
LINE
  5
1D86
330
18
100
AcDbEntity
  8
0
  6
ByBlock
 62
     2
100
AcDbLine
 10
308.5736145639469
 20
310.3512555456247
 30
0.0
 11
333.2940970699295
 21
310.3512555456247
 31
0.0
  0
LINE
  5
1D87
330
18
100
AcDbEntity
  8
0
  6
ByBlock
 62
     2
100
AcDbLine
 10
332.0440970699295
 20
323.3512555456247
 30
0.0
 11
332.0440970699295
 21
312.8512555456247
 31
0.0
  0
INSERT
  5
1D88
330
18
100
AcDbEntity
  8
0
  6
ByBlock
 62
     2
100
AcDbBlockReference
  2
_OPEN
 10
332.0440970699295
 20
325.8512555456247
 30
0.0
 41
2.5
 42
2.5
 43
2.5
 50
90.0
  0
INSERT
  5
1D89
330
18
100
AcDbEntity
  8
0
  6
ByBlock
 62
     2
100
AcDbBlockReference
  2
_OPEN
 10
332.0440970699295
 20
310.3512555456247
 30
0.0
 41
2.5
 42
2.5
 43
2.5
 50
270.0
  0
MTEXT
  5
1D8A
330
18
100
AcDbEntity
  8
0
  6
ByBlock
 62
     6
100
AcDbMText
 10
330.1690970699295
 20
318.1012555456247
 30
0.0
 40
2.5
 41
0.0
 71
     5
 72
     1
  1
\A1;15.5
  7
STYLE3
 11
0.0000000000000001
 21
1.0
 31
0.0
 73
     1
 44
1.0
  0
POINT
  5
1D8B
330
18
100
AcDbEntity
  8
DEFPOINTS
  6
ByBlock
 62
     0
100
AcDbPoint
 10
308.5736145639469
 20
325.8512555456247
 30
0.0
  0
POINT
  5
1D8C
330
18
100
AcDbEntity
  8
DEFPOINTS
  6
ByBlock
 62
     0
100
AcDbPoint
 10
308.5736145639469
 20
310.3512555456247
 30
0.0
  0
POINT
  5
1D8D
330
18
100
AcDbEntity
  8
DEFPOINTS
  6
ByBlock
 62
     0
100
AcDbPoint
 10
332.0440970699295
 20
310.3512555456247
 30
0.0
  0
LINE
  5
1D8E
330
18
100
AcDbEntity
  8
0
  6
ByBlock
 62
     2
100
AcDbLine
 10
382.193511205536
 20
309.6512555456247
 30
0.0
 11
382.193511205536
 21
336.554344083888
 31
0.0
  0
LINE
  5
1D8F
330
18
100
AcDbEntity
  8
0
  6
ByBlock
 62
     2
100
AcDbLine
 10
398.043511205536
 20
308.0012555456248
 30
0.0
 11
398.043511205536
 21
336.554344083888
 31
0.0
  0
LINE
  5
1D90
330
18
100
AcDbEntity
  8
0
  6
ByBlock
 62
     2
100
AcDbLine
 10
384.693511205536
 20
335.304344083888
 30
0.0
 11
395.5435112055361
 21
335.304344083888
 31
0.0
  0
INSERT
  5
1D91
330
18
100
AcDbEntity
  8
0
  6
ByBlock
 62
     2
100
AcDbBlockReference
  2
_OPEN
 10
382.193511205536
 20
335.304344083888
 30
0.0
 41
2.5
 42
2.5
 43
2.5
 50
180.0
  0
INSERT
  5
1D92
330
18
100
AcDbEntity
  8
0
  6
ByBlock
 62
     2
100
AcDbBlockReference
  2
_OPEN
 10
398.043511205536
 20
335.304344083888
 30
0.0
 41
2.5
 42
2.5
 43
2.5
  0
MTEXT
  5
1D93
330
18
100
AcDbEntity
  8
0
  6
ByBlock
 62
     6
100
AcDbMText
 10
390.118511205536
 20
337.179344083888
 30
0.0
 40
2.5
 41
0.0
 71
     5
 72
     1
  1
\A1;15.85
  7
STYLE3
 73
     1
 44
1.0
  0
POINT
  5
1D94
330
18
100
AcDbEntity
  8
DEFPOINTS
  6
ByBlock
 62
     0
100
AcDbPoint
 10
382.193511205536
 20
309.6512555456247
 30
0.0
  0
POINT
  5
1D95
330
18
100
AcDbEntity
  8
DEFPOINTS
  6
ByBlock
 62
     0
100
AcDbPoint
 10
398.043511205536
 20
308.0012555456248
 30
0.0
  0
POINT
  5
1D96
330
18
100
AcDbEntity
  8
DEFPOINTS
  6
ByBlock
 62
     0
100
AcDbPoint
 10
398.043511205536
 20
335.304344083888
 30
0.0
  0
TEXT
  5
1D97
330
18
100
AcDbEntity
  8
外形線
 62
     6
100
AcDbText
 10
375.8355925273531
 20
325.506066270018
 30
0.0
 40
2.5
  1
B
  7
STYLE3
100
AcDbText
  0
LINE
  5
1D98
330
18
100
AcDbEntity
  8
寸法線
 62
     2
100
AcDbLine
 10
384.963035505958
 20
308.904651042479
 30
0.0
 11
379.7051399058277
 21
324.881066270018
 31
0.0
1001
ACAD
1000
DSTYLE
1002
{
1070
   271
1070
     2
1002
}
  0
LINE
  5
1D99
330
18
100
AcDbEntity
  8
寸法線
 62
     2
100
AcDbLine
 10
379.7051399058277
 20
324.881066270018
 30
0.0
 11
374.913473239161
 21
324.881066270018
 31
0.0
1001
ACAD
1000
DSTYLE
1002
{
1070
   271
1070
     2
1002
}
  0
POINT
  5
1FB7
330
18
100
AcDbEntity
  8
DEFPOINTS
  6
ByBlock
 62
     0
100
AcDbPoint
 10
308.5736145639469
 20
292.8512555456247
 30
0.0
  0
POINT
  5
1FB8
330
18
100
AcDbEntity
  8
DEFPOINTS
  6
ByBlock
 62
     0
100
AcDbPoint
 10
308.5736145639469
 20
292.8512555456247
 30
0.0
  0
POINT
  5
1FB9
330
18
100
AcDbEntity
  8
DEFPOINTS
  6
ByBlock
 62
     0
100
AcDbPoint
 10
308.5736145639469
 20
292.8512555456247
 30
0.0
  0
POINT
  5
1FBA
330
18
100
AcDbEntity
  8
DEFPOINTS
  6
ByBlock
 62
     0
100
AcDbPoint
 10
308.5736145639469
 20
292.8512555456247
 30
0.0
  0
LINE
  5
1FBB
330
18
100
AcDbEntity
  8
針
100
AcDbLine
 10
300.1704327917876
 20
304.2981518980885
 30
0.0
 11
300.283695171
 21
304.3804418334095
 31
0.0
  0
POINT
  5
1FBC
330
18
100
AcDbEntity
  8
DEFPOINTS
  6
ByBlock
 62
     0
100
AcDbPoint
 10
308.5736145639469
 20
292.8512555456247
 30
0.0
  0
POINT
  5
1FBD
330
18
100
AcDbEntity
  8
DEFPOINTS
  6
ByBlock
 62
     0
100
AcDbPoint
 10
308.5736145639469
 20
292.8512555456247
 30
0.0
  0
POINT
  5
1FBE
330
18
100
AcDbEntity
  8
DEFPOINTS
  6
ByBlock
 62
     0
100
AcDbPoint
 10
308.5736145639469
 20
292.8512555456247
 30
0.0
  0
POINT
  5
1FBF
330
18
100
AcDbEntity
  8
DEFPOINTS
  6
ByBlock
 62
     0
100
AcDbPoint
 10
308.5736145639469
 20
292.8512555456247
 30
0.0
  0
HATCH
  5
1FC0
330
18
100
AcDbEntity
  8
針
100
AcDbHatch
 10
0.0
 20
0.0
 30
0.0
210
0.0
220
0.0
230
1.0
  2
SOLID
 70
     1
 71
     0
 91
        1
 92
        7
 72
     1
 73
     1
 93
        6
 10
307.1699329674165
 20
294.3331047908584
 42
-0.1640812035095831
 10
307.3508975930836
 20
293.7201417344682
 42
-0.1637712156695709
 10
308.1250950154359
 20
294.2826290868792
 42
-0.1640812035096
 10
307.5980536511195
 20
294.6441526746875
 42
0.0
 10
300.283695171
 20
304.3804418334095
 42
0.0
 10
300.1704327917876
 20
304.2981518980885
 42
0.0
 97
        0
 75
     0
 76
     1
 47
0.025221982651283
 98
        1
 10
305.8372532993037
 20
296.5588812225297
450
        0
451
        0
460
0.0
461
0.0
452
        1
462
1.0
453
        2
463
0.0
 63
     5
421
      255
463
1.0
 63
    51
421
 16777113
470
LINEAR
  0
LINE
  5
1FC1
330
18
100
AcDbEntity
  8
針
100
AcDbLine
 10
300.2836951710001
 20
304.3804418334095
 30
0.0
 11
300.1704327917876
 21
304.2981518980885
 31
0.0
  0
HATCH
  5
1FC2
330
18
100
AcDbEntity
  8
針
100
AcDbHatch
 10
0.0
 20
0.0
 30
0.0
210
0.0
220
0.0
230
1.0
  2
SOLID
 70
     1
 71
     0
 91
        1
 92
        7
 72
     1
 73
     1
 93
        8
 10
312.2795294275949
 20
287.3146751578864
 42
-0.2863987309425337
 10
312.3040372766863
 20
287.1043478744645
 42
3.911320250911082
 10
312.8864845387118
 20
287.5275205806461
 42
-0.2863987309426852
 10
312.6940247471234
 20
287.6158236351829
 42
0.0
 10
309.9085206358515
 20
291.8417970573015
 42
-0.1053331282509125
 10
309.8326171257452
 20
292.0358338452847
 42
-0.1859706772386703
 10
308.9600734980265
 20
291.401893792207
 42
-0.10533312825095
 10
309.1211579750833
 20
291.26974459929
 42
0.0
 97
        0
 75
     0
 76
     1
 47
0.0292545011116796
 98
        1
 10
309.9829729068209
 20
290.4532171328453
450
        0
451
        0
460
0.0
461
0.0
452
        1
462
1.0
453
        2
463
0.0
 63
     5
421
      255
463
1.0
 63
    51
421
 16777113
470
LINEAR
  0
ARC
  5
1FC3
330
18
100
AcDbEntity
  8
針
100
AcDbCircle
 10
308.7304498115091
 20
290.9577395818362
 30
0.0
 40
0.5
100
AcDbArc
 50
38.60956348104544
 51
62.66144748262514
  0
ARC
  5
1FC4
330
18
100
AcDbEntity
  8
針
100
AcDbCircle
 10
310.3259905032032
 20
292.1169677495151
 30
0.0
 40
0.5
100
AcDbArc
 50
189.3385525173757
 51
213.3904365189465
  0
ARC
  5
1FC5
330
18
100
AcDbEntity
  8
針
100
AcDbCircle
 10
308.397574817171
 20
295.2447905897707
 30
0.0
 40
1.0
100
AcDbArc
 50
216.9155986228603
 51
254.1881170613591
  0
ARC
  5
1FC6
330
18
100
AcDbEntity
  8
針
100
AcDbCircle
 10
306.3516267366702
 20
293.758322299196
 30
0.0
 40
1.0
100
AcDbArc
 50
357.8118829386389
 51
35.08440137713942
  0
LINE
  5
1FC7
330
18
100
AcDbEntity
  8
針
100
AcDbLine
 10
300.2836951710001
 20
304.3804418334095
 30
0.0
 11
307.5980536511195
 21
294.6441526746875
 31
0.0
  0
LINE
  5
1FC8
330
18
100
AcDbEntity
  8
針
100
AcDbLine
 10
307.1699329674165
 20
294.3331047908584
 30
0.0
 11
300.1704327917876
 21
304.2981518980885
 31
0.0
  0
LINE
  5
1FC9
330
18
100
AcDbEntity
  8
針
100
AcDbLine
 10
309.9085206358515
 20
291.8417970573015
 30
0.0
 11
312.6940247471234
 21
287.6158236351829
 31
0.0
  0
LINE
  5
1FCA
330
18
100
AcDbEntity
  8
針
100
AcDbLine
 10
309.1211579750833
 20
291.26974459929
 30
0.0
 11
312.2795294275949
 21
287.3146751578864
 31
0.0
  0
ARC
  5
1FCB
330
18
100
AcDbEntity
  8
針
100
AcDbCircle
 10
312.9820039561404
 20
286.7836280878126
 30
0.0
 40
0.75
100
AcDbArc
 50
154.6829815593749
 51
97.31701844062348
  0
ARC
  5
1FCC
330
18
100
AcDbEntity
  8
針
100
AcDbCircle
 10
312.1232461621652
 20
287.1898731509049
 30
0.0
 40
0.2
100
AcDbArc
 50
334.6829815593749
 51
38.60956348105459
  0
HATCH
  5
1FCD
330
18
100
AcDbEntity
  8
針
100
AcDbHatch
 10
0.0
 20
0.0
 30
0.0
210
0.0
220
0.0
230
1.0
  2
SOLID
 70
     1
 71
     0
 91
        1
 92
        7
 72
     1
 73
     1
 93
        6
 10
307.1699329674165
 20
294.3331047908584
 42
-0.1640812035095831
 10
307.3508975930836
 20
293.7201417344682
 42
-0.1637712156695709
 10
308.1250950154359
 20
294.2826290868792
 42
-0.1640812035096
 10
307.5980536511195
 20
294.6441526746875
 42
0.0
 10
300.283695171
 20
304.3804418334095
 42
0.0
 10
300.1704327917876
 20
304.2981518980885
 42
0.0
 97
        0
 75
     0
 76
     1
 47
0.025221982651283
 98
        1
 10
305.8372532993037
 20
296.5588812225297
450
        0
451
        0
460
0.0
461
0.0
452
        1
462
1.0
453
        2
463
0.0
 63
     5
421
      255
463
1.0
 63
    51
421
 16777113
470
LINEAR
  0
LINE
  5
1FCE
330
18
100
AcDbEntity
  8
針
100
AcDbLine
 10
300.2836951710001
 20
304.3804418334095
 30
0.0
 11
300.1704327917876
 21
304.2981518980885
 31
0.0
  0
HATCH
  5
1FCF
330
18
100
AcDbEntity
  8
針
100
AcDbHatch
 10
0.0
 20
0.0
 30
0.0
210
0.0
220
0.0
230
1.0
  2
SOLID
 70
     1
 71
     0
 91
        1
 92
        7
 72
     1
 73
     1
 93
        8
 10
312.2795294275949
 20
287.3146751578864
 42
-0.2863987309425337
 10
312.3040372766863
 20
287.1043478744645
 42
3.911320250911082
 10
312.8864845387118
 20
287.5275205806461
 42
-0.2863987309426852
 10
312.6940247471234
 20
287.6158236351829
 42
0.0
 10
309.9085206358515
 20
291.8417970573015
 42
-0.1053331282509125
 10
309.8326171257452
 20
292.0358338452847
 42
-0.1859706772386703
 10
308.9600734980265
 20
291.401893792207
 42
-0.10533312825095
 10
309.1211579750833
 20
291.26974459929
 42
0.0
 97
        0
 75
     0
 76
     1
 47
0.0292545011116796
 98
        1
 10
309.9829729068209
 20
290.4532171328453
450
        0
451
        0
460
0.0
461
0.0
452
        1
462
1.0
453
        2
463
0.0
 63
     5
421
      255
463
1.0
 63
    51
421
 16777113
470
LINEAR
  0
ARC
  5
1FD0
330
18
100
AcDbEntity
  8
針
100
AcDbCircle
 10
308.7304498115091
 20
290.9577395818362
 30
0.0
 40
0.5
100
AcDbArc
 50
38.60956348104544
 51
62.66144748262514
  0
ARC
  5
1FD1
330
18
100
AcDbEntity
  8
針
100
AcDbCircle
 10
310.3259905032032
 20
292.1169677495151
 30
0.0
 40
0.5
100
AcDbArc
 50
189.3385525173757
 51
213.3904365189465
  0
ARC
  5
1FD2
330
18
100
AcDbEntity
  8
針
100
AcDbCircle
 10
308.397574817171
 20
295.2447905897707
 30
0.0
 40
1.0
100
AcDbArc
 50
216.9155986228603
 51
254.1881170613591
  0
ARC
  5
1FD3
330
18
100
AcDbEntity
  8
針
100
AcDbCircle
 10
306.3516267366702
 20
293.758322299196
 30
0.0
 40
1.0
100
AcDbArc
 50
357.8118829386389
 51
35.08440137713942
  0
LINE
  5
1FD4
330
18
100
AcDbEntity
  8
針
100
AcDbLine
 10
300.2836951710001
 20
304.3804418334095
 30
0.0
 11
307.5980536511195
 21
294.6441526746875
 31
0.0
  0
LINE
  5
1FD5
330
18
100
AcDbEntity
  8
針
100
AcDbLine
 10
307.1699329674165
 20
294.3331047908584
 30
0.0
 11
300.1704327917876
 21
304.2981518980885
 31
0.0
  0
LINE
  5
1FD6
330
18
100
AcDbEntity
  8
針
100
AcDbLine
 10
309.9085206358515
 20
291.8417970573015
 30
0.0
 11
312.6940247471234
 21
287.6158236351829
 31
0.0
  0
LINE
  5
1FD7
330
18
100
AcDbEntity
  8
針
100
AcDbLine
 10
309.1211579750833
 20
291.26974459929
 30
0.0
 11
312.2795294275949
 21
287.3146751578864
 31
0.0
  0
ARC
  5
1FD8
330
18
100
AcDbEntity
  8
針
100
AcDbCircle
 10
312.9820039561404
 20
286.7836280878126
 30
0.0
 40
0.75
100
AcDbArc
 50
154.6829815593749
 51
97.31701844062348
  0
ARC
  5
1FD9
330
18
100
AcDbEntity
  8
針
100
AcDbCircle
 10
312.1232461621652
 20
287.1898731509049
 30
0.0
 40
0.2
100
AcDbArc
 50
334.6829815593749
 51
38.60956348105459
  0
HATCH
  5
1FDA
330
18
100
AcDbEntity
  8
針
100
AcDbHatch
 10
0.0
 20
0.0
 30
0.0
210
0.0
220
0.0
230
1.0
  2
SOLID
 70
     1
 71
     0
 91
        1
 92
        7
 72
     1
 73
     1
 93
        6
 10
307.1699329674165
 20
294.3331047908584
 42
-0.1640812035095831
 10
307.3508975930836
 20
293.7201417344682
 42
-0.1637712156695709
 10
308.1250950154359
 20
294.2826290868792
 42
-0.1640812035096
 10
307.5980536511195
 20
294.6441526746875
 42
0.0
 10
300.283695171
 20
304.3804418334095
 42
0.0
 10
300.1704327917876
 20
304.2981518980885
 42
0.0
 97
        0
 75
     0
 76
     1
 47
0.025221982651283
 98
        1
 10
305.8372532993037
 20
296.5588812225297
450
        0
451
        0
460
0.0
461
0.0
452
        1
462
1.0
453
        2
463
0.0
 63
     5
421
      255
463
1.0
 63
    51
421
 16777113
470
LINEAR
  0
LINE
  5
1FDB
330
18
100
AcDbEntity
  8
針
100
AcDbLine
 10
300.2836951710001
 20
304.3804418334095
 30
0.0
 11
300.1704327917876
 21
304.2981518980885
 31
0.0
  0
HATCH
  5
1FDC
330
18
100
AcDbEntity
  8
針
100
AcDbHatch
 10
0.0
 20
0.0
 30
0.0
210
0.0
220
0.0
230
1.0
  2
SOLID
 70
     1
 71
     0
 91
        1
 92
        7
 72
     1
 73
     1
 93
        8
 10
312.2795294275949
 20
287.3146751578864
 42
-0.2863987309425337
 10
312.3040372766863
 20
287.1043478744645
 42
3.911320250911082
 10
312.8864845387118
 20
287.5275205806461
 42
-0.2863987309426852
 10
312.6940247471234
 20
287.6158236351829
 42
0.0
 10
309.9085206358515
 20
291.8417970573015
 42
-0.1053331282509125
 10
309.8326171257452
 20
292.0358338452847
 42
-0.1859706772386703
 10
308.9600734980265
 20
291.401893792207
 42
-0.10533312825095
 10
309.1211579750833
 20
291.26974459929
 42
0.0
 97
        0
 75
     0
 76
     1
 47
0.0292545011116796
 98
        1
 10
309.9829729068209
 20
290.4532171328453
450
        0
451
        0
460
0.0
461
0.0
452
        1
462
1.0
453
        2
463
0.0
 63
     5
421
      255
463
1.0
 63
    51
421
 16777113
470
LINEAR
  0
ARC
  5
1FDD
330
18
100
AcDbEntity
  8
針
100
AcDbCircle
 10
308.7304498115091
 20
290.9577395818362
 30
0.0
 40
0.5
100
AcDbArc
 50
38.60956348104544
 51
62.66144748262514
  0
ARC
  5
1FDE
330
18
100
AcDbEntity
  8
針
100
AcDbCircle
 10
310.3259905032032
 20
292.1169677495151
 30
0.0
 40
0.5
100
AcDbArc
 50
189.3385525173757
 51
213.3904365189465
  0
ARC
  5
1FDF
330
18
100
AcDbEntity
  8
針
100
AcDbCircle
 10
308.397574817171
 20
295.2447905897707
 30
0.0
 40
1.0
100
AcDbArc
 50
216.9155986228603
 51
254.1881170613591
  0
ARC
  5
1FE0
330
18
100
AcDbEntity
  8
針
100
AcDbCircle
 10
306.3516267366702
 20
293.758322299196
 30
0.0
 40
1.0
100
AcDbArc
 50
357.8118829386389
 51
35.08440137713942
  0
LINE
  5
1FE1
330
18
100
AcDbEntity
  8
針
100
AcDbLine
 10
300.2836951710001
 20
304.3804418334095
 30
0.0
 11
307.5980536511195
 21
294.6441526746875
 31
0.0
  0
LINE
  5
1FE2
330
18
100
AcDbEntity
  8
針
100
AcDbLine
 10
307.1699329674165
 20
294.3331047908584
 30
0.0
 11
300.1704327917876
 21
304.2981518980885
 31
0.0
  0
LINE
  5
1FE3
330
18
100
AcDbEntity
  8
針
100
AcDbLine
 10
309.9085206358515
 20
291.8417970573015
 30
0.0
 11
312.6940247471234
 21
287.6158236351829
 31
0.0
  0
LINE
  5
1FE4
330
18
100
AcDbEntity
  8
針
100
AcDbLine
 10
309.1211579750833
 20
291.26974459929
 30
0.0
 11
312.2795294275949
 21
287.3146751578864
 31
0.0
  0
ARC
  5
1FE5
330
18
100
AcDbEntity
  8
針
100
AcDbCircle
 10
312.9820039561404
 20
286.7836280878126
 30
0.0
 40
0.75
100
AcDbArc
 50
154.6829815593749
 51
97.31701844062348
  0
ARC
  5
1FE6
330
18
100
AcDbEntity
  8
針
100
AcDbCircle
 10
312.1232461621652
 20
287.1898731509049
 30
0.0
 40
0.2
100
AcDbArc
 50
334.6829815593749
 51
38.60956348105459
  0
HATCH
  5
1FE7
330
18
100
AcDbEntity
  8
針
100
AcDbHatch
 10
0.0
 20
0.0
 30
0.0
210
0.0
220
0.0
230
1.0
  2
SOLID
 70
     1
 71
     0
 91
        1
 92
        7
 72
     1
 73
     1
 93
        6
 10
307.1699329674165
 20
294.3331047908584
 42
-0.1640812035095831
 10
307.3508975930836
 20
293.7201417344682
 42
-0.1637712156695709
 10
308.1250950154359
 20
294.2826290868792
 42
-0.1640812035096
 10
307.5980536511195
 20
294.6441526746875
 42
0.0
 10
300.283695171
 20
304.3804418334095
 42
0.0
 10
300.1704327917876
 20
304.2981518980885
 42
0.0
 97
        0
 75
     0
 76
     1
 47
0.025221982651283
 98
        1
 10
305.8372532993037
 20
296.5588812225297
450
        0
451
        0
460
0.0
461
0.0
452
        1
462
1.0
453
        2
463
0.0
 63
     5
421
      255
463
1.0
 63
    51
421
 16777113
470
LINEAR
  0
LINE
  5
1FE8
330
18
100
AcDbEntity
  8
針
100
AcDbLine
 10
300.2836951710001
 20
304.3804418334095
 30
0.0
 11
300.1704327917876
 21
304.2981518980885
 31
0.0
  0
HATCH
  5
1FE9
330
18
100
AcDbEntity
  8
針
100
AcDbHatch
 10
0.0
 20
0.0
 30
0.0
210
0.0
220
0.0
230
1.0
  2
SOLID
 70
     1
 71
     0
 91
        1
 92
        7
 72
     1
 73
     1
 93
        8
 10
312.2795294275949
 20
287.3146751578864
 42
-0.2863987309425337
 10
312.3040372766863
 20
287.1043478744645
 42
3.911320250911082
 10
312.8864845387118
 20
287.5275205806461
 42
-0.2863987309426852
 10
312.6940247471234
 20
287.6158236351829
 42
0.0
 10
309.9085206358515
 20
291.8417970573015
 42
-0.1053331282509125
 10
309.8326171257452
 20
292.0358338452847
 42
-0.1859706772386703
 10
308.9600734980265
 20
291.401893792207
 42
-0.10533312825095
 10
309.1211579750833
 20
291.26974459929
 42
0.0
 97
        0
 75
     0
 76
     1
 47
0.0292545011116796
 98
        1
 10
309.9829729068209
 20
290.4532171328453
450
        0
451
        0
460
0.0
461
0.0
452
        1
462
1.0
453
        2
463
0.0
 63
     5
421
      255
463
1.0
 63
    51
421
 16777113
470
LINEAR
  0
ARC
  5
1FEA
330
18
100
AcDbEntity
  8
針
100
AcDbCircle
 10
308.7304498115091
 20
290.9577395818362
 30
0.0
 40
0.5
100
AcDbArc
 50
38.60956348104544
 51
62.66144748262514
  0
ARC
  5
1FEB
330
18
100
AcDbEntity
  8
針
100
AcDbCircle
 10
310.3259905032032
 20
292.1169677495151
 30
0.0
 40
0.5
100
AcDbArc
 50
189.3385525173757
 51
213.3904365189465
  0
ARC
  5
1FEC
330
18
100
AcDbEntity
  8
針
100
AcDbCircle
 10
308.397574817171
 20
295.2447905897707
 30
0.0
 40
1.0
100
AcDbArc
 50
216.9155986228603
 51
254.1881170613591
  0
ARC
  5
1FED
330
18
100
AcDbEntity
  8
針
100
AcDbCircle
 10
306.3516267366702
 20
293.758322299196
 30
0.0
 40
1.0
100
AcDbArc
 50
357.8118829386389
 51
35.08440137713942
  0
LINE
  5
1FEE
330
18
100
AcDbEntity
  8
針
100
AcDbLine
 10
300.2836951710001
 20
304.3804418334095
 30
0.0
 11
307.5980536511195
 21
294.6441526746875
 31
0.0
  0
LINE
  5
1FEF
330
18
100
AcDbEntity
  8
針
100
AcDbLine
 10
307.1699329674165
 20
294.3331047908584
 30
0.0
 11
300.1704327917876
 21
304.2981518980885
 31
0.0
  0
LINE
  5
1FF0
330
18
100
AcDbEntity
  8
針
100
AcDbLine
 10
309.9085206358515
 20
291.8417970573015
 30
0.0
 11
312.6940247471234
 21
287.6158236351829
 31
0.0
  0
LINE
  5
1FF1
330
18
100
AcDbEntity
  8
針
100
AcDbLine
 10
309.1211579750833
 20
291.26974459929
 30
0.0
 11
312.2795294275949
 21
287.3146751578864
 31
0.0
  0
ARC
  5
1FF2
330
18
100
AcDbEntity
  8
針
100
AcDbCircle
 10
312.9820039561404
 20
286.7836280878126
 30
0.0
 40
0.75
100
AcDbArc
 50
154.6829815593749
 51
97.31701844062348
  0
ARC
  5
1FF3
330
18
100
AcDbEntity
  8
針
100
AcDbCircle
 10
312.1232461621652
 20
287.1898731509049
 30
0.0
 40
0.2
100
AcDbArc
 50
334.6829815593749
 51
38.60956348105459
  0
HATCH
  5
1FF4
330
18
100
AcDbEntity
  8
針
100
AcDbHatch
 10
0.0
 20
0.0
 30
0.0
210
0.0
220
0.0
230
1.0
  2
SOLID
 70
     1
 71
     0
 91
        1
 92
        7
 72
     1
 73
     1
 93
        6
 10
307.1699329674165
 20
294.3331047908584
 42
-0.1640812035095831
 10
307.3508975930836
 20
293.7201417344682
 42
-0.1637712156695709
 10
308.1250950154359
 20
294.2826290868792
 42
-0.1640812035096
 10
307.5980536511195
 20
294.6441526746875
 42
0.0
 10
300.283695171
 20
304.3804418334095
 42
0.0
 10
300.1704327917876
 20
304.2981518980885
 42
0.0
 97
        0
 75
     0
 76
     1
 47
0.025221982651283
 98
        1
 10
305.8372532993037
 20
296.5588812225297
450
        0
451
        0
460
0.0
461
0.0
452
        1
462
1.0
453
        2
463
0.0
 63
     5
421
      255
463
1.0
 63
    51
421
 16777113
470
LINEAR
  0
LINE
  5
1FF5
330
18
100
AcDbEntity
  8
針
100
AcDbLine
 10
300.2836951710001
 20
304.3804418334095
 30
0.0
 11
300.1704327917876
 21
304.2981518980885
 31
0.0
  0
HATCH
  5
1FF6
330
18
100
AcDbEntity
  8
針
100
AcDbHatch
 10
0.0
 20
0.0
 30
0.0
210
0.0
220
0.0
230
1.0
  2
SOLID
 70
     1
 71
     0
 91
        1
 92
        7
 72
     1
 73
     1
 93
        8
 10
312.2795294275949
 20
287.3146751578864
 42
-0.2863987309425337
 10
312.3040372766863
 20
287.1043478744645
 42
3.911320250911082
 10
312.8864845387118
 20
287.5275205806461
 42
-0.2863987309426852
 10
312.6940247471234
 20
287.6158236351829
 42
0.0
 10
309.9085206358515
 20
291.8417970573015
 42
-0.1053331282509125
 10
309.8326171257452
 20
292.0358338452847
 42
-0.1859706772386703
 10
308.9600734980265
 20
291.401893792207
 42
-0.10533312825095
 10
309.1211579750833
 20
291.26974459929
 42
0.0
 97
        0
 75
     0
 76
     1
 47
0.0292545011116796
 98
        1
 10
309.9829729068209
 20
290.4532171328453
450
        0
451
        0
460
0.0
461
0.0
452
        1
462
1.0
453
        2
463
0.0
 63
     5
421
      255
463
1.0
 63
    51
421
 16777113
470
LINEAR
  0
ARC
  5
1FF7
330
18
100
AcDbEntity
  8
針
100
AcDbCircle
 10
308.7304498115091
 20
290.9577395818362
 30
0.0
 40
0.5
100
AcDbArc
 50
38.60956348104544
 51
62.66144748262514
  0
ARC
  5
1FF8
330
18
100
AcDbEntity
  8
針
100
AcDbCircle
 10
310.3259905032032
 20
292.1169677495151
 30
0.0
 40
0.5
100
AcDbArc
 50
189.3385525173757
 51
213.3904365189465
  0
ARC
  5
1FF9
330
18
100
AcDbEntity
  8
針
100
AcDbCircle
 10
308.397574817171
 20
295.2447905897707
 30
0.0
 40
1.0
100
AcDbArc
 50
216.9155986228603
 51
254.1881170613591
  0
ARC
  5
1FFA
330
18
100
AcDbEntity
  8
針
100
AcDbCircle
 10
306.3516267366702
 20
293.758322299196
 30
0.0
 40
1.0
100
AcDbArc
 50
357.8118829386389
 51
35.08440137713942
  0
LINE
  5
1FFB
330
18
100
AcDbEntity
  8
針
100
AcDbLine
 10
300.2836951710001
 20
304.3804418334095
 30
0.0
 11
307.5980536511195
 21
294.6441526746875
 31
0.0
  0
LINE
  5
1FFC
330
18
100
AcDbEntity
  8
針
100
AcDbLine
 10
307.1699329674165
 20
294.3331047908584
 30
0.0
 11
300.1704327917876
 21
304.2981518980885
 31
0.0
  0
LINE
  5
1FFD
330
18
100
AcDbEntity
  8
針
100
AcDbLine
 10
309.9085206358515
 20
291.8417970573015
 30
0.0
 11
312.6940247471234
 21
287.6158236351829
 31
0.0
  0
LINE
  5
1FFE
330
18
100
AcDbEntity
  8
針
100
AcDbLine
 10
309.1211579750833
 20
291.26974459929
 30
0.0
 11
312.2795294275949
 21
287.3146751578864
 31
0.0
  0
ARC
  5
1FFF
330
18
100
AcDbEntity
  8
針
100
AcDbCircle
 10
312.9820039561404
 20
286.7836280878126
 30
0.0
 40
0.75
100
AcDbArc
 50
154.6829815593749
 51
97.31701844062348
  0
ARC
  5
2000
330
18
100
AcDbEntity
  8
針
100
AcDbCircle
 10
312.1232461621652
 20
287.1898731509049
 30
0.0
 40
0.2
100
AcDbArc
 50
334.6829815593749
 51
38.60956348105459
  0
HATCH
  5
2001
330
18
100
AcDbEntity
  8
針
100
AcDbHatch
 10
0.0
 20
0.0
 30
0.0
210
0.0
220
0.0
230
1.0
  2
SOLID
 70
     1
 71
     0
 91
        1
 92
        7
 72
     1
 73
     1
 93
        6
 10
307.1699329674165
 20
294.3331047908584
 42
-0.1640812035095831
 10
307.3508975930836
 20
293.7201417344682
 42
-0.1637712156695709
 10
308.1250950154359
 20
294.2826290868792
 42
-0.1640812035096
 10
307.5980536511195
 20
294.6441526746875
 42
0.0
 10
300.283695171
 20
304.3804418334095
 42
0.0
 10
300.1704327917876
 20
304.2981518980885
 42
0.0
 97
        0
 75
     0
 76
     1
 47
0.025221982651283
 98
        1
 10
305.8372532993037
 20
296.5588812225297
450
        0
451
        0
460
0.0
461
0.0
452
        1
462
1.0
453
        2
463
0.0
 63
     5
421
      255
463
1.0
 63
    51
421
 16777113
470
LINEAR
  0
LINE
  5
2002
330
18
100
AcDbEntity
  8
針
100
AcDbLine
 10
300.2836951710001
 20
304.3804418334095
 30
0.0
 11
300.1704327917876
 21
304.2981518980885
 31
0.0
  0
HATCH
  5
2003
330
18
100
AcDbEntity
  8
針
100
AcDbHatch
 10
0.0
 20
0.0
 30
0.0
210
0.0
220
0.0
230
1.0
  2
SOLID
 70
     1
 71
     0
 91
        1
 92
        7
 72
     1
 73
     1
 93
        8
 10
312.2795294275949
 20
287.3146751578864
 42
-0.2863987309425337
 10
312.3040372766863
 20
287.1043478744645
 42
3.911320250911082
 10
312.8864845387118
 20
287.5275205806461
 42
-0.2863987309426852
 10
312.6940247471234
 20
287.6158236351829
 42
0.0
 10
309.9085206358515
 20
291.8417970573015
 42
-0.1053331282509125
 10
309.8326171257452
 20
292.0358338452847
 42
-0.1859706772386703
 10
308.9600734980265
 20
291.401893792207
 42
-0.10533312825095
 10
309.1211579750833
 20
291.26974459929
 42
0.0
 97
        0
 75
     0
 76
     1
 47
0.0292545011116796
 98
        1
 10
309.9829729068209
 20
290.4532171328453
450
        0
451
        0
460
0.0
461
0.0
452
        1
462
1.0
453
        2
463
0.0
 63
     5
421
      255
463
1.0
 63
    51
421
 16777113
470
LINEAR
  0
ARC
  5
2004
330
18
100
AcDbEntity
  8
針
100
AcDbCircle
 10
308.7304498115091
 20
290.9577395818362
 30
0.0
 40
0.5
100
AcDbArc
 50
38.60956348104544
 51
62.66144748262514
  0
ARC
  5
2005
330
18
100
AcDbEntity
  8
針
100
AcDbCircle
 10
310.3259905032032
 20
292.1169677495151
 30
0.0
 40
0.5
100
AcDbArc
 50
189.3385525173757
 51
213.3904365189465
  0
ARC
  5
2006
330
18
100
AcDbEntity
  8
針
100
AcDbCircle
 10
308.397574817171
 20
295.2447905897707
 30
0.0
 40
1.0
100
AcDbArc
 50
216.9155986228603
 51
254.1881170613591
  0
ARC
  5
2007
330
18
100
AcDbEntity
  8
針
100
AcDbCircle
 10
306.3516267366702
 20
293.758322299196
 30
0.0
 40
1.0
100
AcDbArc
 50
357.8118829386389
 51
35.08440137713942
  0
LINE
  5
2008
330
18
100
AcDbEntity
  8
針
100
AcDbLine
 10
300.2836951710001
 20
304.3804418334095
 30
0.0
 11
307.5980536511195
 21
294.6441526746875
 31
0.0
  0
LINE
  5
2009
330
18
100
AcDbEntity
  8
針
100
AcDbLine
 10
307.1699329674165
 20
294.3331047908584
 30
0.0
 11
300.1704327917876
 21
304.2981518980885
 31
0.0
  0
LINE
  5
200A
330
18
100
AcDbEntity
  8
針
100
AcDbLine
 10
309.9085206358515
 20
291.8417970573015
 30
0.0
 11
312.6940247471234
 21
287.6158236351829
 31
0.0
  0
LINE
  5
200B
330
18
100
AcDbEntity
  8
針
100
AcDbLine
 10
309.1211579750833
 20
291.26974459929
 30
0.0
 11
312.2795294275949
 21
287.3146751578864
 31
0.0
  0
ARC
  5
200C
330
18
100
AcDbEntity
  8
針
100
AcDbCircle
 10
312.9820039561404
 20
286.7836280878126
 30
0.0
 40
0.75
100
AcDbArc
 50
154.6829815593749
 51
97.31701844062348
  0
ARC
  5
200D
330
18
100
AcDbEntity
  8
針
100
AcDbCircle
 10
312.1232461621652
 20
287.1898731509049
 30
0.0
 40
0.2
100
AcDbArc
 50
334.6829815593749
 51
38.60956348105459
  0
DIMENSION
  5
2029
330
18
100
AcDbEntity
  8
寸法線
100
AcDbDimension
  2
*D4
 10
296.9157279617689
 20
212.0512555456247
 30
0.0
 11
295.0407279617688
 21
231.3512555456247
 31
0.0
 70
    32
 71
     5
 42
38.59999999999994
  3
STYLE3
100
AcDbAlignedDimension
 13
304.7710388666566
 23
250.6512555456247
 33
0.0
 14
306.1902123189622
 24
212.0512555456247
 34
0.0
 50
90.0
100
AcDbRotatedDimension
1001
ACAD
1000
DSTYLE
1002
{
1070
   271
1070
     2
1070
   341
1005
0
1002
}
  0
DIMENSION
  5
2036
330
18
100
AcDbEntity
  8
寸法線
100
AcDbDimension
  2
*D5
 10
332.8750810858642
 20
212.0512555456247
 30
0.0
 11
331.0000810858641
 21
233.3512555456247
 31
0.0
 70
    32
 71
     5
 42
42.59999999999999
  3
STYLE3
100
AcDbAlignedDimension
 13
316.662090675737
 23
254.6512555456247
 33
0.0
 14
311.5343625291942
 24
212.0512555456247
 34
0.0
 50
90.0
100
AcDbRotatedDimension
1001
ACAD
1000
DSTYLE
1002
{
1070
   271
1070
     2
1070
   341
1005
0
1002
}
  0
DIMENSION
  5
2043
330
18
100
AcDbEntity
  8
寸法線
100
AcDbDimension
  2
*D6
 10
341.0595724191422
 20
212.0512555456247
 30
0.0
 11
339.1845724191422
 21
252.4512555456248
 31
0.0
 70
    32
 71
     5
 42
80.79999999999998
  3
STYLE3
100
AcDbAlignedDimension
 13
329.5260694536606
 23
292.8512555456247
 33
0.0
 14
334.1250810858642
 24
212.0512555456247
 34
0.0
 50
90.0
100
AcDbRotatedDimension
1001
ACAD
1000
DSTYLE
1002
{
1070
   271
1070
     2
1070
   341
1005
0
1002
}
  0
DIMENSION
  5
2050
330
18
100
AcDbEntity
  8
寸法線
100
AcDbDimension
  2
*D7
 10
351.5050683217974
 20
211.0512555456247
 30
0.0
 11
349.6300683217973
 21
268.4512555456248
 31
0.0
 70
    32
 71
     5
 42
114.8
  3
STYLE3
100
AcDbAlignedDimension
 13
333.2940970699295
 23
325.8512555456247
 33
0.0
 14
308.5736145639469
 24
211.0512555456248
 34
0.0
 50
90.0
100
AcDbRotatedDimension
1001
ACAD
1000
DSTYLE
1002
{
1070
   271
1070
     2
1070
   341
1005
0
1002
}
  0
TEXT
  5
209F
330
18
100
AcDbEntity
  8
文字
100
AcDbText
 10
311.6460427526939
 20
359.0246269242487
 30
0.0
 40
4.0
  1
Model No.PCN-1L New Pic Test Indicator
  7
STYLE3
100
AcDbText
  0
LINE
  5
20A0
330
18
100
AcDbEntity
  8
外形線
100
AcDbLine
 10
311.0122267526939
 20
356.8950409242487
 30
0.0
 11
434.0122267526939
 21
356.8950409242487
 31
0.0
  0
LINE
  5
20A1
330
18
100
AcDbEntity
  8
外形線
100
AcDbLine
 10
311.0122267526939
 20
357.8950409242487
 30
0.0
 11
434.0122267526939
 21
357.8950409242487
 31
0.0
  0
LINE
  5
20A5
330
18
100
AcDbEntity
  8
外形線
100
AcDbLine
 10
350.5646697526939
 20
192.6481159242486
 30
0.0
 11
491.3560877526938
 21
192.6481159242486
 31
0.0
  0
LINE
  5
20A6
330
18
100
AcDbEntity
  8
外形線
100
AcDbLine
 10
350.5646697526939
 20
181.8679099242487
 30
0.0
 11
491.3560877526938
 21
181.8679099242487
 31
0.0
  0
TEXT
  5
20A7
330
18
100
AcDbEntity
  8
0
  6
Continuous
100
AcDbText
 10
352.0221367526939
 20
183.7658999242487
 30
0.0
 40
2.1
  1
Design and specifications are subject to change without notice for future improvement.
  7
STYLE3
100
AcDbText
  0
TEXT
  5
20A8
330
18
100
AcDbEntity
  8
0
  6
Continuous
100
AcDbText
 10
352.3136307526939
 20
187.6950479242487
 30
0.0
 40
3.5
  1
仕様及び外観は予告なく変更される場合がございますのでご了承下さい。
  7
STYLE3
100
AcDbText
  0
TEXT
  5
20A9
330
18
100
AcDbEntity
  8
0
  6
Continuous
100
AcDbText
 10
351.7306457526939
 20
174.0012719242487
 30
0.0
 40
2.1
  1
3RD Angle Projection
  7
STYLE3
100
AcDbText
  0
TEXT
  5
20AA
330
18
100
AcDbEntity
  8
0
  6
Continuous
100
AcDbText
 10
354.3540887526939
 20
177.4975549242487
 30
0.0
 40
3.0
  1
三　　角　　法
  7
STYLE3
100
AcDbText
  0
LINE
  5
20AB
330
18
100
AcDbEntity
  8
外形線
100
AcDbLine
 10
350.5646697526939
 20
172.2531319242487
 30
0.0
 11
350.5646697526939
 21
192.6481159242486
 31
0.0
  0
LINE
  5
20AC
330
18
100
AcDbEntity
  8
外形線
100
AcDbLine
 10
452.5874367526938
 20
181.8679099242487
 30
0.0
 11
452.5874367526938
 21
172.2531319242487
 31
0.0
  0
LINE
  5
20AD
330
18
100
AcDbEntity
  8
外形線
100
AcDbLine
 10
422.8550867526938
 20
181.8679099242487
 30
0.0
 11
422.8550867526938
 21
172.2531319242487
 31
0.0
  0
LINE
  5
20AE
330
18
100
AcDbEntity
  8
外形線
100
AcDbLine
 10
403.3250147526938
 20
181.8679099242487
 30
0.0
 11
403.3250147526938
 21
172.2531319242487
 31
0.0
  0
LINE
  5
20AF
330
18
100
AcDbEntity
  8
外形線
100
AcDbLine
 10
385.8353977526939
 20
181.8679099242487
 30
0.0
 11
385.8353977526939
 21
172.2531319242487
 31
0.0
  0
TEXT
  5
20B0
330
18
100
AcDbEntity
  8
0
  6
Continuous
100
AcDbText
 10
387.2928667526938
 20
177.5035099242487
 30
0.0
 40
3.0
  1
単位
  7
STYLE3
100
AcDbText
  0
TEXT
  5
20B1
330
18
100
AcDbEntity
  8
0
  6
Continuous
100
AcDbText
 10
387.4645877526939
 20
174.0012729242487
 30
0.0
 40
2.1
  1
Unit
  7
STYLE3
100
AcDbText
  0
TEXT
  5
20B2
330
18
100
AcDbEntity
  8
0
  6
Continuous
100
AcDbText
 10
404.6107627526938
 20
177.2121519242487
 30
0.0
 40
3.0
  1
尺 度
  7
STYLE3
100
AcDbText
  0
TEXT
  5
20B3
330
18
100
AcDbEntity
  8
0
  6
Continuous
100
AcDbText
 10
395.3349147526939
 20
175.7494159242487
 30
0.0
 40
2.399999999999999
  1
mm
  7
STYLE3
100
AcDbText
  0
TEXT
  5
20B4
330
18
100
AcDbEntity
  8
0
  6
Continuous
100
AcDbText
 10
405.0739777526938
 20
174.2926299242487
 30
0.0
 40
2.1
  1
Scale
  7
STYLE3
100
AcDbText
  0
TEXT
  5
20B5
330
18
100
AcDbEntity
  8
0
  6
Continuous
100
AcDbText
 10
414.6932667526939
 20
176.0407729242487
 30
0.0
 40
2.399999999999999
  1
1/1
  7
STYLE3
100
AcDbText
  0
TEXT
  5
20B6
330
18
100
AcDbEntity
  8
0
  6
Continuous
100
AcDbText
 10
424.7870377526939
 20
174.0012739242487
 30
0.0
 40
2.1
  1
Date
  7
STYLE3
100
AcDbText
  0
TEXT
  5
20B7
330
18
100
AcDbEntity
  8
0
  6
Continuous
100
AcDbText
 10
424.4036767526938
 20
177.3343569242487
 30
0.0
 40
3.0
  1
日 付
  7
STYLE3
100
AcDbText
  0
TEXT
  5
20B8
330
18
100
AcDbEntity
  8
0
  6
Continuous
100
AcDbText
 10
433.5318457526939
 20
175.7494149242487
 30
0.0
 40
2.1
  1
2010.06.14
  7
STYLE3
100
AcDbText
  0
TEXT
  5
20B9
330
18
100
AcDbEntity
  8
0
  6
Continuous
100
AcDbText
 10
453.9363997526939
 20
177.7889119242487
 30
0.0
 40
3.0
  1
株式会社　尾崎製作所
  7
STYLE3
100
AcDbText
  0
TEXT
  5
20BA
330
18
100
AcDbEntity
  8
0
  6
Continuous
100
AcDbText
 10
454.8108787526938
 20
174.0012729242487
 30
0.0
 40
2.1
  1
OZAKI MFG. CO., LTD.
  7
STYLE3
100
AcDbText
  0
ENDSEC
  0
SECTION
  2
OBJECTS
  0
DICTIONARY
  5
C
330
0
100
AcDbDictionary
281
     1
  3
ACAD_COLOR
350
1DAA
  3
ACAD_GROUP
350
D
  3
ACAD_IMAGE_DICT
350
B2C
  3
ACAD_LAYOUT
350
1DAD
  3
ACAD_MATERIAL
350
1DA9
  3
ACAD_MLINESTYLE
350
1B
  3
ACAD_PLOTSETTINGS
350
1DAE
  3
ACAD_PLOTSTYLENAME
350
1DA7
  3
ACAD_TABLESTYLE
350
1DAB
  3
ACDBVARIABLEDICTIONARY
350
1297
  3
AVE_ACITABLE
350
1835
  0
DICTIONARY
  5
1DAA
102
{ACAD_REACTORS
330
C
102
}
330
C
100
AcDbDictionary
281
     1
  0
DICTIONARY
  5
D
102
{ACAD_REACTORS
330
C
102
}
330
C
100
AcDbDictionary
281
     1
  0
DICTIONARY
  5
B2C
102
{ACAD_REACTORS
330
C
102
}
330
C
100
AcDbDictionary
281
     1
  3
ROGO01
350
B2D
  0
DICTIONARY
  5
1DAD
102
{ACAD_REACTORS
330
C
102
}
330
C
100
AcDbDictionary
281
     1
  3
Model
350
1DAF
  3
レイアウト1
350
1DB0
  0
DICTIONARY
  5
1DA9
102
{ACAD_REACTORS
330
C
102
}
330
C
100
AcDbDictionary
281
     1
  0
DICTIONARY
  5
1B
102
{ACAD_REACTORS
330
C
102
}
330
C
100
AcDbDictionary
281
     1
  3
STANDARD
350
1C
  0
DICTIONARY
  5
1DAE
102
{ACAD_REACTORS
330
C
102
}
330
C
100
AcDbDictionary
281
     1
  0
ACDBDICTIONARYWDFLT
  5
1DA7
102
{ACAD_REACTORS
330
C
102
}
330
C
100
AcDbDictionary
281
     1
  3
Normal
350
1DA8
100
AcDbDictionaryWithDefault
340
1DA8
  0
DICTIONARY
  5
1DAB
102
{ACAD_REACTORS
330
C
102
}
330
C
100
AcDbDictionary
281
     1
  3
Standard
350
1DAC
  0
DICTIONARY
  5
1297
102
{ACAD_REACTORS
330
C
102
}
330
C
100
AcDbDictionary
281
     1
  3
CTABLESTYLE
350
1DC0
  3
SORTENTS
350
1298
  0
DICTIONARY
  5
1835
102
{ACAD_REACTORS
330
C
102
}
330
C
100
AcDbDictionary
281
     1
  0
IMAGEDEF
  5
B2D
102
{ACAD_REACTORS
330
B2C
102
}
330
B2C
100
AcDbRasterImageDef
 90
        0
  1
D:\ﾃｽﾄ\rogo01.TIF
 10
3388.0
 20
4668.0
 11
0.0635
 21
0.0635
280
     1
281
     5
  0
LAYOUT
  5
1DAF
102
{ACAD_REACTORS
330
1DAD
102
}
330
1DAD
100
AcDbPlotSettings
  1

  2
A4 EPSON LP-6100.pc3
  4
A4
  6

 40
5.873749732971191
 41
5.873747825622558
 42
5.873748779296875
 43
5.873748779296875
 44
209.9733276367187
 45
297.0106506347656
 46
0.0
 47
25.0
 48
0.0
 49
0.0
140
0.0
141
0.0
142
1.0
143
1.0
 70
 28336
 72
     1
 73
     1
 74
     1
  7
AutoCAD LT 98.ctb
 75
    16
147
1.0
 76
     1
 77
     2
 78
   300
148
-236.4886379941706
149
-171.6235136330668
100
AcDbLayout
  1
Model
 70
     1
 71
     0
 10
0.0
 20
0.0
 11
12.0
 21
9.0
 12
0.0
 22
0.0
 32
0.0
 14
0.0
 24
0.0
 34
0.0
 15
0.0
 25
0.0
 35
0.0
146
0.0
 13
0.0
 23
0.0
 33
0.0
 16
1.0
 26
0.0
 36
0.0
 17
0.0
 27
1.0
 37
0.0
 76
     0
330
18
1001
ACAD_PSEXT
1000
A4 EPSON LP-6100.pc3
1000
EPSON LP-6100
1000
\\SATO-MATE2
1000

1070
     0
  0
LAYOUT
  5
1DB0
102
{ACAD_REACTORS
330
1DAD
102
}
330
1DAD
100
AcDbPlotSettings
  1

  2
WIDR Printer
  4

  6

 40
0.0
 41
0.0
 42
0.0
 43
0.0
 44
0.0
 45
0.0
 46
0.0
 47
0.0
 48
0.0
 49
0.0
140
0.0
141
0.0
142
1.0
143
1.0
 70
   688
 72
     0
 73
     0
 74
     5
  7
AutoCad LT 98.ctb
 75
    16
147
1.0
 76
     0
 77
     2
 78
   300
148
0.0
149
0.0
100
AcDbLayout
  1
レイアウト1
 70
     1
 71
     1
 10
0.0
 20
0.0
 11
420.0
 21
297.0
 12
0.0
 22
0.0
 32
0.0
 14
1.000000000000000E+20
 24
1.000000000000000E+20
 34
1.000000000000000E+20
 15
-1.000000000000000E+20
 25
-1.000000000000000E+20
 35
-1.000000000000000E+20
146
0.0
 13
0.0
 23
0.0
 33
0.0
 16
1.0
 26
0.0
 36
0.0
 17
0.0
 27
1.0
 37
0.0
 76
     0
330
15
  0
MLINESTYLE
  5
1C
102
{ACAD_REACTORS
330
1B
102
}
330
1B
100
AcDbMlineStyle
  2
STANDARD
 70
     0
  3

 62
   256
 51
90.0
 52
90.0
 71
     2
 49
0.5
 62
   256
  6
BYLAYER
 49
-0.5
 62
   256
  6
BYLAYER
  0
ACDBPLACEHOLDER
  5
1DA8
102
{ACAD_REACTORS
330
1DA7
102
}
330
1DA7
  0
ACAD_PROXY_OBJECT
  5
1DAC
102
{ACAD_REACTORS
330
1DAB
102
}
330
1DAB
100
AcDbProxyObject
 90
      499
 91
      505
 95
  2555929
 70
     0
 93
     1849
310
4214DD185B99185C992420000000000000F83F0000000000003E0FC00000000000004901028000000C1008070000C3001FDFF8000000C1003FBFF000000182007F7FE00000030400FEFFC00000060801FDFF8000000C1003FBFF000000182000000000000000C2020B0000001820100E000186003FBFF000000182007F7FE0
310
0000030400FEFFC00000060801FDFF8000000C1003FBFF000000182007F7FE0000003040000000000000012404160000003040201C00030C007F7FE00000030400FEFFC00000060801FDFF8000000C1003FBFF000000182007F7FE00000030400FEFFC000000608000
340
F
340
F
340
F
 94
        0
  0
DICTIONARYVAR
  5
1DC0
102
{ACAD_REACTORS
330
1297
102
}
330
1297
100
DictionaryVariables
280
     0
  1
STANDARD
  0
DICTIONARYVAR
  5
1298
102
{ACAD_REACTORS
330
1297
102
}
330
1297
100
DictionaryVariables
280
     0
  1
96
  0
ENDSEC
  0
EOF
