  0
SECTION
  2
HEADER
  9
$ACADVER
  1
AC1018
  9
$ACADMAINTVER
 70
     0
  9
$DWGCODEPAGE
  3
ANSI_932
  9
$INSBASE
 10
0.0
 20
0.0
 30
0.0
  9
$EXTMIN
 10
236.488639921325
 20
171.6235150316331
 30
-0.0000000000000007
  9
$EXTMAX
 10
491.9065769375225
 20
367.061380583751
 30
0.0000000000000145
  9
$LIMMIN
 10
0.0
 20
0.0
  9
$LIMMAX
 10
420.0
 20
297.0
  9
$ORTHOMODE
 70
     1
  9
$REGENMODE
 70
     1
  9
$FILLMODE
 70
     1
  9
$QTEXTMODE
 70
     0
  9
$MIRRTEXT
 70
     1
  9
$LTSCALE
 40
1.0
  9
$ATTMODE
 70
     1
  9
$TEXTSIZE
 40
1.5
  9
$TRACEWID
 40
1.0
  9
$TEXTSTYLE
  7
STYLE3
  9
$CLAYER
  8
外形線
  9
$CELTYPE
  6
BYLAYER
  9
$CECOLOR
 62
   256
  9
$CELTSCALE
 40
1.0
  9
$DISPSILH
 70
     0
  9
$DIMSCALE
 40
1.0
  9
$DIMASZ
 40
2.5
  9
$DIMEXO
 40
0.0
  9
$DIMDLI
 40
3.75
  9
$DIMRND
 40
0.0
  9
$DIMDLE
 40
0.0
  9
$DIMEXE
 40
1.25
  9
$DIMTP
 40
0.0
  9
$DIMTM
 40
0.0
  9
$DIMTXT
 40
2.5
  9
$DIMCEN
 40
2.5
  9
$DIMTSZ
 40
0.0
  9
$DIMTOL
 70
     0
  9
$DIMLIM
 70
     0
  9
$DIMTIH
 70
     0
  9
$DIMTOH
 70
     0
  9
$DIMSE1
 70
     0
  9
$DIMSE2
 70
     0
  9
$DIMTAD
 70
     1
  9
$DIMZIN
 70
     8
  9
$DIMBLK
  1

  9
$DIMASO
 70
     1
  9
$DIMSHO
 70
     1
  9
$DIMPOST
  1

  9
$DIMAPOST
  1

  9
$DIMALT
 70
     0
  9
$DIMALTD
 70
     4
  9
$DIMALTF
 40
0.0394
  9
$DIMLFAC
 40
1.0
  9
$DIMTOFL
 70
     1
  9
$DIMTVP
 40
0.0
  9
$DIMTIX
 70
     0
  9
$DIMSOXD
 70
     0
  9
$DIMSAH
 70
     1
  9
$DIMBLK1
  1
OPEN
  9
$DIMBLK2
  1
OPEN
  9
$DIMSTYLE
  2
STYLE3
  9
$DIMCLRD
 70
     2
  9
$DIMCLRE
 70
     2
  9
$DIMCLRT
 70
     6
  9
$DIMTFAC
 40
1.0
  9
$DIMGAP
 40
0.625
  9
$DIMJUST
 70
     0
  9
$DIMSD1
 70
     0
  9
$DIMSD2
 70
     0
  9
$DIMTOLJ
 70
     1
  9
$DIMTZIN
 70
     0
  9
$DIMALTZ
 70
     0
  9
$DIMALTTZ
 70
     0
  9
$DIMUPT
 70
     0
  9
$DIMDEC
 70
     2
  9
$DIMTDEC
 70
     4
  9
$DIMALTU
 70
     8
  9
$DIMALTTD
 70
     4
  9
$DIMTXSTY
  7
STYLE3
  9
$DIMAUNIT
 70
     0
  9
$DIMADEC
 70
     0
  9
$DIMALTRND
 40
0.0
  9
$DIMAZIN
 70
     0
  9
$DIMDSEP
 70
    46
  9
$DIMATFIT
 70
     3
  9
$DIMFRAC
 70
     0
  9
$DIMLDRBLK
  1

  9
$DIMLUNIT
 70
     2
  9
$DIMLWD
 70
    -2
  9
$DIMLWE
 70
    -2
  9
$DIMTMOVE
 70
     0
  9
$LUNITS
 70
     2
  9
$LUPREC
 70
     4
  9
$SKETCHINC
 40
1.0
  9
$FILLETRAD
 40
0.0
  9
$AUNITS
 70
     0
  9
$AUPREC
 70
     0
  9
$MENU
  1
.
  9
$ELEVATION
 40
0.0
  9
$PELEVATION
 40
0.0
  9
$THICKNESS
 40
0.0
  9
$LIMCHECK
 70
     0
  9
$CHAMFERA
 40
0.1
  9
$CHAMFERB
 40
0.1
  9
$CHAMFERC
 40
20.0
  9
$CHAMFERD
 40
0.0
  9
$SKPOLY
 70
     0
  9
$TDCREATE
 40
2451066.662483449
  9
$TDUCREATE
 40
2451066.287483449
  9
$TDUPDATE
 40
2456919.635925197
  9
$TDUUPDATE
 40
2456919.260925197
  9
$TDINDWG
 40
0.7970171644
  9
$TDUSRTIMER
 40
0.7970166319
  9
$USRTIMER
 70
     1
  9
$ANGBASE
 50
0.0
  9
$ANGDIR
 70
     0
  9
$PDMODE
 70
     0
  9
$PDSIZE
 40
0.0
  9
$PLINEWID
 40
0.0
  9
$SPLFRAME
 70
     0
  9
$SPLINETYPE
 70
     6
  9
$SPLINESEGS
 70
     8
  9
$HANDSEED
  5
26EA
  9
$SURFTAB1
 70
     6
  9
$SURFTAB2
 70
     6
  9
$SURFTYPE
 70
     6
  9
$SURFU
 70
     6
  9
$SURFV
 70
     6
  9
$UCSBASE
  2

  9
$UCSNAME
  2

  9
$UCSORG
 10
0.0
 20
0.0
 30
0.0
  9
$UCSXDIR
 10
1.0
 20
0.0
 30
0.0
  9
$UCSYDIR
 10
0.0
 20
1.0
 30
0.0
  9
$UCSORTHOREF
  2

  9
$UCSORTHOVIEW
 70
     0
  9
$UCSORGTOP
 10
0.0
 20
0.0
 30
0.0
  9
$UCSORGBOTTOM
 10
0.0
 20
0.0
 30
0.0
  9
$UCSORGLEFT
 10
0.0
 20
0.0
 30
0.0
  9
$UCSORGRIGHT
 10
0.0
 20
0.0
 30
0.0
  9
$UCSORGFRONT
 10
0.0
 20
0.0
 30
0.0
  9
$UCSORGBACK
 10
0.0
 20
0.0
 30
0.0
  9
$PUCSBASE
  2

  9
$PUCSNAME
  2

  9
$PUCSORG
 10
0.0
 20
0.0
 30
0.0
  9
$PUCSXDIR
 10
1.0
 20
0.0
 30
0.0
  9
$PUCSYDIR
 10
0.0
 20
1.0
 30
0.0
  9
$PUCSORTHOREF
  2

  9
$PUCSORTHOVIEW
 70
     0
  9
$PUCSORGTOP
 10
0.0
 20
0.0
 30
0.0
  9
$PUCSORGBOTTOM
 10
0.0
 20
0.0
 30
0.0
  9
$PUCSORGLEFT
 10
0.0
 20
0.0
 30
0.0
  9
$PUCSORGRIGHT
 10
0.0
 20
0.0
 30
0.0
  9
$PUCSORGFRONT
 10
0.0
 20
0.0
 30
0.0
  9
$PUCSORGBACK
 10
0.0
 20
0.0
 30
0.0
  9
$USERI1
 70
     0
  9
$USERI2
 70
     0
  9
$USERI3
 70
     0
  9
$USERI4
 70
     0
  9
$USERI5
 70
     0
  9
$USERR1
 40
0.0
  9
$USERR2
 40
0.0
  9
$USERR3
 40
0.0
  9
$USERR4
 40
0.0
  9
$USERR5
 40
0.0
  9
$WORLDVIEW
 70
     1
  9
$SHADEDGE
 70
     3
  9
$SHADEDIF
 70
    70
  9
$TILEMODE
 70
     1
  9
$MAXACTVP
 70
    48
  9
$PINSBASE
 10
0.0
 20
0.0
 30
0.0
  9
$PLIMCHECK
 70
     0
  9
$PEXTMIN
 10
1.000000000000000E+20
 20
1.000000000000000E+20
 30
1.000000000000000E+20
  9
$PEXTMAX
 10
-1.000000000000000E+20
 20
-1.000000000000000E+20
 30
-1.000000000000000E+20
  9
$PLIMMIN
 10
0.0
 20
0.0
  9
$PLIMMAX
 10
420.0
 20
297.0
  9
$UNITMODE
 70
     0
  9
$VISRETAIN
 70
     1
  9
$PLINEGEN
 70
     0
  9
$PSLTSCALE
 70
     1
  9
$TREEDEPTH
 70
  3020
  9
$CMLSTYLE
  2
STANDARD
  9
$CMLJUST
 70
     0
  9
$CMLSCALE
 40
20.0
  9
$PROXYGRAPHICS
 70
     1
  9
$MEASUREMENT
 70
     1
  9
$CELWEIGHT
370
    -1
  9
$ENDCAPS
280
     0
  9
$JOINSTYLE
280
     0
  9
$LWDISPLAY
290
     0
  9
$INSUNITS
 70
     0
  9
$HYPERLINKBASE
  1

  9
$STYLESHEET
  1
AUTOCAD LT 98.CTB
  9
$XEDIT
290
     1
  9
$CEPSNTYPE
380
     0
  9
$PSTYLEMODE
290
     1
  9
$FINGERPRINTGUID
  2
{1A77B0A8-2E08-40C8-82F9-DC7C70F2D19B}
  9
$VERSIONGUID
  2
{68764186-D0FA-4AC4-98AA-96820CC04292}
  9
$EXTNAMES
290
     1
  9
$PSVPSCALE
 40
0.0
  9
$OLESTARTUP
290
     0
  9
$SORTENTS
280
    96
  9
$INDEXCTL
280
     0
  9
$HIDETEXT
280
     0
  9
$XCLIPFRAME
290
     0
  9
$HALOGAP
280
     0
  9
$OBSCOLOR
 70
   257
  9
$OBSLTYPE
280
     0
  9
$INTERSECTIONDISPLAY
280
     0
  9
$INTERSECTIONCOLOR
 70
   257
  9
$DIMASSOC
280
     1
  9
$PROJECTNAME
  1

  0
ENDSEC
  0
SECTION
  2
CLASSES
  0
CLASS
  1
HATCH
  2
AcDbHatch
  3
ObjectDBX Classes
 90
        0
 91
       12
280
     0
281
     1
  0
CLASS
  1
LWPOLYLINE
  2
AcDbPolyline
  3
ObjectDBX Classes
 90
        0
 91
        1
280
     0
281
     1
  0
CLASS
  1
IMAGEDEF
  2
AcDbRasterImageDef
  3
ISM
 90
        0
 91
        1
280
     0
281
     0
  0
CLASS
  1
DICTIONARYVAR
  2
AcDbDictionaryVar
  3
ObjectDBX Classes
 90
        0
 91
        2
280
     0
281
     0
  0
CLASS
  1
ACDBDICTIONARYWDFLT
  2
AcDbDictionaryWithDefault
  3
ObjectDBX Classes
 90
        0
 91
        1
280
     0
281
     0
  0
CLASS
  1
TABLESTYLE
  2
AcDbTableStyle
  3
ObjectDBX Classes
 90
     2047
 91
        2
280
     0
281
     0
  0
CLASS
  1
SORTENTSTABLE
  2
AcDbSortentsTable
  3
ObjectDBX Classes
 90
        0
 91
        1
280
     0
281
     0
  0
ENDSEC
  0
SECTION
  2
TABLES
  0
TABLE
  2
VPORT
  5
8
330
0
100
AcDbSymbolTable
 70
     2
  0
VPORT
  5
26E9
330
8
100
AcDbSymbolTableRecord
100
AcDbViewportTableRecord
  2
*Active
 70
     0
 10
0.0
 20
0.0
 11
1.0
 21
1.0
 12
364.1976084294238
 22
269.342447807692
 13
0.0
 23
0.0
 14
10.0
 24
10.0
 15
10.0
 25
10.0
 16
0.0
 26
0.0
 36
1.0
 17
0.0
 27
0.0
 37
0.0
 40
196.9240850620199
 41
1.530456852791878
 42
50.0
 43
0.0
 44
0.0
 50
0.0
 51
0.0
 71
     0
 72
   100
 73
     1
 74
     1
 75
     0
 76
     0
 77
     0
 78
     0
281
     0
 65
     1
110
0.0
120
0.0
130
0.0
111
1.0
121
0.0
131
0.0
112
0.0
122
1.0
132
0.0
 79
     0
146
0.0
  0
ENDTAB
  0
TABLE
  2
LTYPE
  5
5
330
0
100
AcDbSymbolTable
 70
     3
  0
LTYPE
  5
12
330
5
100
AcDbSymbolTableRecord
100
AcDbLinetypeTableRecord
  2
BYBLOCK
 70
     0
  3

 72
    65
 73
     0
 40
0.0
  0
LTYPE
  5
13
330
5
100
AcDbSymbolTableRecord
100
AcDbLinetypeTableRecord
  2
BYLAYER
 70
     0
  3

 72
    65
 73
     0
 40
0.0
  0
LTYPE
  5
14
330
5
100
AcDbSymbolTableRecord
100
AcDbLinetypeTableRecord
  2
CONTINUOUS
 70
     0
  3
Solid line
 72
    65
 73
     0
 40
0.0
  0
LTYPE
  5
22
330
5
100
AcDbSymbolTableRecord
100
AcDbLinetypeTableRecord
  2
CENTER2
 70
     0
  3
Center (.5x) ___ _ ___ _ ___ _ ___ _ ___ _ ___
 72
    65
 73
     4
 40
28.575
 49
19.05
 74
     0
 49
-3.174999999999998
 74
     0
 49
3.174999999999998
 74
     0
 49
-3.174999999999998
 74
     0
  0
LTYPE
  5
23
330
5
100
AcDbSymbolTableRecord
100
AcDbLinetypeTableRecord
  2
HIDDEN2
 70
     0
  3
Hidden (.5x) _ _ _ _ _ _ _ _ _ _ _ _ _ _ _ _ _
 72
    65
 73
     2
 40
4.762499999999998
 49
3.174999999999998
 74
     0
 49
-1.587499999999999
 74
     0
  0
ENDTAB
  0
TABLE
  2
LAYER
  5
2
330
0
100
AcDbSymbolTable
 70
    12
  0
LAYER
  5
E
330
2
100
AcDbSymbolTableRecord
100
AcDbLayerTableRecord
  2
0
 70
     0
 62
     7
  6
CONTINUOUS
370
    -3
390
2052
  0
LAYER
  5
25
330
2
100
AcDbSymbolTableRecord
100
AcDbLayerTableRecord
  2
外形線
 70
     0
 62
     7
  6
CONTINUOUS
370
    -3
390
2052
  0
LAYER
  5
26
330
2
100
AcDbSymbolTableRecord
100
AcDbLayerTableRecord
  2
寸法線
 70
     0
 62
     2
  6
CONTINUOUS
370
    -3
390
2052
  0
LAYER
  5
27
330
2
100
AcDbSymbolTableRecord
100
AcDbLayerTableRecord
  2
中心線
 70
     0
 62
     4
  6
CENTER2
370
    -3
390
2052
  0
LAYER
  5
28
330
2
100
AcDbSymbolTableRecord
100
AcDbLayerTableRecord
  2
隠れ線
 70
     0
 62
     6
  6
HIDDEN2
370
    -3
390
2052
  0
LAYER
  5
2B
330
2
100
AcDbSymbolTableRecord
100
AcDbLayerTableRecord
  2
文字
 70
     0
 62
     6
  6
CONTINUOUS
370
    -3
390
2052
  0
LAYER
  5
2C
330
2
100
AcDbSymbolTableRecord
100
AcDbLayerTableRecord
  2
目盛
 70
     0
 62
    70
  6
CONTINUOUS
370
    -3
390
2052
  0
LAYER
  5
2D
330
2
100
AcDbSymbolTableRecord
100
AcDbLayerTableRecord
  2
針
 70
     0
 62
     5
  6
CONTINUOUS
370
    -3
390
2052
  0
LAYER
  5
53
330
2
100
AcDbSymbolTableRecord
100
AcDbLayerTableRecord
  2
DEFPOINTS
 70
     0
 62
     7
  6
CONTINUOUS
290
     0
370
    -3
390
2052
  0
LAYER
  5
A5
330
2
100
AcDbSymbolTableRecord
100
AcDbLayerTableRecord
  2
C
 70
     0
 62
     7
  6
CONTINUOUS
370
    -3
390
2052
  0
LAYER
  5
AD4
330
2
100
AcDbSymbolTableRecord
100
AcDbLayerTableRecord
  2
ROGO
 70
     0
 62
     6
  6
CONTINUOUS
370
    -3
390
2052
  0
LAYER
  5
1822
330
2
100
AcDbSymbolTableRecord
100
AcDbLayerTableRecord
  2
ASHADE
 70
     0
 62
     7
  6
CONTINUOUS
370
    -3
390
2052
  0
ENDTAB
  0
TABLE
  2
STYLE
  5
3
330
0
100
AcDbSymbolTable
 70
     2
  0
STYLE
  5
F
330
3
100
AcDbSymbolTableRecord
100
AcDbTextStyleTableRecord
  2
STANDARD
 70
     0
 40
0.0
 41
1.0
 50
0.0
 71
     0
 42
2.5
  3
txt
  4

  0
STYLE
  5
3F
330
3
100
AcDbSymbolTableRecord
100
AcDbTextStyleTableRecord
  2
STYLE3
 70
     0
 40
0.0
 41
1.0
 50
0.0
 71
     0
 42
1.5
  3
romans.shx
  4
bigfont.shx
  0
ENDTAB
  0
TABLE
  2
VIEW
  5
6
330
0
100
AcDbSymbolTable
 70
     0
  0
ENDTAB
  0
TABLE
  2
UCS
  5
7
330
0
100
AcDbSymbolTable
 70
     0
  0
ENDTAB
  0
TABLE
  2
APPID
  5
9
330
0
100
AcDbSymbolTable
 70
     7
  0
APPID
  5
10
330
9
100
AcDbSymbolTableRecord
100
AcDbRegAppTableRecord
  2
ACAD
 70
     0
  0
APPID
  5
1820
330
9
100
AcDbSymbolTableRecord
100
AcDbRegAppTableRecord
  2
AVE_RENDER
 70
     0
  0
APPID
  5
1821
330
9
100
AcDbSymbolTableRecord
100
AcDbRegAppTableRecord
  2
AVE_ENTITY_MATERIAL
 70
     0
  0
APPID
  5
182E
330
9
100
AcDbSymbolTableRecord
100
AcDbRegAppTableRecord
  2
AVE_FINISH
 70
     0
  0
APPID
  5
182F
330
9
100
AcDbSymbolTableRecord
100
AcDbRegAppTableRecord
  2
AVE_MATERIAL
 70
     0
  0
APPID
  5
1830
330
9
100
AcDbSymbolTableRecord
100
AcDbRegAppTableRecord
  2
AVE_GLOBAL
 70
     0
  0
APPID
  5
25B7
330
9
100
AcDbSymbolTableRecord
100
AcDbRegAppTableRecord
  2
ACAD_PSEXT
 70
     0
  0
ENDTAB
  0
TABLE
  2
DIMSTYLE
  5
A
330
0
100
AcDbSymbolTable
 70
     2
100
AcDbDimStyleTable
 71
     1
340
8F
  0
DIMSTYLE
105
1D
330
A
100
AcDbSymbolTableRecord
100
AcDbDimStyleTableRecord
  2
STANDARD
 70
     0
 41
2.5
 42
0.625
 43
3.75
 44
1.25
 73
     0
 74
     0
 77
     1
 78
     8
140
2.5
141
2.5
143
0.0394
147
0.625
171
     4
172
     1
273
     8
274
     4
277
     6
340
F
  0
DIMSTYLE
105
8F
102
{ACAD_REACTORS
330
262F
330
263C
330
2649
330
2656
102
}
330
A
100
AcDbSymbolTableRecord
100
AcDbDimStyleTableRecord
  2
STYLE3
 70
     0
 41
2.5
 42
0.0
 43
3.75
 44
1.25
 73
     0
 74
     0
 77
     1
 78
     8
140
2.5
141
2.5
143
0.0394
147
0.625
171
     4
172
     1
173
     1
176
     2
177
     2
178
     6
271
     1
273
     8
274
     4
340
3F
341
45
343
45
344
45
  0
ENDTAB
  0
TABLE
  2
BLOCK_RECORD
  5
1
330
0
100
AcDbSymbolTable
 70
     9
  0
BLOCK_RECORD
  5
18
330
1
100
AcDbSymbolTableRecord
100
AcDbBlockTableRecord
  2
*MODEL_SPACE
340
2059
  0
BLOCK_RECORD
  5
15
330
1
100
AcDbSymbolTableRecord
100
AcDbBlockTableRecord
  2
*PAPER_SPACE
340
205A
  0
BLOCK_RECORD
  5
45
330
1
100
AcDbSymbolTableRecord
100
AcDbBlockTableRecord
  2
_OPEN
340
0
102
{BLKREFS
331
1637
331
1638
331
1654
331
1669
331
166A
331
168B
331
168C
331
198B
331
198C
331
1F1A
331
1F1B
331
1F23
331
1F24
331
1F37
331
1F38
331
1F4A
331
1F4B
331
1F5C
331
1F5D
331
1F65
331
1F66
331
1F6F
331
1F70
331
2028
331
2029
331
2031
331
2032
331
26C8
331
26C9
331
26D1
331
26D2
331
26DA
331
26DB
331
26E3
331
26E4
102
}
  0
BLOCK_RECORD
  5
ADD
330
1
100
AcDbSymbolTableRecord
100
AcDbBlockTableRecord
  2
ROGO1
340
0
102
{BLKREFS
331
B43
331
B44
331
FCB
331
FCC
102
}
  0
BLOCK_RECORD
  5
1823
330
1
100
AcDbSymbolTableRecord
100
AcDbBlockTableRecord
  2
AVE_RENDER
340
0
102
{BLKREFS
331
1826
331
1827
331
1828
331
1829
331
182A
331
182B
331
182C
331
182D
102
}
  0
BLOCK_RECORD
  5
1831
330
1
100
AcDbSymbolTableRecord
100
AcDbBlockTableRecord
  2
AVE_GLOBAL
340
0
102
{BLKREFS
331
1834
102
}
  0
BLOCK_RECORD
  5
205F
102
{ACAD_XDICTIONARY
360
2060
102
}
330
1
100
AcDbSymbolTableRecord
100
AcDbBlockTableRecord
  2
PC_PCN針
340
0
102
{BLKREFS
331
25B3
102
}
  0
BLOCK_RECORD
  5
2630
330
1
100
AcDbSymbolTableRecord
100
AcDbBlockTableRecord
  2
*D5
340
0
  0
BLOCK_RECORD
  5
263D
330
1
100
AcDbSymbolTableRecord
100
AcDbBlockTableRecord
  2
*D6
340
0
  0
BLOCK_RECORD
  5
264A
330
1
100
AcDbSymbolTableRecord
100
AcDbBlockTableRecord
  2
*D7
340
0
  0
BLOCK_RECORD
  5
2657
330
1
100
AcDbSymbolTableRecord
100
AcDbBlockTableRecord
  2
*D8
340
0
  0
ENDTAB
  0
ENDSEC
  0
SECTION
  2
BLOCKS
  0
BLOCK
  5
19
330
18
100
AcDbEntity
  8
0
100
AcDbBlockBegin
  2
*MODEL_SPACE
 70
     0
 10
0.0
 20
0.0
 30
0.0
  3
*MODEL_SPACE
  1

  0
ENDBLK
  5
1A
330
18
100
AcDbEntity
  8
0
100
AcDbBlockEnd
  0
BLOCK
  5
16
330
15
100
AcDbEntity
 67
     1
  8
0
100
AcDbBlockBegin
  2
*PAPER_SPACE
 70
     0
 10
0.0
 20
0.0
 30
0.0
  3
*PAPER_SPACE
  1

  0
ENDBLK
  5
17
330
15
100
AcDbEntity
 67
     1
  8
0
100
AcDbBlockEnd
  0
BLOCK
  5
46
330
45
100
AcDbEntity
  8
0
100
AcDbBlockBegin
  2
_OPEN
 70
     0
 10
0.0
 20
0.0
 30
0.0
  3
_OPEN
  1

  0
LINE
  5
47
330
45
100
AcDbEntity
  8
0
  6
ByBlock
 62
     0
100
AcDbLine
 10
-1.0
 20
0.1666666666666666
 30
0.0
 11
0.0
 21
0.0
 31
0.0
  0
LINE
  5
48
330
45
100
AcDbEntity
  8
0
  6
ByBlock
 62
     0
100
AcDbLine
 10
0.0
 20
0.0
 30
0.0
 11
-1.0
 21
-0.1666666666666666
 31
0.0
  0
LINE
  5
49
330
45
100
AcDbEntity
  8
0
  6
ByBlock
 62
     0
100
AcDbLine
 10
0.0
 20
0.0
 30
0.0
 11
-1.0
 21
0.0
 31
0.0
  0
ENDBLK
  5
4A
330
45
100
AcDbEntity
  8
0
100
AcDbBlockEnd
  0
BLOCK
  5
B2A
330
ADD
100
AcDbEntity
  8
0
100
AcDbBlockBegin
  2
ROGO1
 70
     0
 10
0.0
 20
0.0
 30
0.0
  3
ROGO1
  1

  0
MTEXT
  5
B42
330
ADD
100
AcDbEntity
  8
DEFPOINTS
  6
Continuous
100
AcDbMText
 10
1039.786461861274
 20
160.9640365185991
 30
0.0
 40
1.0
 41
0.0
 71
     4
 72
     1
  1
\A1;
 73
     1
 44
1.0
  0
ENDBLK
  5
B2B
330
ADD
100
AcDbEntity
  8
0
100
AcDbBlockEnd
  0
BLOCK
  5
1824
330
1823
100
AcDbEntity
  8
ASHADE
100
AcDbBlockBegin
  2
AVE_RENDER
 70
     0
 10
0.0
 20
0.0
 30
0.0
  3
AVE_RENDER
  1
AVE_RENDER
  0
ENDBLK
  5
1825
330
1823
100
AcDbEntity
  8
0
100
AcDbBlockEnd
  0
BLOCK
  5
1832
330
1831
100
AcDbEntity
  8
ASHADE
100
AcDbBlockBegin
  2
AVE_GLOBAL
 70
     0
 10
0.0
 20
0.0
 30
0.0
  3
AVE_GLOBAL
  1
AVE_GLOBAL
  0
ENDBLK
  5
1833
330
1831
100
AcDbEntity
  8
0
100
AcDbBlockEnd
  0
BLOCK
  5
2062
330
205F
100
AcDbEntity
  8
0
100
AcDbBlockBegin
  2
PC_PCN針
 70
     0
 10
0.0
 20
0.0
 30
0.0
  3
PC_PCN針
  1

  0
HATCH
  5
2063
330
205F
100
AcDbEntity
  8
針
 62
     5
100
AcDbHatch
 10
0.0
 20
0.0
 30
0.0
210
0.0
220
0.0
230
1.0
  2
SOLID
 70
     1
 71
     1
 91
        2
 92
        7
 72
     1
 73
     1
 93
        7
 10
-2.023904563850578
 20
-0.2645931338153105
 42
-0.1640812035095904
 10
-1.421638696153195
 20
-0.4784803210162636
 42
-0.0813437861988258
 10
-1.5
 20
0.0
 42
-0.0813437861988211
 10
-1.421638696153195
 20
0.4784803210162353
 42
-0.1640812035095877
 10
-2.023904563850578
 20
0.2645931338153105
 42
0.0
 10
-14.19999999999993
 20
0.07000000000005
 42
0.0
 10
-14.20000000000004
 20
-0.0700000000000216
 42
0.0
 97
        6
330
2067
330
2069
330
2064
330
206A
330
2068
330
2070
 92
        7
 72
     1
 73
     1
 93
        9
 10
1.601307174430758
 20
0.4866168858272319
 42
-0.1053331282509662
 10
1.399713151580612
 20
0.5392616185973793
 42
-0.0921949713546931
 10
1.5
 20
0.0
 42
-0.0921949713546883
 10
1.399713151580612
 20
-0.5392616185973509
 42
-0.1053331282510194
 10
1.60130717443087
 20
-0.4866168858272319
 42
0.0
 10
6.657469727507077
 20
-0.256172195646343
 42
-0.2863987309427536
 10
6.842033426437637
 20
-0.359972204586029
 42
3.911320250910648
 10
6.842033426437637
 20
0.3599722045860858
 42
-0.2863987309427981
 10
6.657469727507077
 20
0.256172195646343
 42
0.0
 97
        8
330
206E
330
206B
330
2066
330
2070
330
2065
330
206C
330
206F
330
206D
 75
     0
 76
     1
 47
0.0259966004614645
 98
        2
 10
-6.998752094249081
 20
-0.0094903483859525
 10
3.014397170732763
 20
0.0944959703959967
450
        0
451
        0
460
0.0
461
0.0
452
        1
462
1.0
453
        2
463
0.0
 63
     5
421
      255
463
1.0
 63
    51
421
 16777113
470
LINEAR
  0
LINE
  5
2064
102
{ACAD_REACTORS
330
2063
102
}
330
205F
100
AcDbEntity
  8
針
100
AcDbLine
 10
-14.20000000000004
 20
0.0700000000000216
 30
0.0
 11
-14.20000000000004
 21
-0.0699999999999932
 31
0.0
  0
ARC
  5
2065
102
{ACAD_REACTORS
330
2063
102
}
330
205F
100
AcDbEntity
  8
針
100
AcDbCircle
 10
1.624072039381869
 20
-0.9860983779005325
 30
0.0
 40
0.5
100
AcDbArc
 50
92.60956348104661
 51
116.6614474826241
  0
ARC
  5
2066
102
{ACAD_REACTORS
330
2063
102
}
330
205F
100
AcDbEntity
  8
針
100
AcDbCircle
 10
1.624072039381869
 20
0.9860983779005325
 30
0.0
 40
0.5
100
AcDbArc
 50
243.3385525173759
 51
267.3904365189533
  0
ARC
  5
2067
102
{ACAD_REACTORS
330
2063
102
}
330
205F
100
AcDbEntity
  8
針
100
AcDbCircle
 10
-2.039884094318265
 20
1.2644654529671
 30
0.0
 40
1.0
100
AcDbArc
 50
270.9155986228672
 51
308.1881170613605
  0
ARC
  5
2068
102
{ACAD_REACTORS
330
2063
102
}
330
205F
100
AcDbEntity
  8
針
100
AcDbCircle
 10
-2.039884094318265
 20
-1.2644654529671
 30
0.0
 40
1.0
100
AcDbArc
 50
51.8118829386395
 51
89.08440137713276
  0
LINE
  5
2069
102
{ACAD_REACTORS
330
2063
102
}
330
205F
100
AcDbEntity
  8
針
100
AcDbLine
 10
-14.20000000000004
 20
0.0700000000000216
 30
0.0
 11
-2.023904563850578
 21
0.2645931338153105
 31
0.0
  0
LINE
  5
206A
102
{ACAD_REACTORS
330
2063
102
}
330
205F
100
AcDbEntity
  8
針
100
AcDbLine
 10
-2.023904563850578
 20
-0.2645931338153105
 30
0.0
 11
-14.20000000000004
 21
-0.0699999999999932
 31
0.0
  0
LINE
  5
206B
102
{ACAD_REACTORS
330
2063
102
}
330
205F
100
AcDbEntity
  8
針
100
AcDbLine
 10
1.601307174430758
 20
0.4866168858272319
 30
0.0
 11
6.657469727507077
 21
0.256172195646343
 31
0.0
  0
LINE
  5
206C
102
{ACAD_REACTORS
330
2063
102
}
330
205F
100
AcDbEntity
  8
針
100
AcDbLine
 10
1.601307174430758
 20
-0.4866168858272319
 30
0.0
 11
6.657469727507077
 21
-0.256172195646343
 31
0.0
  0
ARC
  5
206D
102
{ACAD_REACTORS
330
2063
102
}
330
205F
100
AcDbEntity
  8
針
100
AcDbCircle
 10
7.5
 20
0.0
 30
0.0
 40
0.75
100
AcDbArc
 50
208.6829815593726
 51
151.3170184406274
  0
ARC
  5
206E
102
{ACAD_REACTORS
330
2063
102
}
330
205F
100
AcDbEntity
  8
針
100
AcDbCircle
 10
6.666575673487612
 20
0.4559647924756405
 30
0.0
 40
0.2
100
AcDbArc
 50
267.3904365189468
 51
331.3170184406275
  0
ARC
  5
206F
102
{ACAD_REACTORS
330
2063
102
}
330
205F
100
AcDbEntity
  8
針
100
AcDbCircle
 10
6.666575673487612
 20
-0.4559647924756405
 30
0.0
 40
0.2
100
AcDbArc
 50
28.68298155937256
 51
92.60956348105315
  0
CIRCLE
  5
2070
102
{ACAD_REACTORS
330
2063
102
}
330
205F
100
AcDbEntity
  8
外形線
100
AcDbCircle
 10
0.0
 20
0.0
 30
0.0
 40
1.5
  0
CIRCLE
  5
2071
330
205F
100
AcDbEntity
  8
外形線
 62
     4
100
AcDbCircle
 10
0.0
 20
0.0
 30
0.0
 40
0.25
  0
ENDBLK
  5
2072
330
205F
100
AcDbEntity
  8
0
100
AcDbBlockEnd
  0
BLOCK
  5
263A
330
2630
100
AcDbEntity
  8
0
100
AcDbBlockBegin
  2
*D5
 70
     1
 10
0.0
 20
0.0
 30
0.0
  3
*D5
  1

  0
LINE
  5
26CE
330
2630
100
AcDbEntity
  8
外形線
 62
     2
370
    -2
100
AcDbLine
 10
317.161490950772
 20
243.8435302342081
 30
0.0
 11
333.3576567882686
 21
243.8435302342081
 31
0.0
  0
LINE
  5
26CF
330
2630
100
AcDbEntity
  8
外形線
 62
     2
370
    -2
100
AcDbLine
 10
314.5092680634572
 20
226.0435302342081
 30
0.0
 11
333.3576567882686
 21
226.0435302342081
 31
0.0
  0
LINE
  5
26D0
330
2630
100
AcDbEntity
  8
外形線
 62
     2
370
    -2
100
AcDbLine
 10
332.1076567882686
 20
241.3435302342081
 30
0.0
 11
332.1076567882686
 21
228.5435302342081
 31
0.0
  0
INSERT
  5
26D1
330
2630
100
AcDbEntity
  8
外形線
 62
     2
370
    -2
100
AcDbBlockReference
  2
_OPEN
 10
332.1076567882686
 20
243.8435302342081
 30
0.0
 41
2.5
 42
2.5
 43
2.5
 50
90.0
  0
INSERT
  5
26D2
330
2630
100
AcDbEntity
  8
外形線
 62
     2
370
    -2
100
AcDbBlockReference
  2
_OPEN
 10
332.1076567882686
 20
226.0435302342081
 30
0.0
 41
2.5
 42
2.5
 43
2.5
 50
270.0
  0
MTEXT
  5
26D3
330
2630
100
AcDbEntity
  8
外形線
 62
     6
100
AcDbMText
 10
330.2326567882686
 20
234.9435302342081
 30
0.0
 40
2.5
 41
0.0
 71
     5
 72
     1
  1
\A1;17.8
  7
STYLE3
 11
0.0000000000000001
 21
1.0
 31
0.0
 73
     1
 44
1.0
  0
POINT
  5
26D4
330
2630
100
AcDbEntity
  8
DEFPOINTS
 62
     0
100
AcDbPoint
 10
317.161490950772
 20
243.8435302342081
 30
0.0
  0
POINT
  5
26D5
330
2630
100
AcDbEntity
  8
DEFPOINTS
 62
     0
100
AcDbPoint
 10
314.5092680634572
 20
226.0435302342081
 30
0.0
  0
POINT
  5
26D6
330
2630
100
AcDbEntity
  8
DEFPOINTS
 62
     0
100
AcDbPoint
 10
332.1076567882686
 20
226.0435302342081
 30
0.0
  0
ENDBLK
  5
263B
330
2630
100
AcDbEntity
  8
0
100
AcDbBlockEnd
  0
BLOCK
  5
2647
330
263D
100
AcDbEntity
  8
0
100
AcDbBlockBegin
  2
*D6
 70
     1
 10
0.0
 20
0.0
 30
0.0
  3
*D6
  1

  0
LINE
  5
26E0
330
263D
100
AcDbEntity
  8
外形線
 62
     2
370
    -2
100
AcDbLine
 10
330.0254697286957
 20
282.0435302342081
 30
0.0
 11
341.0691075233247
 21
282.0435302342081
 31
0.0
  0
LINE
  5
26E1
330
263D
100
AcDbEntity
  8
外形線
 62
     2
370
    -2
100
AcDbLine
 10
329.5402238295237
 20
226.0435302342081
 30
0.0
 11
341.0691075233247
 21
226.0435302342081
 31
0.0
  0
LINE
  5
26E2
330
263D
100
AcDbEntity
  8
外形線
 62
     2
370
    -2
100
AcDbLine
 10
339.8191075233246
 20
279.5435302342081
 30
0.0
 11
339.8191075233246
 21
228.5435302342081
 31
0.0
  0
INSERT
  5
26E3
330
263D
100
AcDbEntity
  8
外形線
 62
     2
370
    -2
100
AcDbBlockReference
  2
_OPEN
 10
339.8191075233246
 20
282.0435302342081
 30
0.0
 41
2.5
 42
2.5
 43
2.5
 50
90.0
  0
INSERT
  5
26E4
330
263D
100
AcDbEntity
  8
外形線
 62
     2
370
    -2
100
AcDbBlockReference
  2
_OPEN
 10
339.8191075233246
 20
226.0435302342081
 30
0.0
 41
2.5
 42
2.5
 43
2.5
 50
270.0
  0
MTEXT
  5
26E5
330
263D
100
AcDbEntity
  8
外形線
 62
     6
100
AcDbMText
 10
337.9441075233246
 20
254.0435302342082
 30
0.0
 40
2.5
 41
0.0
 71
     5
 72
     1
  1
\A1;56
  7
STYLE3
 11
0.0000000000000001
 21
1.0
 31
0.0
 73
     1
 44
1.0
  0
POINT
  5
26E6
330
263D
100
AcDbEntity
  8
DEFPOINTS
 62
     0
100
AcDbPoint
 10
330.0254697286957
 20
282.0435302342081
 30
0.0
  0
POINT
  5
26E7
330
263D
100
AcDbEntity
  8
DEFPOINTS
 62
     0
100
AcDbPoint
 10
329.5402238295237
 20
226.0435302342081
 30
0.0
  0
POINT
  5
26E8
330
263D
100
AcDbEntity
  8
DEFPOINTS
 62
     0
100
AcDbPoint
 10
339.8191075233246
 20
226.0435302342081
 30
0.0
  0
ENDBLK
  5
2648
330
263D
100
AcDbEntity
  8
0
100
AcDbBlockEnd
  0
BLOCK
  5
2654
330
264A
100
AcDbEntity
  8
0
100
AcDbBlockBegin
  2
*D7
 70
     1
 10
0.0
 20
0.0
 30
0.0
  3
*D7
  1

  0
LINE
  5
26C5
330
264A
100
AcDbEntity
  8
外形線
 62
     2
370
    -2
100
AcDbLine
 10
309.0730148389819
 20
315.0435302342081
 30
0.0
 11
348.6377208160119
 21
315.0435302342081
 31
0.0
  0
LINE
  5
26C6
330
264A
100
AcDbEntity
  8
外形線
 62
     2
370
    -2
100
AcDbLine
 10
309.0730148389819
 20
225.0435302342081
 30
0.0
 11
348.6377208160119
 21
225.0435302342081
 31
0.0
  0
LINE
  5
26C7
330
264A
100
AcDbEntity
  8
外形線
 62
     2
370
    -2
100
AcDbLine
 10
347.387720816012
 20
312.5435302342081
 30
0.0
 11
347.387720816012
 21
227.5435302342081
 31
0.0
  0
INSERT
  5
26C8
330
264A
100
AcDbEntity
  8
外形線
 62
     2
370
    -2
100
AcDbBlockReference
  2
_OPEN
 10
347.387720816012
 20
315.0435302342081
 30
0.0
 41
2.5
 42
2.5
 43
2.5
 50
90.0
  0
INSERT
  5
26C9
330
264A
100
AcDbEntity
  8
外形線
 62
     2
370
    -2
100
AcDbBlockReference
  2
_OPEN
 10
347.387720816012
 20
225.0435302342081
 30
0.0
 41
2.5
 42
2.5
 43
2.5
 50
270.0
  0
MTEXT
  5
26CA
330
264A
100
AcDbEntity
  8
外形線
 62
     6
100
AcDbMText
 10
345.5127208160119
 20
270.0435302342082
 30
0.0
 40
2.5
 41
0.0
 71
     5
 72
     1
  1
\A1;90
  7
STYLE3
 11
0.0000000000000001
 21
1.0
 31
0.0
 73
     1
 44
1.0
  0
POINT
  5
26CB
330
264A
100
AcDbEntity
  8
DEFPOINTS
 62
     0
100
AcDbPoint
 10
309.0730148389819
 20
315.0435302342081
 30
0.0
  0
POINT
  5
26CC
330
264A
100
AcDbEntity
  8
DEFPOINTS
 62
     0
100
AcDbPoint
 10
309.0730148389819
 20
225.0435302342081
 30
0.0
  0
POINT
  5
26CD
330
264A
100
AcDbEntity
  8
DEFPOINTS
 62
     0
100
AcDbPoint
 10
347.387720816012
 20
225.0435302342081
 30
0.0
  0
ENDBLK
  5
2655
330
264A
100
AcDbEntity
  8
0
100
AcDbBlockEnd
  0
BLOCK
  5
2661
330
2657
100
AcDbEntity
  8
0
100
AcDbBlockBegin
  2
*D8
 70
     1
 10
0.0
 20
0.0
 30
0.0
  3
*D8
  1

  0
LINE
  5
26D7
330
2657
100
AcDbEntity
  8
外形線
 62
     2
370
    -2
100
AcDbLine
 10
305.0730148389819
 20
239.8435302342081
 30
0.0
 11
295.830737387817
 21
239.8435302342081
 31
0.0
  0
LINE
  5
26D8
330
2657
100
AcDbEntity
  8
外形線
 62
     2
370
    -2
100
AcDbLine
 10
306.6896125939972
 20
226.0435302342081
 30
0.0
 11
295.830737387817
 21
226.0435302342081
 31
0.0
  0
LINE
  5
26D9
330
2657
100
AcDbEntity
  8
外形線
 62
     2
370
    -2
100
AcDbLine
 10
297.080737387817
 20
237.3435302342081
 30
0.0
 11
297.080737387817
 21
228.5435302342081
 31
0.0
  0
INSERT
  5
26DA
330
2657
100
AcDbEntity
  8
外形線
 62
     2
370
    -2
100
AcDbBlockReference
  2
_OPEN
 10
297.080737387817
 20
239.8435302342081
 30
0.0
 41
2.5
 42
2.5
 43
2.5
 50
90.0
  0
INSERT
  5
26DB
330
2657
100
AcDbEntity
  8
外形線
 62
     2
370
    -2
100
AcDbBlockReference
  2
_OPEN
 10
297.080737387817
 20
226.0435302342081
 30
0.0
 41
2.5
 42
2.5
 43
2.5
 50
270.0
  0
MTEXT
  5
26DC
330
2657
100
AcDbEntity
  8
外形線
 62
     6
100
AcDbMText
 10
295.205737387817
 20
232.9435302342081
 30
0.0
 40
2.5
 41
0.0
 71
     5
 72
     1
  1
\A1;13.8
  7
STYLE3
 11
0.0000000000000001
 21
1.0
 31
0.0
 73
     1
 44
1.0
  0
POINT
  5
26DD
330
2657
100
AcDbEntity
  8
DEFPOINTS
 62
     0
100
AcDbPoint
 10
305.0730148389819
 20
239.8435302342081
 30
0.0
  0
POINT
  5
26DE
330
2657
100
AcDbEntity
  8
DEFPOINTS
 62
     0
100
AcDbPoint
 10
306.6896125939972
 20
226.0435302342081
 30
0.0
  0
POINT
  5
26DF
330
2657
100
AcDbEntity
  8
DEFPOINTS
 62
     0
100
AcDbPoint
 10
297.080737387817
 20
226.0435302342081
 30
0.0
  0
ENDBLK
  5
2662
330
2657
100
AcDbEntity
  8
0
100
AcDbBlockEnd
  0
ENDSEC
  0
SECTION
  2
ENTITIES
  0
LWPOLYLINE
  5
10B
330
18
100
AcDbEntity
  8
C
100
AcDbPolyline
 90
        5
 70
     0
 43
0.4
 10
236.6915604445414
 20
366.8501752555372
 10
491.6915604445414
 20
366.8501752555372
 10
491.6915604445414
 20
171.8501752555372
 10
236.6915604445414
 20
171.8501752555372
 10
236.6915604445414
 20
366.8501752555372
  0
LINE
  5
16C
330
18
100
AcDbEntity
  8
外形線
100
AcDbLine
 10
306.0730148389819
 20
314.2396826569147
 30
0.0
 11
312.0730148389819
 21
314.2396826569147
 31
0.0
  0
LINE
  5
16E
330
18
100
AcDbEntity
  8
外形線
100
AcDbLine
 10
312.0730148389819
 20
314.2396826569147
 30
0.0
 11
312.0730148389819
 21
299.2844698837748
 31
0.0
  0
LINE
  5
16F
330
18
100
AcDbEntity
  8
外形線
100
AcDbLine
 10
306.0730148389819
 20
314.2396826569147
 30
0.0
 11
306.0730148389819
 21
299.2844698837748
 31
0.0
  0
ARC
  5
170
330
18
100
AcDbEntity
  8
外形線
100
AcDbCircle
 10
309.0730148389819
 20
309.0435302342081
 30
0.0
 40
6.0
100
AcDbArc
 50
60.0
 51
120.0
  0
CIRCLE
  5
172
330
18
100
AcDbEntity
  8
外形線
100
AcDbCircle
 10
309.0730148389819
 20
282.0435302342081
 30
0.0
 40
17.5
  0
CIRCLE
  5
307
330
18
100
AcDbEntity
  8
外形線
100
AcDbCircle
 10
309.0730148389819
 20
282.0435302342081
 30
0.0
 40
15.0
  0
LINE
  5
30A
330
18
100
AcDbEntity
  8
目盛
100
AcDbLine
 10
309.0730148389819
 20
297.0435302342081
 30
0.0
 11
309.0730148389819
 21
294.5435302342081
 31
0.0
  0
TEXT
  5
351
330
18
100
AcDbEntity
  8
文字
100
AcDbText
 10
308.2726058257108
 20
292.3156014693283
 30
0.0
 40
1.8
  1
0
  7
STYLE3
100
AcDbText
  0
TEXT
  5
352
330
18
100
AcDbEntity
  8
文字
100
AcDbText
 10
312.1407594251056
 20
290.8575777623884
 30
0.0
 40
1.8
  1
20
  7
STYLE3
100
AcDbText
  0
TEXT
  5
353
330
18
100
AcDbEntity
  8
文字
100
AcDbText
 10
315.8037756020418
 20
287.7586625585903
 30
0.0
 40
1.8
  1
40
  7
STYLE3
100
AcDbText
  0
TEXT
  5
354
330
18
100
AcDbEntity
  8
文字
100
AcDbText
 10
317.7446994614701
 20
283.4779048476002
 30
0.0
 40
1.8
  1
60
  7
STYLE3
100
AcDbText
  0
TEXT
  5
355
330
18
100
AcDbEntity
  8
文字
100
AcDbText
 10
317.6903676102
 20
278.4488041213135
 30
0.0
 40
1.8
  1
80
  7
STYLE3
100
AcDbText
  0
TEXT
  5
356
330
18
100
AcDbEntity
  8
文字
100
AcDbText
 10
306.6160127508932
 20
270.0691277307575
 30
0.0
 40
1.8
  1
140
 41
0.9
  7
STYLE3
100
AcDbText
  0
TEXT
  5
357
330
18
100
AcDbEntity
  8
文字
100
AcDbText
 10
301.5522901057673
 20
271.7509961594821
 30
0.0
 40
1.8
  1
120
 41
0.9
  7
STYLE3
100
AcDbText
  0
TEXT
  5
358
330
18
100
AcDbEntity
  8
文字
100
AcDbText
 10
298.1350166077938
 20
274.7511991597356
 30
0.0
 40
1.8
  1
100
 41
0.9
  7
STYLE3
100
AcDbText
  0
TEXT
  5
359
330
18
100
AcDbEntity
  8
文字
100
AcDbText
 10
297.0645624676992
 20
278.7477248878719
 30
0.0
 40
1.8
  1
80
  7
STYLE3
100
AcDbText
  0
TEXT
  5
35A
330
18
100
AcDbEntity
  8
文字
100
AcDbText
 10
298.8051652615492
 20
288.2333026974892
 30
0.0
 40
1.8
  1
40
  7
STYLE3
100
AcDbText
  0
TEXT
  5
35E
330
18
100
AcDbEntity
  8
文字
100
AcDbText
 10
312.3992330363895
 20
281.634190449633
 30
0.0
 40
0.8
  1
0.002mm
  7
STYLE3
100
AcDbText
  0
TEXT
  5
35F
330
18
100
AcDbEntity
  8
文字
100
AcDbText
 10
302.1325803542396
 20
281.6694791849587
 30
0.0
 40
0.8
  1
Jeweled
  7
STYLE3
100
AcDbText
  0
TEXT
  5
363
330
18
100
AcDbEntity
  8
文字
100
AcDbText
 10
306.4679160937621
 20
275.0619340256004
 30
0.0
 40
1.0
  1
PCN-2
  7
STYLE3
100
AcDbText
  0
TEXT
  5
368
330
18
100
AcDbEntity
  8
文字
100
AcDbText
 10
304.7579669771466
 20
285.0571622900434
 30
0.0
 40
0.8
  1
MADE IN JAPAN
  7
STYLE3
100
AcDbText
  0
INSERT
  5
B43
330
18
100
AcDbEntity
  8
文字
100
AcDbBlockReference
  2
ROGO1
 10
301.1334577592202
 20
275.1168679656769
 30
0.0
  0
INSERT
  5
B44
330
18
100
AcDbEntity
  8
文字
100
AcDbBlockReference
  2
ROGO1
 10
301.1095809474122
 20
275.1436630917189
 30
0.0
  0
LINE
  5
CBB
330
18
100
AcDbEntity
  8
外形線
100
AcDbLine
 10
304.0730148389819
 20
245.8435302342081
 30
0.0
 11
304.0730148389819
 21
241.8435302342081
 31
0.0
  0
LINE
  5
CBC
330
18
100
AcDbEntity
  8
外形線
100
AcDbLine
 10
304.5730148389818
 20
246.8435302342081
 30
0.0
 11
304.5730148389818
 21
240.8435302342081
 31
0.0
  0
LINE
  5
CBD
330
18
100
AcDbEntity
  8
外形線
100
AcDbLine
 10
304.5730148389818
 20
241.8435302342081
 30
0.0
 11
304.0730148389819
 21
241.8435302342081
 31
0.0
  0
LINE
  5
CBE
330
18
100
AcDbEntity
  8
外形線
100
AcDbLine
 10
305.0730148389819
 20
240.8435302342081
 30
0.0
 11
304.5730148389818
 21
240.8435302342081
 31
0.0
  0
LINE
  5
CBF
330
18
100
AcDbEntity
  8
外形線
100
AcDbLine
 10
304.5730148389818
 20
245.8435302342081
 30
0.0
 11
304.0730148389819
 21
245.8435302342081
 31
0.0
  0
LINE
  5
CC0
330
18
100
AcDbEntity
  8
外形線
100
AcDbLine
 10
305.0730148389819
 20
246.8435302342081
 30
0.0
 11
304.5730148389818
 21
246.8435302342081
 31
0.0
  0
INSERT
  5
FCB
330
18
100
AcDbEntity
  8
文字
100
AcDbBlockReference
  2
ROGO1
 10
579.0605083803766
 20
282.754069537204
 30
0.0
  0
INSERT
  5
FCC
330
18
100
AcDbEntity
  8
文字
100
AcDbBlockReference
  2
ROGO1
 10
579.0366315685687
 20
282.780864663246
 30
0.0
  0
ARC
  5
1204
330
18
100
AcDbEntity
  8
外形線
100
AcDbCircle
 10
390.692911480571
 20
243.843530234208
 30
0.0
 40
3.0
100
AcDbArc
 50
54.59406822686052
 51
215.4059317731395
  0
ARC
  5
1205
330
18
100
AcDbEntity
  8
外形線
100
AcDbCircle
 10
390.692911480571
 20
243.843530234208
 30
0.0
 40
3.0
100
AcDbArc
 50
234.5940682268605
 51
35.4059317731395
  0
LINE
  5
1206
330
18
100
AcDbEntity
  8
外形線
100
AcDbLine
 10
392.8142318241306
 20
245.2577437965811
 30
0.0
 11
393.1381149374995
 21
245.58162690995
 31
0.0
  0
LINE
  5
1208
330
18
100
AcDbEntity
  8
外形線
100
AcDbLine
 10
389.2786979181979
 20
241.7222098906484
 30
0.0
 11
388.5715911370113
 21
242.429316671835
 31
0.0
  0
LINE
  5
1209
330
18
100
AcDbEntity
  8
外形線
100
AcDbLine
 10
389.2786979181979
 20
241.7222098906484
 30
0.0
 11
388.9548148048291
 21
241.3983267772796
 31
0.0
  0
LINE
  5
120A
330
18
100
AcDbEntity
  8
外形線
100
AcDbLine
 10
388.5715911370113
 20
242.429316671835
 30
0.0
 11
388.2477080236425
 21
242.1054335584661
 31
0.0
  0
LINE
  5
120B
330
18
100
AcDbEntity
  8
外形線
100
AcDbLine
 10
392.8142318241306
 20
245.2577437965811
 30
0.0
 11
392.1071250429441
 21
245.9648505777677
 31
0.0
  0
LINE
  5
120C
330
18
100
AcDbEntity
  8
外形線
100
AcDbLine
 10
392.1071250429441
 20
245.9648505777677
 30
0.0
 11
392.4310081563129
 21
246.2887336911365
 31
0.0
  0
LINE
  5
120D
330
18
100
AcDbEntity
  8
外形線
100
AcDbLine
 10
389.2786979181979
 20
242.429316671835
 30
0.0
 11
392.1071250429441
 21
245.2577437965812
 31
0.0
  0
CIRCLE
  5
1210
330
18
100
AcDbEntity
  8
外形線
100
AcDbCircle
 10
390.692911480571
 20
243.8435302342081
 30
0.0
 40
2.0
  0
LINE
  5
121E
330
18
100
AcDbEntity
  8
外形線
100
AcDbLine
 10
385.6831027491204
 20
293.2497553492264
 30
0.0
 11
384.6027202120215
 21
294.5373051191901
 31
0.0
  0
LINE
  5
121F
330
18
100
AcDbEntity
  8
外形線
100
AcDbLine
 10
384.4991365955891
 20
293.3533389656588
 30
0.0
 11
385.7866863655528
 21
294.4337215027577
 31
0.0
  0
CIRCLE
  5
1221
330
18
100
AcDbEntity
  8
外形線
100
AcDbCircle
 10
385.142911480571
 20
293.8935302342082
 30
0.0
 40
1.5
  0
LINE
  5
1249
330
18
100
AcDbEntity
  8
外形線
100
AcDbLine
 10
393.6929114805709
 20
314.0396826569148
 30
0.0
 11
393.6929114805709
 21
298.8435302342082
 31
0.0
  0
LINE
  5
124A
330
18
100
AcDbEntity
  8
外形線
100
AcDbLine
 10
387.6929114805709
 20
314.0396826569148
 30
0.0
 11
387.6929114805709
 21
298.8435302342082
 31
0.0
  0
LINE
  5
1253
330
18
100
AcDbEntity
  8
外形線
100
AcDbLine
 10
387.6929114805709
 20
298.8435302342082
 30
0.0
 11
393.6929114805709
 21
298.8435302342082
 31
0.0
  0
LINE
  5
1259
330
18
100
AcDbEntity
  8
外形線
100
AcDbLine
 10
387.6929114805709
 20
314.0396826569148
 30
0.0
 11
393.6929114805709
 21
314.0396826569148
 31
0.0
  0
ARC
  5
125A
330
18
100
AcDbEntity
  8
外形線
100
AcDbCircle
 10
390.692911480571
 20
308.8435302342082
 30
0.0
 40
6.0
100
AcDbArc
 50
60.0
 51
120.0
  0
LINE
  5
12CA
330
18
100
AcDbEntity
  8
外形線
100
AcDbLine
 10
377.2566534491638
 20
299.5435302342081
 30
0.0
 11
380.4066534491637
 21
299.5435302342081
 31
0.0
  0
LINE
  5
12CC
330
18
100
AcDbEntity
  8
外形線
100
AcDbLine
 10
377.0566534491639
 20
299.3435302342081
 30
0.0
 11
377.0566534491637
 21
264.7435302342083
 31
0.0
  0
LINE
  5
12CD
330
18
100
AcDbEntity
  8
外形線
100
AcDbLine
 10
380.7566534491638
 20
299.193530234208
 30
0.0
 11
380.7566534491638
 21
264.8935302342082
 31
0.0
  0
LINE
  5
12CE
330
18
100
AcDbEntity
  8
外形線
100
AcDbLine
 10
381.7566534491638
 20
299.1935302342081
 30
0.0
 11
381.7566534491638
 21
264.8935302342081
 31
0.0
  0
LINE
  5
12CF
330
18
100
AcDbEntity
  8
外形線
 48
0.5
100
AcDbLine
 10
377.0566534491639
 20
299.3435302342081
 30
0.0
 11
377.2566534491638
 21
299.5435302342081
 31
0.0
  0
LINE
  5
12D0
330
18
100
AcDbEntity
  8
外形線
100
AcDbLine
 10
380.4066534491637
 20
299.5435302342081
 30
0.0
 11
380.7566534491638
 21
299.1935302342081
 31
0.0
  0
LINE
  5
12EF
330
18
100
AcDbEntity
  8
外形線
100
AcDbLine
 10
380.4066534491637
 20
264.5435302342081
 30
0.0
 11
380.7566534491638
 21
264.8935302342081
 31
0.0
  0
LINE
  5
12F0
330
18
100
AcDbEntity
  8
外形線
 48
0.5
100
AcDbLine
 10
377.0566534491639
 20
264.7435302342081
 30
0.0
 11
377.2566534491638
 21
264.5435302342081
 31
0.0
  0
LINE
  5
12F1
330
18
100
AcDbEntity
  8
外形線
100
AcDbLine
 10
377.2566534491638
 20
264.5435302342081
 30
0.0
 11
380.4066534491637
 21
264.5435302342081
 31
0.0
  0
LINE
  5
12F5
330
18
100
AcDbEntity
  8
外形線
100
AcDbLine
 10
376.5566534491638
 20
298.543530234208
 30
0.0
 11
376.5566534491638
 21
265.5435302342082
 31
0.0
  0
LINE
  5
12FF
330
18
100
AcDbEntity
  8
外形線
100
AcDbLine
 10
380.7566534491638
 20
299.193530234208
 30
0.0
 11
381.7566534491638
 21
299.1935302342081
 31
0.0
  0
LINE
  5
1300
330
18
100
AcDbEntity
  8
外形線
100
AcDbLine
 10
380.7566534491638
 20
264.8935302342081
 30
0.0
 11
381.7566534491638
 21
264.8935302342081
 31
0.0
  0
LINE
  5
1308
330
18
100
AcDbEntity
  8
外形線
100
AcDbLine
 10
376.5566534491638
 20
298.5435302342081
 30
0.0
 11
377.0566534491639
 21
299.0435302342081
 31
0.0
  0
LINE
  5
1309
330
18
100
AcDbEntity
  8
外形線
100
AcDbLine
 10
376.5566534491638
 20
265.5435302342081
 30
0.0
 11
377.0566534491639
 21
265.0435302342081
 31
0.0
  0
LINE
  5
1312
330
18
100
AcDbEntity
  8
外形線
100
AcDbLine
 10
377.0566534491639
 20
298.8435302342081
 30
0.0
 11
380.7566534491638
 21
298.8435302342081
 31
0.0
  0
LINE
  5
1313
330
18
100
AcDbEntity
  8
外形線
100
AcDbLine
 10
377.0566534491639
 20
298.1435302342081
 30
0.0
 11
380.7566534491638
 21
298.1435302342081
 31
0.0
  0
LINE
  5
1314
330
18
100
AcDbEntity
  8
外形線
100
AcDbLine
 10
377.0566534491639
 20
297.3435302342081
 30
0.0
 11
380.7566534491638
 21
297.343530234208
 31
0.0
  0
LINE
  5
1315
330
18
100
AcDbEntity
  8
外形線
100
AcDbLine
 10
377.0566534491639
 20
296.5435302342081
 30
0.0
 11
380.7566534491638
 21
296.5435302342081
 31
0.0
  0
LINE
  5
1316
330
18
100
AcDbEntity
  8
外形線
100
AcDbLine
 10
377.0566534491639
 20
295.6435302342081
 30
0.0
 11
380.7566534491638
 21
295.6435302342081
 31
0.0
  0
LINE
  5
1328
330
18
100
AcDbEntity
  8
外形線
100
AcDbLine
 10
377.0566534491639
 20
282.7435302342081
 30
0.0
 11
380.7566534491638
 21
282.7435302342081
 31
0.0
  0
LINE
  5
1329
330
18
100
AcDbEntity
  8
外形線
100
AcDbLine
 10
377.0566534491639
 20
281.3435302342081
 30
0.0
 11
380.7566534491638
 21
281.3435302342081
 31
0.0
  0
LINE
  5
132A
330
18
100
AcDbEntity
  8
外形線
100
AcDbLine
 10
377.0566534491639
 20
283.5435302342081
 30
0.0
 11
380.7566534491638
 21
283.5435302342081
 31
0.0
  0
LINE
  5
132B
330
18
100
AcDbEntity
  8
外形線
100
AcDbLine
 10
377.0566534491639
 20
280.5435302342081
 30
0.0
 11
380.7566534491638
 21
280.5435302342081
 31
0.0
  0
LINE
  5
132C
330
18
100
AcDbEntity
  8
外形線
100
AcDbLine
 10
377.0566534491637
 20
282.0435302342081
 30
0.0
 11
380.7566534491637
 21
282.0435302342081
 31
0.0
  0
LINE
  5
132D
330
18
100
AcDbEntity
  8
外形線
100
AcDbLine
 10
377.0566534491639
 20
268.4435302342081
 30
0.0
 11
380.7566534491638
 21
268.4435302342081
 31
0.0
  0
LINE
  5
132E
330
18
100
AcDbEntity
  8
外形線
100
AcDbLine
 10
377.0566534491639
 20
267.5435302342081
 30
0.0
 11
380.7566534491638
 21
267.5435302342081
 31
0.0
  0
LINE
  5
132F
330
18
100
AcDbEntity
  8
外形線
100
AcDbLine
 10
377.0566534491639
 20
266.7435302342081
 30
0.0
 11
380.7566534491638
 21
266.7435302342081
 31
0.0
  0
LINE
  5
1330
330
18
100
AcDbEntity
  8
外形線
100
AcDbLine
 10
377.0566534491639
 20
265.9435302342081
 30
0.0
 11
380.7566534491638
 21
265.9435302342081
 31
0.0
  0
LINE
  5
1331
330
18
100
AcDbEntity
  8
外形線
100
AcDbLine
 10
377.0566534491639
 20
265.2435302342081
 30
0.0
 11
380.7566534491638
 21
265.2435302342081
 31
0.0
  0
LINE
  5
1336
330
18
100
AcDbEntity
  8
外形線
100
AcDbLine
 10
381.7566534491638
 20
297.0435302342081
 30
0.0
 11
382.2566534491638
 21
297.0435302342081
 31
0.0
  0
ARC
  5
1337
330
18
100
AcDbEntity
  8
外形線
100
AcDbCircle
 10
382.2566534491638
 20
296.0435302342081
 30
0.0
 40
1.0
100
AcDbArc
 50
64.13462858156407
 51
90.0
  0
ARC
  5
1338
330
18
100
AcDbEntity
  8
外形線
100
AcDbCircle
 10
382.2566534491638
 20
268.0435302342081
 30
0.0
 40
1.0
100
AcDbArc
 50
270.0
 51
295.8653714184359
  0
LINE
  5
1339
330
18
100
AcDbEntity
  8
外形線
100
AcDbLine
 10
381.7566534491638
 20
267.0435302342081
 30
0.0
 11
382.2566534491638
 21
267.0435302342081
 31
0.0
  0
ARC
  5
133C
330
18
100
AcDbEntity
  8
外形線
100
AcDbCircle
 10
436.571943065148
 20
282.043530234208
 30
0.0
 40
62.37903158457704
100
AcDbArc
 50
166.4545064755762
 51
193.5454935244236
  0
LINE
  5
1343
330
18
100
AcDbEntity
  8
外形線
100
AcDbLine
 10
376.4141228112746
 20
297.036673859651
 30
0.0
 11
376.5566534491636
 21
297.036673859651
 31
0.0
  0
ARC
  5
1345
330
18
100
AcDbEntity
  8
外形線
100
AcDbCircle
 10
376.4141228112745
 20
296.5366738596509
 30
0.0
 40
0.5
100
AcDbArc
 50
89.99999999999348
 51
166.454506475575
  0
ARC
  5
1346
330
18
100
AcDbEntity
  8
外形線
100
AcDbCircle
 10
376.4141228112745
 20
267.5503866087654
 30
0.0
 40
0.5
100
AcDbArc
 50
193.5454935244249
 51
270.0000000000065
  0
LINE
  5
1347
330
18
100
AcDbEntity
  8
外形線
100
AcDbLine
 10
376.4141228112746
 20
267.0503866087653
 30
0.0
 11
376.5566534491636
 21
267.0503866087653
 31
0.0
  0
LINE
  5
138E
330
18
100
AcDbEntity
  8
外形線
100
AcDbLine
 10
313.5730148389821
 20
246.8435302342081
 30
0.0
 11
313.5730148389821
 21
240.8435302342081
 31
0.0
  0
LINE
  5
138F
330
18
100
AcDbEntity
  8
外形線
100
AcDbLine
 10
314.0730148389819
 20
245.8435302342081
 30
0.0
 11
314.0730148389819
 21
241.8435302342081
 31
0.0
  0
LINE
  5
1390
330
18
100
AcDbEntity
  8
外形線
100
AcDbLine
 10
313.073014838982
 20
240.8435302342081
 30
0.0
 11
313.5730148389821
 21
240.8435302342081
 31
0.0
  0
LINE
  5
1391
330
18
100
AcDbEntity
  8
外形線
100
AcDbLine
 10
313.5730148389821
 20
241.8435302342081
 30
0.0
 11
314.0730148389819
 21
241.8435302342081
 31
0.0
  0
LINE
  5
1392
330
18
100
AcDbEntity
  8
外形線
100
AcDbLine
 10
313.073014838982
 20
246.8435302342081
 30
0.0
 11
313.5730148389821
 21
246.8435302342081
 31
0.0
  0
LINE
  5
1393
330
18
100
AcDbEntity
  8
外形線
100
AcDbLine
 10
313.5730148389821
 20
245.8435302342081
 30
0.0
 11
314.0730148389819
 21
245.8435302342081
 31
0.0
  0
POINT
  5
14D3
330
18
100
AcDbEntity
  8
DEFPOINTS
  6
ByBlock
 62
     0
100
AcDbPoint
 10
390.692911480571
 20
243.8435302342081
 30
0.0
  0
POINT
  5
14D4
330
18
100
AcDbEntity
  8
DEFPOINTS
  6
ByBlock
 62
     0
100
AcDbPoint
 10
390.692911480571
 20
243.8435302342081
 30
0.0
  0
CIRCLE
  5
14E2
102
{ACAD_REACTORS
330
14E5
102
}
330
18
100
AcDbEntity
  8
外形線
100
AcDbCircle
 10
383.0497698909081
 20
255.1807182516885
 30
0.0
 40
0.222687898198611
  0
HATCH
  5
14E5
330
18
100
AcDbEntity
  8
外形線
100
AcDbHatch
 10
0.0
 20
0.0
 30
0.0
210
0.0
220
0.0
230
1.0
  2
SOLID
 70
     1
 71
     1
 91
        1
 92
        7
 72
     1
 73
     1
 93
        2
 10
383.2724577891067
 20
255.1807182516885
 42
1.0
 10
382.8270819927094
 20
255.1807182516885
 42
1.0
 97
        1
330
14E2
 75
     0
 76
     1
 47
0.0124670341605454
 98
        1
 10
383.1077471922545
 20
255.1575463115973
450
        0
451
        0
460
0.0
461
0.0
452
        0
462
0.0
453
        0
470

  0
TEXT
  5
14EC
330
18
100
AcDbEntity
  8
寸法線
 62
     6
100
AcDbText
 10
407.8944734849788
 20
279.7908609193205
 30
0.0
 40
2.5
  1
A
  7
STYLE3
100
AcDbText
  0
CIRCLE
  5
14EE
102
{ACAD_REACTORS
330
14F1
102
}
330
18
100
AcDbEntity
  8
外形線
100
AcDbCircle
 10
399.2804331147062
 20
269.8645909844624
 30
0.0
 40
0.222687898198611
  0
HATCH
  5
14F1
330
18
100
AcDbEntity
  8
外形線
100
AcDbHatch
 10
0.0
 20
0.0
 30
0.0
210
0.0
220
0.0
230
1.0
  2
SOLID
 70
     1
 71
     1
 91
        1
 92
        7
 72
     1
 73
     1
 93
        2
 10
399.5031210129048
 20
269.8645909844624
 42
1.0
 10
399.0577452165077
 20
269.8645909844624
 42
1.0
 97
        1
330
14EE
 75
     0
 76
     1
 47
0.0200805185115556
 98
        1
 10
399.4049492181219
 20
269.7478045564842
450
        0
451
        0
460
0.0
461
0.0
452
        0
462
0.0
453
        0
470

  0
CIRCLE
  5
14F8
102
{ACAD_REACTORS
330
151F
102
}
330
18
100
AcDbEntity
  8
外形線
100
AcDbCircle
 10
385.462435780993
 20
298.0969257310624
 30
0.0
 40
0.222687898198611
  0
HATCH
  5
151F
330
18
100
AcDbEntity
  8
外形線
100
AcDbHatch
 10
0.0
 20
0.0
 30
0.0
210
0.0
220
0.0
230
1.0
  2
SOLID
 70
     1
 71
     1
 91
        1
 92
        7
 72
     1
 73
     1
 93
        2
 10
385.6851236791916
 20
298.0969257310624
 42
1.0
 10
385.2397478827943
 20
298.0969257310624
 42
1.0
 97
        1
330
14F8
 75
     0
 76
     1
 47
0.0431140550968677
 98
        1
 10
385.5796858955782
 20
297.9875905602989
450
        0
451
        0
460
0.0
461
0.0
452
        0
462
0.0
453
        0
470

  0
LINE
  5
157C
330
18
100
AcDbEntity
  8
外形線
100
AcDbLine
 10
460.9555583050335
 20
273.3343968568406
 30
0.0
 11
473.8359516249452
 21
273.3343968568407
 31
0.0
  0
LINE
  5
157F
330
18
100
AcDbEntity
  8
外形線
100
AcDbLine
 10
450.1608141933592
 20
276.6343968568407
 30
0.0
 11
462.8608141933591
 21
276.6343968568406
 31
0.0
  0
LINE
  5
1584
330
18
100
AcDbEntity
  8
外形線
100
AcDbLine
 10
460.9555583050335
 20
273.3343968568406
 30
0.0
 11
462.8608141933591
 21
276.6343968568406
 31
0.0
  0
LINE
  5
1585
330
18
100
AcDbEntity
  8
外形線
100
AcDbLine
 10
452.0660700816848
 20
273.3343968568406
 30
0.0
 11
450.1608141933592
 21
276.6343968568407
 31
0.0
  0
LINE
  5
1586
330
18
100
AcDbEntity
  8
外形線
100
AcDbLine
 10
452.0660700816848
 20
273.3343968568406
 30
0.0
 11
439.185676761773
 21
273.3343968568406
 31
0.0
  0
CIRCLE
  5
1588
330
18
100
AcDbEntity
  8
外形線
100
AcDbCircle
 10
449.470814193359
 20
274.8343968568406
 30
0.0
 40
1.5
  0
CIRCLE
  5
1589
330
18
100
AcDbEntity
  8
外形線
100
AcDbCircle
 10
463.5508141933591
 20
274.8343968568406
 30
0.0
 40
1.5
  0
LINE
  5
158C
330
18
100
AcDbEntity
  8
中心線
100
AcDbLine
 10
446.5340086888097
 20
274.8343968568406
 30
0.0
 11
452.6110728693216
 21
274.8343968568406
 31
0.0
  0
LINE
  5
158D
330
18
100
AcDbEntity
  8
中心線
100
AcDbLine
 10
463.5508141933591
 20
278.2508189709821
 30
0.0
 11
463.5508141933591
 21
271.1101692871503
 31
0.0
  0
LINE
  5
158E
330
18
100
AcDbEntity
  8
中心線
100
AcDbLine
 10
449.470814193359
 20
278.2508189709821
 30
0.0
 11
449.470814193359
 21
271.1101692871503
 31
0.0
  0
LINE
  5
1591
330
18
100
AcDbEntity
  8
中心線
100
AcDbLine
 10
460.6423359112524
 20
274.8343968568407
 30
0.0
 11
466.8755558535375
 21
274.8343968568406
 31
0.0
  0
LINE
  5
15A3
330
18
100
AcDbEntity
  8
寸法線
100
AcDbLine
 10
439.185676761773
 20
271.1656407225992
 30
0.0
 11
441.3544328960145
 21
273.3343968568406
 31
0.0
  0
LINE
  5
15A4
330
18
100
AcDbEntity
  8
寸法線
100
AcDbLine
 10
439.185676761773
 20
266.6755126620645
 30
0.0
 11
445.8445609565491
 21
273.3343968568406
 31
0.0
  0
LINE
  5
15A5
330
18
100
AcDbEntity
  8
寸法線
100
AcDbLine
 10
442.2403620948871
 20
265.2400699346441
 30
0.0
 11
450.3346890170838
 21
273.3343968568407
 31
0.0
  0
LINE
  5
15A6
330
18
100
AcDbEntity
  8
寸法線
100
AcDbLine
 10
451.4323406284095
 20
274.4320484681665
 30
0.0
 11
453.6346890170835
 21
276.6343968568407
 31
0.0
  0
LINE
  5
15A7
330
18
100
AcDbEntity
  8
寸法線
100
AcDbLine
 10
446.7304901554215
 20
265.240069934644
 30
0.0
 11
458.1248170776183
 21
276.6343968568407
 31
0.0
  0
LINE
  5
15A8
330
18
100
AcDbEntity
  8
寸法線
100
AcDbLine
 10
451.2206182159562
 20
265.240069934644
 30
0.0
 11
462.6149451381528
 21
276.6343968568407
 31
0.0
  0
LINE
  5
15A9
330
18
100
AcDbEntity
  8
寸法線
100
AcDbLine
 10
455.7107462764908
 20
265.240069934644
 30
0.0
 11
463.8050731986875
 21
273.3343968568407
 31
0.0
  0
LINE
  5
15AA
330
18
100
AcDbEntity
  8
寸法線
100
AcDbLine
 10
460.2008743370255
 20
265.240069934644
 30
0.0
 11
468.295201259222
 21
273.3343968568407
 31
0.0
  0
LINE
  5
15AB
330
18
100
AcDbEntity
  8
寸法線
100
AcDbLine
 10
464.6910023975599
 20
265.240069934644
 30
0.0
 11
472.7853293197563
 21
273.3343968568407
 31
0.0
  0
LINE
  5
15AC
330
18
100
AcDbEntity
  8
寸法線
100
AcDbLine
 10
469.1811304580946
 20
265.2400699346442
 30
0.0
 11
473.8359516249452
 21
269.8948911014948
 31
0.0
  0
LINE
  5
1634
330
18
100
AcDbEntity
  8
0
  6
ByBlock
 62
     2
100
AcDbLine
 10
462.8608141933591
 20
276.6343968568406
 30
0.0
 11
474.4807079023614
 21
296.7606431393832
 31
0.0
  0
LINE
  5
1635
330
18
100
AcDbEntity
  8
0
  6
ByBlock
 62
     2
100
AcDbLine
 10
450.1608141933592
 20
276.6343968568407
 30
0.0
 11
438.5409204843567
 21
296.7606431393832
 31
0.0
  0
ARC
  5
1636
330
18
100
AcDbEntity
  8
0
  6
ByBlock
 62
     2
100
AcDbCircle
 10
456.5108141933592
 20
265.6358742287778
 30
0.0
 40
34.6897874180055
100
AcDbArc
 50
64.13004734756666
 51
115.869952652434
  0
INSERT
  5
1637
330
18
100
AcDbEntity
  8
0
  6
ByBlock
 62
     2
100
AcDbBlockReference
  2
_OPEN
 10
473.8557079023613
 20
295.6781113846527
 30
0.0
 41
2.5
 42
2.5
 43
2.5
 50
332.0650236737839
  0
INSERT
  5
1638
330
18
100
AcDbEntity
  8
0
  6
ByBlock
 62
     2
100
AcDbBlockReference
  2
_OPEN
 10
439.1659204843565
 20
295.6781113846525
 30
0.0
 41
2.5
 42
2.5
 43
2.5
 50
207.9349763262168
  0
MTEXT
  5
1639
330
18
100
AcDbEntity
  8
0
  6
ByBlock
 62
     6
100
AcDbMText
 10
458.0052752915824
 20
302.2006616467833
 30
0.0
 40
2.5
 41
0.0
 71
     5
 72
     1
  1
\A1;60°
  7
STYLE3
 73
     1
 44
1.0
  0
POINT
  5
163A
330
18
100
AcDbEntity
  8
DEFPOINTS
  6
ByBlock
 62
     0
100
AcDbPoint
 10
462.5346325621485
 20
299.7986458283751
 30
0.0
  0
POINT
  5
163B
330
18
100
AcDbEntity
  8
DEFPOINTS
  6
ByBlock
 62
     0
100
AcDbPoint
 10
452.0660700816848
 20
273.3343968568406
 30
0.0
  0
POINT
  5
163C
330
18
100
AcDbEntity
  8
DEFPOINTS
  6
ByBlock
 62
     0
100
AcDbPoint
 10
460.9555583050335
 20
273.3343968568406
 30
0.0
  0
POINT
  5
163D
330
18
100
AcDbEntity
  8
DEFPOINTS
  6
ByBlock
 62
     0
100
AcDbPoint
 10
462.8608141933591
 20
276.6343968568406
 30
0.0
  0
POINT
  5
163E
330
18
100
AcDbEntity
  8
DEFPOINTS
  6
ByBlock
 62
     0
100
AcDbPoint
 10
450.1608141933592
 20
276.6343968568407
 30
0.0
  0
LINE
  5
164E
330
18
100
AcDbEntity
  8
0
  6
ByBlock
 62
     2
100
AcDbLine
 10
447.2384192430718
 20
281.6961333905213
 30
0.0
 11
438.5409204843567
 21
296.7606431393832
 31
0.0
  0
LINE
  5
164F
330
18
100
AcDbEntity
  8
0
  6
ByBlock
 62
     2
100
AcDbLine
 10
448.1717760876823
 20
274.0843968568406
 30
0.0
 11
435.944959515274
 21
295.2618643750774
 31
0.0
  0
LINE
  5
1651
330
18
100
AcDbEntity
  8
0
  6
ByBlock
 62
     2
100
AcDbLine
 10
434.4048960058128
 20
292.9293326203469
 30
0.0
 11
432.2398324963517
 21
291.6793326203469
 31
0.0
  0
LINE
  5
1652
330
18
100
AcDbEntity
  8
0
  6
ByBlock
 62
     2
100
AcDbLine
 10
439.1659204843565
 20
295.6781113846527
 30
0.0
 11
436.5699595152739
 21
294.1793326203469
 31
0.0
  0
INSERT
  5
1654
330
18
100
AcDbEntity
  8
0
  6
ByBlock
 62
     2
100
AcDbBlockReference
  2
_OPEN
 10
436.5699595152739
 20
294.1793326203469
 30
0.0
 41
2.5
 42
2.5
 43
2.5
 50
29.99999999999952
  0
MTEXT
  5
1655
330
18
100
AcDbEntity
  8
0
  6
ByBlock
 62
     6
100
AcDbMText
 10
434.6216880911826
 20
296.5525196345955
 30
0.0
 40
2.5
 41
0.0
 71
     5
 72
     1
  1
φ1.5
  7
STYLE3
 11
0.8660254037844429
 21
0.4999999999999928
 31
0.0
 73
     1
 44
1.0
  0
POINT
  5
1656
330
18
100
AcDbEntity
  8
DEFPOINTS
  6
ByBlock
 62
     0
100
AcDbPoint
 10
447.2384192430718
 20
281.6961333905213
 30
0.0
 50
60.0000000000005
  0
POINT
  5
1657
330
18
100
AcDbEntity
  8
DEFPOINTS
  6
ByBlock
 62
     0
100
AcDbPoint
 10
448.1717760876823
 20
274.0843968568406
 30
0.0
 50
60.0000000000005
  0
POINT
  5
1658
330
18
100
AcDbEntity
  8
DEFPOINTS
  6
ByBlock
 62
     0
100
AcDbPoint
 10
436.5699595152739
 20
294.1793326203469
 30
0.0
 50
60.0000000000005
  0
LINE
  5
1664
330
18
100
AcDbEntity
  8
0
  6
ByBlock
 62
     2
100
AcDbLine
 10
462.8608141933591
 20
276.6343968568406
 30
0.0
 11
480.6169639470851
 21
276.6343968568406
 31
0.0
  0
LINE
  5
1665
330
18
100
AcDbEntity
  8
0
  6
ByBlock
 62
     2
100
AcDbLine
 10
473.8359516249452
 20
273.3343968568407
 30
0.0
 11
480.6169639470851
 21
273.3343968568407
 31
0.0
  0
LINE
  5
1666
330
18
100
AcDbEntity
  8
0
  6
ByBlock
 62
     2
100
AcDbLine
 10
479.3669639470851
 20
279.1343968568406
 30
0.0
 11
479.3669639470851
 21
281.6343968568406
 31
0.0
  0
LINE
  5
1667
330
18
100
AcDbEntity
  8
0
  6
ByBlock
 62
     2
100
AcDbLine
 10
479.3669639470851
 20
270.8343968568406
 30
0.0
 11
479.3669639470851
 21
262.4614648148449
 31
0.0
  0
LINE
  5
1668
330
18
100
AcDbEntity
  8
0
  6
ByBlock
 62
     2
100
AcDbLine
 10
479.3669639470851
 20
276.6343968568406
 30
0.0
 11
479.3669639470851
 21
273.3343968568407
 31
0.0
  0
INSERT
  5
1669
330
18
100
AcDbEntity
  8
0
  6
ByBlock
 62
     2
100
AcDbBlockReference
  2
_OPEN
 10
479.3669639470851
 20
276.6343968568406
 30
0.0
 41
2.5
 42
2.5
 43
2.5
 50
270.0
  0
INSERT
  5
166A
330
18
100
AcDbEntity
  8
0
  6
ByBlock
 62
     2
100
AcDbBlockReference
  2
_OPEN
 10
479.3669639470851
 20
273.3343968568407
 30
0.0
 41
2.5
 42
2.5
 43
2.5
 50
90.0
  0
MTEXT
  5
166B
330
18
100
AcDbEntity
  8
0
  6
ByBlock
 62
     6
100
AcDbMText
 10
477.4919639470851
 20
266.321571538062
 30
0.0
 40
2.5
 41
0.0
 71
     5
 72
     1
  1
\A1;1.65
  7
STYLE3
 11
0.0000000000000001
 21
1.0
 31
0.0
 73
     1
 44
1.0
  0
POINT
  5
166C
330
18
100
AcDbEntity
  8
DEFPOINTS
  6
ByBlock
 62
     0
100
AcDbPoint
 10
462.8608141933591
 20
276.6343968568406
 30
0.0
  0
POINT
  5
166D
330
18
100
AcDbEntity
  8
DEFPOINTS
  6
ByBlock
 62
     0
100
AcDbPoint
 10
473.8359516249452
 20
273.3343968568407
 30
0.0
  0
POINT
  5
166E
330
18
100
AcDbEntity
  8
DEFPOINTS
  6
ByBlock
 62
     0
100
AcDbPoint
 10
479.3669639470851
 20
273.3343968568407
 30
0.0
  0
TEXT
  5
166F
330
18
100
AcDbEntity
  8
文字
100
AcDbText
 10
434.6346547046425
 20
251.7686161961779
 30
0.0
 40
4.0
  1
A.B.C 断面図 
  7
STYLE3
100
AcDbText
  0
TEXT
  5
1670
330
18
100
AcDbEntity
  8
文字
100
AcDbText
 10
468.7774016075722
 20
251.8808405720569
 30
0.0
 40
3.0
  1
S=2／1
  7
STYLE3
100
AcDbText
  0
LINE
  5
1671
330
18
100
AcDbEntity
  8
外形線
100
AcDbLine
 10
434.2977193674139
 20
251.0952699409042
 30
0.0
 11
484.1640999391816
 21
251.0952699409042
 31
0.0
  0
LINE
  5
1686
330
18
100
AcDbEntity
  8
0
  6
ByBlock
 62
     2
100
AcDbLine
 10
306.0730148389819
 20
314.2396826569147
 30
0.0
 11
306.0730148389819
 21
325.7466187724714
 31
0.0
  0
LINE
  5
1687
330
18
100
AcDbEntity
  8
0
  6
ByBlock
 62
     2
100
AcDbLine
 10
312.0730148389819
 20
314.2396826569147
 30
0.0
 11
312.0730148389819
 21
325.7466187724714
 31
0.0
  0
LINE
  5
1688
330
18
100
AcDbEntity
  8
0
  6
ByBlock
 62
     2
100
AcDbLine
 10
303.5730148389819
 20
324.4966187724714
 30
0.0
 11
301.0730148389819
 21
324.4966187724714
 31
0.0
  0
LINE
  5
1689
330
18
100
AcDbEntity
  8
0
  6
ByBlock
 62
     2
100
AcDbLine
 10
314.5730148389819
 20
324.4966187724714
 30
0.0
 11
317.0730148389818
 21
324.4966187724714
 31
0.0
  0
LINE
  5
168A
330
18
100
AcDbEntity
  8
0
  6
ByBlock
 62
     2
100
AcDbLine
 10
306.0730148389819
 20
324.4966187724714
 30
0.0
 11
312.0730148389819
 21
324.4966187724714
 31
0.0
  0
INSERT
  5
168B
330
18
100
AcDbEntity
  8
0
  6
ByBlock
 62
     2
100
AcDbBlockReference
  2
_OPEN
 10
306.0730148389819
 20
324.4966187724714
 30
0.0
 41
2.5
 42
2.5
 43
2.5
  0
INSERT
  5
168C
330
18
100
AcDbEntity
  8
0
  6
ByBlock
 62
     2
100
AcDbBlockReference
  2
_OPEN
 10
312.0730148389819
 20
324.4966187724714
 30
0.0
 41
2.5
 42
2.5
 43
2.5
 50
180.0
  0
MTEXT
  5
168D
330
18
100
AcDbEntity
  8
0
  6
ByBlock
 62
     6
100
AcDbMText
 10
308.5482156963919
 20
327.3157284049587
 30
0.0
 40
2.5
 41
0.0
 71
     5
 72
     1
  1
\A1;φ6.0
  7
STYLE3
 73
     1
 44
1.0
  0
POINT
  5
168E
330
18
100
AcDbEntity
  8
DEFPOINTS
  6
ByBlock
 62
     0
100
AcDbPoint
 10
306.0730148389819
 20
314.2396826569147
 30
0.0
  0
POINT
  5
168F
330
18
100
AcDbEntity
  8
DEFPOINTS
  6
ByBlock
 62
     0
100
AcDbPoint
 10
312.0730148389819
 20
314.2396826569147
 30
0.0
  0
POINT
  5
1690
330
18
100
AcDbEntity
  8
DEFPOINTS
  6
ByBlock
 62
     0
100
AcDbPoint
 10
312.0730148389819
 20
324.4966187724714
 30
0.0
  0
TEXT
  5
1691
330
18
100
AcDbEntity
  8
文字
100
AcDbText
 10
314.7421283217987
 20
330.3490193044262
 30
0.0
 40
1.5
  1
0
  7
STYLE3
100
AcDbText
  0
TEXT
  5
1692
330
18
100
AcDbEntity
  8
文字
100
AcDbText
 10
312.8768030116034
 20
328.6720800753095
 30
0.0
 40
1.5
  1
-0.03
  7
STYLE3
100
AcDbText
  0
LINE
  5
16EE
330
18
100
AcDbEntity
  8
中心線
 48
0.5
100
AcDbLine
 10
309.0730148389819
 20
316.6871821219538
 30
0.0
 11
309.0730148389819
 21
223.339945092366
 31
0.0
  0
LINE
  5
16EF
330
18
100
AcDbEntity
  8
外形線
100
AcDbLine
 10
311.423014838982
 20
239.8435302342082
 30
0.0
 11
313.0730148389819
 21
239.8435302342081
 31
0.0
  0
LINE
  5
16F2
330
18
100
AcDbEntity
  8
外形線
100
AcDbLine
 10
305.0730148389819
 20
265.0068051968073
 30
0.0
 11
305.0730148389819
 21
239.8435302342081
 31
0.0
  0
LINE
  5
16F3
330
18
100
AcDbEntity
  8
外形線
100
AcDbLine
 10
312.2730148389818
 20
264.8385890834805
 30
0.0
 11
312.2730148389818
 21
249.7435302342081
 31
0.0
  0
LINE
  5
16F9
330
18
100
AcDbEntity
  8
中心線
 48
0.5
100
AcDbLine
 10
300.9449691195541
 20
243.8435302342081
 30
0.0
 11
317.161490950772
 21
243.8435302342081
 31
0.0
  0
LINE
  5
16FD
330
18
100
AcDbEntity
  8
外形線
100
AcDbLine
 10
311.423014838982
 20
239.8435302342082
 30
0.0
 11
311.3346411461372
 21
247.3552941260085
 31
0.0
  0
ARC
  5
16FE
330
18
100
AcDbEntity
  8
外形線
100
AcDbCircle
 10
310.3347103431065
 20
247.3435302342081
 30
0.0
 40
1.0
100
AcDbArc
 50
0.6740368979846682
 51
90.0
  0
LINE
  5
16FF
330
18
100
AcDbEntity
  8
外形線
100
AcDbLine
 10
306.7230148389818
 20
239.8435302342082
 30
0.0
 11
306.8113885318267
 21
247.3552941260085
 31
0.0
  0
LINE
  5
1700
330
18
100
AcDbEntity
  8
外形線
100
AcDbLine
 10
306.7230148389818
 20
239.8435302342082
 30
0.0
 11
305.0730148389819
 21
239.8435302342081
 31
0.0
  0
ARC
  5
1701
330
18
100
AcDbEntity
  8
外形線
100
AcDbCircle
 10
307.8113193348573
 20
247.3435302342081
 30
0.0
 40
1.0
100
AcDbArc
 50
90.0
 51
179.3259631020153
  0
LINE
  5
1702
330
18
100
AcDbEntity
  8
外形線
100
AcDbLine
 10
313.073014838982
 20
265.0068051968073
 30
0.0
 11
313.0730148389819
 21
239.8435302342081
 31
0.0
  0
LINE
  5
1703
330
18
100
AcDbEntity
  8
外形線
100
AcDbLine
 10
312.2730148389818
 20
249.7435302342081
 30
0.0
 11
313.0730148389819
 21
249.7435302342081
 31
0.0
  0
LINE
  5
1704
330
18
100
AcDbEntity
  8
外形線
100
AcDbLine
 10
306.0730148389819
 20
260.8435302342081
 30
0.0
 11
312.073014838982
 21
260.8435302342081
 31
0.0
  0
LINE
  5
1707
330
18
100
AcDbEntity
  8
中心線
 48
0.5
100
AcDbLine
 10
287.6463839593535
 20
282.0435302342081
 30
0.0
 11
330.0254697286957
 21
282.0435302342081
 31
0.0
  0
INSERT
  5
1826
330
18
100
AcDbEntity
  8
ASHADE
 62
     1
100
AcDbBlockReference
  2
AVE_RENDER
 10
0.0
 20
0.0
 30
0.0
1001
AVE_RENDER
1002
{
1070
     7
1000
Pref
1070
    30
1070
    20
1070
     1
1070
     0
1000

1070
    10
1070
     1
1070
    10
1040
1.0
1070
     1
1040
0.3
1040
0.7
1040
0.0
1040
10.0
1010
-1.0
1020
-1.0
1030
-1.0
1040
0.3
1070
    49
1070
     0
1070
     0
1010
1.0
1020
1.0
1030
1.0
1040
45.0
1070
     1
1070
     0
1000
WCS
1040
0.0
1070
     0
1040
10.0
1002
}
  0
INSERT
  5
1827
330
18
100
AcDbEntity
  8
ASHADE
 62
     3
100
AcDbBlockReference
  2
AVE_RENDER
 10
0.0
 20
0.0
 30
0.0
1001
AVE_RENDER
1002
{
1070
     0
1000
Full Opt
1070
     0
1070
     1
1070
     1
1070
     1
1070
     0
1070
     0
1070
     0
1070
     1
1070
     1
1040
0.0001
1040
0.0001
1002
}
  0
INSERT
  5
1828
330
18
100
AcDbEntity
  8
ASHADE
 62
     4
100
AcDbBlockReference
  2
AVE_RENDER
 10
0.0
 20
0.0
 30
0.0
1001
AVE_RENDER
1002
{
1070
     0
1000
Quick Opt
1070
     0
1070
     1
1070
     1
1070
     1
1070
     0
1070
     0
1070
     1
1002
}
  0
INSERT
  5
1829
330
18
100
AcDbEntity
  8
ASHADE
 62
     5
100
AcDbBlockReference
  2
AVE_RENDER
 10
0.0
 20
0.0
 30
0.0
1001
AVE_RENDER
1002
{
1070
     1
1000
Scanl Opt
1070
     2
1070
     0
1070
     2
1040
2.0
1040
4.0
1070
     0
1070
     1
1070
     0
1040
0.03
1002
}
  0
INSERT
  5
182A
330
18
100
AcDbEntity
  8
ASHADE
 62
     6
100
AcDbBlockReference
  2
AVE_RENDER
 10
0.0
 20
0.0
 30
0.0
1001
AVE_RENDER
1002
{
1070
     2
1000
Raytr Opt
1070
     2
1070
     0
1070
     2
1040
2.0
1040
4.0
1070
     0
1070
     1
1070
     1
1040
0.03
1070
     3
1040
0.03
1002
}
  0
INSERT
  5
182B
330
18
100
AcDbEntity
  8
ASHADE
 62
     7
100
AcDbBlockReference
  2
AVE_RENDER
 10
0.0
 20
0.0
 30
0.0
1001
AVE_RENDER
1002
{
1070
     0
1000
RFile Opt
1070
     1
1070
   640
1070
   480
1070
 10000
1070
     1
1070
     8
1070
     8
1070
     0
1070
     0
1070
     0
1070
     0
1070
     0
1070
     0
1070
     0
1002
}
  0
INSERT
  5
182C
330
18
100
AcDbEntity
  8
ASHADE
 62
     8
100
AcDbBlockReference
  2
AVE_RENDER
 10
0.0
 20
0.0
 30
0.0
1001
AVE_RENDER
1002
{
1070
     0
1000
Fog Opt
1070
     0
1070
     0
1040
0.0
1040
1.0
1040
0.0
1040
1.0
1010
0.5
1020
0.5
1030
0.5
1002
}
  0
INSERT
  5
182D
330
18
100
AcDbEntity
  8
ASHADE
 62
     9
100
AcDbBlockReference
  2
AVE_RENDER
 10
0.0
 20
0.0
 30
0.0
1001
AVE_RENDER
1002
{
1070
     0
1000
BG Opt
1070
     0
1070
     1
1010
0.0
1020
0.0
1030
0.0
1010
1.0
1020
0.0
1030
0.0
1010
0.0
1020
1.0
1030
0.0
1010
0.0
1020
0.0
1030
1.0
1040
0.5
1040
0.33
1040
0.0
1000

1070
     1
1000

1070
     1
1070
     1
1040
1.0
1040
1.0
1040
0.0
1040
0.0
1070
     0
1002
}
  0
INSERT
  5
1834
330
18
100
AcDbEntity
  8
ASHADE
 62
     1
100
AcDbBlockReference
  2
AVE_GLOBAL
 10
0.0
 20
0.0
 30
0.0
1001
AVE_MATERIAL
1002
{
1000
*GLOBAL*
1000
1
1000
Global finish.
1002
{
1002
}
1002
{
1070
    63
1002
{
1002
{
1010
-1.0
1020
-1.0
1030
-1.0
1002
}
1040
0.1000000014901161
1000

1040
0.0
1002
{
1002
}
1040
0.0
1002
{
1002
}
1040
0.0
1002
}
1002
{
1002
{
1010
-1.0
1020
-1.0
1030
-1.0
1002
}
1040
0.6999999880790711
1000

1040
0.0
1002
{
1002
}
1040
0.0
1002
{
1002
}
1040
0.0
1002
}
1002
{
1002
{
1010
-1.0
1020
-1.0
1030
-1.0
1002
}
1040
0.2000000029802322
1000

1040
0.0
1002
{
1002
}
1040
0.0
1002
{
1002
}
1040
0.0
1002
}
1002
{
1070
     0
1002
{
1070
     1
1002
{
1040
1.0
1040
1.0
1000

1040
0.0
1002
{
1002
}
1040
0.0
1002
{
1002
}
1040
0.0
1002
}
1002
}
1040
1.0
1040
0.0
1040
0.0
1002
}
1002
{
1040
1.0
1040
1.0
1000

1040
0.0
1002
{
1002
}
1040
0.0
1002
{
1002
}
1040
0.0
1002
}
1002
{
1040
0.5
1040
1.0
1000

1040
0.0
1002
{
1002
}
1040
0.0
1002
{
1002
}
1040
0.0
1002
}
1002
{
1070
     0
1040
0.0
1002
{
1002
}
1040
1.0
1002
{
1002
}
1040
0.0
1002
}
1002
{
1040
0.0
1002
{
1002
{
1010
0.0
1020
0.0
1030
0.0
1002
}
1040
1.0
1000

1040
0.0
1002
{
1002
}
1040
0.0
1002
{
1002
}
1040
0.0
1002
}
1002
}
1002
{
1002
{
1070
     1
1002
{
1040
0.0
1040
1.0
1000

1040
0.0
1002
{
1002
}
1040
0.0
1002
{
1002
}
1040
0.0
1002
}
1002
}
1040
0.0
1002
{
1002
}
1010
1.0
1020
0.0
1030
0.0
1010
0.0
1020
1.0
1030
0.0
1010
0.0
1020
0.0
1030
1.0
1070
     0
1002
}
1002
{
1002
{
1040
1.0
1040
1.0
1002
{
1070
     1
1002
{
1040
1.0
1040
1.0
1000

1040
0.0
1002
{
1002
}
1040
0.0
1002
{
1002
}
1040
0.0
1002
}
1002
}
1002
}
1070
     0
1040
0.0
1002
{
1002
}
1002
}
1002
{
1002
}
1002
}
1002
{
1071
        3
1070
     3
1070
     0
1002
{
1070
     2
1070
     0
1070
     0
1040
0.0
1002
}
1070
     0
1070
     2
1002
{
1002
}
1002
}
1002
{
1040
8030.0
1040
190.3000030517578
1040
0.3050000071525574
1040
228.0
1040
545.0
1040
14.0
1040
17.39999961853027
1040
0.4560000002384186
1002
}
1002
}
  0
ARC
  5
1837
330
18
100
AcDbEntity
  8
外形線
100
AcDbCircle
 10
390.692911480571
 20
243.843530234208
 30
0.0
 40
4.0
100
AcDbArc
 50
199.9281732991189
 51
341.6307198030625
  0
LINE
  5
1838
330
18
100
AcDbEntity
  8
中心線
 48
0.5
100
AcDbLine
 10
382.733934346748
 20
243.8435302342081
 30
0.0
 11
398.9504561779659
 21
243.8435302342081
 31
0.0
  0
LINE
  5
183A
330
18
100
AcDbEntity
  8
中心線
 48
0.5
100
AcDbLine
 10
390.692911480571
 20
317.0581457672803
 30
0.0
 11
390.692911480571
 21
223.4225589057597
 31
0.0
  0
LINE
  5
183F
330
18
100
AcDbEntity
  8
外形線
100
AcDbLine
 10
382.6929114805709
 20
297.1935302342081
 30
0.0
 11
398.5429114805711
 21
297.1935302342082
 31
0.0
  0
LINE
  5
1852
330
18
100
AcDbEntity
  8
外形線
100
AcDbLine
 10
382.6929114805709
 20
298.8435302342081
 30
0.0
 11
398.1929114805709
 21
298.8435302342082
 31
0.0
  0
LINE
  5
1854
330
18
100
AcDbEntity
  8
外形線
100
AcDbLine
 10
398.5429114805711
 20
296.8435302342082
 30
0.0
 11
400.1929114805709
 21
296.8435302342081
 31
0.0
  0
LINE
  5
1855
330
18
100
AcDbEntity
  8
外形線
100
AcDbLine
 10
400.1929114805709
 20
296.8435302342081
 30
0.0
 11
400.1929114805709
 21
259.2935302342082
 31
0.0
  0
LINE
  5
1858
330
18
100
AcDbEntity
  8
外形線
100
AcDbLine
 10
398.5429114805711
 20
257.6435302342081
 30
0.0
 11
400.1929114805709
 21
259.2935302342082
 31
0.0
  0
LINE
  5
187E
330
18
100
AcDbEntity
  8
外形線
100
AcDbLine
 10
382.6929114805709
 20
298.8435302342081
 30
0.0
 11
382.6929114805709
 21
260.8435302342083
 31
0.0
  0
LINE
  5
187F
330
18
100
AcDbEntity
  8
外形線
100
AcDbLine
 10
398.5429114805711
 20
297.1935302342082
 30
0.0
 11
398.5429114805711
 21
253.1435302342081
 31
0.0
  0
LINE
  5
1882
330
18
100
AcDbEntity
  8
外形線
100
AcDbLine
 10
398.1929114805709
 20
297.1935302342082
 30
0.0
 11
398.1929114805709
 21
298.8435302342082
 31
0.0
  0
LINE
  5
1886
330
18
100
AcDbEntity
  8
外形線
100
AcDbLine
 10
398.5429114805711
 20
253.1435302342081
 30
0.0
 11
394.4890919372793
 21
242.5829692717365
 31
0.0
  0
LINE
  5
1889
330
18
100
AcDbEntity
  8
外形線
100
AcDbLine
 10
382.6929114805709
 20
260.8435302342083
 30
0.0
 11
386.9324289086131
 21
242.4801627760366
 31
0.0
  0
LINE
  5
188A
330
18
100
AcDbEntity
  8
外形線
100
AcDbLine
 10
381.0852008736754
 20
260.4723609945409
 30
0.0
 11
383.8853620917815
 21
248.3435302342081
 31
0.0
  0
LINE
  5
188B
330
18
100
AcDbEntity
  8
外形線
100
AcDbLine
 10
382.6929114805709
 20
260.8435302342083
 30
0.0
 11
381.0852008736754
 21
260.4723609945409
 31
0.0
  0
LINE
  5
188C
330
18
100
AcDbEntity
  8
外形線
100
AcDbLine
 10
383.8853620917815
 20
248.3435302342081
 30
0.0
 11
385.5787638696407
 21
248.3435302342082
 31
0.0
  0
LINE
  5
188D
330
18
100
AcDbEntity
  8
外形線
100
AcDbLine
 10
312.0730148389819
 20
248.3435302342082
 30
0.0
 11
306.0730148389819
 21
248.3435302342081
 31
0.0
  0
LINE
  5
188E
330
18
100
AcDbEntity
  8
外形線
100
AcDbLine
 10
312.073014838982
 20
260.4723609945409
 30
0.0
 11
306.0730148389819
 21
260.4723609945409
 31
0.0
  0
LINE
  5
188F
330
18
100
AcDbEntity
  8
外形線
100
AcDbLine
 10
312.073014838982
 20
260.8435302342081
 30
0.0
 11
312.0730148389819
 21
248.3435302342082
 31
0.0
  0
LINE
  5
1890
330
18
100
AcDbEntity
  8
外形線
100
AcDbLine
 10
306.0730148389819
 20
260.8435302342081
 30
0.0
 11
306.0730148389819
 21
248.3435302342081
 31
0.0
  0
LINE
  5
1891
330
18
100
AcDbEntity
  8
中心線
 48
0.5
100
AcDbLine
 10
308.5944226894146
 20
249.8435302342081
 30
0.0
 11
312.5328019534393
 21
249.8435302342081
 31
0.0
  0
LINE
  5
1892
330
18
100
AcDbEntity
  8
中心線
 48
0.5
100
AcDbLine
 10
310.2730148389818
 20
252.0316360483154
 30
0.0
 11
310.273014838982
 21
247.2940637429644
 31
0.0
  0
CIRCLE
  5
1897
330
18
100
AcDbEntity
  8
外形線
100
AcDbCircle
 10
310.2730148389818
 20
249.8435302342081
 30
0.0
 40
1.0
  0
CIRCLE
  5
1898
330
18
100
AcDbEntity
  8
外形線
100
AcDbCircle
 10
310.2730148389818
 20
249.8435302342081
 30
0.0
 40
0.675
  0
LINE
  5
18A8
330
18
100
AcDbEntity
  8
中心線
 48
0.5
100
AcDbLine
 10
385.142911480571
 20
296.5727533901579
 30
0.0
 11
385.1429114805709
 21
291.2926343771122
 31
0.0
  0
LINE
  5
18B7
330
18
100
AcDbEntity
  8
外形線
100
AcDbLine
 10
385.2440049925085
 20
249.7935302342082
 30
0.0
 11
397.2569669632024
 21
249.7935302342082
 31
0.0
  0
LINE
  5
18B9
330
18
100
AcDbEntity
  8
中心線
 48
0.5
100
AcDbLine
 10
382.1584301744541
 20
293.8935302342082
 30
0.0
 11
387.9972016088689
 21
293.8935302342082
 31
0.0
  0
LINE
  5
18BD
330
18
100
AcDbEntity
  8
中心線
 48
0.5
100
AcDbLine
 10
383.6584301744541
 20
252.0935302342082
 30
0.0
 11
389.4972016088689
 21
252.0935302342082
 31
0.0
  0
LINE
  5
18BE
330
18
100
AcDbEntity
  8
外形線
100
AcDbLine
 10
387.1831027491204
 20
251.4497553492264
 30
0.0
 11
386.1027202120215
 21
252.7373051191901
 31
0.0
  0
LINE
  5
18BF
330
18
100
AcDbEntity
  8
外形線
100
AcDbLine
 10
385.9991365955892
 20
251.5533389656588
 30
0.0
 11
387.2866863655529
 21
252.6337215027577
 31
0.0
  0
CIRCLE
  5
18C0
330
18
100
AcDbEntity
  8
外形線
100
AcDbCircle
 10
386.642911480571
 20
252.0935302342082
 30
0.0
 40
1.5
  0
LINE
  5
18C1
330
18
100
AcDbEntity
  8
中心線
 48
0.5
100
AcDbLine
 10
386.642911480571
 20
254.7727533901579
 30
0.0
 11
386.6429114805709
 21
249.4926343771122
 31
0.0
  0
LINE
  5
18C2
330
18
100
AcDbEntity
  8
中心線
 48
0.5
100
AcDbLine
 10
393.058430174454
 20
252.0935302342082
 30
0.0
 11
398.8972016088689
 21
252.0935302342083
 31
0.0
  0
LINE
  5
18C3
330
18
100
AcDbEntity
  8
外形線
100
AcDbLine
 10
396.5831027491203
 20
251.4497553492264
 30
0.0
 11
395.5027202120215
 21
252.7373051191901
 31
0.0
  0
LINE
  5
18C4
330
18
100
AcDbEntity
  8
外形線
100
AcDbLine
 10
395.3991365955891
 20
251.5533389656588
 30
0.0
 11
396.6866863655527
 21
252.6337215027577
 31
0.0
  0
CIRCLE
  5
18C5
330
18
100
AcDbEntity
  8
外形線
100
AcDbCircle
 10
396.042911480571
 20
252.0935302342082
 30
0.0
 40
1.5
  0
LINE
  5
18C6
330
18
100
AcDbEntity
  8
中心線
 48
0.5
100
AcDbLine
 10
396.042911480571
 20
254.7727533901579
 30
0.0
 11
396.0429114805709
 21
249.4926343771123
 31
0.0
  0
LINE
  5
18C7
330
18
100
AcDbEntity
  8
中心線
 48
0.5
100
AcDbLine
 10
396.042911480571
 20
296.5727533901577
 30
0.0
 11
396.0429114805709
 21
291.2926343771121
 31
0.0
  0
LINE
  5
18C9
330
18
100
AcDbEntity
  8
中心線
 48
0.5
100
AcDbLine
 10
393.058430174454
 20
293.8935302342082
 30
0.0
 11
398.8972016088688
 21
293.8935302342083
 31
0.0
  0
LINE
  5
18CA
330
18
100
AcDbEntity
  8
外形線
100
AcDbLine
 10
396.5831027491203
 20
293.2497553492265
 30
0.0
 11
395.5027202120214
 21
294.5373051191901
 31
0.0
  0
LINE
  5
18CB
330
18
100
AcDbEntity
  8
外形線
100
AcDbLine
 10
395.399136595589
 20
293.3533389656588
 30
0.0
 11
396.6866863655527
 21
294.4337215027577
 31
0.0
  0
CIRCLE
  5
18CC
330
18
100
AcDbEntity
  8
外形線
100
AcDbCircle
 10
396.0429114805709
 20
293.8935302342082
 30
0.0
 40
1.5
  0
LINE
  5
18CF
330
18
100
AcDbEntity
  8
中心線
 48
0.5
100
AcDbLine
 10
370.8306389321387
 20
282.0435302342081
 30
0.0
 11
404.4943384089101
 21
282.0435302342081
 31
0.0
  0
LINE
  5
192E
330
18
100
AcDbEntity
  8
外形線
100
AcDbLine
 10
307.973014838982
 20
235.7835302342081
 30
0.0
 11
308.4730148389819
 21
226.8435302342081
 31
0.0
  0
LINE
  5
192F
330
18
100
AcDbEntity
  8
外形線
100
AcDbLine
 10
310.1730148389819
 20
235.7835302342081
 30
0.0
 11
309.6730148389819
 21
226.8435302342081
 31
0.0
  0
LINE
  5
1930
330
18
100
AcDbEntity
  8
中心線
 48
0.5
100
AcDbLine
 10
306.6896125939972
 20
226.0435302342081
 30
0.0
 11
312.0337628042292
 21
226.0435302342081
 31
0.0
  0
LINE
  5
1931
330
18
100
AcDbEntity
  8
隠れ線
 62
     4
 48
0.3
100
AcDbLine
 10
309.0730148389819
 20
227.0431520639859
 30
0.0
 11
308.4730148389819
 21
226.8435302342081
 31
0.0
  0
LINE
  5
1932
330
18
100
AcDbEntity
  8
外形線
100
AcDbLine
 10
308.4730148389819
 20
226.8435302342081
 30
0.0
 11
309.6730148389819
 21
226.8435302342081
 31
0.0
  0
ARC
  5
1933
330
18
100
AcDbEntity
  8
外形線
100
AcDbCircle
 10
309.0730148389819
 20
226.0435302342081
 30
0.0
 40
1.0
100
AcDbArc
 50
126.869897645842
 51
53.13010235415791
  0
LINE
  5
1934
330
18
100
AcDbEntity
  8
隠れ線
 62
     4
 48
0.3
100
AcDbLine
 10
309.0730148389819
 20
227.0431520639859
 30
0.0
 11
309.6730148389819
 21
226.8435302342081
 31
0.0
  0
LINE
  5
1936
330
18
100
AcDbEntity
  8
外形線
 62
     4
100
AcDbLine
 10
309.7400021370896
 20
238.4835302342081
 30
0.0
 11
308.4060275408743
 21
238.4835302342081
 31
0.0
  0
LINE
  5
193A
330
18
100
AcDbEntity
  8
外形線
100
AcDbLine
 10
307.9730148389818
 20
239.9835302342081
 30
0.0
 11
309.0730148389819
 21
239.9835302342081
 31
0.0
  0
LINE
  5
1940
330
18
100
AcDbEntity
  8
外形線
100
AcDbLine
 10
309.0730148389819
 20
239.9835302342081
 30
0.0
 11
310.1730148389819
 21
239.9835302342081
 31
0.0
  0
LINE
  5
1942
330
18
100
AcDbEntity
  8
外形線
100
AcDbLine
 10
310.1730148389819
 20
238.7335302342081
 30
0.0
 11
309.7400021370896
 21
238.4835302342081
 31
0.0
  0
LINE
  5
1945
330
18
100
AcDbEntity
  8
外形線
100
AcDbLine
 10
309.0730148389819
 20
240.0835302342081
 30
0.0
 11
310.8730148389819
 21
240.0835302342081
 31
0.0
  0
LINE
  5
1946
330
18
100
AcDbEntity
  8
外形線
100
AcDbLine
 10
309.0730148389819
 20
240.0835302342081
 30
0.0
 11
307.5730148389819
 21
240.083530234208
 31
0.0
  0
LINE
  5
1948
330
18
100
AcDbEntity
  8
外形線
100
AcDbLine
 10
310.073014838982
 20
248.3435302342082
 30
0.0
 11
310.0730148389819
 21
240.1835302342082
 31
0.0
  0
LINE
  5
1949
330
18
100
AcDbEntity
  8
外形線
100
AcDbLine
 10
307.473014838982
 20
247.5835302342081
 30
0.0
 11
307.4730148389818
 21
240.1835302342082
 31
0.0
  0
LINE
  5
194A
330
18
100
AcDbEntity
  8
外形線
100
AcDbLine
 10
307.5730148389819
 20
247.6835302342081
 30
0.0
 11
309.973014838982
 21
247.6835302342081
 31
0.0
  0
LINE
  5
194B
330
18
100
AcDbEntity
  8
外形線
100
AcDbLine
 10
307.473014838982
 20
247.5835302342081
 30
0.0
 11
307.5730148389819
 21
247.6835302342081
 31
0.0
  0
LINE
  5
194C
330
18
100
AcDbEntity
  8
外形線
100
AcDbLine
 10
309.973014838982
 20
247.6835302342081
 30
0.0
 11
310.0730148389819
 21
247.5835302342081
 31
0.0
  0
LINE
  5
194D
330
18
100
AcDbEntity
  8
外形線
100
AcDbLine
 10
307.4730148389818
 20
240.1835302342082
 30
0.0
 11
307.5730148389819
 21
240.0835302342081
 31
0.0
  0
LINE
  5
194E
330
18
100
AcDbEntity
  8
外形線
100
AcDbLine
 10
310.0730148389819
 20
240.1835302342082
 30
0.0
 11
309.9730148389818
 21
240.0835302342081
 31
0.0
  0
LINE
  5
194F
330
18
100
AcDbEntity
  8
外形線
100
AcDbLine
 10
310.8730148389819
 20
248.1862806537988
 30
0.0
 11
310.8730148389819
 21
240.0835302342081
 31
0.0
  0
LINE
  5
1952
330
18
100
AcDbEntity
  8
外形線
100
AcDbLine
 10
307.0700944230387
 20
245.8435302342081
 30
0.0
 11
307.0700944230387
 21
241.8435302342081
 31
0.0
  0
LINE
  5
1953
330
18
100
AcDbEntity
  8
外形線
100
AcDbLine
 10
307.0700944230387
 20
245.8435302342081
 30
0.0
 11
306.793603074276
 21
245.8435302342081
 31
0.0
  0
LINE
  5
1954
330
18
100
AcDbEntity
  8
外形線
100
AcDbLine
 10
307.0700944230387
 20
241.8435302342081
 30
0.0
 11
306.7465442507466
 21
241.8435302342081
 31
0.0
  0
LINE
  5
1955
330
18
100
AcDbEntity
  8
外形線
100
AcDbLine
 10
307.0700944230387
 20
244.4935302342081
 30
0.0
 11
307.4730148389818
 21
244.4935302342081
 31
0.0
  0
LINE
  5
1956
330
18
100
AcDbEntity
  8
外形線
100
AcDbLine
 10
307.0700944230387
 20
243.1935302342081
 30
0.0
 11
307.4730148389818
 21
243.1935302342081
 31
0.0
  0
LINE
  5
1957
330
18
100
AcDbEntity
  8
外形線
100
AcDbLine
 10
310.8730148389819
 20
244.4935302342081
 30
0.0
 11
311.368308956629
 21
244.4935302342081
 31
0.0
  0
LINE
  5
1958
330
18
100
AcDbEntity
  8
外形線
100
AcDbLine
 10
310.8730148389819
 20
243.1935302342081
 30
0.0
 11
311.383603074276
 21
243.1935302342081
 31
0.0
  0
LINE
  5
1985
330
18
100
AcDbEntity
  8
0
  6
ByBlock
 62
     2
100
AcDbLine
 10
400.1929114805709
 20
296.8435302342081
 30
0.0
 11
400.1929114805709
 21
325.7466187724714
 31
0.0
  0
LINE
  5
1986
330
18
100
AcDbEntity
  8
0
  6
ByBlock
 62
     2
100
AcDbLine
 10
396.042911480571
 20
324.4966187724714
 30
0.0
 11
393.542911480571
 21
324.4966187724714
 31
0.0
  0
LINE
  5
1987
330
18
100
AcDbEntity
  8
0
  6
ByBlock
 62
     2
100
AcDbLine
 10
402.6929114805708
 20
324.4966187724714
 30
0.0
 11
411.5295374119441
 21
324.4966187724714
 31
0.0
  0
MTEXT
  5
1988
330
18
100
AcDbEntity
  8
0
  6
ByBlock
 62
     6
100
AcDbMText
 10
407.0960723579116
 20
326.7304544667303
 30
0.0
 40
2.5
 41
0.0
 71
     5
 72
     1
  1
\A1;1.65
  7
STYLE3
 73
     1
 44
1.0
  0
LINE
  5
1989
330
18
100
AcDbEntity
  8
0
  6
ByBlock
 62
     2
100
AcDbLine
 10
398.5429114805711
 20
324.4966187724714
 30
0.0
 11
400.1929114805709
 21
324.4966187724714
 31
0.0
  0
LINE
  5
198A
330
18
100
AcDbEntity
  8
0
  6
ByBlock
 62
     2
100
AcDbLine
 10
398.5429114805711
 20
324.4966187724714
 30
0.0
 11
400.1929114805709
 21
324.4966187724714
 31
0.0
  0
INSERT
  5
198B
330
18
100
AcDbEntity
  8
0
  6
ByBlock
 62
     2
100
AcDbBlockReference
  2
_OPEN
 10
398.5429114805711
 20
324.4966187724714
 30
0.0
 41
2.5
 42
2.5
 43
2.5
  0
INSERT
  5
198C
330
18
100
AcDbEntity
  8
0
  6
ByBlock
 62
     2
100
AcDbBlockReference
  2
_OPEN
 10
400.1929114805709
 20
324.4966187724714
 30
0.0
 41
2.5
 42
2.5
 43
2.5
 50
180.0
  0
POINT
  5
198D
330
18
100
AcDbEntity
  8
DEFPOINTS
  6
ByBlock
 62
     0
100
AcDbPoint
 10
398.5429114805711
 20
297.1935302342082
 30
0.0
  0
POINT
  5
198E
330
18
100
AcDbEntity
  8
DEFPOINTS
  6
ByBlock
 62
     0
100
AcDbPoint
 10
400.1929114805709
 20
296.8435302342081
 30
0.0
  0
POINT
  5
198F
330
18
100
AcDbEntity
  8
DEFPOINTS
  6
ByBlock
 62
     0
100
AcDbPoint
 10
400.1929114805709
 20
324.4966187724714
 30
0.0
  0
TEXT
  5
1AA1
330
18
100
AcDbEntity
  8
文字
100
AcDbText
 10
302.604683014618
 20
286.5435302342081
 30
0.0
 40
1.5
  1
NEW PIC-TEST
 41
0.8
  7
STYLE3
100
AcDbText
  0
LINE
  5
1B1E
330
18
100
AcDbEntity
  8
外形線
100
AcDbLine
 10
310.1730148389819
 20
239.9835302342081
 30
0.0
 11
310.1730148389819
 21
238.7335302342081
 31
0.0
  0
LINE
  5
1B1F
330
18
100
AcDbEntity
  8
外形線
100
AcDbLine
 10
307.9730148389818
 20
239.9835302342081
 30
0.0
 11
307.9730148389818
 21
238.7335302342082
 31
0.0
  0
LINE
  5
1B20
330
18
100
AcDbEntity
  8
外形線
100
AcDbLine
 10
307.9730148389818
 20
239.9835302342081
 30
0.0
 11
308.0730148389819
 21
240.0835302342081
 31
0.0
  0
LINE
  5
1B21
330
18
100
AcDbEntity
  8
外形線
100
AcDbLine
 10
310.0730148389819
 20
240.0835302342081
 30
0.0
 11
310.1730148389819
 21
239.9835302342081
 31
0.0
  0
LINE
  5
1B23
330
18
100
AcDbEntity
  8
外形線
100
AcDbLine
 10
310.1730148389819
 20
238.7335302342081
 30
0.0
 11
307.9730148389818
 21
238.7335302342082
 31
0.0
  0
LINE
  5
1B24
330
18
100
AcDbEntity
  8
外形線
100
AcDbLine
 10
310.1730148389819
 20
238.2335302342081
 30
0.0
 11
307.9730148389818
 21
238.2335302342081
 31
0.0
  0
LINE
  5
1B25
330
18
100
AcDbEntity
  8
外形線
100
AcDbLine
 10
310.1730148389819
 20
238.2335302342084
 30
0.0
 11
309.7400021370897
 21
238.4835302342082
 31
0.0
  0
LINE
  5
1B26
330
18
100
AcDbEntity
  8
外形線
100
AcDbLine
 10
307.9730148389818
 20
238.7335302342081
 30
0.0
 11
308.4060275408743
 21
238.4835302342081
 31
0.0
  0
LINE
  5
1B27
330
18
100
AcDbEntity
  8
外形線
100
AcDbLine
 10
307.9730148389818
 20
238.2335302342084
 30
0.0
 11
308.4060275408742
 21
238.4835302342082
 31
0.0
  0
LINE
  5
1B28
330
18
100
AcDbEntity
  8
外形線
100
AcDbLine
 10
307.973014838982
 20
238.2335302342084
 30
0.0
 11
307.973014838982
 21
235.7835302342081
 31
0.0
  0
LINE
  5
1B29
330
18
100
AcDbEntity
  8
外形線
100
AcDbLine
 10
310.1730148389819
 20
238.2335302342084
 30
0.0
 11
310.1730148389819
 21
235.7835302342081
 31
0.0
  0
LINE
  5
1B2A
330
18
100
AcDbEntity
  8
外形線
100
AcDbLine
 10
307.973014838982
 20
235.7835302342081
 30
0.0
 11
310.1730148389819
 21
235.7835302342081
 31
0.0
  0
LINE
  5
1B43
330
18
100
AcDbEntity
  8
外形線
100
AcDbLine
 10
391.792911480571
 20
235.783530234208
 30
0.0
 11
391.292911480571
 21
226.843530234208
 31
0.0
  0
LINE
  5
1B44
330
18
100
AcDbEntity
  8
外形線
100
AcDbLine
 10
389.592911480571
 20
235.783530234208
 30
0.0
 11
390.092911480571
 21
226.843530234208
 31
0.0
  0
ARC
  5
1B45
330
18
100
AcDbEntity
  8
外形線
100
AcDbCircle
 10
390.692911480571
 20
226.043530234208
 30
0.0
 40
1.0
100
AcDbArc
 50
126.869897645842
 51
53.13010235415791
  0
LINE
  5
1B47
330
18
100
AcDbEntity
  8
中心線
 48
0.5
100
AcDbLine
 10
388.3095092355863
 20
226.043530234208
 30
0.0
 11
393.6536594458183
 21
226.043530234208
 31
0.0
  0
LINE
  5
1B48
330
18
100
AcDbEntity
  8
隠れ線
 62
     4
 48
0.3
100
AcDbLine
 10
390.692911480571
 20
227.0431520639858
 30
0.0
 11
390.092911480571
 21
226.843530234208
 31
0.0
  0
LINE
  5
1B49
330
18
100
AcDbEntity
  8
外形線
100
AcDbLine
 10
390.092911480571
 20
226.843530234208
 30
0.0
 11
391.292911480571
 21
226.843530234208
 31
0.0
  0
LINE
  5
1B4A
330
18
100
AcDbEntity
  8
隠れ線
 62
     4
 48
0.3
100
AcDbLine
 10
390.692911480571
 20
227.0431520639858
 30
0.0
 11
391.292911480571
 21
226.843530234208
 31
0.0
  0
LINE
  5
1B4B
330
18
100
AcDbEntity
  8
外形線
100
AcDbLine
 10
391.792911480571
 20
239.983530234208
 30
0.0
 11
391.792911480571
 21
238.733530234208
 31
0.0
  0
LINE
  5
1B4C
330
18
100
AcDbEntity
  8
外形線
100
AcDbLine
 10
389.592911480571
 20
239.983530234208
 30
0.0
 11
389.592911480571
 21
238.733530234208
 31
0.0
  0
LINE
  5
1B4D
330
18
100
AcDbEntity
  8
外形線
100
AcDbLine
 10
389.592911480571
 20
235.783530234208
 30
0.0
 11
391.792911480571
 21
235.783530234208
 31
0.0
  0
LINE
  5
1B4E
330
18
100
AcDbEntity
  8
外形線
 62
     4
100
AcDbLine
 10
391.3598987786786
 20
238.483530234208
 30
0.0
 11
390.0259241824634
 21
238.483530234208
 31
0.0
  0
LINE
  5
1B4F
330
18
100
AcDbEntity
  8
外形線
100
AcDbLine
 10
391.792911480571
 20
238.233530234208
 30
0.0
 11
389.592911480571
 21
238.233530234208
 31
0.0
  0
LINE
  5
1B50
330
18
100
AcDbEntity
  8
外形線
100
AcDbLine
 10
391.792911480571
 20
238.733530234208
 30
0.0
 11
389.592911480571
 21
238.733530234208
 31
0.0
  0
LINE
  5
1B51
330
18
100
AcDbEntity
  8
外形線
100
AcDbLine
 10
389.592911480571
 20
238.2335302342083
 30
0.0
 11
389.592911480571
 21
235.783530234208
 31
0.0
  0
LINE
  5
1B52
330
18
100
AcDbEntity
  8
外形線
100
AcDbLine
 10
389.592911480571
 20
238.733530234208
 30
0.0
 11
390.0259241824634
 21
238.483530234208
 31
0.0
  0
LINE
  5
1B53
330
18
100
AcDbEntity
  8
外形線
100
AcDbLine
 10
389.592911480571
 20
238.2335302342082
 30
0.0
 11
390.0259241824631
 21
238.4835302342081
 31
0.0
  0
LINE
  5
1B54
330
18
100
AcDbEntity
  8
外形線
100
AcDbLine
 10
391.792911480571
 20
238.2335302342082
 30
0.0
 11
391.792911480571
 21
235.783530234208
 31
0.0
  0
LINE
  5
1B55
330
18
100
AcDbEntity
  8
外形線
100
AcDbLine
 10
391.792911480571
 20
238.733530234208
 30
0.0
 11
391.3598987786786
 21
238.483530234208
 31
0.0
  0
LINE
  5
1B56
330
18
100
AcDbEntity
  8
外形線
100
AcDbLine
 10
391.792911480571
 20
238.2335302342082
 30
0.0
 11
391.3598987786788
 21
238.4835302342081
 31
0.0
  0
LINE
  5
1B57
330
18
100
AcDbEntity
  8
外形線
100
AcDbLine
 10
389.592911480571
 20
239.983530234208
 30
0.0
 11
389.6439119572157
 21
239.983530234208
 31
0.0
  0
LINE
  5
1B59
330
18
100
AcDbEntity
  8
外形線
100
AcDbLine
 10
389.592911480571
 20
239.983530234208
 30
0.0
 11
389.6039845881743
 21
239.9946033418112
 31
0.0
  0
LINE
  5
1B5B
330
18
100
AcDbEntity
  8
外形線
100
AcDbLine
 10
391.7419110039265
 20
239.983530234208
 30
0.0
 11
391.792911480571
 21
239.983530234208
 31
0.0
  0
LINE
  5
1B5C
330
18
100
AcDbEntity
  8
外形線
100
AcDbLine
 10
391.7818383729679
 20
239.9946033418113
 30
0.0
 11
391.792911480571
 21
239.9835302342081
 31
0.0
  0
LINE
  5
1B63
330
18
100
AcDbEntity
  8
目盛
100
AcDbLine
 10
309.7459872942396
 20
297.0284262323279
 30
0.0
 11
309.6786900487138
 21
295.5299366325158
 31
0.0
  0
LINE
  5
1B64
330
18
100
AcDbEntity
  8
目盛
100
AcDbLine
 10
310.4176044725333
 20
296.9831446441367
 30
0.0
 11
310.2831455091783
 21
295.4891832031439
 31
0.0
  0
LINE
  5
1B65
330
18
100
AcDbEntity
  8
目盛
100
AcDbLine
 10
311.0865138262468
 20
296.9077766607272
 30
0.0
 11
310.8851639275203
 21
295.4213520180752
 31
0.0
  0
LINE
  5
1B66
330
18
100
AcDbEntity
  8
目盛
100
AcDbLine
 10
311.7513682609614
 20
296.8024740631875
 30
0.0
 11
311.4835329187635
 21
295.3265796802896
 31
0.0
  0
LINE
  5
1E60
330
18
100
AcDbEntity
  8
目盛
100
AcDbLine
 10
308.4000423837242
 20
297.0284262323279
 30
0.0
 11
308.4673396292499
 21
295.5299366325158
 31
0.0
  0
LINE
  5
1E61
330
18
100
AcDbEntity
  8
目盛
100
AcDbLine
 10
307.7284252054304
 20
296.9831446441368
 30
0.0
 11
307.8628841687855
 21
295.4891832031439
 31
0.0
  0
LINE
  5
1E62
330
18
100
AcDbEntity
  8
目盛
100
AcDbLine
 10
307.059515851717
 20
296.9077766607271
 30
0.0
 11
307.2608657504435
 21
295.4213520180752
 31
0.0
  0
LINE
  5
1E63
330
18
100
AcDbEntity
  8
目盛
100
AcDbLine
 10
306.3946614170023
 20
296.8024740631875
 30
0.0
 11
306.6624967592002
 21
295.3265796802896
 31
0.0
  0
LINE
  5
1E64
330
18
100
AcDbEntity
  8
目盛
100
AcDbLine
 10
305.7352008296372
 20
296.6674489169355
 30
0.0
 11
306.291503164528
 21
294.2301291364809
 31
0.0
  0
LINE
  5
1E65
330
18
100
AcDbEntity
  8
目盛
100
AcDbLine
 10
305.0824621554818
 20
296.5029731446459
 30
0.0
 11
305.4815174238318
 21
295.0570288536022
 31
0.0
  0
LINE
  5
1E66
330
18
100
AcDbEntity
  8
目盛
100
AcDbLine
 10
304.4377599233578
 20
296.3093779786354
 30
0.0
 11
304.9012854149201
 21
294.8827932041927
 31
0.0
  0
LINE
  5
1E67
330
18
100
AcDbEntity
  8
目盛
100
AcDbLine
 10
303.8023924777618
 20
296.0870532938042
 30
0.0
 11
304.3294547138838
 21
294.6827009878446
 31
0.0
  0
LINE
  5
1E68
330
18
100
AcDbEntity
  8
目盛
100
AcDbLine
 10
303.1776393641731
 20
295.8364468224798
 30
0.0
 11
303.7671769116538
 21
294.4571551636527
 31
0.0
  0
LINE
  5
1E69
330
18
100
AcDbEntity
  8
目盛
100
AcDbLine
 10
302.5647587522186
 20
295.5580632527444
 30
0.0
 11
303.6494681000124
 21
293.3056410829884
 31
0.0
  0
LINE
  5
1E6A
330
18
100
AcDbEntity
  8
目盛
100
AcDbLine
 10
301.9649849018869
 20
295.2524632120592
 30
0.0
 11
302.6757878955964
 21
293.9315699142741
 31
0.0
  0
LINE
  5
1E6B
330
18
100
AcDbEntity
  8
目盛
100
AcDbLine
 10
301.3795256778933
 20
294.9202621382361
 30
0.0
 11
302.1488745940022
 21
293.6325889478334
 31
0.0
  0
LINE
  5
1E6C
330
18
100
AcDbEntity
  8
目盛
100
AcDbLine
 10
300.8095601172004
 20
294.5621290400276
 30
0.0
 11
301.6359055893785
 21
293.3102691594458
 31
0.0
  0
LINE
  5
1E6D
330
18
100
AcDbEntity
  8
目盛
100
AcDbLine
 10
300.2562360545947
 20
294.1787851498323
 30
0.0
 11
301.1379139330334
 21
292.9652596582699
 31
0.0
  0
LINE
  5
1E6E
330
18
100
AcDbEntity
  8
目盛
100
AcDbLine
 10
299.7206678111009
 20
293.7710024712286
 30
0.0
 11
301.2793923157476
 21
291.8164237650585
 31
0.0
  0
LINE
  5
1E6F
330
18
100
AcDbEntity
  8
目盛
100
AcDbLine
 10
299.2039339498862
 20
293.3396022242622
 30
0.0
 11
300.1908420387958
 21
292.2099950252568
 31
0.0
  0
LINE
  5
1E70
330
18
100
AcDbEntity
  8
目盛
100
AcDbLine
 10
298.707075104179
 20
292.885453191619
 30
0.0
 11
299.7436690776593
 21
291.8012608958779
 31
0.0
  0
LINE
  5
1E71
330
18
100
AcDbEntity
  8
目盛
100
AcDbLine
 10
298.2310918815711
 20
292.4094699690111
 30
0.0
 11
299.3152841773122
 21
291.3728759955308
 31
0.0
  0
LINE
  5
1E72
330
18
100
AcDbEntity
  8
目盛
100
AcDbLine
 10
297.7769428489278
 20
291.9126111233037
 30
0.0
 11
298.9065500479331
 21
290.9257030343941
 31
0.0
  0
LINE
  5
1E73
330
18
100
AcDbEntity
  8
目盛
100
AcDbLine
 10
297.3455426019615
 20
291.3958772620891
 30
0.0
 11
299.3001213081316
 21
289.8371527574422
 31
0.0
  0
LINE
  5
1E74
330
18
100
AcDbEntity
  8
目盛
100
AcDbLine
 10
296.9377599233577
 20
290.8603090185952
 30
0.0
 11
298.1512854149201
 21
289.9786311401565
 31
0.0
  0
LINE
  5
1E75
330
18
100
AcDbEntity
  8
目盛
100
AcDbLine
 10
296.5544160331623
 20
290.3069849559896
 30
0.0
 11
297.8062759137444
 21
289.4806394838115
 31
0.0
  0
LINE
  5
1E76
330
18
100
AcDbEntity
  8
目盛
100
AcDbLine
 10
296.1962829349539
 20
289.7370193952967
 30
0.0
 11
297.4839561253567
 21
288.9676704791878
 31
0.0
  0
LINE
  5
1E77
330
18
100
AcDbEntity
  8
目盛
100
AcDbLine
 10
295.8640818611308
 20
289.1515601713031
 30
0.0
 11
297.1849751589159
 21
288.4407571775935
 31
0.0
  0
LINE
  5
1E78
330
18
100
AcDbEntity
  8
目盛
100
AcDbLine
 10
295.5584818204457
 20
288.5517863209715
 30
0.0
 11
297.8109039902016
 21
287.4670769731777
 31
0.0
  0
LINE
  5
1E79
330
18
100
AcDbEntity
  8
目盛
100
AcDbLine
 10
295.2800982507101
 20
287.9389057090169
 30
0.0
 11
296.6593899095374
 21
287.3493681615361
 31
0.0
  0
LINE
  5
1E7A
330
18
100
AcDbEntity
  8
目盛
100
AcDbLine
 10
295.0294917793858
 20
287.3141525954283
 30
0.0
 11
296.4338440853455
 21
286.7870903593063
 31
0.0
  0
LINE
  5
1E7B
330
18
100
AcDbEntity
  8
目盛
100
AcDbLine
 10
294.8071670945546
 20
286.6787851498323
 30
0.0
 11
296.2337518689973
 21
286.2152596582699
 31
0.0
  0
LINE
  5
1E7C
330
18
100
AcDbEntity
  8
目盛
100
AcDbLine
 10
294.6135719285441
 20
286.0340829177082
 30
0.0
 11
296.0595162195879
 21
285.6350276493582
 31
0.0
  0
LINE
  5
1E7D
330
18
100
AcDbEntity
  8
目盛
100
AcDbLine
 10
294.4490961562546
 20
285.3813442435529
 30
0.0
 11
296.8864159367091
 21
284.8250419086621
 31
0.0
  0
LINE
  5
1E7E
330
18
100
AcDbEntity
  8
目盛
100
AcDbLine
 10
294.3140710100025
 20
284.7218836561876
 30
0.0
 11
295.7899653929004
 21
284.4540483139897
 31
0.0
  0
LINE
  5
1E7F
330
18
100
AcDbEntity
  8
目盛
100
AcDbLine
 10
294.2087684124629
 20
284.057029221473
 30
0.0
 11
295.6951930551148
 21
283.8556793227465
 31
0.0
  0
LINE
  5
1E80
330
18
100
AcDbEntity
  8
目盛
100
AcDbLine
 10
294.1334004290533
 20
283.3881198677596
 30
0.0
 11
295.6273618700462
 21
283.2536609044045
 31
0.0
  0
LINE
  5
1E81
330
18
100
AcDbEntity
  8
目盛
100
AcDbLine
 10
294.0881188408622
 20
282.7165026894658
 30
0.0
 11
295.5866084406741
 21
282.64920544394
 31
0.0
  0
LINE
  5
1E82
330
18
100
AcDbEntity
  8
目盛
100
AcDbLine
 10
294.0730148389818
 20
282.0435302342081
 30
0.0
 11
296.5730148389819
 21
282.0435302342081
 31
0.0
  0
LINE
  5
1E83
330
18
100
AcDbEntity
  8
目盛
100
AcDbLine
 10
294.0881188408621
 20
281.3705577789503
 30
0.0
 11
295.5866084406741
 21
281.4378550244762
 31
0.0
  0
LINE
  5
1E84
330
18
100
AcDbEntity
  8
目盛
100
AcDbLine
 10
294.1334004290531
 20
280.6989406006567
 30
0.0
 11
295.6273618700461
 21
280.8333995640118
 31
0.0
  0
LINE
  5
1E85
330
18
100
AcDbEntity
  8
目盛
100
AcDbLine
 10
294.2087684124628
 20
280.0300312469433
 30
0.0
 11
295.6951930551147
 21
280.2313811456697
 31
0.0
  0
LINE
  5
1E86
330
18
100
AcDbEntity
  8
目盛
100
AcDbLine
 10
294.3140710100024
 20
279.3651768122285
 30
0.0
 11
295.7899653929004
 21
279.6330121544264
 31
0.0
  0
LINE
  5
1E87
330
18
100
AcDbEntity
  8
目盛
100
AcDbLine
 10
294.4490961562544
 20
278.7057162248634
 30
0.0
 11
296.886415936709
 21
279.2620185597542
 31
0.0
  0
LINE
  5
1E88
330
18
100
AcDbEntity
  8
目盛
100
AcDbLine
 10
294.6135719285442
 20
278.052977550708
 30
0.0
 11
296.059516219588
 21
278.452032819058
 31
0.0
  0
LINE
  5
1E89
330
18
100
AcDbEntity
  8
目盛
100
AcDbLine
 10
294.8071670945546
 20
277.4082753185839
 30
0.0
 11
296.2337518689974
 21
277.8718008101463
 31
0.0
  0
LINE
  5
1E8A
330
18
100
AcDbEntity
  8
目盛
100
AcDbLine
 10
295.0294917793859
 20
276.7729078729879
 30
0.0
 11
296.4338440853455
 21
277.2999701091099
 31
0.0
  0
LINE
  5
1E8B
330
18
100
AcDbEntity
  8
目盛
100
AcDbLine
 10
295.2800982507103
 20
276.1481547593992
 30
0.0
 11
296.6593899095374
 21
276.7376923068801
 31
0.0
  0
LINE
  5
1E8C
330
18
100
AcDbEntity
  8
目盛
100
AcDbLine
 10
295.5584818204457
 20
275.5352741474447
 30
0.0
 11
297.8109039902017
 21
276.6199834952386
 31
0.0
  0
LINE
  5
1E8D
330
18
100
AcDbEntity
  8
目盛
100
AcDbLine
 10
295.8640818611308
 20
274.9355002971131
 30
0.0
 11
297.184975158916
 21
275.6463032908226
 31
0.0
  0
LINE
  5
1E8E
330
18
100
AcDbEntity
  8
目盛
100
AcDbLine
 10
296.1962829349539
 20
274.3500410731195
 30
0.0
 11
297.4839561253567
 21
275.1193899892284
 31
0.0
  0
LINE
  5
1E8F
330
18
100
AcDbEntity
  8
目盛
100
AcDbLine
 10
296.5544160331624
 20
273.7800755124265
 30
0.0
 11
297.8062759137444
 21
274.6064209846046
 31
0.0
  0
LINE
  5
1E90
330
18
100
AcDbEntity
  8
目盛
100
AcDbLine
 10
296.9377599233578
 20
273.226751449821
 30
0.0
 11
298.1512854149201
 21
274.1084293282597
 31
0.0
  0
LINE
  5
1E91
330
18
100
AcDbEntity
  8
目盛
100
AcDbLine
 10
297.3455426019615
 20
272.6911832063271
 30
0.0
 11
299.3001213081316
 21
274.2499077109739
 31
0.0
  0
LINE
  5
1E92
330
18
100
AcDbEntity
  8
目盛
100
AcDbLine
 10
297.7769428489279
 20
272.1744493451124
 30
0.0
 11
298.9065500479333
 21
273.161357434022
 31
0.0
  0
LINE
  5
1E93
330
18
100
AcDbEntity
  8
目盛
100
AcDbLine
 10
298.2310918815711
 20
271.6775904994051
 30
0.0
 11
299.3152841773122
 21
272.7141844728854
 31
0.0
  0
LINE
  5
1E94
330
18
100
AcDbEntity
  8
目盛
100
AcDbLine
 10
298.707075104179
 20
271.2016072767972
 30
0.0
 11
299.7436690776593
 21
272.2857995725383
 31
0.0
  0
LINE
  5
1E95
330
18
100
AcDbEntity
  8
目盛
100
AcDbLine
 10
299.2039339498863
 20
270.747458244154
 30
0.0
 11
300.1908420387959
 21
271.8770654431593
 31
0.0
  0
LINE
  5
1E96
330
18
100
AcDbEntity
  8
目盛
100
AcDbLine
 10
299.720667811101
 20
270.3160579971877
 30
0.0
 11
301.2793923157478
 21
272.2706367033577
 31
0.0
  0
LINE
  5
1E97
330
18
100
AcDbEntity
  8
目盛
100
AcDbLine
 10
300.2562360545949
 20
269.9082753185838
 30
0.0
 11
301.1379139330336
 21
271.1218008101463
 31
0.0
  0
LINE
  5
1E98
330
18
100
AcDbEntity
  8
目盛
100
AcDbLine
 10
300.8095601172004
 20
269.5249314283886
 30
0.0
 11
301.6359055893785
 21
270.7767913089705
 31
0.0
  0
LINE
  5
1E99
330
18
100
AcDbEntity
  8
目盛
100
AcDbLine
 10
301.3795256778934
 20
269.1667983301801
 30
0.0
 11
302.1488745940022
 21
270.4544715205829
 31
0.0
  0
LINE
  5
1E9A
330
18
100
AcDbEntity
  8
目盛
100
AcDbLine
 10
301.964984901887
 20
268.834597256357
 30
0.0
 11
302.6757878955965
 21
270.155490554142
 31
0.0
  0
LINE
  5
1E9B
330
18
100
AcDbEntity
  8
目盛
100
AcDbLine
 10
302.5647587522186
 20
268.5289972156718
 30
0.0
 11
303.6494681000124
 21
270.7814193854279
 31
0.0
  0
LINE
  5
1E9C
330
18
100
AcDbEntity
  8
目盛
100
AcDbLine
 10
303.1776393641731
 20
268.2506136459364
 30
0.0
 11
303.7671769116538
 21
269.6299053047635
 31
0.0
  0
LINE
  5
1E9D
330
18
100
AcDbEntity
  8
目盛
100
AcDbLine
 10
303.8023924777617
 20
268.000007174612
 30
0.0
 11
304.3294547138837
 21
269.4043594805716
 31
0.0
  0
LINE
  5
1E9E
330
18
100
AcDbEntity
  8
目盛
100
AcDbLine
 10
304.4377599233576
 20
267.7776824897808
 30
0.0
 11
304.9012854149201
 21
269.2042672642235
 31
0.0
  0
LINE
  5
1E9F
330
18
100
AcDbEntity
  8
目盛
100
AcDbLine
 10
305.0824621554817
 20
267.5840873237703
 30
0.0
 11
305.4815174238318
 21
269.0300316148141
 31
0.0
  0
LINE
  5
1EA0
330
18
100
AcDbEntity
  8
目盛
100
AcDbLine
 10
305.7352008296371
 20
267.4196115514807
 30
0.0
 11
306.2915031645279
 21
269.8569313319353
 31
0.0
  0
LINE
  5
1EA1
330
18
100
AcDbEntity
  8
目盛
100
AcDbLine
 10
306.3946614170025
 20
267.2845864052286
 30
0.0
 11
306.6624967592003
 21
268.7604807881265
 31
0.0
  0
LINE
  5
1EA2
330
18
100
AcDbEntity
  8
目盛
100
AcDbLine
 10
307.0595158517171
 20
267.179283807689
 30
0.0
 11
307.2608657504436
 21
268.6657084503409
 31
0.0
  0
LINE
  5
1EA3
330
18
100
AcDbEntity
  8
目盛
100
AcDbLine
 10
307.7284252054305
 20
267.1039158242795
 30
0.0
 11
307.8628841687856
 21
268.5978772652724
 31
0.0
  0
LINE
  5
1EA4
330
18
100
AcDbEntity
  8
目盛
100
AcDbLine
 10
308.4000423837243
 20
267.0586342360883
 30
0.0
 11
308.4673396292501
 21
268.5571238359003
 31
0.0
  0
LINE
  5
1EA5
330
18
100
AcDbEntity
  8
目盛
100
AcDbLine
 10
309.073014838982
 20
267.0435302342081
 30
0.0
 11
309.073014838982
 21
269.543530234208
 31
0.0
  0
LINE
  5
1EA6
330
18
100
AcDbEntity
  8
目盛
100
AcDbLine
 10
309.7459872942398
 20
267.0586342360884
 30
0.0
 11
309.6786900487139
 21
268.5571238359004
 31
0.0
  0
LINE
  5
1EA7
330
18
100
AcDbEntity
  8
目盛
100
AcDbLine
 10
310.4176044725333
 20
267.1039158242795
 30
0.0
 11
310.2831455091783
 21
268.5978772652724
 31
0.0
  0
LINE
  5
1EA8
330
18
100
AcDbEntity
  8
目盛
100
AcDbLine
 10
311.0865138262468
 20
267.1792838076891
 30
0.0
 11
310.8851639275203
 21
268.665708450341
 31
0.0
  0
LINE
  5
1EA9
330
18
100
AcDbEntity
  8
目盛
100
AcDbLine
 10
311.7513682609615
 20
267.2845864052287
 30
0.0
 11
311.4835329187637
 21
268.7604807881267
 31
0.0
  0
LINE
  5
1EAA
330
18
100
AcDbEntity
  8
目盛
100
AcDbLine
 10
312.4108288483267
 20
267.4196115514809
 30
0.0
 11
311.8545265134359
 21
269.8569313319354
 31
0.0
  0
LINE
  5
1EAB
330
18
100
AcDbEntity
  8
目盛
100
AcDbLine
 10
313.063567522482
 20
267.5840873237703
 30
0.0
 11
312.664512254132
 21
269.0300316148141
 31
0.0
  0
LINE
  5
1EAC
330
18
100
AcDbEntity
  8
目盛
100
AcDbLine
 10
313.7082697546061
 20
267.7776824897807
 30
0.0
 11
313.2447442630437
 21
269.2042672642235
 31
0.0
  0
LINE
  5
1EAD
330
18
100
AcDbEntity
  8
目盛
100
AcDbLine
 10
314.3436372002021
 20
268.000007174612
 30
0.0
 11
313.8165749640799
 21
269.4043594805716
 31
0.0
  0
LINE
  5
1EAE
330
18
100
AcDbEntity
  8
目盛
100
AcDbLine
 10
314.9683903137908
 20
268.2506136459363
 30
0.0
 11
314.3788527663099
 21
269.6299053047635
 31
0.0
  0
LINE
  5
1EAF
330
18
100
AcDbEntity
  8
目盛
100
AcDbLine
 10
315.5812709257454
 20
268.5289972156718
 30
0.0
 11
314.4965615779514
 21
270.7814193854278
 31
0.0
  0
LINE
  5
1EB0
330
18
100
AcDbEntity
  8
目盛
100
AcDbLine
 10
316.1810447760769
 20
268.834597256357
 30
0.0
 11
315.4702417823675
 21
270.1554905541421
 31
0.0
  0
LINE
  5
1EB1
330
18
100
AcDbEntity
  8
目盛
100
AcDbLine
 10
316.7665040000705
 20
269.16679833018
 30
0.0
 11
315.9971550839616
 21
270.4544715205828
 31
0.0
  0
LINE
  5
1EB2
330
18
100
AcDbEntity
  8
目盛
100
AcDbLine
 10
317.3364695607635
 20
269.5249314283885
 30
0.0
 11
316.5101240885853
 21
270.7767913089705
 31
0.0
  0
LINE
  5
1EB3
330
18
100
AcDbEntity
  8
目盛
100
AcDbLine
 10
317.889793623369
 20
269.9082753185839
 30
0.0
 11
317.0081157449303
 21
271.1218008101463
 31
0.0
  0
LINE
  5
1EB4
330
18
100
AcDbEntity
  8
目盛
100
AcDbLine
 10
318.4253618668629
 20
270.3160579971875
 30
0.0
 11
316.8666373622161
 21
272.2706367033576
 31
0.0
  0
LINE
  5
1EB5
330
18
100
AcDbEntity
  8
目盛
100
AcDbLine
 10
318.9420957280777
 20
270.747458244154
 30
0.0
 11
317.9551876391681
 21
271.8770654431593
 31
0.0
  0
LINE
  5
1EB6
330
18
100
AcDbEntity
  8
目盛
100
AcDbLine
 10
319.4389545737849
 20
271.2016072767971
 30
0.0
 11
318.4023606003046
 21
272.2857995725382
 31
0.0
  0
LINE
  5
1EB7
330
18
100
AcDbEntity
  8
目盛
100
AcDbLine
 10
319.9149377963928
 20
271.6775904994051
 30
0.0
 11
318.8307455006517
 21
272.7141844728854
 31
0.0
  0
LINE
  5
1EB8
330
18
100
AcDbEntity
  8
目盛
100
AcDbLine
 10
320.3690868290361
 20
272.1744493451124
 30
0.0
 11
319.2394796300308
 21
273.161357434022
 31
0.0
  0
LINE
  5
1EB9
330
18
100
AcDbEntity
  8
目盛
100
AcDbLine
 10
320.8004870760023
 20
272.6911832063271
 30
0.0
 11
318.8459083698323
 21
274.2499077109739
 31
0.0
  0
LINE
  5
1EBA
330
18
100
AcDbEntity
  8
目盛
100
AcDbLine
 10
321.2082697546061
 20
273.226751449821
 30
0.0
 11
319.9947442630437
 21
274.1084293282598
 31
0.0
  0
LINE
  5
1EBB
330
18
100
AcDbEntity
  8
目盛
100
AcDbLine
 10
321.5916136448015
 20
273.7800755124265
 30
0.0
 11
320.3397537642195
 21
274.6064209846047
 31
0.0
  0
LINE
  5
1EBC
330
18
100
AcDbEntity
  8
目盛
100
AcDbLine
 10
321.9497467430099
 20
274.3500410731195
 30
0.0
 11
320.6620735526071
 21
275.1193899892284
 31
0.0
  0
LINE
  5
1EBD
330
18
100
AcDbEntity
  8
目盛
100
AcDbLine
 10
322.2819478168329
 20
274.9355002971132
 30
0.0
 11
320.9610545190479
 21
275.6463032908226
 31
0.0
  0
LINE
  5
1EBE
330
18
100
AcDbEntity
  8
目盛
100
AcDbLine
 10
322.5875478575182
 20
275.5352741474447
 30
0.0
 11
320.3351256877622
 21
276.6199834952386
 31
0.0
  0
LINE
  5
1EBF
330
18
100
AcDbEntity
  8
目盛
100
AcDbLine
 10
322.8659314272537
 20
276.1481547593993
 30
0.0
 11
321.4866397684265
 21
276.7376923068801
 31
0.0
  0
LINE
  5
1EC0
330
18
100
AcDbEntity
  8
目盛
100
AcDbLine
 10
323.116537898578
 20
276.7729078729879
 30
0.0
 11
321.7121855926184
 21
277.2999701091099
 31
0.0
  0
LINE
  5
1EC1
330
18
100
AcDbEntity
  8
目盛
100
AcDbLine
 10
323.3388625834093
 20
277.4082753185839
 30
0.0
 11
321.9122778089665
 21
277.8718008101463
 31
0.0
  0
LINE
  5
1EC2
330
18
100
AcDbEntity
  8
目盛
100
AcDbLine
 10
323.5324577494197
 20
278.052977550708
 30
0.0
 11
322.086513458376
 21
278.4520328190581
 31
0.0
  0
LINE
  5
1EC3
330
18
100
AcDbEntity
  8
目盛
100
AcDbLine
 10
323.6969335217093
 20
278.7057162248634
 30
0.0
 11
321.2596137412547
 21
279.2620185597542
 31
0.0
  0
LINE
  5
1EC4
330
18
100
AcDbEntity
  8
目盛
100
AcDbLine
 10
323.8319586679614
 20
279.3651768122285
 30
0.0
 11
322.3560642850634
 21
279.6330121544265
 31
0.0
  0
LINE
  5
1EC5
330
18
100
AcDbEntity
  8
目盛
100
AcDbLine
 10
323.937261265501
 20
280.0300312469432
 30
0.0
 11
322.4508366228491
 21
280.2313811456697
 31
0.0
  0
LINE
  5
1EC6
330
18
100
AcDbEntity
  8
目盛
100
AcDbLine
 10
324.0126292489104
 20
280.6989406006565
 30
0.0
 11
322.5186678079177
 21
280.8333995640117
 31
0.0
  0
LINE
  5
1EC7
330
18
100
AcDbEntity
  8
目盛
100
AcDbLine
 10
324.0579108371016
 20
281.3705577789503
 30
0.0
 11
322.5594212372897
 21
281.4378550244762
 31
0.0
  0
LINE
  5
1EC8
330
18
100
AcDbEntity
  8
目盛
100
AcDbLine
 10
324.0730148389819
 20
282.043530234208
 30
0.0
 11
321.5730148389819
 21
282.043530234208
 31
0.0
  0
LINE
  5
1EC9
330
18
100
AcDbEntity
  8
目盛
100
AcDbLine
 10
324.0579108371016
 20
282.7165026894659
 30
0.0
 11
322.5594212372897
 21
282.6492054439401
 31
0.0
  0
LINE
  5
1ECA
330
18
100
AcDbEntity
  8
目盛
100
AcDbLine
 10
324.0126292489106
 20
283.3881198677596
 30
0.0
 11
322.5186678079177
 21
283.2536609044045
 31
0.0
  0
LINE
  5
1ECB
330
18
100
AcDbEntity
  8
目盛
100
AcDbLine
 10
323.9372612655009
 20
284.057029221473
 30
0.0
 11
322.4508366228491
 21
283.8556793227466
 31
0.0
  0
LINE
  5
1ECC
330
18
100
AcDbEntity
  8
目盛
100
AcDbLine
 10
323.8319586679614
 20
284.7218836561877
 30
0.0
 11
322.3560642850634
 21
284.4540483139899
 31
0.0
  0
LINE
  5
1ECD
330
18
100
AcDbEntity
  8
目盛
100
AcDbLine
 10
323.6969335217093
 20
285.3813442435529
 30
0.0
 11
321.2596137412547
 21
284.8250419086621
 31
0.0
  0
LINE
  5
1ECE
330
18
100
AcDbEntity
  8
目盛
100
AcDbLine
 10
323.5324577494197
 20
286.0340829177083
 30
0.0
 11
322.0865134583759
 21
285.6350276493582
 31
0.0
  0
LINE
  5
1ECF
330
18
100
AcDbEntity
  8
目盛
100
AcDbLine
 10
323.3388625834093
 20
286.6787851498322
 30
0.0
 11
321.9122778089665
 21
286.2152596582699
 31
0.0
  0
LINE
  5
1ED0
330
18
100
AcDbEntity
  8
目盛
100
AcDbLine
 10
323.116537898578
 20
287.3141525954282
 30
0.0
 11
321.7121855926184
 21
286.7870903593062
 31
0.0
  0
LINE
  5
1ED1
330
18
100
AcDbEntity
  8
目盛
100
AcDbLine
 10
322.8659314272537
 20
287.938905709017
 30
0.0
 11
321.4866397684265
 21
287.3493681615361
 31
0.0
  0
LINE
  5
1ED2
330
18
100
AcDbEntity
  8
目盛
100
AcDbLine
 10
322.5875478575182
 20
288.5517863209713
 30
0.0
 11
320.3351256877622
 21
287.4670769731775
 31
0.0
  0
LINE
  5
1ED3
330
18
100
AcDbEntity
  8
目盛
100
AcDbLine
 10
322.281947816833
 20
289.1515601713031
 30
0.0
 11
320.9610545190479
 21
288.4407571775936
 31
0.0
  0
LINE
  5
1ED4
330
18
100
AcDbEntity
  8
目盛
100
AcDbLine
 10
321.94974674301
 20
289.7370193952967
 30
0.0
 11
320.6620735526072
 21
288.9676704791878
 31
0.0
  0
LINE
  5
1ED5
330
18
100
AcDbEntity
  8
目盛
100
AcDbLine
 10
321.5916136448015
 20
290.3069849559896
 30
0.0
 11
320.3397537642195
 21
289.4806394838115
 31
0.0
  0
LINE
  5
1ED6
330
18
100
AcDbEntity
  8
目盛
100
AcDbLine
 10
321.2082697546061
 20
290.8603090185952
 30
0.0
 11
319.9947442630437
 21
289.9786311401566
 31
0.0
  0
LINE
  5
1ED7
330
18
100
AcDbEntity
  8
目盛
100
AcDbLine
 10
320.8004870760023
 20
291.3958772620891
 30
0.0
 11
318.8459083698323
 21
289.8371527574423
 31
0.0
  0
LINE
  5
1ED8
330
18
100
AcDbEntity
  8
目盛
100
AcDbLine
 10
320.3690868290361
 20
291.9126111233038
 30
0.0
 11
319.2394796300306
 21
290.9257030343943
 31
0.0
  0
LINE
  5
1ED9
330
18
100
AcDbEntity
  8
目盛
100
AcDbLine
 10
319.9149377963928
 20
292.409469969011
 30
0.0
 11
318.8307455006518
 21
291.3728759955308
 31
0.0
  0
LINE
  5
1EDA
330
18
100
AcDbEntity
  8
目盛
100
AcDbLine
 10
319.4389545737849
 20
292.885453191619
 30
0.0
 11
318.4023606003046
 21
291.8012608958779
 31
0.0
  0
LINE
  5
1EDB
330
18
100
AcDbEntity
  8
目盛
100
AcDbLine
 10
318.9420957280776
 20
293.3396022242622
 30
0.0
 11
317.955187639168
 21
292.2099950252569
 31
0.0
  0
LINE
  5
1EDC
330
18
100
AcDbEntity
  8
目盛
100
AcDbLine
 10
318.425361866863
 20
293.7710024712286
 30
0.0
 11
316.8666373622161
 21
291.8164237650584
 31
0.0
  0
LINE
  5
1EDD
330
18
100
AcDbEntity
  8
目盛
100
AcDbLine
 10
317.8897936233689
 20
294.1787851498324
 30
0.0
 11
317.0081157449302
 21
292.9652596582699
 31
0.0
  0
LINE
  5
1EDE
330
18
100
AcDbEntity
  8
目盛
100
AcDbLine
 10
317.3364695607634
 20
294.5621290400276
 30
0.0
 11
316.5101240885853
 21
293.3102691594457
 31
0.0
  0
LINE
  5
1EDF
330
18
100
AcDbEntity
  8
目盛
100
AcDbLine
 10
316.7665040000705
 20
294.9202621382361
 30
0.0
 11
315.9971550839617
 21
293.6325889478333
 31
0.0
  0
LINE
  5
1EE0
330
18
100
AcDbEntity
  8
目盛
100
AcDbLine
 10
316.1810447760768
 20
295.2524632120592
 30
0.0
 11
315.4702417823673
 21
293.9315699142742
 31
0.0
  0
LINE
  5
1EE1
330
18
100
AcDbEntity
  8
目盛
100
AcDbLine
 10
315.5812709257454
 20
295.5580632527444
 30
0.0
 11
314.4965615779514
 21
293.3056410829884
 31
0.0
  0
LINE
  5
1EE2
330
18
100
AcDbEntity
  8
目盛
100
AcDbLine
 10
314.9683903137908
 20
295.8364468224798
 30
0.0
 11
314.3788527663099
 21
294.4571551636526
 31
0.0
  0
LINE
  5
1EE3
330
18
100
AcDbEntity
  8
目盛
100
AcDbLine
 10
314.3436372002021
 20
296.0870532938042
 30
0.0
 11
313.8165749640801
 21
294.6827009878445
 31
0.0
  0
LINE
  5
1EE4
330
18
100
AcDbEntity
  8
目盛
100
AcDbLine
 10
313.7082697546061
 20
296.3093779786354
 30
0.0
 11
313.2447442630438
 21
294.8827932041926
 31
0.0
  0
LINE
  5
1EE5
330
18
100
AcDbEntity
  8
目盛
100
AcDbLine
 10
313.0635675224821
 20
296.5029731446459
 30
0.0
 11
312.664512254132
 21
295.0570288536022
 31
0.0
  0
LINE
  5
1EE6
330
18
100
AcDbEntity
  8
目盛
100
AcDbLine
 10
312.4108288483267
 20
296.6674489169354
 30
0.0
 11
311.8545265134359
 21
294.2301291364809
 31
0.0
  0
TEXT
  5
1EE9
330
18
100
AcDbEntity
  8
文字
100
AcDbText
 10
302.9253718961214
 20
290.9503629357061
 30
0.0
 40
1.8
  1
20
  7
STYLE3
100
AcDbText
  0
TEXT
  5
1EEA
330
18
100
AcDbEntity
  8
文字
100
AcDbText
 10
314.7069687115813
 20
274.6903160495987
 30
0.0
 40
1.8
  1
100
 41
0.9
  7
STYLE3
100
AcDbText
  0
TEXT
  5
1EEB
330
18
100
AcDbEntity
  8
文字
100
AcDbText
 10
311.5572455771468
 20
271.4615650952571
 30
0.0
 40
1.8
  1
120
 41
0.9
  7
STYLE3
100
AcDbText
  0
TEXT
  5
1EEC
330
18
100
AcDbEntity
  8
文字
100
AcDbText
 10
297.009329574061
 20
283.8522950072162
 30
0.0
 40
1.8
  1
60
  7
STYLE3
100
AcDbText
  0
LINE
  5
1F17
330
18
100
AcDbEntity
  8
0
  6
ByBlock
 62
     2
100
AcDbLine
 10
390.692911480571
 20
314.8435302342082
 30
0.0
 11
412.4992048820687
 21
314.8435302342082
 31
0.0
  0
LINE
  5
1F18
330
18
100
AcDbEntity
  8
0
  6
ByBlock
 62
     2
100
AcDbLine
 10
398.1929114805709
 20
298.8435302342082
 30
0.0
 11
412.4992048820687
 21
298.8435302342082
 31
0.0
  0
LINE
  5
1F19
330
18
100
AcDbEntity
  8
0
  6
ByBlock
 62
     2
100
AcDbLine
 10
411.2492048820688
 20
312.3435302342082
 30
0.0
 11
411.2492048820688
 21
301.3435302342082
 31
0.0
  0
INSERT
  5
1F1A
330
18
100
AcDbEntity
  8
0
  6
ByBlock
 62
     2
100
AcDbBlockReference
  2
_OPEN
 10
411.2492048820688
 20
314.8435302342082
 30
0.0
 41
2.5
 42
2.5
 43
2.5
 50
90.0
  0
INSERT
  5
1F1B
330
18
100
AcDbEntity
  8
0
  6
ByBlock
 62
     2
100
AcDbBlockReference
  2
_OPEN
 10
411.2492048820688
 20
298.8435302342082
 30
0.0
 41
2.5
 42
2.5
 43
2.5
 50
270.0
  0
MTEXT
  5
1F1C
330
18
100
AcDbEntity
  8
0
  6
ByBlock
 62
     6
100
AcDbMText
 10
409.3742048820687
 20
306.8435302342082
 30
0.0
 40
2.5
 41
0.0
 71
     5
 72
     1
  1
\A1;16
  7
STYLE3
 11
0.0000000000000001
 21
1.0
 31
0.0
 73
     1
 44
1.0
  0
POINT
  5
1F1D
330
18
100
AcDbEntity
  8
DEFPOINTS
  6
ByBlock
 62
     0
100
AcDbPoint
 10
390.692911480571
 20
314.8435302342082
 30
0.0
  0
POINT
  5
1F1E
330
18
100
AcDbEntity
  8
DEFPOINTS
  6
ByBlock
 62
     0
100
AcDbPoint
 10
398.1929114805709
 20
298.8435302342082
 30
0.0
  0
POINT
  5
1F1F
330
18
100
AcDbEntity
  8
DEFPOINTS
  6
ByBlock
 62
     0
100
AcDbPoint
 10
411.2492048820688
 20
298.8435302342082
 30
0.0
  0
LINE
  5
1F20
330
18
100
AcDbEntity
  8
0
  6
ByBlock
 62
     2
100
AcDbLine
 10
374.192911480571
 20
282.043530234208
 30
0.0
 11
374.192911480571
 21
331.1462975853599
 31
0.0
  0
LINE
  5
1F21
330
18
100
AcDbEntity
  8
0
  6
ByBlock
 62
     2
100
AcDbLine
 10
400.1929114805709
 20
325.7466187724714
 30
0.0
 11
400.1929114805709
 21
331.1462975853599
 31
0.0
  0
LINE
  5
1F22
330
18
100
AcDbEntity
  8
0
  6
ByBlock
 62
     2
100
AcDbLine
 10
376.692911480571
 20
329.89629758536
 30
0.0
 11
397.6929114805709
 21
329.89629758536
 31
0.0
  0
INSERT
  5
1F23
330
18
100
AcDbEntity
  8
0
  6
ByBlock
 62
     2
100
AcDbBlockReference
  2
_OPEN
 10
374.192911480571
 20
329.89629758536
 30
0.0
 41
2.5
 42
2.5
 43
2.5
 50
180.0
  0
INSERT
  5
1F24
330
18
100
AcDbEntity
  8
0
  6
ByBlock
 62
     2
100
AcDbBlockReference
  2
_OPEN
 10
400.1929114805709
 20
329.89629758536
 30
0.0
 41
2.5
 42
2.5
 43
2.5
  0
MTEXT
  5
1F25
330
18
100
AcDbEntity
  8
0
  6
ByBlock
 62
     6
100
AcDbMText
 10
387.1929114805709
 20
331.7712975853599
 30
0.0
 40
2.5
 41
0.0
 71
     5
 72
     1
  1
\A1;26
  7
STYLE3
 73
     1
 44
1.0
  0
POINT
  5
1F26
330
18
100
AcDbEntity
  8
DEFPOINTS
  6
ByBlock
 62
     0
100
AcDbPoint
 10
374.192911480571
 20
282.043530234208
 30
0.0
  0
POINT
  5
1F27
330
18
100
AcDbEntity
  8
DEFPOINTS
  6
ByBlock
 62
     0
100
AcDbPoint
 10
400.1929114805709
 20
325.7466187724714
 30
0.0
  0
POINT
  5
1F28
330
18
100
AcDbEntity
  8
DEFPOINTS
  6
ByBlock
 62
     0
100
AcDbPoint
 10
400.1929114805709
 20
329.89629758536
 30
0.0
  0
LINE
  5
1F29
330
18
100
AcDbEntity
  8
寸法線
 62
     2
100
AcDbLine
 10
399.2804331147062
 20
269.8645909844624
 30
0.0
 11
406.4616192952778
 21
279.1658609193205
 31
0.0
1001
ACAD
1000
DSTYLE
1002
{
1070
   271
1070
     2
1002
}
  0
LINE
  5
1F2A
330
18
100
AcDbEntity
  8
寸法線
 62
     2
100
AcDbLine
 10
406.4616192952778
 20
279.1658609193205
 30
0.0
 11
411.4913812000396
 21
279.1658609193205
 31
0.0
1001
ACAD
1000
DSTYLE
1002
{
1070
   271
1070
     2
1002
}
  0
POINT
  5
1F31
330
18
100
AcDbEntity
  8
DEFPOINTS
  6
ByBlock
 62
     0
100
AcDbPoint
 10
333.7934973449645
 20
315.0435302342081
 30
0.0
  0
POINT
  5
1F32
330
18
100
AcDbEntity
  8
DEFPOINTS
  6
ByBlock
 62
     0
100
AcDbPoint
 10
309.0730148389819
 20
225.0435302342081
 30
0.0
  0
LINE
  5
1F34
330
18
100
AcDbEntity
  8
0
  6
ByBlock
 62
     2
100
AcDbLine
 10
377.2566534491638
 20
299.5435302342081
 30
0.0
 11
364.7468161322165
 21
299.5435302342081
 31
0.0
  0
LINE
  5
1F35
330
18
100
AcDbEntity
  8
0
  6
ByBlock
 62
     2
100
AcDbLine
 10
377.2566534491638
 20
264.5435302342081
 30
0.0
 11
364.7468161322165
 21
264.5435302342081
 31
0.0
  0
LINE
  5
1F36
330
18
100
AcDbEntity
  8
0
  6
ByBlock
 62
     2
100
AcDbLine
 10
365.9968161322165
 20
297.0435302342081
 30
0.0
 11
365.9968161322165
 21
267.0435302342081
 31
0.0
  0
INSERT
  5
1F37
330
18
100
AcDbEntity
  8
0
  6
ByBlock
 62
     2
100
AcDbBlockReference
  2
_OPEN
 10
365.9968161322165
 20
299.5435302342081
 30
0.0
 41
2.5
 42
2.5
 43
2.5
 50
90.0
  0
INSERT
  5
1F38
330
18
100
AcDbEntity
  8
0
  6
ByBlock
 62
     2
100
AcDbBlockReference
  2
_OPEN
 10
365.9968161322165
 20
264.5435302342081
 30
0.0
 41
2.5
 42
2.5
 43
2.5
 50
270.0
  0
MTEXT
  5
1F39
330
18
100
AcDbEntity
  8
0
  6
ByBlock
 62
     6
100
AcDbMText
 10
364.1218161322165
 20
282.0435302342081
 30
0.0
 40
2.5
 41
0.0
 71
     5
 72
     1
  1
\A1;φ35
  7
STYLE3
 11
0.0000000000000001
 21
1.0
 31
0.0
 73
     1
 44
1.0
  0
POINT
  5
1F3A
330
18
100
AcDbEntity
  8
DEFPOINTS
  6
ByBlock
 62
     0
100
AcDbPoint
 10
377.2566534491638
 20
299.5435302342081
 30
0.0
  0
POINT
  5
1F3B
330
18
100
AcDbEntity
  8
DEFPOINTS
  6
ByBlock
 62
     0
100
AcDbPoint
 10
377.2566534491638
 20
264.5435302342081
 30
0.0
  0
POINT
  5
1F3C
330
18
100
AcDbEntity
  8
DEFPOINTS
  6
ByBlock
 62
     0
100
AcDbPoint
 10
365.9968161322165
 20
264.5435302342081
 30
0.0
  0
LINE
  5
1F3E
330
18
100
AcDbEntity
  8
0
  6
ByBlock
 62
     2
100
AcDbLine
 10
312.0337628042292
 20
226.0435302342081
 30
0.0
 11
333.7934973449645
 21
226.0435302342081
 31
0.0
  0
POINT
  5
1F43
330
18
100
AcDbEntity
  8
DEFPOINTS
  6
ByBlock
 62
     0
100
AcDbPoint
 10
317.161490950772
 20
243.8435302342081
 30
0.0
  0
POINT
  5
1F44
330
18
100
AcDbEntity
  8
DEFPOINTS
  6
ByBlock
 62
     0
100
AcDbPoint
 10
312.0337628042292
 20
226.0435302342081
 30
0.0
  0
LINE
  5
1F46
330
18
100
AcDbEntity
  8
0
  6
ByBlock
 62
     2
100
AcDbLine
 10
304.0730148389819
 20
241.8435302342081
 30
0.0
 11
304.0730148389819
 21
232.3401631046042
 31
0.0
  0
LINE
  5
1F47
330
18
100
AcDbEntity
  8
0
  6
ByBlock
 62
     2
100
AcDbLine
 10
314.0730148389819
 20
241.8435302342081
 30
0.0
 11
314.0730148389819
 21
232.3401631046042
 31
0.0
  0
LINE
  5
1F48
330
18
100
AcDbEntity
  8
0
  6
ByBlock
 62
     2
100
AcDbLine
 10
306.5730148389818
 20
233.5901631046042
 30
0.0
 11
311.5730148389819
 21
233.5901631046042
 31
0.0
  0
LINE
  5
1F49
330
18
100
AcDbEntity
  8
0
  6
ByBlock
 62
     2
100
AcDbLine
 10
314.0730148389819
 20
233.5901631046042
 30
0.0
 11
324.9658719818392
 21
233.5901631046042
 31
0.0
  0
INSERT
  5
1F4A
330
18
100
AcDbEntity
  8
0
  6
ByBlock
 62
     2
100
AcDbBlockReference
  2
_OPEN
 10
304.0730148389819
 20
233.5901631046042
 30
0.0
 41
2.5
 42
2.5
 43
2.5
 50
180.0
  0
INSERT
  5
1F4B
330
18
100
AcDbEntity
  8
0
  6
ByBlock
 62
     2
100
AcDbBlockReference
  2
_OPEN
 10
314.0730148389819
 20
233.5901631046042
 30
0.0
 41
2.5
 42
2.5
 43
2.5
  0
MTEXT
  5
1F4C
330
18
100
AcDbEntity
  8
0
  6
ByBlock
 62
     6
100
AcDbMText
 10
320.7694434104105
 20
236.1199250093661
 30
0.0
 40
2.5
 41
0.0
 71
     5
 72
     1
  1
\A1;(10)
  7
STYLE3
 73
     1
 44
1.0
  0
POINT
  5
1F4D
330
18
100
AcDbEntity
  8
DEFPOINTS
  6
ByBlock
 62
     0
100
AcDbPoint
 10
304.0730148389819
 20
241.8435302342081
 30
0.0
  0
POINT
  5
1F4E
330
18
100
AcDbEntity
  8
DEFPOINTS
  6
ByBlock
 62
     0
100
AcDbPoint
 10
314.0730148389819
 20
241.8435302342081
 30
0.0
  0
POINT
  5
1F4F
330
18
100
AcDbEntity
  8
DEFPOINTS
  6
ByBlock
 62
     0
100
AcDbPoint
 10
314.0730148389819
 20
233.5901631046042
 30
0.0
  0
POINT
  5
1F56
330
18
100
AcDbEntity
  8
DEFPOINTS
  6
ByBlock
 62
     0
100
AcDbPoint
 10
305.0730148389819
 20
239.8435302342081
 30
0.0
  0
POINT
  5
1F57
330
18
100
AcDbEntity
  8
DEFPOINTS
  6
ByBlock
 62
     0
100
AcDbPoint
 10
306.6896125939972
 20
226.0435302342081
 30
0.0
  0
LINE
  5
1F59
330
18
100
AcDbEntity
  8
0
  6
ByBlock
 62
     2
100
AcDbLine
 10
450.1608141933592
 20
276.6343968568407
 30
0.0
 11
450.1608141933592
 21
287.6601610855855
 31
0.0
  0
LINE
  5
1F5A
330
18
100
AcDbEntity
  8
0
  6
ByBlock
 62
     2
100
AcDbLine
 10
462.6149451381528
 20
276.6343968568407
 30
0.0
 11
462.6149451381528
 21
287.6601610855855
 31
0.0
  0
LINE
  5
1F5B
330
18
100
AcDbEntity
  8
0
  6
ByBlock
 62
     2
100
AcDbLine
 10
452.6608141933591
 20
286.4101610855855
 30
0.0
 11
460.1149451381528
 21
286.4101610855855
 31
0.0
  0
INSERT
  5
1F5C
330
18
100
AcDbEntity
  8
0
  6
ByBlock
 62
     2
100
AcDbBlockReference
  2
_OPEN
 10
450.1608141933592
 20
286.4101610855855
 30
0.0
 41
2.5
 42
2.5
 43
2.5
 50
180.0
  0
INSERT
  5
1F5D
330
18
100
AcDbEntity
  8
0
  6
ByBlock
 62
     2
100
AcDbBlockReference
  2
_OPEN
 10
462.6149451381528
 20
286.4101610855855
 30
0.0
 41
2.5
 42
2.5
 43
2.5
  0
MTEXT
  5
1F5E
330
18
100
AcDbEntity
  8
0
  6
ByBlock
 62
     6
100
AcDbMText
 10
456.387879665756
 20
288.9399229903474
 30
0.0
 40
2.5
 41
0.0
 71
     5
 72
     1
  1
\A1;(6.35)
  7
STYLE3
 73
     1
 44
1.0
  0
POINT
  5
1F5F
330
18
100
AcDbEntity
  8
DEFPOINTS
  6
ByBlock
 62
     0
100
AcDbPoint
 10
450.1608141933592
 20
276.6343968568407
 30
0.0
  0
POINT
  5
1F60
330
18
100
AcDbEntity
  8
DEFPOINTS
  6
ByBlock
 62
     0
100
AcDbPoint
 10
462.6149451381528
 20
276.6343968568407
 30
0.0
  0
POINT
  5
1F61
330
18
100
AcDbEntity
  8
DEFPOINTS
  6
ByBlock
 62
     0
100
AcDbPoint
 10
462.6149451381528
 20
286.4101610855855
 30
0.0
  0
LINE
  5
1F62
330
18
100
AcDbEntity
  8
0
  6
ByBlock
 62
     2
100
AcDbLine
 10
447.9708141933588
 20
274.8343968568406
 30
0.0
 11
447.9708141933588
 21
294.260142487988
 31
0.0
  0
LINE
  5
1F63
330
18
100
AcDbEntity
  8
0
  6
ByBlock
 62
     2
100
AcDbLine
 10
465.0508141933592
 20
274.8343968568406
 30
0.0
 11
465.0508141933592
 21
294.260142487988
 31
0.0
  0
LINE
  5
1F64
330
18
100
AcDbEntity
  8
0
  6
ByBlock
 62
     2
100
AcDbLine
 10
450.470814193359
 20
293.0101424879879
 30
0.0
 11
462.5508141933591
 21
293.0101424879879
 31
0.0
  0
INSERT
  5
1F65
330
18
100
AcDbEntity
  8
0
  6
ByBlock
 62
     2
100
AcDbBlockReference
  2
_OPEN
 10
447.9708141933588
 20
293.0101424879879
 30
0.0
 41
2.5
 42
2.5
 43
2.5
 50
180.0
  0
INSERT
  5
1F66
330
18
100
AcDbEntity
  8
0
  6
ByBlock
 62
     2
100
AcDbBlockReference
  2
_OPEN
 10
465.0508141933592
 20
293.0101424879879
 30
0.0
 41
2.5
 42
2.5
 43
2.5
  0
MTEXT
  5
1F67
330
18
100
AcDbEntity
  8
0
  6
ByBlock
 62
     6
100
AcDbMText
 10
456.5108141933591
 20
294.885142487988
 30
0.0
 40
2.5
 41
0.0
 71
     5
 72
     1
  1
\A1;8.54
  7
STYLE3
 73
     1
 44
1.0
  0
POINT
  5
1F68
330
18
100
AcDbEntity
  8
DEFPOINTS
  6
ByBlock
 62
     0
100
AcDbPoint
 10
447.9708141933588
 20
274.8343968568406
 30
0.0
  0
POINT
  5
1F69
330
18
100
AcDbEntity
  8
DEFPOINTS
  6
ByBlock
 62
     0
100
AcDbPoint
 10
465.0508141933592
 20
274.8343968568406
 30
0.0
  0
POINT
  5
1F6A
330
18
100
AcDbEntity
  8
DEFPOINTS
  6
ByBlock
 62
     0
100
AcDbPoint
 10
465.0508141933592
 20
293.0101424879879
 30
0.0
  0
LINE
  5
1F6B
330
18
100
AcDbEntity
  8
0
  6
ByBlock
 62
     2
100
AcDbLine
 10
305.0730148389821
 20
255.9657333723937
 30
0.0
 11
305.0730148389821
 21
254.2078179413641
 31
0.0
  0
LINE
  5
1F6C
330
18
100
AcDbEntity
  8
0
  6
ByBlock
 62
     2
100
AcDbLine
 10
313.073014838982
 20
255.5424706665588
 30
0.0
 11
313.073014838982
 21
254.2078179413641
 31
0.0
  0
LINE
  5
1F6D
330
18
100
AcDbEntity
  8
0
  6
ByBlock
 62
     2
100
AcDbLine
 10
307.573014838982
 20
255.4578179413641
 30
0.0
 11
310.573014838982
 21
255.4578179413641
 31
0.0
  0
LINE
  5
1F6E
330
18
100
AcDbEntity
  8
0
  6
ByBlock
 62
     2
100
AcDbLine
 10
313.073014838982
 20
255.4578179413641
 30
0.0
 11
318.4896815056486
 21
255.4578179413641
 31
0.0
  0
INSERT
  5
1F6F
330
18
100
AcDbEntity
  8
0
  6
ByBlock
 62
     2
100
AcDbBlockReference
  2
_OPEN
 10
305.0730148389821
 20
255.4578179413641
 30
0.0
 41
2.5
 42
2.5
 43
2.5
 50
180.0
  0
INSERT
  5
1F70
330
18
100
AcDbEntity
  8
0
  6
ByBlock
 62
     2
100
AcDbBlockReference
  2
_OPEN
 10
313.073014838982
 20
255.4578179413641
 30
0.0
 41
2.5
 42
2.5
 43
2.5
  0
MTEXT
  5
1F71
330
18
100
AcDbEntity
  8
0
  6
ByBlock
 62
     6
100
AcDbMText
 10
317.0313481723153
 20
257.3328179413641
 30
0.0
 40
2.5
 41
0.0
 71
     5
 72
     1
  1
\A1;8
  7
STYLE3
 73
     1
 44
1.0
  0
POINT
  5
1F72
330
18
100
AcDbEntity
  8
DEFPOINTS
  6
ByBlock
 62
     0
100
AcDbPoint
 10
305.0730148389821
 20
255.9657333723937
 30
0.0
  0
POINT
  5
1F73
330
18
100
AcDbEntity
  8
DEFPOINTS
  6
ByBlock
 62
     0
100
AcDbPoint
 10
313.073014838982
 20
255.5424706665588
 30
0.0
  0
POINT
  5
1F74
330
18
100
AcDbEntity
  8
DEFPOINTS
  6
ByBlock
 62
     0
100
AcDbPoint
 10
313.073014838982
 20
255.4578179413641
 30
0.0
  0
HATCH
  5
1F75
330
18
100
AcDbEntity
  8
ROGO
 62
     4
100
AcDbHatch
 10
0.0
 20
0.0
 30
0.0
210
0.0
220
0.0
230
1.0
  2
SOLID
 70
     1
 71
     1
 91
        1
 92
        7
 72
     0
 73
     1
 93
       11
 10
312.972732438158
 20
277.0574185381399
 10
313.5199070646182
 20
277.05741853814
 10
313.713169512719
 20
277.4450036369516
 10
313.9064319608198
 20
277.05741853814
 10
314.4535946155392
 20
277.05741853814
 10
314.0833760782587
 20
277.7998865642039
 10
314.9828639130293
 20
278.5423545902677
 10
314.4357012583101
 20
278.5423545902677
 10
314.1795034780827
 20
278.3802297909243
 10
314.260344139179
 20
278.5423545902677
 10
313.7131695127189
 20
278.5423545902677
 97
       11
330
1FC3
330
1FC6
330
1FC5
330
1FC4
330
1F7A
330
1F77
330
1FC0
330
1FBF
330
1FC1
330
1FBE
330
1FC2
 75
     0
 76
     1
 47
0.0514683685270805
 98
        1
 10
313.6660777252056
 20
277.9052880871333
450
        0
451
        0
460
0.0
461
0.0
452
        0
462
0.0
453
        0
470

  0
HATCH
  5
1F76
330
18
100
AcDbEntity
  8
ROGO
 62
     4
100
AcDbHatch
 10
0.0
 20
0.0
 30
0.0
210
0.0
220
0.0
230
1.0
  2
SOLID
 70
     1
 71
     1
 91
        1
 92
        5
 93
        8
 72
     4
 94
        3
 73
     0
 74
     0
 95
       26
 96
       22
 40
0.0
 40
0.0
 40
0.0
 40
0.0
 40
0.1723984759424608
 40
0.2878059064036966
 40
0.3710240621887089
 40
0.4331603664333254
 40
0.5137544142125284
 40
0.572580212192407
 40
0.6788058922657624
 40
0.7652720686804436
 40
0.8240829233522806
 40
0.8817499774613361
 40
0.984905126098422
 40
1.057848128260905
 40
1.097133570529051
 40
1.152937380796412
 40
1.193234564309735
 40
1.251611879021434
 40
1.284648389624301
 40
1.356539542405995
 40
1.389365667278745
 40
1.389365667278745
 40
1.389365667278745
 40
1.389365667278745
 10
312.5624472619859
 20
278.5423545902677
 10
312.5039325555473
 20
278.5388635025394
 10
312.4062467840667
 20
278.5330354018993
 10
312.2989884012313
 20
278.4678770861965
 10
312.2204046307162
 20
278.4299969048224
 10
312.1643587808876
 20
278.3785020254231
 10
312.1232769457702
 20
278.3253115766336
 10
312.071485580305
 20
278.2619355469033
 10
312.0292512017078
 20
278.1881367248629
 10
312.0077438002813
 20
278.1067975573933
 10
311.9886927482252
 20
278.0419697689752
 10
311.9745641690881
 20
277.9697276589822
 10
311.9781588795953
 20
277.8916807667444
 10
311.9833066695588
 20
277.8191948088194
 10
312.0062902999678
 20
277.7674506874971
 10
312.0324645839013
 20
277.7306124387611
 10
312.0645146361228
 20
277.6900391918425
 10
312.099584402024
 20
277.6631676617895
 10
312.1285899610177
 20
277.6144880793752
 10
312.1793632135526
 20
277.6082762135796
 10
312.2116367128007
 20
277.5959127466527
 10
312.2217536098414
 20
277.5920371234672
 72
     1
 10
312.2217536098413
 20
277.5920371234672
 11
313.0402745540306
 21
277.5920371234672
 72
     1
 10
313.0402745540306
 20
277.5920371234672
 11
313.2165789508097
 21
277.945613090853
 72
     1
 10
313.2165789508097
 20
277.945613090853
 11
312.6089053253731
 21
277.945613090853
 72
     4
 94
        3
 73
     0
 74
     0
 95
       16
 96
       12
 40
0.0
 40
0.0
 40
0.0
 40
0.0
 40
0.0520638816757992
 40
0.1046647644702509
 40
0.1360388269655429
 40
0.1661200957203634
 40
0.1991564750640333
 40
0.222226618446301
 40
0.2441181822786699
 40
0.2885111307736893
 40
0.3794005943324992
 40
0.3794005943324992
 40
0.3794005943324992
 40
0.3794005943324992
 10
312.6089053253731
 20
277.945613090853
 10
312.5905757473546
 20
277.9510059214659
 10
312.5537275350354
 20
277.9618472058221
 10
312.5506436372203
 20
278.0144017696139
 10
312.5548450018307
 20
278.0518511968406
 10
312.5724403262033
 20
278.0791165667677
 10
312.5937865065353
 20
278.0989557107964
 10
312.6017346362025
 20
278.1247930939226
 10
312.6250974392084
 20
278.1443035507212
 10
312.6665259488735
 20
278.1770979031701
 10
312.7123387088627
 20
278.1840823674993
 10
312.7431180032021
 20
278.1887748785693
 72
     1
 10
312.7431180032021
 20
278.1887748785694
 11
313.3378272715598
 21
278.1887748785694
 72
     1
 10
313.3378272715598
 20
278.1887748785694
 11
313.5141335353741
 21
278.5423545902677
 72
     1
 10
313.5141335353741
 20
278.5423545902677
 11
312.5624472619858
 21
278.5423545902676
 97
        8
330
1F78
330
1F9C
330
1FA8
330
1FA1
330
1FBC
330
1FBB
330
1FBD
330
1F79
 75
     0
 76
     1
 47
0.0514683685270805
 98
        1
 10
312.7266664520637
 20
278.3683482297858
450
        0
451
        0
460
0.0
461
0.0
452
        0
462
0.0
453
        0
470

  0
LINE
  5
1F77
102
{ACAD_REACTORS
330
1F75
330
1F80
102
}
330
18
100
AcDbEntity
  8
ROGO
 62
     4
100
AcDbLine
 10
303.4683678558139
 20
277.05741853814
 30
0.0
 11
313.5199070646181
 21
277.05741853814
 31
0.0
  0
LINE
  5
1F78
102
{ACAD_REACTORS
330
1F76
102
}
330
18
100
AcDbEntity
  8
ROGO
 62
     4
100
AcDbLine
 10
312.5624472619862
 20
278.5423545902677
 30
0.0
 11
313.5141335353742
 21
278.5423545902677
 31
0.0
  0
LINE
  5
1F79
102
{ACAD_REACTORS
330
1F76
102
}
330
18
100
AcDbEntity
  8
ROGO
 62
     4
100
AcDbLine
 10
313.5141335353742
 20
278.5423545902677
 30
0.0
 11
313.3378272715598
 21
278.1887748785694
 31
0.0
  0
LINE
  5
1F7A
102
{ACAD_REACTORS
330
1F75
102
}
330
18
100
AcDbEntity
  8
ROGO
 62
     4
100
AcDbLine
 10
313.7131695127189
 20
278.5423545902677
 30
0.0
 11
312.9727324381581
 21
277.05741853814
 31
0.0
  0
HATCH
  5
1F7B
330
18
100
AcDbEntity
  8
ROGO
 62
     4
100
AcDbHatch
 10
0.0
 20
0.0
 30
0.0
210
0.0
220
0.0
230
1.0
  2
SOLID
 70
     1
 71
     0
 91
        1
 92
        7
 72
     0
 73
     1
 93
        4
 10
313.0469501975067
 20
277.2062612019547
 10
304.2259702418053
 20
277.2062612019547
 10
304.1586295985849
 20
277.0574185381398
 10
312.9727324381581
 20
277.0574185381398
 97
        0
 75
     0
 76
     1
 47
0.0514683685270805
 98
        1
 10
309.7957033510996
 20
277.1668947094501
450
        0
451
        0
460
0.0
461
0.0
452
        0
462
0.0
453
        0
470

  0
HATCH
  5
1F7C
330
18
100
AcDbEntity
  8
ROGO
 62
     4
100
AcDbHatch
 10
0.0
 20
0.0
 30
0.0
210
0.0
220
0.0
230
1.0
  2
SOLID
 70
     1
 71
     1
 91
        2
 92
        7
 72
     0
 73
     1
 93
        8
 10
308.2663962093632
 20
278.5423545902676
 10
307.717149882024
 20
278.5423545902677
 10
307.0318574875097
 20
277.5920371234672
 10
307.5581632667748
 20
277.5920371234672
 10
307.6886386986509
 20
277.772971689344
 10
308.2949073927366
 20
277.7729716893439
 10
308.4253828246125
 20
277.5920371234672
 10
308.9516886038778
 20
277.5920371234672
 97
        8
330
1F7E
330
1F86
330
1F8B
330
1F87
330
1F7D
330
1F9F
330
1FA5
330
1F9E
 92
       22
 72
     0
 73
     1
 93
        3
 10
308.1572910202718
 20
277.9638088320262
 10
307.8262550711156
 20
277.9638088320262
 10
307.9917730456936
 20
278.1933380425793
 97
        3
330
1FAA
330
1FA9
330
1FAB
 75
     0
 76
     1
 47
0.0514683685270805
 98
        2
 10
308.3302218006175
 20
278.0554697141198
 10
308.3302218006175
 20
278.0554697141198
450
        0
451
        0
460
0.0
461
0.0
452
        0
462
0.0
453
        0
470

  0
LINE
  5
1F7D
102
{ACAD_REACTORS
330
1F7C
102
}
330
18
100
AcDbEntity
  8
ROGO
 62
     4
100
AcDbLine
 10
307.6886386986509
 20
277.7729716893439
 30
0.0
 11
308.2949073927366
 21
277.7729716893439
 31
0.0
  0
LINE
  5
1F7E
102
{ACAD_REACTORS
330
1F7C
102
}
330
18
100
AcDbEntity
  8
ROGO
 62
     4
100
AcDbLine
 10
307.717149882024
 20
278.5423545902677
 30
0.0
 11
308.2663962093633
 21
278.5423545902677
 31
0.0
  0
LINE
  5
1F7F
330
18
100
AcDbEntity
  8
ROGO
 62
     4
100
AcDbLine
 10
304.2156478452242
 20
277.2062612019547
 30
0.0
 11
313.0469501975067
 21
277.2062612019547
 31
0.0
  0
HATCH
  5
1F80
330
18
100
AcDbEntity
  8
ROGO
 62
     4
100
AcDbHatch
 10
0.0
 20
0.0
 30
0.0
210
0.0
220
0.0
230
1.0
  2
SOLID
 70
     1
 71
     1
 91
        2
 92
        5
 93
        6
 72
     1
 10
303.4683678558139
 20
277.05741853814
 11
304.1586295985849
 21
277.05741853814
 72
     1
 10
304.1586295985849
 20
277.05741853814
 11
304.4005062117201
 21
277.5920371234672
 72
     1
 10
304.4005062117201
 20
277.5920371234672
 11
305.0457593677659
 21
277.5920371234672
 72
     4
 94
        3
 73
     0
 74
     0
 95
       18
 96
       14
 40
0.108740278791501
 40
0.108740278791501
 40
0.108740278791501
 40
0.108740278791501
 40
0.6623149649549278
 40
1.384304701649787
 40
2.097394834876493
 40
2.774073369849618
 40
3.428974823686336
 40
4.005208313035923
 40
4.455173659284313
 40
4.720999734343523
 40
5.086034088486724
 40
5.569973738255373
 40
6.060470601257717
 40
6.060470601257717
 40
6.060470601257717
 40
6.060470601257717
 10
305.0457593677659
 20
277.5920371234672
 10
305.0911712188705
 20
277.5923752917722
 10
305.1958106525243
 20
277.5931545099509
 10
305.3422004014089
 20
277.6713591305102
 10
305.4810197096737
 20
277.7709861191899
 10
305.5928292187973
 20
277.895459647439
 10
305.662489911661
 20
278.037773801702
 10
305.6732801328
 20
278.1741688466328
 10
305.6666929678919
 20
278.2820556314955
 10
305.6196243660437
 20
278.3572553989397
 10
305.5706908107065
 20
278.4335754727127
 10
305.4809632168789
 20
278.4996867553343
 10
305.4074444460165
 20
278.5286533246414
 10
305.370058655766
 20
278.5423545902677
 72
     1
 10
305.3700586557662
 20
278.5423545902676
 11
304.2031004043523
 21
278.5423545902677
 72
     1
 10
304.2031004043523
 20
278.5423545902677
 11
303.4683678558139
 21
277.05741853814
 97
        6
330
1F82
330
1F8C
330
1F83
330
1F77
330
1F89
330
1F88
 92
       20
 93
        4
 72
     1
 10
304.5498513274083
 20
277.9221338345132
 11
304.664193668532
 21
278.1748641000074
 72
     1
 10
304.664193668532
 20
278.1748641000074
 11
304.958004753324
 21
278.1748641000074
 72
     4
 94
        3
 73
     0
 74
     0
 95
       15
 96
       11
 40
0.0
 40
0.0
 40
0.0
 40
0.0
 40
0.1114278057886432
 40
0.1622327562563865
 40
0.2198997572250677
 40
0.259185199493265
 40
0.3213155338880433
 40
0.3585299069784071
 40
0.4223775764185746
 40
0.4436601464819452
 40
0.4436601464819452
 40
0.4436601464819452
 40
0.4436601464819452
 10
304.958004753324
 20
278.1748641000074
 10
304.9998548763408
 20
278.1750557959098
 10
305.0607863535304
 20
278.1753348945996
 10
305.0941058553917
 20
278.0999624811088
 10
305.0791704659781
 20
278.0514344047738
 10
305.0603954642312
 20
278.0016111954858
 10
305.0272157838878
 20
277.9677555733339
 10
304.9826837929414
 20
277.9351469019319
 10
304.940598933406
 20
277.9311994762439
 10
304.9132274564628
 20
277.9239469635537
 10
304.9063845839517
 20
277.9221338345132
 72
     1
 10
304.9063845839517
 20
277.9221338345132
 11
304.5498513274083
 21
277.9221338345132
 97
        4
330
1F8F
330
1F8D
330
1F91
330
1F8E
 75
     0
 76
     1
 47
0.0514683685270805
 98
        2
 10
304.2093376151548
 20
278.0805000693582
 10
304.2093376151548
 20
278.0805000693582
450
        0
451
        0
460
0.0
461
0.0
452
        0
462
0.0
453
        0
470

  0
HATCH
  5
1F81
330
18
100
AcDbEntity
  8
ROGO
 62
     4
100
AcDbHatch
 10
0.0
 20
0.0
 30
0.0
210
0.0
220
0.0
230
1.0
  2
SOLID
 70
     1
 71
     1
 91
        1
 92
        1
 93
       12
 72
     1
 10
306.0594686355556
 20
278.5423545902677
 11
307.3448125448358
 21
278.5423545902677
 72
     1
 10
307.3448125448358
 20
278.5423545902677
 11
307.2371018629663
 21
278.3246652078858
 72
     1
 10
307.2371018629663
 20
278.3246652078858
 11
306.5615575841685
 21
278.3246652078858
 72
     1
 10
306.5615575841685
 20
278.3246652078858
 11
306.4773412156916
 21
278.1544591621901
 72
     1
 10
306.4773412156916
 20
278.1544591621901
 11
307.1528854944895
 21
278.1544591621901
 72
     1
 10
307.1528854944895
 20
278.1544591621901
 11
307.0665294980062
 21
277.9799288072322
 72
     1
 10
307.0665294980062
 20
277.9799288072323
 11
306.3909852192083
 21
277.9799288072322
 72
     1
 10
306.3909852192083
 20
277.9799288072322
 11
306.3067652854152
 21
277.8097155558309
 72
     1
 10
306.3067652854152
 20
277.8097155558309
 11
306.9823095642131
 21
277.8097155558309
 72
     1
 10
306.9823095642131
 20
277.8097155558309
 11
306.8746043003109
 21
277.5920371234672
 72
     1
 10
306.8746043003109
 20
277.5920371234672
 11
305.5892603910306
 21
277.5920371234672
 72
     1
 10
305.5892603910306
 20
277.5920371234672
 11
306.0594686355556
 21
278.5423545902677
 97
       12
330
1F90
330
1F92
330
1F94
330
1F93
330
1F95
330
1F98
330
1F97
330
1F99
330
1F96
330
1F85
330
1F8A
330
1F84
 75
     0
 76
     1
 98
        1
 10
253.4828756585225
 20
212.8321541251019
450
        0
451
        0
460
0.0
461
0.0
452
        0
462
0.0
453
        0
470

  0
SPLINE
  5
1F82
102
{ACAD_REACTORS
330
1F80
102
}
330
18
100
AcDbEntity
  8
ROGO
 62
     4
100
AcDbSpline
210
0.0
220
0.0
230
1.0
 70
     8
 71
     3
 72
    18
 73
    14
 74
     0
 42
0.0000000001
 43
0.0000000001
 40
0.1087402787915014
 40
0.1087402787915014
 40
0.1087402787915014
 40
0.1087402787915014
 40
0.5992371417938475
 40
1.083176791562495
 40
1.448211145705696
 40
1.714037220764907
 40
2.164002567013295
 40
2.740236056362883
 40
3.395137510199602
 40
4.071816045172726
 40
4.784906178399433
 40
5.506895915094291
 40
6.060470601257717
 40
6.060470601257717
 40
6.060470601257717
 40
6.060470601257717
 10
305.370058655766
 20
278.5423545902677
 30
0.0
 10
305.4074444460165
 20
278.5286533246414
 30
0.0
 10
305.4809632168789
 20
278.4996867553343
 30
0.0
 10
305.5706908107065
 20
278.4335754727127
 30
0.0
 10
305.6196243660437
 20
278.3572553989397
 30
0.0
 10
305.6666929678919
 20
278.2820556314955
 30
0.0
 10
305.6732801328
 20
278.1741688466328
 30
0.0
 10
305.662489911661
 20
278.037773801702
 30
0.0
 10
305.5928292187973
 20
277.895459647439
 30
0.0
 10
305.4810197096737
 20
277.7709861191899
 30
0.0
 10
305.3422004014089
 20
277.6713591305102
 30
0.0
 10
305.1958106525243
 20
277.5931545099509
 30
0.0
 10
305.0911712188705
 20
277.5923752917722
 30
0.0
 10
305.0457593677659
 20
277.5920371234672
 30
0.0
  0
LINE
  5
1F83
102
{ACAD_REACTORS
330
1F80
102
}
330
18
100
AcDbEntity
  8
ROGO
 62
     4
100
AcDbLine
 10
304.2031004043523
 20
278.5423545902677
 30
0.0
 11
303.4683678558139
 21
277.05741853814
 31
0.0
  0
LINE
  5
1F84
102
{ACAD_REACTORS
330
1F81
102
}
330
18
100
AcDbEntity
  8
ROGO
 62
     4
100
AcDbLine
 10
306.0594686355556
 20
278.5423545902677
 30
0.0
 11
305.5892603910306
 21
277.5920371234672
 31
0.0
  0
LINE
  5
1F85
102
{ACAD_REACTORS
330
1F81
102
}
330
18
100
AcDbEntity
  8
ROGO
 62
     4
100
AcDbLine
 10
306.9823095642131
 20
277.8097155558309
 30
0.0
 11
306.8746043003109
 21
277.5920371234672
 31
0.0
  0
LINE
  5
1F86
102
{ACAD_REACTORS
330
1F7C
102
}
330
18
100
AcDbEntity
  8
ROGO
 62
     4
100
AcDbLine
 10
307.7171498820241
 20
278.5423545902677
 30
0.0
 11
307.0318574875097
 21
277.5920371234672
 31
0.0
  0
LINE
  5
1F87
102
{ACAD_REACTORS
330
1F7C
102
}
330
18
100
AcDbEntity
  8
ROGO
 62
     4
100
AcDbLine
 10
307.6886386986509
 20
277.7729716893439
 30
0.0
 11
307.5581632667748
 21
277.5920371234672
 31
0.0
  0
LINE
  5
1F88
102
{ACAD_REACTORS
330
1F80
102
}
330
18
100
AcDbEntity
  8
ROGO
 62
     4
100
AcDbLine
 10
305.0457593679895
 20
277.5920371234672
 30
0.0
 11
304.4005062117201
 21
277.5920371234672
 31
0.0
  0
LINE
  5
1F89
102
{ACAD_REACTORS
330
1F80
102
}
330
18
100
AcDbEntity
  8
ROGO
 62
     4
100
AcDbLine
 10
304.4005062117201
 20
277.5920371234672
 30
0.0
 11
304.1586295985849
 21
277.05741853814
 31
0.0
  0
LINE
  5
1F8A
102
{ACAD_REACTORS
330
1F81
102
}
330
18
100
AcDbEntity
  8
ROGO
 62
     4
100
AcDbLine
 10
305.5892603910306
 20
277.5920371234672
 30
0.0
 11
306.8746043003109
 21
277.5920371234672
 31
0.0
  0
LINE
  5
1F8B
102
{ACAD_REACTORS
330
1F7C
102
}
330
18
100
AcDbEntity
  8
ROGO
 62
     4
100
AcDbLine
 10
307.0318574875097
 20
277.5920371234672
 30
0.0
 11
307.5581632667748
 21
277.5920371234672
 31
0.0
  0
LINE
  5
1F8C
102
{ACAD_REACTORS
330
1F80
102
}
330
18
100
AcDbEntity
  8
ROGO
 62
     4
100
AcDbLine
 10
304.2031004043523
 20
278.5423545902677
 30
0.0
 11
305.370058655766
 21
278.5423545902677
 31
0.0
  0
LINE
  5
1F8D
102
{ACAD_REACTORS
330
1F80
102
}
330
18
100
AcDbEntity
  8
ROGO
 62
     4
100
AcDbLine
 10
304.958004753324
 20
278.1748641000074
 30
0.0
 11
304.664193668532
 21
278.1748641000074
 31
0.0
  0
LINE
  5
1F8E
102
{ACAD_REACTORS
330
1F80
102
}
330
18
100
AcDbEntity
  8
ROGO
 62
     4
100
AcDbLine
 10
304.9063845839517
 20
277.9221338345132
 30
0.0
 11
304.5498513274085
 21
277.9221338345132
 31
0.0
  0
LINE
  5
1F8F
102
{ACAD_REACTORS
330
1F80
102
}
330
18
100
AcDbEntity
  8
ROGO
 62
     4
100
AcDbLine
 10
304.664193668532
 20
278.1748641000074
 30
0.0
 11
304.5498513274085
 21
277.9221338345132
 31
0.0
  0
LINE
  5
1F90
102
{ACAD_REACTORS
330
1F81
102
}
330
18
100
AcDbEntity
  8
ROGO
 62
     4
100
AcDbLine
 10
306.0594686355556
 20
278.5423545902677
 30
0.0
 11
307.3448125448358
 21
278.5423545902677
 31
0.0
  0
SPLINE
  5
1F91
102
{ACAD_REACTORS
330
1F80
102
}
330
18
100
AcDbEntity
  8
ROGO
 62
     4
100
AcDbSpline
210
0.0
220
0.0
230
1.0
 70
     8
 71
     3
 72
    15
 73
    11
 74
     9
 42
0.0000000001
 43
0.0000000001
 44
0.0000000001
 40
0.0
 40
0.0
 40
0.0
 40
0.0
 40
0.1114278057886985
 40
0.1622327562565226
 40
0.2198997572251478
 40
0.2591851994933676
 40
0.321315533888075
 40
0.3585299069785492
 40
0.4223775764187167
 40
0.4436601464820322
 40
0.4436601464820322
 40
0.4436601464820322
 40
0.4436601464820322
 10
304.958004753324
 20
278.1748641000074
 30
0.0
 10
304.9998548763408
 20
278.1750557959098
 30
0.0
 10
305.0607863535305
 20
278.1753348945996
 30
0.0
 10
305.0941058553917
 20
278.0999624811088
 30
0.0
 10
305.0791704659781
 20
278.0514344047737
 30
0.0
 10
305.0603954642312
 20
278.001611195486
 30
0.0
 10
305.0272157838879
 20
277.9677555733336
 30
0.0
 10
304.9826837929413
 20
277.9351469019321
 30
0.0
 10
304.9405989334058
 20
277.931199476244
 30
0.0
 10
304.9132274564629
 20
277.9239469635537
 30
0.0
 10
304.9063845839517
 20
277.9221338345132
 30
0.0
 11
304.958004753324
 21
278.1748641000074
 31
0.0
 11
305.0664071980538
 21
278.1490752287741
 31
0.0
 11
305.0870553251679
 21
278.1026554287022
 31
0.0
 11
305.076731410024
 21
278.045920080137
 31
0.0
 11
305.0612453888949
 21
278.0098156604103
 31
0.0
 11
305.0199491346667
 21
277.9633958603384
 31
0.0
 11
304.9889770924084
 21
277.9427647633518
 31
0.0
 11
304.9270327110658
 21
277.9272916087599
 31
0.0
 11
304.9063845839517
 21
277.9221338345132
 31
0.0
  0
LINE
  5
1F92
102
{ACAD_REACTORS
330
1F81
102
}
330
18
100
AcDbEntity
  8
ROGO
 62
     4
100
AcDbLine
 10
307.3448125448358
 20
278.5423545902677
 30
0.0
 11
307.2371018629663
 21
278.3246652078858
 31
0.0
  0
LINE
  5
1F93
102
{ACAD_REACTORS
330
1F81
102
}
330
18
100
AcDbEntity
  8
ROGO
 62
     4
100
AcDbLine
 10
306.5615575841685
 20
278.3246652078858
 30
0.0
 11
306.4773412156916
 21
278.1544591621901
 31
0.0
  0
LINE
  5
1F94
102
{ACAD_REACTORS
330
1F81
102
}
330
18
100
AcDbEntity
  8
ROGO
 62
     4
100
AcDbLine
 10
306.5615575841685
 20
278.3246652078858
 30
0.0
 11
307.2371018629663
 21
278.3246652078858
 31
0.0
  0
LINE
  5
1F95
102
{ACAD_REACTORS
330
1F81
102
}
330
18
100
AcDbEntity
  8
ROGO
 62
     4
100
AcDbLine
 10
306.4773412156916
 20
278.1544591621901
 30
0.0
 11
307.1528854944895
 21
278.1544591621901
 31
0.0
  0
LINE
  5
1F96
102
{ACAD_REACTORS
330
1F81
102
}
330
18
100
AcDbEntity
  8
ROGO
 62
     4
100
AcDbLine
 10
306.3067652854152
 20
277.8097155558309
 30
0.0
 11
306.9823095642131
 21
277.8097155558309
 31
0.0
  0
LINE
  5
1F97
102
{ACAD_REACTORS
330
1F81
102
}
330
18
100
AcDbEntity
  8
ROGO
 62
     4
100
AcDbLine
 10
306.3909852192083
 20
277.9799288072322
 30
0.0
 11
307.0665294980062
 21
277.9799288072323
 31
0.0
  0
LINE
  5
1F98
102
{ACAD_REACTORS
330
1F81
102
}
330
18
100
AcDbEntity
  8
ROGO
 62
     4
100
AcDbLine
 10
307.1528854944895
 20
278.1544591621901
 30
0.0
 11
307.0665294980062
 21
277.9799288072322
 31
0.0
  0
LINE
  5
1F99
102
{ACAD_REACTORS
330
1F81
102
}
330
18
100
AcDbEntity
  8
ROGO
 62
     4
100
AcDbLine
 10
306.3909852192083
 20
277.9799288072322
 30
0.0
 11
306.3067652854152
 21
277.8097155558309
 31
0.0
  0
HATCH
  5
1F9A
330
18
100
AcDbEntity
  8
ROGO
 62
     4
100
AcDbHatch
 10
0.0
 20
0.0
 30
0.0
210
0.0
220
0.0
230
1.0
  2
SOLID
 70
     1
 71
     1
 91
        2
 92
        7
 72
     1
 73
     1
 93
        4
 10
311.3180743463433
 20
278.5423545902677
 42
0.0
 10
310.9338003465656
 20
278.5423545902677
 42
0.9597396185048687
 10
310.9338003465654
 20
277.5920371234672
 42
0.0
 10
311.3456899720703
 20
277.5920371234672
 42
0.9713627655753144
 97
        4
330
1FBA
330
1FA2
330
1FA7
330
1FA3
 92
       22
 72
     1
 73
     1
 93
        2
 10
311.2539884998358
 20
278.0212040397175
 42
0.1034173650222558
 10
311.2596475359865
 20
278.0616913718013
 42
0.0
 97
        8
330
1FB2
330
1FB8
330
1FB4
330
1FB7
330
1FB3
330
1FB6
330
1FB1
330
1FB5
 75
     0
 76
     1
 47
0.0514683685270805
 98
        2
 10
311.4114906103
 20
278.1555907987774
 10
311.4114906103
 20
278.1555907987774
450
        0
451
        0
460
0.0
461
0.0
452
        0
462
0.0
453
        0
470

  0
HATCH
  5
1F9B
330
18
100
AcDbEntity
  8
ROGO
 62
     4
100
AcDbHatch
 10
0.0
 20
0.0
 30
0.0
210
0.0
220
0.0
230
1.0
  2
SOLID
 70
     1
 71
     1
 91
        1
 92
        5
 93
        8
 72
     1
 10
310.2758198624787
 20
278.1887748785694
 11
310.4521261262931
 21
278.5423545902677
 72
     1
 10
310.4521261262931
 20
278.5423545902677
 11
309.500439852905
 21
278.5423545902677
 72
     4
 94
        3
 73
     0
 74
     0
 95
       26
 96
       22
 40
0.0
 40
0.0
 40
0.0
 40
0.0
 40
0.1723984759425082
 40
0.2878059064037186
 40
0.3710240621887309
 40
0.4331603664333474
 40
0.5137544142125066
 40
0.572580212192465
 40
0.6788058922657929
 40
0.7652720686804742
 40
0.8240829233522561
 40
0.8817499774613677
 40
0.9849051260984536
 40
1.057848128260939
 40
1.097133570529084
 40
1.152937380796444
 40
1.193234564309729
 40
1.251611879021468
 40
1.284648389624335
 40
1.35653954240601
 40
1.389365667278779
 40
1.389365667278779
 40
1.389365667278779
 40
1.389365667278779
 10
309.5004398529048
 20
278.5423545902677
 10
309.4419251464663
 20
278.5388635025394
 10
309.3442393749857
 20
278.5330354018995
 10
309.2369809921502
 20
278.4678770861964
 10
309.1583972216353
 20
278.4299969048223
 10
309.1023513718067
 20
278.3785020254232
 10
309.0612695366891
 20
278.3253115766336
 10
309.0094781712239
 20
278.2619355469033
 10
308.9672437926268
 20
278.188136724863
 10
308.9457363912003
 20
278.1067975573933
 10
308.9266853391442
 20
278.0419697689753
 10
308.912556760007
 20
277.9697276589821
 10
308.9161514705145
 20
277.8916807667444
 10
308.9212992604777
 20
277.8191948088194
 10
308.9442828908868
 20
277.7674506874971
 10
308.9704571748201
 20
277.7306124387611
 10
309.0025072270417
 20
277.6900391918425
 10
309.037576992943
 20
277.6631676617896
 10
309.0665825519367
 20
277.6144880793751
 10
309.1173558044715
 20
277.6082762135797
 10
309.1496293037197
 20
277.5959127466528
 10
309.1597462007603
 20
277.5920371234672
 72
     1
 10
309.1597462007602
 20
277.5920371234672
 11
309.9782671449494
 21
277.5920371234672
 72
     1
 10
309.9782671449494
 20
277.5920371234672
 11
310.1545715417286
 21
277.945613090853
 72
     1
 10
310.1545715417286
 20
277.945613090853
 11
309.546897916292
 21
277.945613090853
 72
     4
 94
        3
 73
     0
 74
     0
 95
       16
 96
       12
 40
0.0
 40
0.0
 40
0.0
 40
0.0
 40
0.0520638816757735
 40
0.1046647644702809
 40
0.1360388269655169
 40
0.1661200957203374
 40
0.1991564750640073
 40
0.2222266184463259
 40
0.2441181822786546
 40
0.2885111307736739
 40
0.3794005943324437
 40
0.3794005943324437
 40
0.3794005943324437
 40
0.3794005943324437
 10
309.546897916292
 20
277.945613090853
 10
309.5285683382735
 20
277.951005921466
 10
309.4917201259543
 20
277.9618472058221
 10
309.4886362281391
 20
278.0144017696137
 10
309.4928375927498
 20
278.0518511968408
 10
309.5104329171221
 20
278.0791165667677
 10
309.5317790974543
 20
278.0989557107964
 10
309.5397272271214
 20
278.1247930939227
 10
309.5630900301276
 20
278.1443035507212
 10
309.6045185397924
 20
278.17709790317
 10
309.6503312997815
 20
278.1840823674993
 10
309.681110594121
 20
278.1887748785694
 72
     1
 10
309.681110594121
 20
278.1887748785694
 11
310.2758198624787
 21
278.1887748785694
 97
        8
330
1FB0
330
1F9D
330
1FA4
330
1FA0
330
1FAF
330
1FAC
330
1FAE
330
1FAD
 75
     0
 76
     1
 47
0.0514683685270805
 98
        1
 10
309.8332797782792
 20
278.3308027810022
450
        0
451
        0
460
0.0
461
0.0
452
        0
462
0.0
453
        0
470

  0
SPLINE
  5
1F9C
102
{ACAD_REACTORS
330
1F76
102
}
330
18
100
AcDbEntity
  8
ROGO
 62
     4
100
AcDbSpline
210
0.0
220
0.0
230
1.0
 70
     8
 71
     3
 72
    26
 73
    22
 74
    20
 42
0.0000000001
 43
0.0000000001
 44
0.0000000001
 40
0.0
 40
0.0
 40
0.0
 40
0.0
 40
0.172398475942452
 40
0.2878059064037895
 40
0.3710240621887737
 40
0.4331603664333854
 40
0.513754414212581
 40
0.5725802121924248
 40
0.6788058922658575
 40
0.7652720686804675
 40
0.8240829233523044
 40
0.88174997746135
 40
0.9849051260984358
 40
1.057848128260857
 40
1.097133570529002
 40
1.152937380796409
 40
1.193234564309688
 40
1.251611879021468
 40
1.284648389624326
 40
1.356539542406042
 40
1.389365667278737
 40
1.389365667278737
 40
1.389365667278737
 40
1.389365667278737
 10
312.5624472619859
 20
278.5423545902677
 30
0.0
 10
312.5039325555472
 20
278.5388635025394
 30
0.0
 10
312.4062467840666
 20
278.5330354018993
 30
0.0
 10
312.2989884012314
 20
278.4678770861965
 30
0.0
 10
312.2204046307162
 20
278.4299969048224
 30
0.0
 10
312.1643587808877
 20
278.3785020254231
 30
0.0
 10
312.1232769457701
 20
278.3253115766336
 30
0.0
 10
312.0714855803051
 20
278.2619355469033
 30
0.0
 10
312.0292512017075
 20
278.1881367248629
 30
0.0
 10
312.0077438002816
 20
278.1067975573933
 30
0.0
 10
311.9886927482252
 20
278.0419697689753
 30
0.0
 10
311.9745641690883
 20
277.9697276589821
 30
0.0
 10
311.9781588795955
 20
277.8916807667445
 30
0.0
 10
311.9833066695587
 20
277.8191948088193
 30
0.0
 10
312.0062902999679
 20
277.7674506874974
 30
0.0
 10
312.0324645839013
 20
277.7306124387611
 30
0.0
 10
312.0645146361228
 20
277.6900391918425
 30
0.0
 10
312.099584402024
 20
277.6631676617894
 30
0.0
 10
312.1285899610179
 20
277.6144880793753
 30
0.0
 10
312.1793632135527
 20
277.6082762135796
 30
0.0
 10
312.2116367128007
 20
277.5959127466527
 30
0.0
 10
312.2217536098414
 20
277.5920371234672
 30
0.0
 11
312.5624472619859
 21
278.5423545902677
 31
0.0
 11
312.3921004359136
 21
278.5158367971018
 31
0.0
 11
312.2888598003427
 21
278.4642592227832
 31
0.0
 11
312.2165915038562
 21
278.422997196958
 31
0.0
 11
312.170133440469
 21
278.3817350029847
 31
0.0
 11
312.1185132710967
 21
278.3198418801728
 31
0.0
 11
312.0823791228535
 21
278.273422080101
 31
0.0
 11
312.0307586566549
 21
278.1805823118091
 31
0.0
 11
312.0049487203819
 21
278.0980580920106
 31
0.0
 11
311.9894626992528
 21
278.0413227434453
 31
0.0
 11
311.9791384872826
 21
277.9845873948802
 31
0.0
 11
311.9791384872826
 21
277.8814322462431
 31
0.0
 11
311.9894626992528
 21
277.8092235749379
 31
0.0
 11
312.0049487203819
 21
277.7731191552113
 31
0.0
 11
312.03592076264
 21
277.7266993551393
 31
0.0
 11
312.0617309957394
 21
277.6957527096594
 31
0.0
 11
312.1030269531413
 21
277.6544906838341
 31
0.0
 11
312.1236750802556
 21
277.6287018126008
 31
0.0
 11
312.1907815675833
 21
277.6029131095155
 31
0.0
 11
312.2217536098414
 21
277.5920371234672
 31
0.0
  0
SPLINE
  5
1F9D
102
{ACAD_REACTORS
330
1F9B
102
}
330
18
100
AcDbEntity
  8
ROGO
 62
     4
100
AcDbSpline
210
0.0
220
0.0
230
1.0
 70
     8
 71
     3
 72
    26
 73
    22
 74
    20
 42
0.0000000001
 43
0.0000000001
 44
0.0000000001
 40
0.0
 40
0.0
 40
0.0
 40
0.0
 40
0.1723984759425082
 40
0.2878059064037439
 40
0.3710240621887281
 40
0.4331603664333823
 40
0.5137544142124542
 40
0.5725802121924576
 40
0.678805892265835
 40
0.765272068680445
 40
0.824082923352242
 40
0.8817499774613638
 40
0.9849051260984497
 40
1.057848128260887
 40
1.097133570529054
 40
1.152937380796398
 40
1.193234564309714
 40
1.251611879021493
 40
1.284648389624316
 40
1.356539542405991
 40
1.389365667278778
 40
1.389365667278778
 40
1.389365667278778
 40
1.389365667278778
 10
309.5004398529048
 20
278.5423545902677
 30
0.0
 10
309.4419251464662
 20
278.5388635025394
 30
0.0
 10
309.3442393749857
 20
278.5330354018994
 30
0.0
 10
309.2369809921503
 20
278.4678770861964
 30
0.0
 10
309.1583972216351
 20
278.4299969048222
 30
0.0
 10
309.1023513718067
 20
278.3785020254232
 30
0.0
 10
309.0612695366891
 20
278.3253115766338
 30
0.0
 10
309.0094781712238
 20
278.2619355469033
 30
0.0
 10
308.9672437926267
 20
278.1881367248629
 30
0.0
 10
308.9457363912004
 20
278.1067975573933
 30
0.0
 10
308.9266853391442
 20
278.0419697689753
 30
0.0
 10
308.9125567600068
 20
277.9697276589821
 30
0.0
 10
308.9161514705145
 20
277.8916807667445
 30
0.0
 10
308.9212992604775
 20
277.8191948088194
 30
0.0
 10
308.944282890887
 20
277.7674506874975
 30
0.0
 10
308.9704571748201
 20
277.7306124387609
 30
0.0
 10
309.0025072270418
 20
277.6900391918426
 30
0.0
 10
309.0375769929429
 20
277.6631676617894
 30
0.0
 10
309.0665825519368
 20
277.6144880793753
 30
0.0
 10
309.1173558044715
 20
277.6082762135799
 30
0.0
 10
309.1496293037197
 20
277.5959127466527
 30
0.0
 10
309.1597462007603
 20
277.5920371234672
 30
0.0
 11
309.5004398529048
 21
278.5423545902677
 31
0.0
 11
309.3300930268325
 21
278.5158367971018
 31
0.0
 11
309.2268523912617
 21
278.4642592227832
 31
0.0
 11
309.1545840947752
 21
278.422997196958
 31
0.0
 11
309.108126031388
 21
278.3817350029847
 31
0.0
 11
309.0565058620157
 21
278.3198418801729
 31
0.0
 11
309.0203717137724
 21
278.273422080101
 31
0.0
 11
308.9687512475739
 21
278.1805823118091
 31
0.0
 11
308.9429413113009
 21
278.0980580920106
 31
0.0
 11
308.9274552901718
 21
278.0413227434454
 31
0.0
 11
308.9171310782015
 21
277.9845873948802
 31
0.0
 11
308.9171310782015
 21
277.8814322462431
 31
0.0
 11
308.9274552901718
 21
277.8092235749379
 31
0.0
 11
308.9429413113009
 21
277.7731191552113
 31
0.0
 11
308.9739133535589
 21
277.7266993551393
 31
0.0
 11
308.9997235866583
 21
277.6957527096594
 31
0.0
 11
309.0410195440603
 21
277.6544906838341
 31
0.0
 11
309.0616676711745
 21
277.6287018126008
 31
0.0
 11
309.1287741585022
 21
277.6029131095156
 31
0.0
 11
309.1597462007603
 21
277.5920371234672
 31
0.0
  0
LINE
  5
1F9E
102
{ACAD_REACTORS
330
1F7C
102
}
330
18
100
AcDbEntity
  8
ROGO
 62
     4
100
AcDbLine
 10
308.2663962093633
 20
278.5423545902677
 30
0.0
 11
308.9516886038777
 21
277.5920371234672
 31
0.0
  0
LINE
  5
1F9F
102
{ACAD_REACTORS
330
1F7C
102
}
330
18
100
AcDbEntity
  8
ROGO
 62
     4
100
AcDbLine
 10
308.2949073927366
 20
277.7729716893439
 30
0.0
 11
308.4253828246125
 21
277.5920371234672
 31
0.0
  0
LINE
  5
1FA0
102
{ACAD_REACTORS
330
1F9B
102
}
330
18
100
AcDbEntity
  8
ROGO
 62
     4
100
AcDbLine
 10
310.1545715417287
 20
277.945613090853
 30
0.0
 11
309.9782671449494
 21
277.5920371234672
 31
0.0
  0
LINE
  5
1FA1
102
{ACAD_REACTORS
330
1F76
102
}
330
18
100
AcDbEntity
  8
ROGO
 62
     4
100
AcDbLine
 10
313.2165789508097
 20
277.945613090853
 30
0.0
 11
313.0402745540305
 21
277.5920371234672
 31
0.0
  0
ARC
  5
1FA2
102
{ACAD_REACTORS
330
1F9A
102
}
330
18
100
AcDbEntity
  8
ROGO
 62
     4
100
AcDbCircle
 10
310.9533316647689
 20
278.0671958568674
 30
0.0
 40
0.4755599797263065
100
AcDbArc
 50
92.3538081120337
 51
270.0
  0
ARC
  5
1FA3
102
{ACAD_REACTORS
330
1F9A
102
}
330
18
100
AcDbEntity
  8
ROGO
 62
     4
100
AcDbCircle
 10
311.3180743463433
 20
278.0667946105414
 30
0.0
 40
0.4755599797263065
100
AcDbArc
 50
273.3290215232082
 51
90.0000000000006
  0
LINE
  5
1FA4
102
{ACAD_REACTORS
330
1F9B
102
}
330
18
100
AcDbEntity
  8
ROGO
 62
     4
100
AcDbLine
 10
309.1597462007602
 20
277.5920371234672
 30
0.0
 11
309.9782671449494
 21
277.5920371234672
 31
0.0
  0
LINE
  5
1FA5
102
{ACAD_REACTORS
330
1F7C
102
}
330
18
100
AcDbEntity
  8
ROGO
 62
     4
100
AcDbLine
 10
308.9516886038776
 20
277.5920371234672
 30
0.0
 11
308.4253828246125
 21
277.5920371234672
 31
0.0
  0
LINE
  5
1FA6
330
18
100
AcDbEntity
  8
ROGO
 62
     4
100
AcDbLine
 10
310.9338003465659
 20
277.5920371234672
 30
0.0
 11
311.34568997207
 21
277.5920371234672
 31
0.0
  0
LINE
  5
1FA7
102
{ACAD_REACTORS
330
1F9A
102
}
330
18
100
AcDbEntity
  8
ROGO
 62
     4
100
AcDbLine
 10
310.9338003465656
 20
277.5920371234672
 30
0.0
 11
311.3456899720703
 21
277.5920371234672
 31
0.0
  0
LINE
  5
1FA8
102
{ACAD_REACTORS
330
1F76
102
}
330
18
100
AcDbEntity
  8
ROGO
 62
     4
100
AcDbLine
 10
312.2217536098413
 20
277.5920371234672
 30
0.0
 11
313.0402745540305
 21
277.5920371234672
 31
0.0
  0
LINE
  5
1FA9
102
{ACAD_REACTORS
330
1F7C
102
}
330
18
100
AcDbEntity
  8
ROGO
 62
     4
100
AcDbLine
 10
307.9917730456937
 20
278.1933380425793
 30
0.0
 11
307.8262550711156
 21
277.9638088320262
 31
0.0
  0
LINE
  5
1FAA
102
{ACAD_REACTORS
330
1F7C
102
}
330
18
100
AcDbEntity
  8
ROGO
 62
     4
100
AcDbLine
 10
307.8262550711156
 20
277.9638088320262
 30
0.0
 11
308.1572910202717
 21
277.9638088320262
 31
0.0
  0
LINE
  5
1FAB
102
{ACAD_REACTORS
330
1F7C
102
}
330
18
100
AcDbEntity
  8
ROGO
 62
     4
100
AcDbLine
 10
307.9917730456937
 20
278.1933380425793
 30
0.0
 11
308.1572910202717
 21
277.9638088320262
 31
0.0
  0
SPLINE
  5
1FAC
102
{ACAD_REACTORS
330
1F9B
102
}
330
18
100
AcDbEntity
  8
ROGO
 62
     4
100
AcDbSpline
210
0.0
220
0.0
230
1.0
 70
     8
 71
     3
 72
    16
 73
    12
 74
    10
 42
0.0000000001
 43
0.0000000001
 44
0.0000000001
 40
0.0
 40
0.0
 40
0.0
 40
0.0
 40
0.0908894635587994
 40
0.1352824120537858
 40
0.1571739758861547
 40
0.180244119268397
 40
0.2132804986121557
 40
0.2433617673669566
 40
0.2747358298621832
 40
0.3273367126566795
 40
0.3794005943324279
 40
0.3794005943324279
 40
0.3794005943324279
 40
0.3794005943324279
 10
309.681110594121
 20
278.1887748785694
 30
0.0
 10
309.6503312997815
 20
278.1840823674994
 30
0.0
 10
309.6045185397922
 20
278.17709790317
 30
0.0
 10
309.5630900301277
 20
278.1443035507213
 30
0.0
 10
309.5397272271214
 20
278.1247930939227
 30
0.0
 10
309.5317790974544
 20
278.0989557107965
 30
0.0
 10
309.5104329171224
 20
278.0791165667677
 30
0.0
 10
309.4928375927495
 20
278.0518511968407
 30
0.0
 10
309.4886362281394
 20
278.014401769614
 30
0.0
 10
309.4917201259542
 20
277.9618472058221
 30
0.0
 10
309.5285683382734
 20
277.9510059214659
 30
0.0
 10
309.546897916292
 20
277.945613090853
 30
0.0
 11
309.681110594121
 21
278.1887748785694
 31
0.0
 11
309.5933562765055
 21
278.1651089890691
 31
0.0
 11
309.5572221282623
 21
278.1393202859839
 31
0.0
 11
309.5417361071332
 21
278.1238469632439
 31
0.0
 11
309.531411895163
 21
278.1032158662573
 31
0.0
 11
309.5107637680488
 21
278.077427163172
 31
0.0
 11
309.4952777469197
 21
278.0516382919387
 31
0.0
 11
309.4901156409346
 21
278.0206918146068
 31
0.0
 11
309.5004398529048
 21
277.9691140721402
 31
0.0
 11
309.546897916292
 21
277.945613090853
 31
0.0
  0
LINE
  5
1FAD
102
{ACAD_REACTORS
330
1F9B
102
}
330
18
100
AcDbEntity
  8
ROGO
 62
     4
100
AcDbLine
 10
310.4521261262931
 20
278.5423545902677
 30
0.0
 11
310.2758198624787
 21
278.1887748785694
 31
0.0
  0
LINE
  5
1FAE
102
{ACAD_REACTORS
330
1F9B
102
}
330
18
100
AcDbEntity
  8
ROGO
 62
     4
100
AcDbLine
 10
309.681110594121
 20
278.1887748785694
 30
0.0
 11
310.2758198624787
 21
278.1887748785694
 31
0.0
  0
LINE
  5
1FAF
102
{ACAD_REACTORS
330
1F9B
102
}
330
18
100
AcDbEntity
  8
ROGO
 62
     4
100
AcDbLine
 10
309.546897916292
 20
277.945613090853
 30
0.0
 11
310.1545715417287
 21
277.945613090853
 31
0.0
  0
LINE
  5
1FB0
102
{ACAD_REACTORS
330
1F9B
102
}
330
18
100
AcDbEntity
  8
ROGO
 62
     4
100
AcDbLine
 10
309.5004398529051
 20
278.5423545902677
 30
0.0
 11
310.4521261262931
 21
278.5423545902677
 31
0.0
  0
LINE
  5
1FB1
102
{ACAD_REACTORS
330
1F9A
102
}
330
18
100
AcDbEntity
  8
ROGO
 62
     4
100
AcDbLine
 10
311.1425369794235
 20
278.1582224245164
 30
0.0
 11
311.1769758676516
 21
278.1534087975511
 31
0.0
  0
LINE
  5
1FB2
102
{ACAD_REACTORS
330
1F9A
102
}
330
18
100
AcDbEntity
  8
ROGO
 62
     4
100
AcDbLine
 10
311.2596475359863
 20
278.061691371801
 30
0.0
 11
311.2470008075377
 21
277.9712108940575
 31
0.0
  0
LINE
  5
1FB3
102
{ACAD_REACTORS
330
1F9A
102
}
330
18
100
AcDbEntity
  8
ROGO
 62
     4
100
AcDbLine
 10
311.0206502889953
 20
278.004654571764
 30
0.0
 11
311.033297017444
 21
278.0951350495075
 31
0.0
  0
LINE
  5
1FB4
102
{ACAD_REACTORS
330
1F9A
102
}
330
18
100
AcDbEntity
  8
ROGO
 62
     4
100
AcDbLine
 10
311.1096941051118
 20
277.9232494850518
 30
0.0
 11
311.14413299334
 21
277.9184358580865
 31
0.0
  0
ARC
  5
1FB5
102
{ACAD_REACTORS
330
1F9A
102
}
330
18
100
AcDbEntity
  8
ROGO
 62
     4
100
AcDbCircle
 10
311.1599911602329
 20
278.054981486815
 30
0.0
 40
0.0998820093152177
100
AcDbArc
 50
3.851923331663601
 51
80.20940670206341
  0
ARC
  5
1FB6
102
{ACAD_REACTORS
330
1F9A
102
}
330
18
100
AcDbEntity
  8
ROGO
 62
     4
100
AcDbCircle
 10
311.1291337976071
 20
278.0553091234565
 30
0.0
 40
0.1037824301982561
100
AcDbArc
 50
82.57970078354313
 51
157.4341870372611
  0
ARC
  5
1FB7
102
{ACAD_REACTORS
330
1F9A
102
}
330
18
100
AcDbEntity
  8
ROGO
 62
     4
100
AcDbCircle
 10
311.1154219085801
 20
278.0189169729069
 30
0.0
 40
0.0958388019806556
100
AcDbArc
 50
188.5583509056651
 51
266.5736774635929
  0
ARC
  5
1FB8
102
{ACAD_REACTORS
330
1F9A
102
}
330
18
100
AcDbEntity
  8
ROGO
 62
     4
100
AcDbCircle
 10
311.1647465766803
 20
278.0048976001741
 30
0.0
 40
0.0888850530907803
100
AcDbArc
 50
256.5902863289752
 51
337.7287536965499
  0
LINE
  5
1FB9
330
18
100
AcDbEntity
  8
ROGO
 62
     4
100
AcDbLine
 10
310.9338003465657
 20
278.5423545902677
 30
0.0
 11
311.2031137557121
 21
278.5423545902677
 31
0.0
  0
LINE
  5
1FBA
102
{ACAD_REACTORS
330
1F9A
102
}
330
18
100
AcDbEntity
  8
ROGO
 62
     4
100
AcDbLine
 10
310.9338003465656
 20
278.5423545902677
 30
0.0
 11
311.3180743463433
 21
278.5423545902677
 31
0.0
  0
SPLINE
  5
1FBB
102
{ACAD_REACTORS
330
1F76
102
}
330
18
100
AcDbEntity
  8
ROGO
 62
     4
100
AcDbSpline
210
0.0
220
0.0
230
1.0
 70
     8
 71
     3
 72
    16
 73
    12
 74
    10
 42
0.0000000001
 43
0.0000000001
 44
0.0000000001
 40
0.0
 40
0.0
 40
0.0
 40
0.0
 40
0.0908894635588796
 40
0.1352824120538197
 40
0.1571739758862288
 40
0.1802441192684711
 40
0.2132804986122298
 40
0.2433617673670307
 40
0.274735829862248
 40
0.3273367126567443
 40
0.3794005943325942
 40
0.3794005943325942
 40
0.3794005943325942
 40
0.3794005943325942
 10
312.7431180032021
 20
278.1887748785693
 30
0.0
 10
312.7123387088627
 20
278.1840823674994
 30
0.0
 10
312.6665259488735
 20
278.1770979031701
 30
0.0
 10
312.6250974392085
 20
278.1443035507211
 30
0.0
 10
312.6017346362025
 20
278.1247930939227
 30
0.0
 10
312.5937865065353
 20
278.0989557107964
 30
0.0
 10
312.5724403262034
 20
278.0791165667677
 30
0.0
 10
312.5548450018306
 20
278.0518511968407
 30
0.0
 10
312.5506436372205
 20
278.0144017696139
 30
0.0
 10
312.5537275350353
 20
277.9618472058221
 30
0.0
 10
312.5905757473546
 20
277.9510059214659
 30
0.0
 10
312.6089053253731
 20
277.945613090853
 30
0.0
 11
312.7431180032021
 21
278.1887748785693
 31
0.0
 11
312.6553636855865
 21
278.1651089890691
 31
0.0
 11
312.6192295373434
 21
278.1393202859839
 31
0.0
 11
312.6037435162142
 21
278.1238469632439
 31
0.0
 11
312.593419304244
 21
278.1032158662573
 31
0.0
 11
312.5727711771298
 21
278.077427163172
 31
0.0
 11
312.5572851560006
 21
278.0516382919387
 31
0.0
 11
312.5521230500157
 21
278.0206918146068
 31
0.0
 11
312.5624472619859
 21
277.9691140721402
 31
0.0
 11
312.6089053253731
 21
277.945613090853
 31
0.0
  0
LINE
  5
1FBC
102
{ACAD_REACTORS
330
1F76
102
}
330
18
100
AcDbEntity
  8
ROGO
 62
     4
100
AcDbLine
 10
312.6089053253731
 20
277.945613090853
 30
0.0
 11
313.2165789508098
 21
277.945613090853
 31
0.0
  0
LINE
  5
1FBD
102
{ACAD_REACTORS
330
1F76
102
}
330
18
100
AcDbEntity
  8
ROGO
 62
     4
100
AcDbLine
 10
312.743118003202
 20
278.1887748785694
 30
0.0
 11
313.3378272715598
 21
278.1887748785694
 31
0.0
  0
LINE
  5
1FBE
102
{ACAD_REACTORS
330
1F75
102
}
330
18
100
AcDbEntity
  8
ROGO
 62
     4
100
AcDbLine
 10
314.0833760782586
 20
277.7998865642038
 30
0.0
 11
314.4535946155392
 21
277.05741853814
 31
0.0
  0
LINE
  5
1FBF
102
{ACAD_REACTORS
330
1F75
102
}
330
18
100
AcDbEntity
  8
ROGO
 62
     4
100
AcDbLine
 10
313.7131695127189
 20
277.4450036369517
 30
0.0
 11
313.9064319608198
 21
277.05741853814
 31
0.0
  0
LINE
  5
1FC0
102
{ACAD_REACTORS
330
1F75
102
}
330
18
100
AcDbEntity
  8
ROGO
 62
     4
100
AcDbLine
 10
313.713169512719
 20
277.4450036369516
 30
0.0
 11
313.5199070646181
 21
277.05741853814
 31
0.0
  0
LINE
  5
1FC1
102
{ACAD_REACTORS
330
1F75
102
}
330
18
100
AcDbEntity
  8
ROGO
 62
     4
100
AcDbLine
 10
313.9064319608198
 20
277.05741853814
 30
0.0
 11
314.4535946155392
 21
277.05741853814
 31
0.0
  0
LINE
  5
1FC2
102
{ACAD_REACTORS
330
1F75
102
}
330
18
100
AcDbEntity
  8
ROGO
 62
     4
100
AcDbLine
 10
314.0833760782586
 20
277.7998865642038
 30
0.0
 11
314.9828639130293
 21
278.5423545902677
 31
0.0
  0
LINE
  5
1FC3
102
{ACAD_REACTORS
330
1F75
102
}
330
18
100
AcDbEntity
  8
ROGO
 62
     4
100
AcDbLine
 10
314.4357012583102
 20
278.5423545902677
 30
0.0
 11
314.9828639130293
 21
278.5423545902677
 31
0.0
  0
LINE
  5
1FC4
102
{ACAD_REACTORS
330
1F75
102
}
330
18
100
AcDbEntity
  8
ROGO
 62
     4
100
AcDbLine
 10
313.7131695127189
 20
278.5423545902677
 30
0.0
 11
314.2603441391789
 21
278.5423545902677
 31
0.0
  0
LINE
  5
1FC5
102
{ACAD_REACTORS
330
1F75
102
}
330
18
100
AcDbEntity
  8
ROGO
 62
     4
100
AcDbLine
 10
314.2603441391789
 20
278.5423545902677
 30
0.0
 11
314.1795034780827
 21
278.3802297909243
 31
0.0
  0
LINE
  5
1FC6
102
{ACAD_REACTORS
330
1F75
102
}
330
18
100
AcDbEntity
  8
ROGO
 62
     4
100
AcDbLine
 10
314.1795034780827
 20
278.3802297909243
 30
0.0
 11
314.4357012583102
 21
278.5423545902677
 31
0.0
  0
LINE
  5
1FD0
330
18
100
AcDbEntity
  8
ROGO
 62
     4
100
AcDbLine
 10
307.717149882024
 20
278.462783955315
 30
0.0
 11
308.2663962093633
 21
278.462783955315
 31
0.0
  0
LINE
  5
1FD1
330
18
100
AcDbEntity
  8
ROGO
 62
     4
100
AcDbLine
 10
304.2156478452242
 20
277.1266905670021
 30
0.0
 11
313.0469501975067
 21
277.1266905670021
 31
0.0
  0
LINE
  5
1FDE
330
18
100
AcDbEntity
  8
ROGO
 62
     4
100
AcDbLine
 10
304.2031004043523
 20
278.462783955315
 30
0.0
 11
305.370058655766
 21
278.462783955315
 31
0.0
  0
LINE
  5
1FE0
330
18
100
AcDbEntity
  8
ROGO
 62
     4
100
AcDbLine
 10
304.9063845839517
 20
277.8425631995605
 30
0.0
 11
304.5498513274085
 21
277.8425631995606
 31
0.0
  0
LINE
  5
1FFC
330
18
100
AcDbEntity
  8
ROGO
 62
     4
100
AcDbLine
 10
307.8262550711156
 20
277.8842381970735
 30
0.0
 11
308.1572910202717
 21
277.8842381970735
 31
0.0
  0
LINE
  5
2004
330
18
100
AcDbEntity
  8
ROGO
 62
     4
100
AcDbLine
 10
311.2596475359863
 20
277.9821207368483
 30
0.0
 11
311.2470008075377
 21
277.8916402591048
 31
0.0
  0
LINE
  5
2006
330
18
100
AcDbEntity
  8
ROGO
 62
     4
100
AcDbLine
 10
311.1096941051118
 20
277.8436788500991
 30
0.0
 11
311.14413299334
 21
277.8388652231338
 31
0.0
  0
ARC
  5
2009
330
18
100
AcDbEntity
  8
ROGO
 62
     4
100
AcDbCircle
 10
311.1154219085801
 20
277.9393463379542
 30
0.0
 40
0.0958388019806556
100
AcDbArc
 50
188.5583509056651
 51
266.5736774635929
  0
ARC
  5
200A
330
18
100
AcDbEntity
  8
ROGO
 62
     4
100
AcDbCircle
 10
311.1647465766803
 20
277.9253269652215
 30
0.0
 40
0.0888850530907803
100
AcDbArc
 50
256.5902863289752
 51
337.7287536965499
  0
LINE
  5
200B
330
18
100
AcDbEntity
  8
ROGO
 62
     4
100
AcDbLine
 10
310.9338003465657
 20
278.462783955315
 30
0.0
 11
311.2031137557121
 21
278.462783955315
 31
0.0
  0
LINE
  5
200C
330
18
100
AcDbEntity
  8
ROGO
 62
     4
100
AcDbLine
 10
310.9338003465656
 20
278.462783955315
 30
0.0
 11
311.3180743463433
 21
278.462783955315
 31
0.0
  0
LINE
  5
2018
330
18
100
AcDbEntity
  8
ROGO
 62
     4
100
AcDbLine
 10
314.1795034780827
 20
278.3006591559716
 30
0.0
 11
314.4357012583102
 21
278.462783955315
 31
0.0
  0
POINT
  5
201F
330
18
100
AcDbEntity
  8
DEFPOINTS
  6
ByBlock
 62
     0
100
AcDbPoint
 10
330.0254697286957
 20
282.0435302342081
 30
0.0
  0
LINE
  5
2022
330
18
100
AcDbEntity
  8
文字
 62
     2
100
AcDbLine
 10
383.0497698909081
 20
255.1807182516885
 30
0.0
 11
376.2937255625435
 21
243.2537654397051
 31
0.0
1001
ACAD
1000
DSTYLE
1002
{
1070
   271
1070
     2
1002
}
  0
LINE
  5
2023
330
18
100
AcDbEntity
  8
文字
 62
     2
100
AcDbLine
 10
376.2937255625435
 20
243.2537654397051
 30
0.0
 11
371.3830112768293
 21
243.2537654397051
 31
0.0
1001
ACAD
1000
DSTYLE
1002
{
1070
   271
1070
     2
1002
}
  0
TEXT
  5
2024
330
18
100
AcDbEntity
  8
外形線
 62
     6
100
AcDbText
 10
372.452407940081
 20
243.9542682801475
 30
0.0
 40
2.5
  1
C
  7
STYLE3
100
AcDbText
  0
LINE
  5
2025
330
18
100
AcDbEntity
  8
0
  6
ByBlock
 62
     2
100
AcDbLine
 10
309.0730148389819
 20
315.0435302342081
 30
0.0
 11
333.7934973449645
 21
315.0435302342081
 31
0.0
  0
LINE
  5
2026
330
18
100
AcDbEntity
  8
0
  6
ByBlock
 62
     2
100
AcDbLine
 10
309.0730148389819
 20
299.5435302342081
 30
0.0
 11
333.7934973449645
 21
299.5435302342081
 31
0.0
  0
LINE
  5
2027
330
18
100
AcDbEntity
  8
0
  6
ByBlock
 62
     2
100
AcDbLine
 10
332.5434973449645
 20
312.5435302342081
 30
0.0
 11
332.5434973449645
 21
302.0435302342081
 31
0.0
  0
INSERT
  5
2028
330
18
100
AcDbEntity
  8
0
  6
ByBlock
 62
     2
100
AcDbBlockReference
  2
_OPEN
 10
332.5434973449645
 20
315.0435302342081
 30
0.0
 41
2.5
 42
2.5
 43
2.5
 50
90.0
  0
INSERT
  5
2029
330
18
100
AcDbEntity
  8
0
  6
ByBlock
 62
     2
100
AcDbBlockReference
  2
_OPEN
 10
332.5434973449645
 20
299.5435302342081
 30
0.0
 41
2.5
 42
2.5
 43
2.5
 50
270.0
  0
MTEXT
  5
202A
330
18
100
AcDbEntity
  8
0
  6
ByBlock
 62
     6
100
AcDbMText
 10
330.6684973449645
 20
307.2935302342081
 30
0.0
 40
2.5
 41
0.0
 71
     5
 72
     1
  1
\A1;15.5
  7
STYLE3
 11
0.0000000000000001
 21
1.0
 31
0.0
 73
     1
 44
1.0
  0
POINT
  5
202B
330
18
100
AcDbEntity
  8
DEFPOINTS
  6
ByBlock
 62
     0
100
AcDbPoint
 10
309.0730148389819
 20
315.0435302342081
 30
0.0
  0
POINT
  5
202C
330
18
100
AcDbEntity
  8
DEFPOINTS
  6
ByBlock
 62
     0
100
AcDbPoint
 10
309.0730148389819
 20
299.5435302342081
 30
0.0
  0
POINT
  5
202D
330
18
100
AcDbEntity
  8
DEFPOINTS
  6
ByBlock
 62
     0
100
AcDbPoint
 10
332.5434973449645
 20
299.5435302342081
 30
0.0
  0
LINE
  5
202E
330
18
100
AcDbEntity
  8
0
  6
ByBlock
 62
     2
100
AcDbLine
 10
382.6929114805709
 20
298.8435302342081
 30
0.0
 11
382.6929114805709
 21
325.7466187724714
 31
0.0
  0
LINE
  5
202F
330
18
100
AcDbEntity
  8
0
  6
ByBlock
 62
     2
100
AcDbLine
 10
398.5429114805711
 20
297.1935302342082
 30
0.0
 11
398.5429114805711
 21
325.7466187724714
 31
0.0
  0
LINE
  5
2030
330
18
100
AcDbEntity
  8
0
  6
ByBlock
 62
     2
100
AcDbLine
 10
385.1929114805709
 20
324.4966187724714
 30
0.0
 11
396.042911480571
 21
324.4966187724714
 31
0.0
  0
INSERT
  5
2031
330
18
100
AcDbEntity
  8
0
  6
ByBlock
 62
     2
100
AcDbBlockReference
  2
_OPEN
 10
382.6929114805709
 20
324.4966187724714
 30
0.0
 41
2.5
 42
2.5
 43
2.5
 50
180.0
  0
INSERT
  5
2032
330
18
100
AcDbEntity
  8
0
  6
ByBlock
 62
     2
100
AcDbBlockReference
  2
_OPEN
 10
398.5429114805711
 20
324.4966187724714
 30
0.0
 41
2.5
 42
2.5
 43
2.5
  0
MTEXT
  5
2033
330
18
100
AcDbEntity
  8
0
  6
ByBlock
 62
     6
100
AcDbMText
 10
390.617911480571
 20
326.3716187724714
 30
0.0
 40
2.5
 41
0.0
 71
     5
 72
     1
  1
\A1;15.85
  7
STYLE3
 73
     1
 44
1.0
  0
POINT
  5
2034
330
18
100
AcDbEntity
  8
DEFPOINTS
  6
ByBlock
 62
     0
100
AcDbPoint
 10
382.6929114805709
 20
298.8435302342081
 30
0.0
  0
POINT
  5
2035
330
18
100
AcDbEntity
  8
DEFPOINTS
  6
ByBlock
 62
     0
100
AcDbPoint
 10
398.5429114805711
 20
297.1935302342082
 30
0.0
  0
POINT
  5
2036
330
18
100
AcDbEntity
  8
DEFPOINTS
  6
ByBlock
 62
     0
100
AcDbPoint
 10
398.5429114805711
 20
324.4966187724714
 30
0.0
  0
LINE
  5
2037
330
18
100
AcDbEntity
  8
寸法線
 62
     2
100
AcDbLine
 10
385.462435780993
 20
298.0969257310624
 30
0.0
 11
380.2045401808626
 21
314.0733409586013
 31
0.0
1001
ACAD
1000
DSTYLE
1002
{
1070
   271
1070
     2
1002
}
  0
LINE
  5
2038
330
18
100
AcDbEntity
  8
寸法線
 62
     2
100
AcDbLine
 10
380.2045401808626
 20
314.0733409586013
 30
0.0
 11
375.412873514196
 21
314.0733409586013
 31
0.0
1001
ACAD
1000
DSTYLE
1002
{
1070
   271
1070
     2
1002
}
  0
TEXT
  5
2039
330
18
100
AcDbEntity
  8
外形線
 62
     6
100
AcDbText
 10
376.3349928023882
 20
314.6983409586014
 30
0.0
 40
2.5
  1
B
  7
STYLE3
100
AcDbText
  0
INSERT
  5
25B3
330
18
100
AcDbEntity
  8
目盛
100
AcDbBlockReference
  2
PC_PCN針
 10
309.073014838982
 20
282.0435302342081
 30
0.0
 50
282.857142857143
  0
TEXT
  5
25FF
330
18
100
AcDbEntity
  8
文字
100
AcDbText
 10
304.3656825426867
 20
357.5814240351801
 30
0.0
 40
4.0
  1
Model No.PCN-2 New Pic Test Indicator
  7
STYLE3
100
AcDbText
  0
LINE
  5
2600
330
18
100
AcDbEntity
  8
外形線
100
AcDbLine
 10
304.0065975426866
 20
354.8746380351801
 30
0.0
 11
424.0065975426864
 21
354.8746380351801
 31
0.0
  0
LINE
  5
2601
330
18
100
AcDbEntity
  8
外形線
100
AcDbLine
 10
304.0065975426866
 20
355.8746380351801
 30
0.0
 11
424.0065975426864
 21
355.8746380351801
 31
0.0
  0
LINE
  5
2606
330
18
100
AcDbEntity
  8
外形線
100
AcDbLine
 10
350.5127625426867
 20
192.6507450351801
 30
0.0
 11
491.3041805426867
 21
192.6507450351801
 31
0.0
  0
LINE
  5
2607
330
18
100
AcDbEntity
  8
外形線
100
AcDbLine
 10
350.5127625426867
 20
181.8705390351801
 30
0.0
 11
491.3041805426867
 21
181.8705390351801
 31
0.0
  0
TEXT
  5
2608
330
18
100
AcDbEntity
  8
0
  6
Continuous
100
AcDbText
 10
351.9702295426867
 20
183.7685290351801
 30
0.0
 40
2.1
  1
Design and specifications are subject to change without notice for future improvement.
  7
STYLE3
100
AcDbText
  0
TEXT
  5
2609
330
18
100
AcDbEntity
  8
0
  6
Continuous
100
AcDbText
 10
352.2617235426867
 20
187.69767703518
 30
0.0
 40
3.5
  1
仕様及び外観は予告なく変更される場合がございますのでご了承下さい。
  7
STYLE3
100
AcDbText
  0
TEXT
  5
260A
330
18
100
AcDbEntity
  8
0
  6
Continuous
100
AcDbText
 10
351.6787385426867
 20
174.0039010351801
 30
0.0
 40
2.1
  1
3RD Angle Projection
  7
STYLE3
100
AcDbText
  0
TEXT
  5
260B
330
18
100
AcDbEntity
  8
0
  6
Continuous
100
AcDbText
 10
354.3021815426867
 20
177.5001840351801
 30
0.0
 40
3.0
  1
三　　角　　法
  7
STYLE3
100
AcDbText
  0
LINE
  5
260C
330
18
100
AcDbEntity
  8
外形線
100
AcDbLine
 10
350.5127625426867
 20
172.2557610351801
 30
0.0
 11
350.5127625426867
 21
192.6507450351801
 31
0.0
  0
LINE
  5
260D
330
18
100
AcDbEntity
  8
外形線
100
AcDbLine
 10
452.5355295426867
 20
181.8705390351801
 30
0.0
 11
452.5355295426867
 21
172.2557610351801
 31
0.0
  0
LINE
  5
260E
330
18
100
AcDbEntity
  8
外形線
100
AcDbLine
 10
422.8031795426867
 20
181.8705390351801
 30
0.0
 11
422.8031795426867
 21
172.2557610351801
 31
0.0
  0
LINE
  5
260F
330
18
100
AcDbEntity
  8
外形線
100
AcDbLine
 10
403.2731075426864
 20
181.8705390351801
 30
0.0
 11
403.2731075426864
 21
172.2557610351801
 31
0.0
  0
LINE
  5
2610
330
18
100
AcDbEntity
  8
外形線
100
AcDbLine
 10
385.7834905426867
 20
181.8705390351801
 30
0.0
 11
385.7834905426867
 21
172.2557610351801
 31
0.0
  0
TEXT
  5
2611
330
18
100
AcDbEntity
  8
0
  6
Continuous
100
AcDbText
 10
387.2409595426867
 20
177.5061390351801
 30
0.0
 40
3.0
  1
単位
  7
STYLE3
100
AcDbText
  0
TEXT
  5
2612
330
18
100
AcDbEntity
  8
0
  6
Continuous
100
AcDbText
 10
387.4126805426867
 20
174.0039020351801
 30
0.0
 40
2.1
  1
Unit
  7
STYLE3
100
AcDbText
  0
TEXT
  5
2613
330
18
100
AcDbEntity
  8
0
  6
Continuous
100
AcDbText
 10
404.5588555426864
 20
177.2147810351801
 30
0.0
 40
3.0
  1
尺 度
  7
STYLE3
100
AcDbText
  0
TEXT
  5
2614
330
18
100
AcDbEntity
  8
0
  6
Continuous
100
AcDbText
 10
395.2830075426867
 20
175.7520450351801
 30
0.0
 40
2.399999999999999
  1
mm
  7
STYLE3
100
AcDbText
  0
TEXT
  5
2615
330
18
100
AcDbEntity
  8
0
  6
Continuous
100
AcDbText
 10
405.0220705426864
 20
174.2952590351801
 30
0.0
 40
2.1
  1
Scale
  7
STYLE3
100
AcDbText
  0
TEXT
  5
2616
330
18
100
AcDbEntity
  8
0
  6
Continuous
100
AcDbText
 10
414.6413595426865
 20
176.0434020351801
 30
0.0
 40
2.399999999999999
  1
1/1
  7
STYLE3
100
AcDbText
  0
TEXT
  5
2617
330
18
100
AcDbEntity
  8
0
  6
Continuous
100
AcDbText
 10
424.7351305426867
 20
174.0039030351801
 30
0.0
 40
2.1
  1
Date
  7
STYLE3
100
AcDbText
  0
TEXT
  5
2618
330
18
100
AcDbEntity
  8
0
  6
Continuous
100
AcDbText
 10
424.3517695426866
 20
177.3369860351801
 30
0.0
 40
3.0
  1
日 付
  7
STYLE3
100
AcDbText
  0
TEXT
  5
2619
330
18
100
AcDbEntity
  8
0
  6
Continuous
100
AcDbText
 10
433.4799385426866
 20
175.7520440351801
 30
0.0
 40
2.1
  1
2014.09.17
  7
STYLE3
100
AcDbText
  0
TEXT
  5
261A
330
18
100
AcDbEntity
  8
0
  6
Continuous
100
AcDbText
 10
453.8844925426865
 20
177.7915410351801
 30
0.0
 40
3.0
  1
株式会社　尾崎製作所
  7
STYLE3
100
AcDbText
  0
TEXT
  5
261B
330
18
100
AcDbEntity
  8
0
  6
Continuous
100
AcDbText
 10
454.7589715426867
 20
174.0039020351801
 30
0.0
 40
2.1
  1
OZAKI MFG. CO., LTD.
  7
STYLE3
100
AcDbText
  0
DIMENSION
  5
262F
330
18
100
AcDbEntity
  8
外形線
100
AcDbDimension
  2
*D5
 10
332.1076567882686
 20
226.0435302342081
 30
0.0
 11
330.2326567882686
 21
234.9435302342081
 31
0.0
 70
    32
 71
     5
 42
17.80000000000001
  3
STYLE3
100
AcDbAlignedDimension
 13
317.161490950772
 23
243.8435302342081
 33
0.0
 14
314.5092680634572
 24
226.0435302342081
 34
0.0
 50
90.0
100
AcDbRotatedDimension
1001
ACAD
1000
DSTYLE
1002
{
1070
   271
1070
     2
1070
   341
1005
0
1002
}
  0
DIMENSION
  5
263C
330
18
100
AcDbEntity
  8
外形線
100
AcDbDimension
  2
*D6
 10
339.8191075233246
 20
226.0435302342081
 30
0.0
 11
337.9441075233246
 21
254.0435302342082
 31
0.0
 70
    32
 71
     5
 42
55.99999999999997
  3
STYLE3
100
AcDbAlignedDimension
 13
330.0254697286957
 23
282.0435302342081
 33
0.0
 14
329.5402238295237
 24
226.0435302342081
 34
0.0
 50
90.0
100
AcDbRotatedDimension
1001
ACAD
1000
DSTYLE
1002
{
1070
   271
1070
     2
1070
   341
1005
0
1002
}
  0
DIMENSION
  5
2649
330
18
100
AcDbEntity
  8
外形線
100
AcDbDimension
  2
*D7
 10
347.387720816012
 20
225.0435302342081
 30
0.0
 11
345.5127208160119
 21
270.0435302342082
 31
0.0
 70
    32
 71
     5
 42
90.0
  3
STYLE3
100
AcDbAlignedDimension
 13
309.0730148389819
 23
315.0435302342081
 33
0.0
 14
309.0730148389819
 24
225.0435302342081
 34
0.0
 50
90.0
100
AcDbRotatedDimension
1001
ACAD
1000
DSTYLE
1002
{
1070
   271
1070
     2
1070
   341
1005
0
1002
}
  0
DIMENSION
  5
2656
330
18
100
AcDbEntity
  8
外形線
100
AcDbDimension
  2
*D8
 10
297.080737387817
 20
226.0435302342081
 30
0.0
 11
295.205737387817
 21
232.9435302342081
 31
0.0
 70
    32
 71
     5
 42
13.80000000000001
  3
STYLE3
100
AcDbAlignedDimension
 13
305.0730148389819
 23
239.8435302342081
 33
0.0
 14
306.6896125939972
 24
226.0435302342081
 34
0.0
 50
90.0
100
AcDbRotatedDimension
1001
ACAD
1000
DSTYLE
1002
{
1070
   271
1070
     2
1070
   341
1005
0
1002
}
  0
ENDSEC
  0
SECTION
  2
OBJECTS
  0
DICTIONARY
  5
C
330
0
100
AcDbDictionary
281
     1
  3
ACAD_COLOR
350
2054
  3
ACAD_GROUP
350
D
  3
ACAD_IMAGE_DICT
350
B2C
  3
ACAD_LAYOUT
350
2057
  3
ACAD_MATERIAL
350
2053
  3
ACAD_MLINESTYLE
350
1B
  3
ACAD_PLOTSETTINGS
350
2058
  3
ACAD_PLOTSTYLENAME
350
2051
  3
ACAD_TABLESTYLE
350
2055
  3
ACDBVARIABLEDICTIONARY
350
1297
  3
AVE_ACITABLE
350
1835
  0
DICTIONARY
  5
2060
330
205F
100
AcDbDictionary
280
     1
281
     1
  3
ACAD_SORTENTS
360
2061
  0
DICTIONARY
  5
2054
102
{ACAD_REACTORS
330
C
102
}
330
C
100
AcDbDictionary
281
     1
  0
DICTIONARY
  5
D
102
{ACAD_REACTORS
330
C
102
}
330
C
100
AcDbDictionary
281
     1
  0
DICTIONARY
  5
B2C
102
{ACAD_REACTORS
330
C
102
}
330
C
100
AcDbDictionary
281
     1
  3
ROGO01
350
B2D
  0
DICTIONARY
  5
2057
102
{ACAD_REACTORS
330
C
102
}
330
C
100
AcDbDictionary
281
     1
  3
Model
350
2059
  3
レイアウト1
350
205A
  0
DICTIONARY
  5
2053
102
{ACAD_REACTORS
330
C
102
}
330
C
100
AcDbDictionary
281
     1
  0
DICTIONARY
  5
1B
102
{ACAD_REACTORS
330
C
102
}
330
C
100
AcDbDictionary
281
     1
  3
STANDARD
350
1C
  0
DICTIONARY
  5
2058
102
{ACAD_REACTORS
330
C
102
}
330
C
100
AcDbDictionary
281
     1
  0
ACDBDICTIONARYWDFLT
  5
2051
102
{ACAD_REACTORS
330
C
102
}
330
C
100
AcDbDictionary
281
     1
  3
Normal
350
2052
100
AcDbDictionaryWithDefault
340
2052
  0
DICTIONARY
  5
2055
102
{ACAD_REACTORS
330
C
102
}
330
C
100
AcDbDictionary
281
     1
  3
Standard
350
2056
  0
DICTIONARY
  5
1297
102
{ACAD_REACTORS
330
C
102
}
330
C
100
AcDbDictionary
281
     1
  3
CTABLESTYLE
350
25B6
  3
SORTENTS
350
1298
  0
DICTIONARY
  5
1835
102
{ACAD_REACTORS
330
C
102
}
330
C
100
AcDbDictionary
281
     1
  0
SORTENTSTABLE
  5
2061
102
{ACAD_REACTORS
330
2060
102
}
330
2060
100
AcDbSortentsTable
330
205F
  0
IMAGEDEF
  5
B2D
102
{ACAD_REACTORS
330
B2C
102
}
330
B2C
100
AcDbRasterImageDef
 90
        0
  1
D:\ﾃｽﾄ\rogo01.TIF
 10
3388.0
 20
4668.0
 11
0.0635
 21
0.0635
280
     1
281
     5
  0
LAYOUT
  5
2059
102
{ACAD_REACTORS
330
2057
102
}
330
2057
100
AcDbPlotSettings
  1

  2
A4 EPSON LP-6100.pc3
  4
A4
  6

 40
5.873749732971191
 41
5.873747825622557
 42
5.873748779296875
 43
5.873748779296875
 44
209.9733276367186
 45
297.0106506347656
 46
0.9
 47
25.0
 48
0.0
 49
0.0
140
0.0
141
0.0
142
1.0
143
1.0
 70
 28336
 72
     1
 73
     1
 74
     1
  7
AutoCAD LT 98.ctb
 75
    16
147
1.0
 76
     1
 77
     2
 78
   300
148
-236.4583261120649
149
-171.6287515666504
100
AcDbLayout
  1
Model
 70
     1
 71
     0
 10
0.0
 20
0.0
 11
12.0
 21
9.0
 12
0.0
 22
0.0
 32
0.0
 14
0.0
 24
0.0
 34
0.0
 15
0.0
 25
0.0
 35
0.0
146
0.0
 13
0.0
 23
0.0
 33
0.0
 16
1.0
 26
0.0
 36
0.0
 17
0.0
 27
1.0
 37
0.0
 76
     0
330
18
1001
ACAD_PSEXT
1000
A4 EPSON LP-6100.pc3
1000
EPSON LP-6100
1000
\\SATO-MATE2
1000

1070
     0
  0
LAYOUT
  5
205A
102
{ACAD_REACTORS
330
2057
102
}
330
2057
100
AcDbPlotSettings
  1

  2
WIDR Printer
  4

  6

 40
0.0
 41
0.0
 42
0.0
 43
0.0
 44
0.0
 45
0.0
 46
0.0
 47
0.0
 48
0.0
 49
0.0
140
0.0
141
0.0
142
1.0
143
1.0
 70
   688
 72
     0
 73
     0
 74
     5
  7
AutoCad LT 98.ctb
 75
    16
147
1.0
 76
     0
 77
     2
 78
   300
148
0.0
149
0.0
100
AcDbLayout
  1
レイアウト1
 70
     1
 71
     1
 10
0.0
 20
0.0
 11
420.0
 21
297.0
 12
0.0
 22
0.0
 32
0.0
 14
1.000000000000000E+20
 24
1.000000000000000E+20
 34
1.000000000000000E+20
 15
-1.000000000000000E+20
 25
-1.000000000000000E+20
 35
-1.000000000000000E+20
146
0.0
 13
0.0
 23
0.0
 33
0.0
 16
1.0
 26
0.0
 36
0.0
 17
0.0
 27
1.0
 37
0.0
 76
     0
330
15
  0
MLINESTYLE
  5
1C
102
{ACAD_REACTORS
330
1B
102
}
330
1B
100
AcDbMlineStyle
  2
STANDARD
 70
     0
  3

 62
   256
 51
90.0
 52
90.0
 71
     2
 49
0.5
 62
   256
  6
BYLAYER
 49
-0.5
 62
   256
  6
BYLAYER
  0
ACDBPLACEHOLDER
  5
2052
102
{ACAD_REACTORS
330
2051
102
}
330
2051
  0
ACAD_PROXY_OBJECT
  5
2056
102
{ACAD_REACTORS
330
2055
102
}
330
2055
100
AcDbProxyObject
 90
      499
 91
      505
 95
  2555929
 70
     0
 93
     1849
310
4214DD185B99185C992420000000000000F83F0000000000003E0FC00000000000004901028000000C1008070000C3001FDFF8000000C1003FBFF000000182007F7FE00000030400FEFFC00000060801FDFF8000000C1003FBFF000000182000000000000000C2020B0000001820100E000186003FBFF000000182007F7FE0
310
0000030400FEFFC00000060801FDFF8000000C1003FBFF000000182007F7FE0000003040000000000000012404160000003040201C00030C007F7FE00000030400FEFFC00000060801FDFF8000000C1003FBFF000000182007F7FE00000030400FEFFC000000608000
340
F
340
F
340
F
 94
        0
  0
DICTIONARYVAR
  5
25B6
102
{ACAD_REACTORS
330
1297
102
}
330
1297
100
DictionaryVariables
280
     0
  1
STANDARD
  0
DICTIONARYVAR
  5
1298
102
{ACAD_REACTORS
330
1297
102
}
330
1297
100
DictionaryVariables
280
     0
  1
96
  0
ENDSEC
  0
EOF
