  0
SECTION
  2
HEADER
  9
$ACADVER
  1
AC1018
  9
$ACADMAINTVER
 70
     0
  9
$DWGCODEPAGE
  3
ANSI_932
  9
$INSBASE
 10
0.0
 20
0.0
 30
0.0
  9
$EXTMIN
 10
236.4655485789608
 20
171.6339938560504
 30
-0.0000000034910095
  9
$EXTMAX
 10
491.8990806592412
 20
367.0557868503386
 30
0.0000000023299341
  9
$LIMMIN
 10
0.0
 20
0.0
  9
$LIMMAX
 10
420.0
 20
297.0
  9
$ORTHOMODE
 70
     0
  9
$REGENMODE
 70
     1
  9
$FILLMODE
 70
     1
  9
$QTEXTMODE
 70
     0
  9
$MIRRTEXT
 70
     1
  9
$LTSCALE
 40
1.0
  9
$ATTMODE
 70
     1
  9
$TEXTSIZE
 40
1.5
  9
$TRACEWID
 40
1.0
  9
$TEXTSTYLE
  7
STYLE3
  9
$CLAYER
  8
外形線
  9
$CELTYPE
  6
BYLAYER
  9
$CECOLOR
 62
   256
  9
$CELTSCALE
 40
1.0
  9
$DISPSILH
 70
     0
  9
$DIMSCALE
 40
1.0
  9
$DIMASZ
 40
2.5
  9
$DIMEXO
 40
0.0
  9
$DIMDLI
 40
3.75
  9
$DIMRND
 40
0.0
  9
$DIMDLE
 40
0.0
  9
$DIMEXE
 40
1.25
  9
$DIMTP
 40
0.0
  9
$DIMTM
 40
0.0
  9
$DIMTXT
 40
2.5
  9
$DIMCEN
 40
2.5
  9
$DIMTSZ
 40
0.0
  9
$DIMTOL
 70
     0
  9
$DIMLIM
 70
     0
  9
$DIMTIH
 70
     0
  9
$DIMTOH
 70
     0
  9
$DIMSE1
 70
     0
  9
$DIMSE2
 70
     0
  9
$DIMTAD
 70
     1
  9
$DIMZIN
 70
     8
  9
$DIMBLK
  1

  9
$DIMASO
 70
     1
  9
$DIMSHO
 70
     1
  9
$DIMPOST
  1

  9
$DIMAPOST
  1

  9
$DIMALT
 70
     0
  9
$DIMALTD
 70
     4
  9
$DIMALTF
 40
0.0394
  9
$DIMLFAC
 40
1.0
  9
$DIMTOFL
 70
     1
  9
$DIMTVP
 40
0.0
  9
$DIMTIX
 70
     0
  9
$DIMSOXD
 70
     0
  9
$DIMSAH
 70
     1
  9
$DIMBLK1
  1
OPEN
  9
$DIMBLK2
  1
OPEN
  9
$DIMSTYLE
  2
STYLE3
  9
$DIMCLRD
 70
     2
  9
$DIMCLRE
 70
     2
  9
$DIMCLRT
 70
     6
  9
$DIMTFAC
 40
1.0
  9
$DIMGAP
 40
0.625
  9
$DIMJUST
 70
     0
  9
$DIMSD1
 70
     0
  9
$DIMSD2
 70
     0
  9
$DIMTOLJ
 70
     1
  9
$DIMTZIN
 70
     0
  9
$DIMALTZ
 70
     0
  9
$DIMALTTZ
 70
     0
  9
$DIMUPT
 70
     0
  9
$DIMDEC
 70
     2
  9
$DIMTDEC
 70
     4
  9
$DIMALTU
 70
     8
  9
$DIMALTTD
 70
     4
  9
$DIMTXSTY
  7
STYLE3
  9
$DIMAUNIT
 70
     0
  9
$DIMADEC
 70
     0
  9
$DIMALTRND
 40
0.0
  9
$DIMAZIN
 70
     0
  9
$DIMDSEP
 70
    46
  9
$DIMATFIT
 70
     3
  9
$DIMFRAC
 70
     0
  9
$DIMLDRBLK
  1

  9
$DIMLUNIT
 70
     2
  9
$DIMLWD
 70
    -2
  9
$DIMLWE
 70
    -2
  9
$DIMTMOVE
 70
     0
  9
$LUNITS
 70
     2
  9
$LUPREC
 70
     4
  9
$SKETCHINC
 40
1.0
  9
$FILLETRAD
 40
0.0
  9
$AUNITS
 70
     0
  9
$AUPREC
 70
     0
  9
$MENU
  1
.
  9
$ELEVATION
 40
0.0
  9
$PELEVATION
 40
0.0
  9
$THICKNESS
 40
0.0
  9
$LIMCHECK
 70
     0
  9
$CHAMFERA
 40
0.1
  9
$CHAMFERB
 40
0.1
  9
$CHAMFERC
 40
20.0
  9
$CHAMFERD
 40
0.0
  9
$SKPOLY
 70
     0
  9
$TDCREATE
 40
2451066.662483449
  9
$TDUCREATE
 40
2451066.287483449
  9
$TDUPDATE
 40
2455362.559431053
  9
$TDUUPDATE
 40
2455362.184431053
  9
$TDINDWG
 40
0.8856268750
  9
$TDUSRTIMER
 40
0.8856268750
  9
$USRTIMER
 70
     1
  9
$ANGBASE
 50
0.0
  9
$ANGDIR
 70
     0
  9
$PDMODE
 70
     0
  9
$PDSIZE
 40
0.0
  9
$PLINEWID
 40
0.0
  9
$SPLFRAME
 70
     0
  9
$SPLINETYPE
 70
     6
  9
$SPLINESEGS
 70
     8
  9
$HANDSEED
  5
278E
  9
$SURFTAB1
 70
     6
  9
$SURFTAB2
 70
     6
  9
$SURFTYPE
 70
     6
  9
$SURFU
 70
     6
  9
$SURFV
 70
     6
  9
$UCSBASE
  2

  9
$UCSNAME
  2

  9
$UCSORG
 10
0.0
 20
0.0
 30
0.0
  9
$UCSXDIR
 10
1.0
 20
0.0
 30
0.0
  9
$UCSYDIR
 10
0.0
 20
1.0
 30
0.0
  9
$UCSORTHOREF
  2

  9
$UCSORTHOVIEW
 70
     0
  9
$UCSORGTOP
 10
0.0
 20
0.0
 30
0.0
  9
$UCSORGBOTTOM
 10
0.0
 20
0.0
 30
0.0
  9
$UCSORGLEFT
 10
0.0
 20
0.0
 30
0.0
  9
$UCSORGRIGHT
 10
0.0
 20
0.0
 30
0.0
  9
$UCSORGFRONT
 10
0.0
 20
0.0
 30
0.0
  9
$UCSORGBACK
 10
0.0
 20
0.0
 30
0.0
  9
$PUCSBASE
  2

  9
$PUCSNAME
  2

  9
$PUCSORG
 10
0.0
 20
0.0
 30
0.0
  9
$PUCSXDIR
 10
1.0
 20
0.0
 30
0.0
  9
$PUCSYDIR
 10
0.0
 20
1.0
 30
0.0
  9
$PUCSORTHOREF
  2

  9
$PUCSORTHOVIEW
 70
     0
  9
$PUCSORGTOP
 10
0.0
 20
0.0
 30
0.0
  9
$PUCSORGBOTTOM
 10
0.0
 20
0.0
 30
0.0
  9
$PUCSORGLEFT
 10
0.0
 20
0.0
 30
0.0
  9
$PUCSORGRIGHT
 10
0.0
 20
0.0
 30
0.0
  9
$PUCSORGFRONT
 10
0.0
 20
0.0
 30
0.0
  9
$PUCSORGBACK
 10
0.0
 20
0.0
 30
0.0
  9
$USERI1
 70
     0
  9
$USERI2
 70
     0
  9
$USERI3
 70
     0
  9
$USERI4
 70
     0
  9
$USERI5
 70
     0
  9
$USERR1
 40
0.0
  9
$USERR2
 40
0.0
  9
$USERR3
 40
0.0
  9
$USERR4
 40
0.0
  9
$USERR5
 40
0.0
  9
$WORLDVIEW
 70
     1
  9
$SHADEDGE
 70
     3
  9
$SHADEDIF
 70
    70
  9
$TILEMODE
 70
     1
  9
$MAXACTVP
 70
    48
  9
$PINSBASE
 10
0.0
 20
0.0
 30
0.0
  9
$PLIMCHECK
 70
     0
  9
$PEXTMIN
 10
1.000000000000000E+20
 20
1.000000000000000E+20
 30
1.000000000000000E+20
  9
$PEXTMAX
 10
-1.000000000000000E+20
 20
-1.000000000000000E+20
 30
-1.000000000000000E+20
  9
$PLIMMIN
 10
0.0
 20
0.0
  9
$PLIMMAX
 10
420.0
 20
297.0
  9
$UNITMODE
 70
     0
  9
$VISRETAIN
 70
     1
  9
$PLINEGEN
 70
     0
  9
$PSLTSCALE
 70
     1
  9
$TREEDEPTH
 70
  3020
  9
$CMLSTYLE
  2
STANDARD
  9
$CMLJUST
 70
     0
  9
$CMLSCALE
 40
20.0
  9
$PROXYGRAPHICS
 70
     1
  9
$MEASUREMENT
 70
     1
  9
$CELWEIGHT
370
    -1
  9
$ENDCAPS
280
     0
  9
$JOINSTYLE
280
     0
  9
$LWDISPLAY
290
     0
  9
$INSUNITS
 70
     0
  9
$HYPERLINKBASE
  1

  9
$STYLESHEET
  1
AutoCAD LT 98.ctb
  9
$XEDIT
290
     1
  9
$CEPSNTYPE
380
     0
  9
$PSTYLEMODE
290
     1
  9
$FINGERPRINTGUID
  2
{230BC3E3-1762-4EE4-B980-A69520AC58DD}
  9
$VERSIONGUID
  2
{A5381161-1528-4F7A-A1DE-BCEA5FF3026F}
  9
$EXTNAMES
290
     1
  9
$PSVPSCALE
 40
0.0
  9
$OLESTARTUP
290
     0
  9
$SORTENTS
280
    96
  9
$INDEXCTL
280
     0
  9
$HIDETEXT
280
     0
  9
$XCLIPFRAME
290
     0
  9
$HALOGAP
280
     0
  9
$OBSCOLOR
 70
   257
  9
$OBSLTYPE
280
     0
  9
$INTERSECTIONDISPLAY
280
     0
  9
$INTERSECTIONCOLOR
 70
   257
  9
$DIMASSOC
280
     1
  9
$PROJECTNAME
  1

  0
ENDSEC
  0
SECTION
  2
CLASSES
  0
CLASS
  1
HATCH
  2
AcDbHatch
  3
ObjectDBX Classes
 90
        0
 91
       12
280
     0
281
     1
  0
CLASS
  1
LWPOLYLINE
  2
AcDbPolyline
  3
ObjectDBX Classes
 90
        0
 91
        1
280
     0
281
     1
  0
CLASS
  1
IMAGEDEF
  2
AcDbRasterImageDef
  3
ISM
 90
        0
 91
        1
280
     0
281
     0
  0
CLASS
  1
DICTIONARYVAR
  2
AcDbDictionaryVar
  3
ObjectDBX Classes
 90
        0
 91
        2
280
     0
281
     0
  0
CLASS
  1
ACDBDICTIONARYWDFLT
  2
AcDbDictionaryWithDefault
  3
ObjectDBX Classes
 90
        0
 91
        1
280
     0
281
     0
  0
CLASS
  1
TABLESTYLE
  2
AcDbTableStyle
  3
ObjectDBX Classes
 90
     2047
 91
        1
280
     0
281
     0
  0
CLASS
  1
SORTENTSTABLE
  2
AcDbSortentsTable
  3
ObjectDBX Classes
 90
        0
 91
        2
280
     0
281
     0
  0
ENDSEC
  0
SECTION
  2
TABLES
  0
TABLE
  2
VPORT
  5
8
330
0
100
AcDbSymbolTable
 70
     2
  0
VPORT
  5
278D
330
8
100
AcDbSymbolTableRecord
100
AcDbViewportTableRecord
  2
*Active
 70
     0
 10
0.0
 20
0.0
 11
1.0
 21
1.0
 12
364.182314619101
 22
269.3448903531945
 13
0.0
 23
0.0
 14
10.0
 24
10.0
 15
10.0
 25
10.0
 16
0.0
 26
0.0
 36
1.0
 17
0.0
 27
0.0
 37
0.0
 40
196.9078902794158
 41
1.530456852791878
 42
50.0
 43
0.0
 44
0.0
 50
0.0
 51
0.0
 71
     0
 72
   100
 73
     1
 74
     1
 75
     0
 76
     0
 77
     0
 78
     0
281
     0
 65
     1
110
0.0
120
0.0
130
0.0
111
1.0
121
0.0
131
0.0
112
0.0
122
1.0
132
0.0
 79
     0
146
0.0
  0
ENDTAB
  0
TABLE
  2
LTYPE
  5
5
330
0
100
AcDbSymbolTable
 70
     3
  0
LTYPE
  5
12
330
5
100
AcDbSymbolTableRecord
100
AcDbLinetypeTableRecord
  2
BYBLOCK
 70
     0
  3

 72
    65
 73
     0
 40
0.0
  0
LTYPE
  5
13
330
5
100
AcDbSymbolTableRecord
100
AcDbLinetypeTableRecord
  2
BYLAYER
 70
     0
  3

 72
    65
 73
     0
 40
0.0
  0
LTYPE
  5
14
330
5
100
AcDbSymbolTableRecord
100
AcDbLinetypeTableRecord
  2
CONTINUOUS
 70
     0
  3
Solid line
 72
    65
 73
     0
 40
0.0
  0
LTYPE
  5
22
330
5
100
AcDbSymbolTableRecord
100
AcDbLinetypeTableRecord
  2
CENTER2
 70
     0
  3
Center (.5x) ___ _ ___ _ ___ _ ___ _ ___ _ ___
 72
    65
 73
     4
 40
28.575
 49
19.05
 74
     0
 49
-3.174999999999999
 74
     0
 49
3.174999999999999
 74
     0
 49
-3.174999999999999
 74
     0
  0
LTYPE
  5
23
330
5
100
AcDbSymbolTableRecord
100
AcDbLinetypeTableRecord
  2
HIDDEN2
 70
     0
  3
Hidden (.5x) _ _ _ _ _ _ _ _ _ _ _ _ _ _ _ _ _
 72
    65
 73
     2
 40
4.762499999999999
 49
3.174999999999999
 74
     0
 49
-1.587499999999999
 74
     0
  0
ENDTAB
  0
TABLE
  2
LAYER
  5
2
330
0
100
AcDbSymbolTable
 70
    12
  0
LAYER
  5
E
330
2
100
AcDbSymbolTableRecord
100
AcDbLayerTableRecord
  2
0
 70
     0
 62
     7
  6
CONTINUOUS
370
    -3
390
219A
  0
LAYER
  5
25
330
2
100
AcDbSymbolTableRecord
100
AcDbLayerTableRecord
  2
外形線
 70
     0
 62
     7
  6
CONTINUOUS
370
    -3
390
219A
  0
LAYER
  5
26
330
2
100
AcDbSymbolTableRecord
100
AcDbLayerTableRecord
  2
寸法線
 70
     0
 62
     2
  6
CONTINUOUS
370
    -3
390
219A
  0
LAYER
  5
27
330
2
100
AcDbSymbolTableRecord
100
AcDbLayerTableRecord
  2
中心線
 70
     0
 62
     4
  6
CENTER2
370
    -3
390
219A
  0
LAYER
  5
28
330
2
100
AcDbSymbolTableRecord
100
AcDbLayerTableRecord
  2
隠れ線
 70
     0
 62
     6
  6
HIDDEN2
370
    -3
390
219A
  0
LAYER
  5
2B
330
2
100
AcDbSymbolTableRecord
100
AcDbLayerTableRecord
  2
文字
 70
     0
 62
     6
  6
CONTINUOUS
370
    -3
390
219A
  0
LAYER
  5
2C
330
2
100
AcDbSymbolTableRecord
100
AcDbLayerTableRecord
  2
目盛
 70
     0
 62
    70
  6
CONTINUOUS
370
    -3
390
219A
  0
LAYER
  5
2D
330
2
100
AcDbSymbolTableRecord
100
AcDbLayerTableRecord
  2
針
 70
     0
 62
     5
  6
CONTINUOUS
370
    -3
390
219A
  0
LAYER
  5
53
330
2
100
AcDbSymbolTableRecord
100
AcDbLayerTableRecord
  2
DEFPOINTS
 70
     0
 62
     7
  6
CONTINUOUS
290
     0
370
    -3
390
219A
  0
LAYER
  5
A5
330
2
100
AcDbSymbolTableRecord
100
AcDbLayerTableRecord
  2
C
 70
     0
 62
     7
  6
CONTINUOUS
370
    -3
390
219A
  0
LAYER
  5
AD4
330
2
100
AcDbSymbolTableRecord
100
AcDbLayerTableRecord
  2
ROGO
 70
     0
 62
     6
  6
CONTINUOUS
370
    -3
390
219A
  0
LAYER
  5
1822
330
2
100
AcDbSymbolTableRecord
100
AcDbLayerTableRecord
  2
ASHADE
 70
     0
 62
     7
  6
CONTINUOUS
370
    -3
390
219A
  0
ENDTAB
  0
TABLE
  2
STYLE
  5
3
330
0
100
AcDbSymbolTable
 70
     3
  0
STYLE
  5
F
330
3
100
AcDbSymbolTableRecord
100
AcDbTextStyleTableRecord
  2
STANDARD
 70
     0
 40
0.0
 41
1.0
 50
0.0
 71
     0
 42
2.5
  3
txt
  4

  0
STYLE
  5
3F
330
3
100
AcDbSymbolTableRecord
100
AcDbTextStyleTableRecord
  2
STYLE3
 70
     0
 40
0.0
 41
1.0
 50
0.0
 71
     0
 42
1.5
  3
romans.shx
  4
bigfont.shx
  0
ENDTAB
  0
TABLE
  2
VIEW
  5
6
330
0
100
AcDbSymbolTable
 70
     0
  0
ENDTAB
  0
TABLE
  2
UCS
  5
7
330
0
100
AcDbSymbolTable
 70
     0
  0
ENDTAB
  0
TABLE
  2
APPID
  5
9
330
0
100
AcDbSymbolTable
 70
     7
  0
APPID
  5
10
330
9
100
AcDbSymbolTableRecord
100
AcDbRegAppTableRecord
  2
ACAD
 70
     0
  0
APPID
  5
1820
330
9
100
AcDbSymbolTableRecord
100
AcDbRegAppTableRecord
  2
AVE_RENDER
 70
     0
  0
APPID
  5
1821
330
9
100
AcDbSymbolTableRecord
100
AcDbRegAppTableRecord
  2
AVE_ENTITY_MATERIAL
 70
     0
  0
APPID
  5
182E
330
9
100
AcDbSymbolTableRecord
100
AcDbRegAppTableRecord
  2
AVE_FINISH
 70
     0
  0
APPID
  5
182F
330
9
100
AcDbSymbolTableRecord
100
AcDbRegAppTableRecord
  2
AVE_MATERIAL
 70
     0
  0
APPID
  5
1830
330
9
100
AcDbSymbolTableRecord
100
AcDbRegAppTableRecord
  2
AVE_GLOBAL
 70
     0
  0
APPID
  5
2703
330
9
100
AcDbSymbolTableRecord
100
AcDbRegAppTableRecord
  2
ACAD_PSEXT
 70
     0
  0
ENDTAB
  0
TABLE
  2
DIMSTYLE
  5
A
330
0
100
AcDbSymbolTable
 70
     3
100
AcDbDimStyleTable
 71
     1
340
8F
  0
DIMSTYLE
105
1D
330
A
100
AcDbSymbolTableRecord
100
AcDbDimStyleTableRecord
  2
STANDARD
 70
     0
 41
2.5
 42
0.625
 43
3.75
 44
1.25
 73
     0
 74
     0
 77
     1
 78
     8
140
2.5
141
2.5
143
0.0394
147
0.625
171
     4
172
     1
273
     8
274
     4
277
     6
340
F
  0
DIMSTYLE
105
8F
102
{ACAD_REACTORS
330
20FD
330
210A
330
2124
330
2132
102
}
330
A
100
AcDbSymbolTableRecord
100
AcDbDimStyleTableRecord
  2
STYLE3
 70
     0
 41
2.5
 42
0.0
 43
3.75
 44
1.25
 73
     0
 74
     0
 77
     1
 78
     8
140
2.5
141
2.5
143
0.0394
147
0.625
171
     4
172
     1
173
     1
176
     2
177
     2
178
     6
271
     1
273
     8
274
     4
340
3F
341
45
343
45
344
45
  0
ENDTAB
  0
TABLE
  2
BLOCK_RECORD
  5
1
330
0
100
AcDbSymbolTable
 70
    16
  0
BLOCK_RECORD
  5
18
330
1
100
AcDbSymbolTableRecord
100
AcDbBlockTableRecord
  2
*MODEL_SPACE
340
21A1
  0
BLOCK_RECORD
  5
15
330
1
100
AcDbSymbolTableRecord
100
AcDbBlockTableRecord
  2
*PAPER_SPACE
340
21A2
  0
BLOCK_RECORD
  5
45
330
1
100
AcDbSymbolTableRecord
100
AcDbBlockTableRecord
  2
_OPEN
340
0
102
{BLKREFS
331
1637
331
1638
331
1654
331
1669
331
166A
331
168B
331
168C
331
198B
331
198C
331
1F1A
331
1F1B
331
1F23
331
1F24
331
1F37
331
1F38
331
1F4A
331
1F4B
331
1F5C
331
1F5D
331
1F65
331
1F66
331
1F6F
331
1F70
331
2028
331
2029
331
2031
331
2032
331
2766
331
2767
331
276F
331
2770
331
2778
331
2779
331
2781
331
2782
102
}
  0
BLOCK_RECORD
  5
ADD
330
1
100
AcDbSymbolTableRecord
100
AcDbBlockTableRecord
  2
ROGO1
340
0
102
{BLKREFS
331
B43
331
B44
331
FCB
331
FCC
102
}
  0
BLOCK_RECORD
  5
1823
330
1
100
AcDbSymbolTableRecord
100
AcDbBlockTableRecord
  2
AVE_RENDER
340
0
102
{BLKREFS
331
1826
331
1827
331
1828
331
1829
331
182A
331
182B
331
182C
331
182D
102
}
  0
BLOCK_RECORD
  5
1831
330
1
100
AcDbSymbolTableRecord
100
AcDbBlockTableRecord
  2
AVE_GLOBAL
340
0
102
{BLKREFS
331
1834
102
}
  0
BLOCK_RECORD
  5
20F1
330
1
100
AcDbSymbolTableRecord
100
AcDbBlockTableRecord
  2
*D4
340
0
  0
BLOCK_RECORD
  5
20FE
330
1
100
AcDbSymbolTableRecord
100
AcDbBlockTableRecord
  2
*D5
340
0
  0
BLOCK_RECORD
  5
2118
330
1
100
AcDbSymbolTableRecord
100
AcDbBlockTableRecord
  2
*D6
340
0
  0
BLOCK_RECORD
  5
2126
330
1
100
AcDbSymbolTableRecord
100
AcDbBlockTableRecord
  2
*D7
340
0
  0
BLOCK_RECORD
  5
21A7
102
{ACAD_XDICTIONARY
360
21A8
102
}
330
1
100
AcDbSymbolTableRecord
100
AcDbBlockTableRecord
  2
PC_PCN針
340
0
102
{BLKREFS
331
26FD
102
}
  0
ENDTAB
  0
ENDSEC
  0
SECTION
  2
BLOCKS
  0
BLOCK
  5
19
330
18
100
AcDbEntity
  8
0
100
AcDbBlockBegin
  2
*MODEL_SPACE
 70
     0
 10
0.0
 20
0.0
 30
0.0
  3
*MODEL_SPACE
  1

  0
ENDBLK
  5
1A
330
18
100
AcDbEntity
  8
0
100
AcDbBlockEnd
  0
BLOCK
  5
16
330
15
100
AcDbEntity
 67
     1
  8
0
100
AcDbBlockBegin
  2
*PAPER_SPACE
 70
     0
 10
0.0
 20
0.0
 30
0.0
  3
*PAPER_SPACE
  1

  0
ENDBLK
  5
17
330
15
100
AcDbEntity
 67
     1
  8
0
100
AcDbBlockEnd
  0
BLOCK
  5
46
330
45
100
AcDbEntity
  8
0
100
AcDbBlockBegin
  2
_OPEN
 70
     0
 10
0.0
 20
0.0
 30
0.0
  3
_OPEN
  1

  0
LINE
  5
47
330
45
100
AcDbEntity
  8
0
  6
ByBlock
 62
     0
100
AcDbLine
 10
-1.0
 20
0.1666666666666666
 30
0.0
 11
0.0
 21
0.0
 31
0.0
  0
LINE
  5
48
330
45
100
AcDbEntity
  8
0
  6
ByBlock
 62
     0
100
AcDbLine
 10
0.0
 20
0.0
 30
0.0
 11
-1.0
 21
-0.1666666666666666
 31
0.0
  0
LINE
  5
49
330
45
100
AcDbEntity
  8
0
  6
ByBlock
 62
     0
100
AcDbLine
 10
0.0
 20
0.0
 30
0.0
 11
-1.0
 21
0.0
 31
0.0
  0
ENDBLK
  5
4A
330
45
100
AcDbEntity
  8
0
100
AcDbBlockEnd
  0
BLOCK
  5
B2A
330
ADD
100
AcDbEntity
  8
0
100
AcDbBlockBegin
  2
ROGO1
 70
     0
 10
0.0
 20
0.0
 30
0.0
  3
ROGO1
  1

  0
MTEXT
  5
B42
330
ADD
100
AcDbEntity
  8
DEFPOINTS
  6
Continuous
100
AcDbMText
 10
1039.786461861274
 20
160.9640365185991
 30
0.0
 40
1.0
 41
0.0
 71
     4
 72
     1
  1
\A1;
 73
     1
 44
1.0
  0
ENDBLK
  5
B2B
330
ADD
100
AcDbEntity
  8
0
100
AcDbBlockEnd
  0
BLOCK
  5
1824
330
1823
100
AcDbEntity
  8
ASHADE
100
AcDbBlockBegin
  2
AVE_RENDER
 70
     0
 10
0.0
 20
0.0
 30
0.0
  3
AVE_RENDER
  1
AVE_RENDER
  0
ENDBLK
  5
1825
330
1823
100
AcDbEntity
  8
0
100
AcDbBlockEnd
  0
BLOCK
  5
1832
330
1831
100
AcDbEntity
  8
ASHADE
100
AcDbBlockBegin
  2
AVE_GLOBAL
 70
     0
 10
0.0
 20
0.0
 30
0.0
  3
AVE_GLOBAL
  1
AVE_GLOBAL
  0
ENDBLK
  5
1833
330
1831
100
AcDbEntity
  8
0
100
AcDbBlockEnd
  0
BLOCK
  5
215C
330
20F1
100
AcDbEntity
  8
0
100
AcDbBlockBegin
  2
*D4
 70
     1
 10
0.0
 20
0.0
 30
0.0
  3
*D4
  1

  0
LINE
  5
276C
330
20F1
100
AcDbEntity
  8
外形線
 62
     2
370
    -2
100
AcDbLine
 10
316.4121457755959
 20
243.3358151803883
 30
0.0
 11
330.5466127417875
 21
243.3358151803883
 31
0.0
  0
LINE
  5
276D
330
20F1
100
AcDbEntity
  8
外形線
 62
     2
370
    -2
100
AcDbLine
 10
311.2844176290535
 20
226.7358151803883
 30
0.0
 11
330.5466127417875
 21
226.7358151803883
 31
0.0
  0
LINE
  5
276E
330
20F1
100
AcDbEntity
  8
外形線
 62
     2
370
    -2
100
AcDbLine
 10
329.2966127417875
 20
240.8358151803883
 30
0.0
 11
329.2966127417875
 21
229.2358151803883
 31
0.0
  0
INSERT
  5
276F
330
20F1
100
AcDbEntity
  8
外形線
 62
     2
370
    -2
100
AcDbBlockReference
  2
_OPEN
 10
329.2966127417875
 20
243.3358151803883
 30
0.0
 41
2.5
 42
2.5
 43
2.5
 50
90.0
  0
INSERT
  5
2770
330
20F1
100
AcDbEntity
  8
外形線
 62
     2
370
    -2
100
AcDbBlockReference
  2
_OPEN
 10
329.2966127417875
 20
226.7358151803883
 30
0.0
 41
2.5
 42
2.5
 43
2.5
 50
270.0
  0
MTEXT
  5
2771
330
20F1
100
AcDbEntity
  8
外形線
 62
     6
100
AcDbMText
 10
327.4216127417874
 20
235.0358151803884
 30
0.0
 40
2.5
 41
0.0
 71
     5
 72
     1
  1
\A1;16.6
  7
STYLE3
 11
0.0000000000000001
 21
1.0
 31
0.0
 73
     1
 44
1.0
  0
POINT
  5
2772
330
20F1
100
AcDbEntity
  8
DEFPOINTS
 62
     0
100
AcDbPoint
 10
316.4121457755959
 20
243.3358151803883
 30
0.0
  0
POINT
  5
2773
330
20F1
100
AcDbEntity
  8
DEFPOINTS
 62
     0
100
AcDbPoint
 10
311.2844176290535
 20
226.7358151803883
 30
0.0
  0
POINT
  5
2774
330
20F1
100
AcDbEntity
  8
DEFPOINTS
 62
     0
100
AcDbPoint
 10
329.2966127417875
 20
226.7358151803883
 30
0.0
  0
ENDBLK
  5
2166
330
20F1
100
AcDbEntity
  8
0
100
AcDbBlockEnd
  0
BLOCK
  5
217D
330
20FE
100
AcDbEntity
  8
0
100
AcDbBlockBegin
  2
*D5
 70
     1
 10
0.0
 20
0.0
 30
0.0
  3
*D5
  1

  0
LINE
  5
277E
330
20FE
100
AcDbEntity
  8
外形線
 62
     2
370
    -2
100
AcDbLine
 10
329.2761245535196
 20
281.5358151803883
 30
0.0
 11
335.5252740786341
 21
281.5358151803883
 31
0.0
  0
LINE
  5
277F
330
20FE
100
AcDbEntity
  8
外形線
 62
     2
370
    -2
100
AcDbLine
 10
330.5466127417875
 20
226.7358151803883
 30
0.0
 11
335.5252740786341
 21
226.7358151803883
 31
0.0
  0
LINE
  5
2780
330
20FE
100
AcDbEntity
  8
外形線
 62
     2
370
    -2
100
AcDbLine
 10
334.2752740786341
 20
279.0358151803884
 30
0.0
 11
334.2752740786341
 21
229.2358151803884
 31
0.0
  0
INSERT
  5
2781
330
20FE
100
AcDbEntity
  8
外形線
 62
     2
370
    -2
100
AcDbBlockReference
  2
_OPEN
 10
334.2752740786341
 20
281.5358151803883
 30
0.0
 41
2.5
 42
2.5
 43
2.5
 50
90.0
  0
INSERT
  5
2782
330
20FE
100
AcDbEntity
  8
外形線
 62
     2
370
    -2
100
AcDbBlockReference
  2
_OPEN
 10
334.2752740786341
 20
226.7358151803883
 30
0.0
 41
2.5
 42
2.5
 43
2.5
 50
270.0
  0
MTEXT
  5
2783
330
20FE
100
AcDbEntity
  8
外形線
 62
     6
100
AcDbMText
 10
332.400274078634
 20
254.1358151803884
 30
0.0
 40
2.5
 41
0.0
 71
     5
 72
     1
  1
\A1;54.8
  7
STYLE3
 11
0.0000000000000001
 21
1.0
 31
0.0
 73
     1
 44
1.0
  0
POINT
  5
2784
330
20FE
100
AcDbEntity
  8
DEFPOINTS
 62
     0
100
AcDbPoint
 10
329.2761245535196
 20
281.5358151803883
 30
0.0
  0
POINT
  5
2785
330
20FE
100
AcDbEntity
  8
DEFPOINTS
 62
     0
100
AcDbPoint
 10
330.5466127417875
 20
226.7358151803883
 30
0.0
  0
POINT
  5
2786
330
20FE
100
AcDbEntity
  8
DEFPOINTS
 62
     0
100
AcDbPoint
 10
334.2752740786341
 20
226.7358151803883
 30
0.0
  0
ENDBLK
  5
2187
330
20FE
100
AcDbEntity
  8
0
100
AcDbBlockEnd
  0
BLOCK
  5
2167
330
2118
100
AcDbEntity
  8
0
100
AcDbBlockBegin
  2
*D6
 70
     1
 10
0.0
 20
0.0
 30
0.0
  3
*D6
  1

  0
LINE
  5
2775
330
2118
100
AcDbEntity
  8
外形線
 62
     2
370
    -2
100
AcDbLine
 10
304.3236696638059
 20
239.3358151803883
 30
0.0
 11
294.6184589573444
 21
239.3358151803883
 31
0.0
  0
LINE
  5
2776
330
2118
100
AcDbEntity
  8
外形線
 62
     2
370
    -2
100
AcDbLine
 10
305.9402674188214
 20
226.7358151803883
 30
0.0
 11
294.6184589573444
 21
226.7358151803883
 31
0.0
  0
LINE
  5
2777
330
2118
100
AcDbEntity
  8
外形線
 62
     2
370
    -2
100
AcDbLine
 10
295.8684589573444
 20
236.8358151803883
 30
0.0
 11
295.8684589573444
 21
229.2358151803884
 31
0.0
  0
INSERT
  5
2778
330
2118
100
AcDbEntity
  8
外形線
 62
     2
370
    -2
100
AcDbBlockReference
  2
_OPEN
 10
295.8684589573444
 20
239.3358151803883
 30
0.0
 41
2.5
 42
2.5
 43
2.5
 50
90.0
  0
INSERT
  5
2779
330
2118
100
AcDbEntity
  8
外形線
 62
     2
370
    -2
100
AcDbBlockReference
  2
_OPEN
 10
295.8684589573444
 20
226.7358151803883
 30
0.0
 41
2.5
 42
2.5
 43
2.5
 50
270.0
  0
MTEXT
  5
277A
330
2118
100
AcDbEntity
  8
外形線
 62
     6
100
AcDbMText
 10
293.9934589573443
 20
233.0358151803884
 30
0.0
 40
2.5
 41
0.0
 71
     5
 72
     1
  1
\A1;12.6
  7
STYLE3
 11
0.0000000000000001
 21
1.0
 31
0.0
 73
     1
 44
1.0
  0
POINT
  5
277B
330
2118
100
AcDbEntity
  8
DEFPOINTS
 62
     0
100
AcDbPoint
 10
304.3236696638059
 20
239.3358151803883
 30
0.0
  0
POINT
  5
277C
330
2118
100
AcDbEntity
  8
DEFPOINTS
 62
     0
100
AcDbPoint
 10
305.9402674188214
 20
226.7358151803883
 30
0.0
  0
POINT
  5
277D
330
2118
100
AcDbEntity
  8
DEFPOINTS
 62
     0
100
AcDbPoint
 10
295.8684589573444
 20
226.7358151803883
 30
0.0
  0
ENDBLK
  5
2171
330
2118
100
AcDbEntity
  8
0
100
AcDbBlockEnd
  0
BLOCK
  5
2172
330
2126
100
AcDbEntity
  8
0
100
AcDbBlockBegin
  2
*D7
 70
     1
 10
0.0
 20
0.0
 30
0.0
  3
*D7
  1

  0
LINE
  5
2763
330
2126
100
AcDbEntity
  8
外形線
 62
     2
370
    -2
100
AcDbLine
 10
335.4149429428929
 20
314.5358151803884
 30
0.0
 11
340.9780934115844
 21
314.5358151803884
 31
0.0
  0
LINE
  5
2764
330
2126
100
AcDbEntity
  8
外形線
 62
     2
370
    -2
100
AcDbLine
 10
308.3236696638061
 20
225.7358151803884
 30
0.0
 11
340.9780934115844
 21
225.7358151803883
 31
0.0
  0
LINE
  5
2765
330
2126
100
AcDbEntity
  8
外形線
 62
     2
370
    -2
100
AcDbLine
 10
339.7280934115844
 20
312.0358151803884
 30
0.0
 11
339.7280934115844
 21
228.2358151803883
 31
0.0
  0
INSERT
  5
2766
330
2126
100
AcDbEntity
  8
外形線
 62
     2
370
    -2
100
AcDbBlockReference
  2
_OPEN
 10
339.7280934115844
 20
314.5358151803884
 30
0.0
 41
2.5
 42
2.5
 43
2.5
 50
90.0
  0
INSERT
  5
2767
330
2126
100
AcDbEntity
  8
外形線
 62
     2
370
    -2
100
AcDbBlockReference
  2
_OPEN
 10
339.7280934115844
 20
225.7358151803883
 30
0.0
 41
2.5
 42
2.5
 43
2.5
 50
270.0
  0
MTEXT
  5
2768
330
2126
100
AcDbEntity
  8
外形線
 62
     6
100
AcDbMText
 10
337.8530934115843
 20
270.1358151803884
 30
0.0
 40
2.5
 41
0.0
 71
     5
 72
     1
  1
\A1;88.8
  7
STYLE3
 11
0.0000000000000001
 21
1.0
 31
0.0
 73
     1
 44
1.0
  0
POINT
  5
2769
330
2126
100
AcDbEntity
  8
DEFPOINTS
 62
     0
100
AcDbPoint
 10
335.4149429428929
 20
314.5358151803884
 30
0.0
  0
POINT
  5
276A
330
2126
100
AcDbEntity
  8
DEFPOINTS
 62
     0
100
AcDbPoint
 10
308.3236696638061
 20
225.7358151803884
 30
0.0
  0
POINT
  5
276B
330
2126
100
AcDbEntity
  8
DEFPOINTS
 62
     0
100
AcDbPoint
 10
339.7280934115844
 20
225.7358151803883
 30
0.0
  0
ENDBLK
  5
217C
330
2126
100
AcDbEntity
  8
0
100
AcDbBlockEnd
  0
BLOCK
  5
21AA
330
21A7
100
AcDbEntity
  8
0
100
AcDbBlockBegin
  2
PC_PCN針
 70
     0
 10
0.0
 20
0.0
 30
0.0
  3
PC_PCN針
  1

  0
HATCH
  5
21AB
330
21A7
100
AcDbEntity
  8
針
 62
     5
100
AcDbHatch
 10
0.0
 20
0.0
 30
0.0
210
0.0
220
0.0
230
1.0
  2
SOLID
 70
     1
 71
     1
 91
        2
 92
        7
 72
     1
 73
     1
 93
        7
 10
-2.023904563850578
 20
-0.2645931338153105
 42
-0.1640812035095904
 10
-1.421638696153195
 20
-0.4784803210162636
 42
-0.0813437861988258
 10
-1.5
 20
0.0
 42
-0.0813437861988211
 10
-1.421638696153195
 20
0.4784803210162352
 42
-0.1640812035095877
 10
-2.023904563850578
 20
0.2645931338153105
 42
0.0
 10
-14.19999999999993
 20
0.07000000000005
 42
0.0
 10
-14.20000000000004
 20
-0.0700000000000216
 42
0.0
 97
        6
330
21AF
330
21B1
330
21AC
330
21B2
330
21B0
330
21B8
 92
        7
 72
     1
 73
     1
 93
        9
 10
1.601307174430758
 20
0.4866168858272318
 42
-0.1053331282509662
 10
1.399713151580613
 20
0.5392616185973793
 42
-0.0921949713546931
 10
1.5
 20
0.0
 42
-0.0921949713546883
 10
1.399713151580613
 20
-0.5392616185973509
 42
-0.1053331282510194
 10
1.601307174430871
 20
-0.4866168858272318
 42
0.0
 10
6.657469727507077
 20
-0.256172195646343
 42
-0.2863987309427536
 10
6.842033426437637
 20
-0.359972204586029
 42
3.911320250910649
 10
6.842033426437637
 20
0.3599722045860858
 42
-0.2863987309427981
 10
6.657469727507077
 20
0.256172195646343
 42
0.0
 97
        8
330
21B6
330
21B3
330
21AE
330
21B8
330
21AD
330
21B4
330
21B7
330
21B5
 75
     0
 76
     1
 47
0.0259966004614645
 98
        2
 10
-6.998752094249084
 20
-0.0094903483859525
 10
3.014397170732763
 20
0.0944959703959967
450
        0
451
        0
460
0.0
461
0.0
452
        1
462
1.0
453
        2
463
0.0
 63
     5
421
      255
463
1.0
 63
    51
421
 16777113
470
LINEAR
  0
LINE
  5
21AC
102
{ACAD_REACTORS
330
21AB
102
}
330
21A7
100
AcDbEntity
  8
針
100
AcDbLine
 10
-14.20000000000004
 20
0.0700000000000216
 30
0.0
 11
-14.20000000000004
 21
-0.0699999999999932
 31
0.0
  0
ARC
  5
21AD
102
{ACAD_REACTORS
330
21AB
102
}
330
21A7
100
AcDbEntity
  8
針
100
AcDbCircle
 10
1.624072039381871
 20
-0.9860983779005323
 30
0.0
 40
0.5
100
AcDbArc
 50
92.60956348104661
 51
116.6614474826241
  0
ARC
  5
21AE
102
{ACAD_REACTORS
330
21AB
102
}
330
21A7
100
AcDbEntity
  8
針
100
AcDbCircle
 10
1.624072039381871
 20
0.9860983779005323
 30
0.0
 40
0.5
100
AcDbArc
 50
243.3385525173759
 51
267.3904365189533
  0
ARC
  5
21AF
102
{ACAD_REACTORS
330
21AB
102
}
330
21A7
100
AcDbEntity
  8
針
100
AcDbCircle
 10
-2.039884094318267
 20
1.264465452967101
 30
0.0
 40
1.0
100
AcDbArc
 50
270.9155986228672
 51
308.1881170613605
  0
ARC
  5
21B0
102
{ACAD_REACTORS
330
21AB
102
}
330
21A7
100
AcDbEntity
  8
針
100
AcDbCircle
 10
-2.039884094318267
 20
-1.264465452967101
 30
0.0
 40
1.0
100
AcDbArc
 50
51.8118829386395
 51
89.08440137713276
  0
LINE
  5
21B1
102
{ACAD_REACTORS
330
21AB
102
}
330
21A7
100
AcDbEntity
  8
針
100
AcDbLine
 10
-14.20000000000004
 20
0.0700000000000216
 30
0.0
 11
-2.023904563850578
 21
0.2645931338153105
 31
0.0
  0
LINE
  5
21B2
102
{ACAD_REACTORS
330
21AB
102
}
330
21A7
100
AcDbEntity
  8
針
100
AcDbLine
 10
-2.023904563850578
 20
-0.2645931338153105
 30
0.0
 11
-14.20000000000004
 21
-0.0699999999999932
 31
0.0
  0
LINE
  5
21B3
102
{ACAD_REACTORS
330
21AB
102
}
330
21A7
100
AcDbEntity
  8
針
100
AcDbLine
 10
1.601307174430758
 20
0.4866168858272318
 30
0.0
 11
6.657469727507077
 21
0.256172195646343
 31
0.0
  0
LINE
  5
21B4
102
{ACAD_REACTORS
330
21AB
102
}
330
21A7
100
AcDbEntity
  8
針
100
AcDbLine
 10
1.601307174430758
 20
-0.4866168858272318
 30
0.0
 11
6.657469727507077
 21
-0.256172195646343
 31
0.0
  0
ARC
  5
21B5
102
{ACAD_REACTORS
330
21AB
102
}
330
21A7
100
AcDbEntity
  8
針
100
AcDbCircle
 10
7.5
 20
0.0
 30
0.0
 40
0.75
100
AcDbArc
 50
208.6829815593726
 51
151.3170184406274
  0
ARC
  5
21B6
102
{ACAD_REACTORS
330
21AB
102
}
330
21A7
100
AcDbEntity
  8
針
100
AcDbCircle
 10
6.666575673487614
 20
0.4559647924756405
 30
0.0
 40
0.2
100
AcDbArc
 50
267.3904365189468
 51
331.3170184406275
  0
ARC
  5
21B7
102
{ACAD_REACTORS
330
21AB
102
}
330
21A7
100
AcDbEntity
  8
針
100
AcDbCircle
 10
6.666575673487614
 20
-0.4559647924756405
 30
0.0
 40
0.2
100
AcDbArc
 50
28.68298155937256
 51
92.60956348105315
  0
CIRCLE
  5
21B8
102
{ACAD_REACTORS
330
21AB
102
}
330
21A7
100
AcDbEntity
  8
外形線
100
AcDbCircle
 10
0.0
 20
0.0
 30
0.0
 40
1.5
  0
CIRCLE
  5
21B9
330
21A7
100
AcDbEntity
  8
外形線
 62
     4
100
AcDbCircle
 10
0.0
 20
0.0
 30
0.0
 40
0.25
  0
ENDBLK
  5
21BA
330
21A7
100
AcDbEntity
  8
0
100
AcDbBlockEnd
  0
ENDSEC
  0
SECTION
  2
ENTITIES
  0
LWPOLYLINE
  5
10B
330
18
100
AcDbEntity
  8
C
100
AcDbPolyline
 90
        5
 70
     0
 43
0.4
 10
236.6915604445414
 20
366.8501752555372
 10
491.6915604445414
 20
366.8501752555372
 10
491.6915604445414
 20
171.8501752555372
 10
236.6915604445414
 20
171.8501752555372
 10
236.6915604445414
 20
366.8501752555372
  0
LINE
  5
16C
330
18
100
AcDbEntity
  8
外形線
100
AcDbLine
 10
305.3236696638059
 20
313.731967603095
 30
0.0
 11
311.3236696638059
 21
313.731967603095
 31
0.0
  0
LINE
  5
16E
330
18
100
AcDbEntity
  8
外形線
100
AcDbLine
 10
311.3236696638059
 20
313.731967603095
 30
0.0
 11
311.3236696638059
 21
298.776754829955
 31
0.0
  0
LINE
  5
16F
330
18
100
AcDbEntity
  8
外形線
100
AcDbLine
 10
305.3236696638059
 20
313.731967603095
 30
0.0
 11
305.3236696638059
 21
298.776754829955
 31
0.0
  0
ARC
  5
170
330
18
100
AcDbEntity
  8
外形線
100
AcDbCircle
 10
308.3236696638059
 20
308.5358151803883
 30
0.0
 40
6.0
100
AcDbArc
 50
60.0
 51
120.0
  0
CIRCLE
  5
172
330
18
100
AcDbEntity
  8
外形線
100
AcDbCircle
 10
308.3236696638059
 20
281.5358151803883
 30
0.0
 40
17.5
  0
CIRCLE
  5
307
330
18
100
AcDbEntity
  8
外形線
100
AcDbCircle
 10
308.3236696638059
 20
281.5358151803883
 30
0.0
 40
15.0
  0
LINE
  5
30A
330
18
100
AcDbEntity
  8
目盛
100
AcDbLine
 10
308.3236696638059
 20
296.5358151803883
 30
0.0
 11
308.3236696638059
 21
294.0358151803883
 31
0.0
  0
TEXT
  5
351
330
18
100
AcDbEntity
  8
文字
100
AcDbText
 10
307.5232606505347
 20
291.8078864155086
 30
0.0
 40
1.8
  1
0
  7
STYLE3
100
AcDbText
  0
TEXT
  5
352
330
18
100
AcDbEntity
  8
文字
100
AcDbText
 10
312.8749750896586
 20
289.2380591720133
 30
0.0
 40
1.8
  1
20
  7
STYLE3
100
AcDbText
  0
TEXT
  5
353
330
18
100
AcDbEntity
  8
文字
100
AcDbText
 10
316.6616214686548
 20
283.9155378152568
 30
0.0
 40
1.8
  1
40
  7
STYLE3
100
AcDbText
  0
TEXT
  5
354
330
18
100
AcDbEntity
  8
文字
100
AcDbText
 10
316.7480946746701
 20
277.4111739513083
 30
0.0
 40
1.8
  1
60
  7
STYLE3
100
AcDbText
  0
TEXT
  5
355
330
18
100
AcDbEntity
  8
文字
100
AcDbText
 10
312.6757848226794
 20
271.6408707139594
 30
0.0
 40
1.8
  1
80
  7
STYLE3
100
AcDbText
  0
TEXT
  5
356
330
18
100
AcDbEntity
  8
文字
100
AcDbText
 10
305.8666675757172
 20
269.5614126769377
 30
0.0
 40
1.8
  1
100
 41
0.9
  7
STYLE3
100
AcDbText
  0
TEXT
  5
359
330
18
100
AcDbEntity
  8
文字
100
AcDbText
 10
300.5186402000857
 20
271.8162582654297
 30
0.0
 40
1.8
  1
80
  7
STYLE3
100
AcDbText
  0
TEXT
  5
35A
330
18
100
AcDbEntity
  8
文字
100
AcDbText
 10
296.4486290445842
 20
284.2048776714474
 30
0.0
 40
1.8
  1
40
  7
STYLE3
100
AcDbText
  0
TEXT
  5
35E
330
18
100
AcDbEntity
  8
文字
100
AcDbText
 10
311.6498878612135
 20
281.1264753958132
 30
0.0
 40
0.8
  1
0.002mm
  7
STYLE3
100
AcDbText
  0
TEXT
  5
35F
330
18
100
AcDbEntity
  8
文字
100
AcDbText
 10
301.3832351790636
 20
281.1617641311389
 30
0.0
 40
0.8
  1
Jeweled
  7
STYLE3
100
AcDbText
  0
TEXT
  5
363
330
18
100
AcDbEntity
  8
文字
100
AcDbText
 10
305.3291327309864
 20
274.5542189717806
 30
0.0
 40
1.0
  1
PCN-2B
  7
STYLE3
100
AcDbText
  0
TEXT
  5
368
330
18
100
AcDbEntity
  8
文字
100
AcDbText
 10
304.0001379258862
 20
284.5494472362237
 30
0.0
 40
0.8
  1
MADE IN JAPAN
  7
STYLE3
100
AcDbText
  0
INSERT
  5
B43
330
18
100
AcDbEntity
  8
文字
100
AcDbBlockReference
  2
ROGO1
 10
301.1334577592202
 20
275.1168679656769
 30
0.0
  0
INSERT
  5
B44
330
18
100
AcDbEntity
  8
文字
100
AcDbBlockReference
  2
ROGO1
 10
301.1095809474122
 20
275.1436630917189
 30
0.0
  0
LINE
  5
CBB
330
18
100
AcDbEntity
  8
外形線
100
AcDbLine
 10
303.3236696638059
 20
245.3358151803883
 30
0.0
 11
303.3236696638059
 21
241.3358151803883
 31
0.0
  0
LINE
  5
CBC
330
18
100
AcDbEntity
  8
外形線
100
AcDbLine
 10
303.8236696638059
 20
246.3358151803884
 30
0.0
 11
303.8236696638059
 21
240.3358151803884
 31
0.0
  0
LINE
  5
CBD
330
18
100
AcDbEntity
  8
外形線
100
AcDbLine
 10
303.8236696638059
 20
241.3358151803883
 30
0.0
 11
303.3236696638059
 21
241.3358151803883
 31
0.0
  0
LINE
  5
CBE
330
18
100
AcDbEntity
  8
外形線
100
AcDbLine
 10
304.3236696638059
 20
240.3358151803884
 30
0.0
 11
303.8236696638059
 21
240.3358151803884
 31
0.0
  0
LINE
  5
CBF
330
18
100
AcDbEntity
  8
外形線
100
AcDbLine
 10
303.8236696638059
 20
245.3358151803883
 30
0.0
 11
303.3236696638059
 21
245.3358151803883
 31
0.0
  0
LINE
  5
CC0
330
18
100
AcDbEntity
  8
外形線
100
AcDbLine
 10
304.3236696638059
 20
246.3358151803884
 30
0.0
 11
303.8236696638059
 21
246.3358151803884
 31
0.0
  0
INSERT
  5
FCB
330
18
100
AcDbEntity
  8
文字
100
AcDbBlockReference
  2
ROGO1
 10
579.0605083803766
 20
282.754069537204
 30
0.0
  0
INSERT
  5
FCC
330
18
100
AcDbEntity
  8
文字
100
AcDbBlockReference
  2
ROGO1
 10
579.0366315685687
 20
282.780864663246
 30
0.0
  0
ARC
  5
1204
330
18
100
AcDbEntity
  8
外形線
100
AcDbCircle
 10
389.943566305395
 20
243.3358151803882
 30
0.0
 40
3.0
100
AcDbArc
 50
54.59406822686052
 51
215.4059317731395
  0
ARC
  5
1205
330
18
100
AcDbEntity
  8
外形線
100
AcDbCircle
 10
389.943566305395
 20
243.3358151803882
 30
0.0
 40
3.0
100
AcDbArc
 50
234.5940682268605
 51
35.4059317731395
  0
LINE
  5
1206
330
18
100
AcDbEntity
  8
外形線
100
AcDbLine
 10
392.0648866489545
 20
244.7500287427613
 30
0.0
 11
392.3887697623234
 21
245.0739118561302
 31
0.0
  0
LINE
  5
1208
330
18
100
AcDbEntity
  8
外形線
100
AcDbLine
 10
388.5293527430219
 20
241.2144948368287
 30
0.0
 11
387.8222459618354
 21
241.9216016180152
 31
0.0
  0
LINE
  5
1209
330
18
100
AcDbEntity
  8
外形線
100
AcDbLine
 10
388.5293527430219
 20
241.2144948368287
 30
0.0
 11
388.2054696296531
 21
240.8906117234598
 31
0.0
  0
LINE
  5
120A
330
18
100
AcDbEntity
  8
外形線
100
AcDbLine
 10
387.8222459618354
 20
241.9216016180152
 30
0.0
 11
387.4983628484665
 21
241.5977185046464
 31
0.0
  0
LINE
  5
120B
330
18
100
AcDbEntity
  8
外形線
100
AcDbLine
 10
392.0648866489545
 20
244.7500287427613
 30
0.0
 11
391.3577798677681
 21
245.4571355239479
 31
0.0
  0
LINE
  5
120C
330
18
100
AcDbEntity
  8
外形線
100
AcDbLine
 10
391.3577798677681
 20
245.4571355239479
 30
0.0
 11
391.6816629811369
 21
245.7810186373168
 31
0.0
  0
LINE
  5
120D
330
18
100
AcDbEntity
  8
外形線
100
AcDbLine
 10
388.5293527430219
 20
241.9216016180152
 30
0.0
 11
391.3577798677681
 21
244.7500287427615
 31
0.0
  0
CIRCLE
  5
1210
330
18
100
AcDbEntity
  8
外形線
100
AcDbCircle
 10
389.943566305395
 20
243.3358151803883
 30
0.0
 40
2.0
  0
LINE
  5
121E
330
18
100
AcDbEntity
  8
外形線
100
AcDbLine
 10
384.9337575739444
 20
292.7420402954066
 30
0.0
 11
383.8533750368455
 21
294.0295900653703
 31
0.0
  0
LINE
  5
121F
330
18
100
AcDbEntity
  8
外形線
100
AcDbLine
 10
383.7497914204131
 20
292.845623911839
 30
0.0
 11
385.0373411903768
 21
293.9260064489379
 31
0.0
  0
CIRCLE
  5
1221
330
18
100
AcDbEntity
  8
外形線
100
AcDbCircle
 10
384.393566305395
 20
293.3858151803884
 30
0.0
 40
1.5
  0
LINE
  5
1249
330
18
100
AcDbEntity
  8
外形線
100
AcDbLine
 10
392.943566305395
 20
313.531967603095
 30
0.0
 11
392.943566305395
 21
298.3358151803884
 31
0.0
  0
LINE
  5
124A
330
18
100
AcDbEntity
  8
外形線
100
AcDbLine
 10
386.943566305395
 20
313.531967603095
 30
0.0
 11
386.943566305395
 21
298.3358151803884
 31
0.0
  0
LINE
  5
1253
330
18
100
AcDbEntity
  8
外形線
100
AcDbLine
 10
386.943566305395
 20
298.3358151803884
 30
0.0
 11
392.943566305395
 21
298.3358151803884
 31
0.0
  0
LINE
  5
1259
330
18
100
AcDbEntity
  8
外形線
100
AcDbLine
 10
386.943566305395
 20
313.531967603095
 30
0.0
 11
392.943566305395
 21
313.531967603095
 31
0.0
  0
ARC
  5
125A
330
18
100
AcDbEntity
  8
外形線
100
AcDbCircle
 10
389.943566305395
 20
308.3358151803884
 30
0.0
 40
6.0
100
AcDbArc
 50
60.0
 51
120.0
  0
POINT
  5
1285
330
18
100
AcDbEntity
  8
DEFPOINTS
  6
ByBlock
 62
     0
100
AcDbPoint
 10
308.3236696638059
 20
281.5358151803883
 30
0.0
  0
POINT
  5
1286
330
18
100
AcDbEntity
  8
DEFPOINTS
  6
ByBlock
 62
     0
100
AcDbPoint
 10
308.3236696638059
 20
281.5358151803883
 30
0.0
  0
POINT
  5
1287
330
18
100
AcDbEntity
  8
DEFPOINTS
  6
ByBlock
 62
     0
100
AcDbPoint
 10
308.3236696638059
 20
281.5358151803883
 30
0.0
  0
POINT
  5
1288
330
18
100
AcDbEntity
  8
DEFPOINTS
  6
ByBlock
 62
     0
100
AcDbPoint
 10
308.3236696638059
 20
281.5358151803883
 30
0.0
  0
CIRCLE
  5
1289
330
18
100
AcDbEntity
  8
外形線
 62
     4
100
AcDbCircle
 10
308.3236696638059
 20
281.5358151803883
 30
0.0
 40
0.25
  0
LINE
  5
12CA
330
18
100
AcDbEntity
  8
外形線
100
AcDbLine
 10
376.5073082739878
 20
299.0358151803883
 30
0.0
 11
379.6573082739877
 21
299.0358151803883
 31
0.0
  0
LINE
  5
12CC
330
18
100
AcDbEntity
  8
外形線
100
AcDbLine
 10
376.3073082739878
 20
298.8358151803883
 30
0.0
 11
376.3073082739877
 21
264.2358151803885
 31
0.0
  0
LINE
  5
12CD
330
18
100
AcDbEntity
  8
外形線
100
AcDbLine
 10
380.0073082739878
 20
298.6858151803883
 30
0.0
 11
380.0073082739877
 21
264.3858151803884
 31
0.0
  0
LINE
  5
12CE
330
18
100
AcDbEntity
  8
外形線
100
AcDbLine
 10
381.0073082739878
 20
298.6858151803883
 30
0.0
 11
381.0073082739878
 21
264.3858151803883
 31
0.0
  0
LINE
  5
12CF
330
18
100
AcDbEntity
  8
外形線
 48
0.5
100
AcDbLine
 10
376.3073082739877
 20
298.8358151803883
 30
0.0
 11
376.5073082739878
 21
299.0358151803883
 31
0.0
  0
LINE
  5
12D0
330
18
100
AcDbEntity
  8
外形線
100
AcDbLine
 10
379.6573082739877
 20
299.0358151803883
 30
0.0
 11
380.0073082739877
 21
298.6858151803883
 31
0.0
  0
LINE
  5
12EF
330
18
100
AcDbEntity
  8
外形線
100
AcDbLine
 10
379.6573082739877
 20
264.0358151803884
 30
0.0
 11
380.0073082739877
 21
264.3858151803883
 31
0.0
  0
LINE
  5
12F0
330
18
100
AcDbEntity
  8
外形線
 48
0.5
100
AcDbLine
 10
376.3073082739877
 20
264.2358151803883
 30
0.0
 11
376.5073082739878
 21
264.0358151803884
 31
0.0
  0
LINE
  5
12F1
330
18
100
AcDbEntity
  8
外形線
100
AcDbLine
 10
376.5073082739878
 20
264.0358151803884
 30
0.0
 11
379.6573082739877
 21
264.0358151803884
 31
0.0
  0
LINE
  5
12F5
330
18
100
AcDbEntity
  8
外形線
100
AcDbLine
 10
375.8073082739878
 20
298.0358151803883
 30
0.0
 11
375.8073082739878
 21
265.0358151803884
 31
0.0
  0
LINE
  5
12FF
330
18
100
AcDbEntity
  8
外形線
100
AcDbLine
 10
380.0073082739877
 20
298.6858151803883
 30
0.0
 11
381.0073082739878
 21
298.6858151803883
 31
0.0
  0
LINE
  5
1300
330
18
100
AcDbEntity
  8
外形線
100
AcDbLine
 10
380.0073082739877
 20
264.3858151803883
 30
0.0
 11
381.0073082739878
 21
264.3858151803883
 31
0.0
  0
LINE
  5
1308
330
18
100
AcDbEntity
  8
外形線
100
AcDbLine
 10
375.8073082739878
 20
298.0358151803883
 30
0.0
 11
376.3073082739878
 21
298.5358151803883
 31
0.0
  0
LINE
  5
1309
330
18
100
AcDbEntity
  8
外形線
100
AcDbLine
 10
375.8073082739878
 20
265.0358151803883
 30
0.0
 11
376.3073082739878
 21
264.5358151803884
 31
0.0
  0
LINE
  5
1312
330
18
100
AcDbEntity
  8
外形線
100
AcDbLine
 10
376.3073082739879
 20
298.3358151803884
 30
0.0
 11
380.0073082739877
 21
298.3358151803884
 31
0.0
  0
LINE
  5
1313
330
18
100
AcDbEntity
  8
外形線
100
AcDbLine
 10
376.3073082739879
 20
297.6358151803884
 30
0.0
 11
380.0073082739877
 21
297.6358151803884
 31
0.0
  0
LINE
  5
1314
330
18
100
AcDbEntity
  8
外形線
100
AcDbLine
 10
376.3073082739879
 20
296.8358151803883
 30
0.0
 11
380.0073082739877
 21
296.8358151803883
 31
0.0
  0
LINE
  5
1315
330
18
100
AcDbEntity
  8
外形線
100
AcDbLine
 10
376.3073082739879
 20
296.0358151803884
 30
0.0
 11
380.0073082739877
 21
296.0358151803884
 31
0.0
  0
LINE
  5
1316
330
18
100
AcDbEntity
  8
外形線
100
AcDbLine
 10
376.3073082739879
 20
295.1358151803884
 30
0.0
 11
380.0073082739877
 21
295.1358151803884
 31
0.0
  0
LINE
  5
1328
330
18
100
AcDbEntity
  8
外形線
100
AcDbLine
 10
376.3073082739877
 20
282.2358151803883
 30
0.0
 11
380.0073082739877
 21
282.2358151803883
 31
0.0
  0
LINE
  5
1329
330
18
100
AcDbEntity
  8
外形線
100
AcDbLine
 10
376.3073082739877
 20
280.8358151803883
 30
0.0
 11
380.0073082739877
 21
280.8358151803883
 31
0.0
  0
LINE
  5
132A
330
18
100
AcDbEntity
  8
外形線
100
AcDbLine
 10
376.3073082739877
 20
283.0358151803883
 30
0.0
 11
380.0073082739877
 21
283.0358151803883
 31
0.0
  0
LINE
  5
132B
330
18
100
AcDbEntity
  8
外形線
100
AcDbLine
 10
376.3073082739877
 20
280.0358151803883
 30
0.0
 11
380.0073082739877
 21
280.0358151803883
 31
0.0
  0
LINE
  5
132C
330
18
100
AcDbEntity
  8
外形線
100
AcDbLine
 10
376.3073082739877
 20
281.5358151803883
 30
0.0
 11
380.0073082739877
 21
281.5358151803883
 31
0.0
  0
LINE
  5
132D
330
18
100
AcDbEntity
  8
外形線
100
AcDbLine
 10
376.3073082739879
 20
267.9358151803883
 30
0.0
 11
380.0073082739877
 21
267.9358151803883
 31
0.0
  0
LINE
  5
132E
330
18
100
AcDbEntity
  8
外形線
100
AcDbLine
 10
376.3073082739879
 20
267.0358151803883
 30
0.0
 11
380.0073082739877
 21
267.0358151803883
 31
0.0
  0
LINE
  5
132F
330
18
100
AcDbEntity
  8
外形線
100
AcDbLine
 10
376.3073082739879
 20
266.2358151803883
 30
0.0
 11
380.0073082739877
 21
266.2358151803884
 31
0.0
  0
LINE
  5
1330
330
18
100
AcDbEntity
  8
外形線
100
AcDbLine
 10
376.3073082739879
 20
265.4358151803883
 30
0.0
 11
380.0073082739877
 21
265.4358151803883
 31
0.0
  0
LINE
  5
1331
330
18
100
AcDbEntity
  8
外形線
100
AcDbLine
 10
376.3073082739879
 20
264.7358151803883
 30
0.0
 11
380.0073082739877
 21
264.7358151803883
 31
0.0
  0
LINE
  5
1336
330
18
100
AcDbEntity
  8
外形線
100
AcDbLine
 10
381.0073082739878
 20
296.5358151803883
 30
0.0
 11
381.5073082739878
 21
296.5358151803883
 31
0.0
  0
ARC
  5
1337
330
18
100
AcDbEntity
  8
外形線
100
AcDbCircle
 10
381.5073082739878
 20
295.5358151803883
 30
0.0
 40
1.0
100
AcDbArc
 50
64.13462858156407
 51
90.0
  0
ARC
  5
1338
330
18
100
AcDbEntity
  8
外形線
100
AcDbCircle
 10
381.5073082739878
 20
267.5358151803883
 30
0.0
 40
1.0
100
AcDbArc
 50
270.0
 51
295.8653714184359
  0
LINE
  5
1339
330
18
100
AcDbEntity
  8
外形線
100
AcDbLine
 10
381.0073082739878
 20
266.5358151803884
 30
0.0
 11
381.5073082739878
 21
266.5358151803884
 31
0.0
  0
ARC
  5
133C
330
18
100
AcDbEntity
  8
外形線
100
AcDbCircle
 10
435.822597889972
 20
281.5358151803883
 30
0.0
 40
62.37903158457702
100
AcDbArc
 50
166.4545064755762
 51
193.5454935244236
  0
LINE
  5
1343
330
18
100
AcDbEntity
  8
外形線
100
AcDbLine
 10
375.6647776360986
 20
296.5289588058312
 30
0.0
 11
375.8073082739877
 21
296.5289588058312
 31
0.0
  0
ARC
  5
1345
330
18
100
AcDbEntity
  8
外形線
100
AcDbCircle
 10
375.6647776360985
 20
296.0289588058311
 30
0.0
 40
0.5
100
AcDbArc
 50
89.99999999999349
 51
166.4545064755751
  0
ARC
  5
1346
330
18
100
AcDbEntity
  8
外形線
100
AcDbCircle
 10
375.6647776360985
 20
267.0426715549456
 30
0.0
 40
0.5
100
AcDbArc
 50
193.5454935244249
 51
270.0000000000065
  0
LINE
  5
1347
330
18
100
AcDbEntity
  8
外形線
100
AcDbLine
 10
375.6647776360986
 20
266.5426715549455
 30
0.0
 11
375.8073082739877
 21
266.5426715549455
 31
0.0
  0
LINE
  5
138E
330
18
100
AcDbEntity
  8
外形線
100
AcDbLine
 10
312.8236696638059
 20
246.3358151803884
 30
0.0
 11
312.8236696638059
 21
240.3358151803884
 31
0.0
  0
LINE
  5
138F
330
18
100
AcDbEntity
  8
外形線
100
AcDbLine
 10
313.3236696638059
 20
245.3358151803883
 30
0.0
 11
313.3236696638059
 21
241.3358151803883
 31
0.0
  0
LINE
  5
1390
330
18
100
AcDbEntity
  8
外形線
100
AcDbLine
 10
312.323669663806
 20
240.3358151803884
 30
0.0
 11
312.8236696638059
 21
240.3358151803884
 31
0.0
  0
LINE
  5
1391
330
18
100
AcDbEntity
  8
外形線
100
AcDbLine
 10
312.8236696638059
 20
241.3358151803883
 30
0.0
 11
313.3236696638059
 21
241.3358151803883
 31
0.0
  0
LINE
  5
1392
330
18
100
AcDbEntity
  8
外形線
100
AcDbLine
 10
312.323669663806
 20
246.3358151803884
 30
0.0
 11
312.8236696638059
 21
246.3358151803884
 31
0.0
  0
LINE
  5
1393
330
18
100
AcDbEntity
  8
外形線
100
AcDbLine
 10
312.8236696638059
 20
245.3358151803883
 30
0.0
 11
313.3236696638059
 21
245.3358151803883
 31
0.0
  0
POINT
  5
14D3
330
18
100
AcDbEntity
  8
DEFPOINTS
  6
ByBlock
 62
     0
100
AcDbPoint
 10
389.943566305395
 20
243.3358151803883
 30
0.0
  0
POINT
  5
14D4
330
18
100
AcDbEntity
  8
DEFPOINTS
  6
ByBlock
 62
     0
100
AcDbPoint
 10
389.943566305395
 20
243.3358151803883
 30
0.0
  0
CIRCLE
  5
14E2
102
{ACAD_REACTORS
330
14E5
102
}
330
18
100
AcDbEntity
  8
外形線
100
AcDbCircle
 10
382.300424715732
 20
254.6730031978687
 30
0.0
 40
0.222687898198611
  0
HATCH
  5
14E5
330
18
100
AcDbEntity
  8
外形線
100
AcDbHatch
 10
0.0
 20
0.0
 30
0.0
210
0.0
220
0.0
230
1.0
  2
SOLID
 70
     1
 71
     1
 91
        1
 92
        7
 72
     1
 73
     1
 93
        2
 10
382.5231126139307
 20
254.6730031978687
 42
1.0
 10
382.0777368175334
 20
254.6730031978687
 42
1.0
 97
        1
330
14E2
 75
     0
 76
     1
 47
0.0124670341605454
 98
        1
 10
382.3584020170785
 20
254.6498312577775
450
        0
451
        0
460
0.0
461
0.0
452
        0
462
0.0
453
        0
470

  0
TEXT
  5
14EC
330
18
100
AcDbEntity
  8
寸法線
 62
     6
100
AcDbText
 10
407.1451283098028
 20
279.2831458655007
 30
0.0
 40
2.5
  1
A
  7
STYLE3
100
AcDbText
  0
CIRCLE
  5
14EE
102
{ACAD_REACTORS
330
14F1
102
}
330
18
100
AcDbEntity
  8
外形線
100
AcDbCircle
 10
398.5310879395302
 20
269.3568759306426
 30
0.0
 40
0.222687898198611
  0
HATCH
  5
14F1
330
18
100
AcDbEntity
  8
外形線
100
AcDbHatch
 10
0.0
 20
0.0
 30
0.0
210
0.0
220
0.0
230
1.0
  2
SOLID
 70
     1
 71
     1
 91
        1
 92
        7
 72
     1
 73
     1
 93
        2
 10
398.7537758377288
 20
269.3568759306426
 42
1.0
 10
398.3084000413316
 20
269.3568759306426
 42
1.0
 97
        1
330
14EE
 75
     0
 76
     1
 47
0.0200805185115556
 98
        1
 10
398.6556040429459
 20
269.2400895026644
450
        0
451
        0
460
0.0
461
0.0
452
        0
462
0.0
453
        0
470

  0
CIRCLE
  5
14F8
102
{ACAD_REACTORS
330
151F
102
}
330
18
100
AcDbEntity
  8
外形線
100
AcDbCircle
 10
384.7130906058169
 20
297.5892106772426
 30
0.0
 40
0.222687898198611
  0
HATCH
  5
151F
330
18
100
AcDbEntity
  8
外形線
100
AcDbHatch
 10
0.0
 20
0.0
 30
0.0
210
0.0
220
0.0
230
1.0
  2
SOLID
 70
     1
 71
     1
 91
        1
 92
        7
 72
     1
 73
     1
 93
        2
 10
384.9357785040155
 20
297.5892106772426
 42
1.0
 10
384.4904027076183
 20
297.5892106772426
 42
1.0
 97
        1
330
14F8
 75
     0
 76
     1
 47
0.0431140550968677
 98
        1
 10
384.8303407204022
 20
297.4798755064791
450
        0
451
        0
460
0.0
461
0.0
452
        0
462
0.0
453
        0
470

  0
LINE
  5
157C
330
18
100
AcDbEntity
  8
外形線
100
AcDbLine
 10
461.3933254915996
 20
271.6445593978291
 30
0.0
 11
474.2737188115114
 21
271.6445593978292
 31
0.0
  0
LINE
  5
157F
330
18
100
AcDbEntity
  8
外形線
100
AcDbLine
 10
450.5985813799252
 20
274.9445593978292
 30
0.0
 11
463.2985813799252
 21
274.9445593978291
 31
0.0
  0
LINE
  5
1584
330
18
100
AcDbEntity
  8
外形線
100
AcDbLine
 10
461.3933254915996
 20
271.6445593978291
 30
0.0
 11
463.2985813799252
 21
274.9445593978291
 31
0.0
  0
LINE
  5
1585
330
18
100
AcDbEntity
  8
外形線
100
AcDbLine
 10
452.503837268251
 20
271.6445593978291
 30
0.0
 11
450.5985813799252
 21
274.9445593978292
 31
0.0
  0
LINE
  5
1586
330
18
100
AcDbEntity
  8
外形線
100
AcDbLine
 10
452.503837268251
 20
271.6445593978291
 30
0.0
 11
439.6234439483391
 21
271.6445593978291
 31
0.0
  0
CIRCLE
  5
1588
330
18
100
AcDbEntity
  8
外形線
100
AcDbCircle
 10
449.9085813799251
 20
273.1445593978291
 30
0.0
 40
1.5
  0
CIRCLE
  5
1589
330
18
100
AcDbEntity
  8
外形線
100
AcDbCircle
 10
463.9885813799253
 20
273.1445593978291
 30
0.0
 40
1.5
  0
LINE
  5
158C
330
18
100
AcDbEntity
  8
中心線
100
AcDbLine
 10
446.9717758753761
 20
273.1445593978291
 30
0.0
 11
453.0488400558879
 21
273.1445593978291
 31
0.0
  0
LINE
  5
158D
330
18
100
AcDbEntity
  8
中心線
100
AcDbLine
 10
463.9885813799253
 20
276.5609815119706
 30
0.0
 11
463.9885813799253
 21
269.4203318281388
 31
0.0
  0
LINE
  5
158E
330
18
100
AcDbEntity
  8
中心線
100
AcDbLine
 10
449.9085813799251
 20
276.5609815119706
 30
0.0
 11
449.9085813799251
 21
269.4203318281388
 31
0.0
  0
LINE
  5
1591
330
18
100
AcDbEntity
  8
中心線
100
AcDbLine
 10
461.0801030978187
 20
273.1445593978291
 30
0.0
 11
467.3133230401036
 21
273.1445593978291
 31
0.0
  0
LINE
  5
15A3
330
18
100
AcDbEntity
  8
寸法線
100
AcDbLine
 10
439.6234439483391
 20
269.4758032635876
 30
0.0
 11
441.7922000825805
 21
271.6445593978291
 31
0.0
  0
LINE
  5
15A4
330
18
100
AcDbEntity
  8
寸法線
100
AcDbLine
 10
439.6234439483391
 20
264.985675203053
 30
0.0
 11
446.2823281431152
 21
271.6445593978291
 31
0.0
  0
LINE
  5
15A5
330
18
100
AcDbEntity
  8
寸法線
100
AcDbLine
 10
442.6781292814532
 20
263.5502324756326
 30
0.0
 11
450.7724562036498
 21
271.6445593978292
 31
0.0
  0
LINE
  5
15A6
330
18
100
AcDbEntity
  8
寸法線
100
AcDbLine
 10
451.8701078149756
 20
272.742211009155
 30
0.0
 11
454.0724562036498
 21
274.9445593978292
 31
0.0
  0
LINE
  5
15A7
330
18
100
AcDbEntity
  8
寸法線
100
AcDbLine
 10
447.1682573419878
 20
263.5502324756325
 30
0.0
 11
458.5625842641845
 21
274.9445593978292
 31
0.0
  0
LINE
  5
15A8
330
18
100
AcDbEntity
  8
寸法線
100
AcDbLine
 10
451.6583854025224
 20
263.5502324756325
 30
0.0
 11
463.052712324719
 21
274.9445593978292
 31
0.0
  0
LINE
  5
15A9
330
18
100
AcDbEntity
  8
寸法線
100
AcDbLine
 10
456.1485134630569
 20
263.5502324756325
 30
0.0
 11
464.2428403852536
 21
271.6445593978292
 31
0.0
  0
LINE
  5
15AA
330
18
100
AcDbEntity
  8
寸法線
100
AcDbLine
 10
460.6386415235916
 20
263.5502324756325
 30
0.0
 11
468.7329684457881
 21
271.6445593978292
 31
0.0
  0
LINE
  5
15AB
330
18
100
AcDbEntity
  8
寸法線
100
AcDbLine
 10
465.1287695841261
 20
263.5502324756325
 30
0.0
 11
473.2230965063227
 21
271.6445593978292
 31
0.0
  0
LINE
  5
15AC
330
18
100
AcDbEntity
  8
寸法線
100
AcDbLine
 10
469.6188976446608
 20
263.5502324756326
 30
0.0
 11
474.2737188115114
 21
268.2050536424833
 31
0.0
  0
LINE
  5
1634
330
18
100
AcDbEntity
  8
0
  6
ByBlock
 62
     2
100
AcDbLine
 10
463.2985813799252
 20
274.9445593978291
 30
0.0
 11
474.9184750889274
 21
295.0708056803717
 31
0.0
  0
LINE
  5
1635
330
18
100
AcDbEntity
  8
0
  6
ByBlock
 62
     2
100
AcDbLine
 10
450.5985813799252
 20
274.9445593978292
 30
0.0
 11
438.9786876709229
 21
295.0708056803716
 31
0.0
  0
ARC
  5
1636
330
18
100
AcDbEntity
  8
0
  6
ByBlock
 62
     2
100
AcDbCircle
 10
456.9485813799254
 20
263.9460367697663
 30
0.0
 40
34.6897874180055
100
AcDbArc
 50
64.13004734756665
 51
115.869952652434
  0
INSERT
  5
1637
330
18
100
AcDbEntity
  8
0
  6
ByBlock
 62
     2
100
AcDbBlockReference
  2
_OPEN
 10
474.2934750889275
 20
293.9882739256412
 30
0.0
 41
2.5
 42
2.5
 43
2.5
 50
332.0650236737839
  0
INSERT
  5
1638
330
18
100
AcDbEntity
  8
0
  6
ByBlock
 62
     2
100
AcDbBlockReference
  2
_OPEN
 10
439.6036876709229
 20
293.988273925641
 30
0.0
 41
2.5
 42
2.5
 43
2.5
 50
207.9349763262168
  0
MTEXT
  5
1639
330
18
100
AcDbEntity
  8
0
  6
ByBlock
 62
     6
100
AcDbMText
 10
458.4430424781485
 20
300.5108241877718
 30
0.0
 40
2.5
 41
0.0
 71
     5
 72
     1
  1
\A1;60°
  7
STYLE3
 73
     1
 44
1.0
  0
POINT
  5
163A
330
18
100
AcDbEntity
  8
DEFPOINTS
  6
ByBlock
 62
     0
100
AcDbPoint
 10
462.9723997487148
 20
298.1088083693635
 30
0.0
  0
POINT
  5
163B
330
18
100
AcDbEntity
  8
DEFPOINTS
  6
ByBlock
 62
     0
100
AcDbPoint
 10
452.503837268251
 20
271.6445593978291
 30
0.0
  0
POINT
  5
163C
330
18
100
AcDbEntity
  8
DEFPOINTS
  6
ByBlock
 62
     0
100
AcDbPoint
 10
461.3933254915996
 20
271.6445593978291
 30
0.0
  0
POINT
  5
163D
330
18
100
AcDbEntity
  8
DEFPOINTS
  6
ByBlock
 62
     0
100
AcDbPoint
 10
463.2985813799252
 20
274.9445593978291
 30
0.0
  0
POINT
  5
163E
330
18
100
AcDbEntity
  8
DEFPOINTS
  6
ByBlock
 62
     0
100
AcDbPoint
 10
450.5985813799252
 20
274.9445593978292
 30
0.0
  0
LINE
  5
164E
330
18
100
AcDbEntity
  8
0
  6
ByBlock
 62
     2
100
AcDbLine
 10
447.6761864296379
 20
280.0062959315098
 30
0.0
 11
438.9786876709229
 21
295.0708056803716
 31
0.0
  0
LINE
  5
164F
330
18
100
AcDbEntity
  8
0
  6
ByBlock
 62
     2
100
AcDbLine
 10
448.6095432742484
 20
272.3945593978291
 30
0.0
 11
436.38272670184
 21
293.5720269160659
 31
0.0
  0
LINE
  5
1651
330
18
100
AcDbEntity
  8
0
  6
ByBlock
 62
     2
100
AcDbLine
 10
434.8426631923789
 20
291.2394951613354
 30
0.0
 11
432.6775996829178
 21
289.9894951613354
 31
0.0
  0
LINE
  5
1652
330
18
100
AcDbEntity
  8
0
  6
ByBlock
 62
     2
100
AcDbLine
 10
439.6036876709229
 20
293.9882739256411
 30
0.0
 11
437.00772670184
 21
292.4894951613353
 31
0.0
  0
INSERT
  5
1654
330
18
100
AcDbEntity
  8
0
  6
ByBlock
 62
     2
100
AcDbBlockReference
  2
_OPEN
 10
437.00772670184
 20
292.4894951613353
 30
0.0
 41
2.5
 42
2.5
 43
2.5
 50
29.99999999999951
  0
MTEXT
  5
1655
330
18
100
AcDbEntity
  8
0
  6
ByBlock
 62
     6
100
AcDbMText
 10
435.0594552777486
 20
294.862682175584
 30
0.0
 40
2.5
 41
0.0
 71
     5
 72
     1
  1
φ1.5
  7
STYLE3
 11
0.8660254037844429
 21
0.4999999999999926
 31
0.0
 73
     1
 44
1.0
  0
POINT
  5
1656
330
18
100
AcDbEntity
  8
DEFPOINTS
  6
ByBlock
 62
     0
100
AcDbPoint
 10
447.6761864296379
 20
280.0062959315098
 30
0.0
 50
60.00000000000049
  0
POINT
  5
1657
330
18
100
AcDbEntity
  8
DEFPOINTS
  6
ByBlock
 62
     0
100
AcDbPoint
 10
448.6095432742484
 20
272.3945593978291
 30
0.0
 50
60.00000000000049
  0
POINT
  5
1658
330
18
100
AcDbEntity
  8
DEFPOINTS
  6
ByBlock
 62
     0
100
AcDbPoint
 10
437.00772670184
 20
292.4894951613353
 30
0.0
 50
60.00000000000049
  0
LINE
  5
1664
330
18
100
AcDbEntity
  8
0
  6
ByBlock
 62
     2
100
AcDbLine
 10
463.2985813799252
 20
274.9445593978291
 30
0.0
 11
481.0547311336513
 21
274.9445593978291
 31
0.0
  0
LINE
  5
1665
330
18
100
AcDbEntity
  8
0
  6
ByBlock
 62
     2
100
AcDbLine
 10
474.2737188115114
 20
271.6445593978292
 30
0.0
 11
481.0547311336513
 21
271.6445593978292
 31
0.0
  0
LINE
  5
1666
330
18
100
AcDbEntity
  8
0
  6
ByBlock
 62
     2
100
AcDbLine
 10
479.8047311336513
 20
277.4445593978291
 30
0.0
 11
479.8047311336513
 21
279.9445593978291
 31
0.0
  0
LINE
  5
1667
330
18
100
AcDbEntity
  8
0
  6
ByBlock
 62
     2
100
AcDbLine
 10
479.8047311336513
 20
269.1445593978291
 30
0.0
 11
479.8047311336513
 21
260.7716273558334
 31
0.0
  0
LINE
  5
1668
330
18
100
AcDbEntity
  8
0
  6
ByBlock
 62
     2
100
AcDbLine
 10
479.8047311336513
 20
274.9445593978291
 30
0.0
 11
479.8047311336513
 21
271.6445593978292
 31
0.0
  0
INSERT
  5
1669
330
18
100
AcDbEntity
  8
0
  6
ByBlock
 62
     2
100
AcDbBlockReference
  2
_OPEN
 10
479.8047311336513
 20
274.9445593978291
 30
0.0
 41
2.5
 42
2.5
 43
2.5
 50
270.0
  0
INSERT
  5
166A
330
18
100
AcDbEntity
  8
0
  6
ByBlock
 62
     2
100
AcDbBlockReference
  2
_OPEN
 10
479.8047311336513
 20
271.6445593978292
 30
0.0
 41
2.5
 42
2.5
 43
2.5
 50
90.0
  0
MTEXT
  5
166B
330
18
100
AcDbEntity
  8
0
  6
ByBlock
 62
     6
100
AcDbMText
 10
477.9297311336513
 20
264.6317340790504
 30
0.0
 40
2.5
 41
0.0
 71
     5
 72
     1
  1
\A1;1.65
  7
STYLE3
 11
0.0000000000000001
 21
1.0
 31
0.0
 73
     1
 44
1.0
  0
POINT
  5
166C
330
18
100
AcDbEntity
  8
DEFPOINTS
  6
ByBlock
 62
     0
100
AcDbPoint
 10
463.2985813799252
 20
274.9445593978291
 30
0.0
  0
POINT
  5
166D
330
18
100
AcDbEntity
  8
DEFPOINTS
  6
ByBlock
 62
     0
100
AcDbPoint
 10
474.2737188115114
 20
271.6445593978292
 30
0.0
  0
POINT
  5
166E
330
18
100
AcDbEntity
  8
DEFPOINTS
  6
ByBlock
 62
     0
100
AcDbPoint
 10
479.8047311336513
 20
271.6445593978292
 30
0.0
  0
TEXT
  5
166F
330
18
100
AcDbEntity
  8
文字
100
AcDbText
 10
435.0724218912087
 20
250.0787787371664
 30
0.0
 40
4.0
  1
A.B.C 断面図 
  7
STYLE3
100
AcDbText
  0
TEXT
  5
1670
330
18
100
AcDbEntity
  8
文字
100
AcDbText
 10
469.2151687941382
 20
250.1910031130453
 30
0.0
 40
3.0
  1
S=2／1
  7
STYLE3
100
AcDbText
  0
LINE
  5
1671
330
18
100
AcDbEntity
  8
外形線
100
AcDbLine
 10
434.73548655398
 20
249.4054324818927
 30
0.0
 11
484.6018671257478
 21
249.4054324818927
 31
0.0
  0
LINE
  5
1686
330
18
100
AcDbEntity
  8
0
  6
ByBlock
 62
     2
100
AcDbLine
 10
305.3236696638059
 20
313.731967603095
 30
0.0
 11
305.3236696638059
 21
325.2389037186516
 31
0.0
  0
LINE
  5
1687
330
18
100
AcDbEntity
  8
0
  6
ByBlock
 62
     2
100
AcDbLine
 10
311.3236696638059
 20
313.731967603095
 30
0.0
 11
311.3236696638059
 21
325.2389037186516
 31
0.0
  0
LINE
  5
1688
330
18
100
AcDbEntity
  8
0
  6
ByBlock
 62
     2
100
AcDbLine
 10
302.8236696638059
 20
323.9889037186516
 30
0.0
 11
300.3236696638059
 21
323.9889037186516
 31
0.0
  0
LINE
  5
1689
330
18
100
AcDbEntity
  8
0
  6
ByBlock
 62
     2
100
AcDbLine
 10
313.8236696638059
 20
323.9889037186516
 30
0.0
 11
316.3236696638059
 21
323.9889037186516
 31
0.0
  0
LINE
  5
168A
330
18
100
AcDbEntity
  8
0
  6
ByBlock
 62
     2
100
AcDbLine
 10
305.3236696638059
 20
323.9889037186516
 30
0.0
 11
311.3236696638059
 21
323.9889037186516
 31
0.0
  0
INSERT
  5
168B
330
18
100
AcDbEntity
  8
0
  6
ByBlock
 62
     2
100
AcDbBlockReference
  2
_OPEN
 10
305.3236696638059
 20
323.9889037186516
 30
0.0
 41
2.5
 42
2.5
 43
2.5
  0
INSERT
  5
168C
330
18
100
AcDbEntity
  8
0
  6
ByBlock
 62
     2
100
AcDbBlockReference
  2
_OPEN
 10
311.3236696638059
 20
323.9889037186516
 30
0.0
 41
2.5
 42
2.5
 43
2.5
 50
180.0
  0
MTEXT
  5
168D
330
18
100
AcDbEntity
  8
0
  6
ByBlock
 62
     6
100
AcDbMText
 10
307.7988705212159
 20
326.8080133511389
 30
0.0
 40
2.5
 41
0.0
 71
     5
 72
     1
  1
\A1;φ6.0
  7
STYLE3
 73
     1
 44
1.0
  0
POINT
  5
168E
330
18
100
AcDbEntity
  8
DEFPOINTS
  6
ByBlock
 62
     0
100
AcDbPoint
 10
305.3236696638059
 20
313.731967603095
 30
0.0
  0
POINT
  5
168F
330
18
100
AcDbEntity
  8
DEFPOINTS
  6
ByBlock
 62
     0
100
AcDbPoint
 10
311.3236696638059
 20
313.731967603095
 30
0.0
  0
POINT
  5
1690
330
18
100
AcDbEntity
  8
DEFPOINTS
  6
ByBlock
 62
     0
100
AcDbPoint
 10
311.3236696638059
 20
323.9889037186516
 30
0.0
  0
TEXT
  5
1691
330
18
100
AcDbEntity
  8
文字
100
AcDbText
 10
313.9864635829335
 20
329.9202456717397
 30
0.0
 40
1.5
  1
0
  7
STYLE3
100
AcDbText
  0
TEXT
  5
1692
330
18
100
AcDbEntity
  8
文字
100
AcDbText
 10
312.1274578364274
 20
328.1643650214897
 30
0.0
 40
1.5
  1
-0.03
  7
STYLE3
100
AcDbText
  0
LINE
  5
16EE
330
18
100
AcDbEntity
  8
中心線
 48
0.5
100
AcDbLine
 10
308.3236696638059
 20
316.179467068134
 30
0.0
 11
308.3236696638061
 21
223.8722300385462
 31
0.0
  0
LINE
  5
16EF
330
18
100
AcDbEntity
  8
外形線
100
AcDbLine
 10
310.6736696638059
 20
239.3358151803884
 30
0.0
 11
312.3236696638059
 21
239.3358151803883
 31
0.0
  0
LINE
  5
16F2
330
18
100
AcDbEntity
  8
外形線
100
AcDbLine
 10
304.3236696638059
 20
264.4990901429876
 30
0.0
 11
304.3236696638059
 21
239.3358151803883
 31
0.0
  0
LINE
  5
16F3
330
18
100
AcDbEntity
  8
外形線
100
AcDbLine
 10
311.5236696638059
 20
264.3308740296607
 30
0.0
 11
311.5236696638059
 21
249.2358151803883
 31
0.0
  0
LINE
  5
16F9
330
18
100
AcDbEntity
  8
中心線
 48
0.5
100
AcDbLine
 10
300.1956239443781
 20
243.3358151803883
 30
0.0
 11
316.4121457755959
 21
243.3358151803883
 31
0.0
  0
LINE
  5
16FD
330
18
100
AcDbEntity
  8
外形線
100
AcDbLine
 10
310.6736696638059
 20
239.3358151803884
 30
0.0
 11
310.5852959709612
 21
246.8475790721887
 31
0.0
  0
ARC
  5
16FE
330
18
100
AcDbEntity
  8
外形線
100
AcDbCircle
 10
309.5853651679305
 20
246.8358151803883
 30
0.0
 40
1.0
100
AcDbArc
 50
0.674036897984668
 51
90.0
  0
LINE
  5
16FF
330
18
100
AcDbEntity
  8
外形線
100
AcDbLine
 10
305.9736696638059
 20
239.3358151803884
 30
0.0
 11
306.0620433566506
 21
246.8475790721887
 31
0.0
  0
LINE
  5
1700
330
18
100
AcDbEntity
  8
外形線
100
AcDbLine
 10
305.9736696638059
 20
239.3358151803884
 30
0.0
 11
304.3236696638059
 21
239.3358151803883
 31
0.0
  0
ARC
  5
1701
330
18
100
AcDbEntity
  8
外形線
100
AcDbCircle
 10
307.0619741596813
 20
246.8358151803883
 30
0.0
 40
1.0
100
AcDbArc
 50
90.0
 51
179.3259631020153
  0
LINE
  5
1702
330
18
100
AcDbEntity
  8
外形線
100
AcDbLine
 10
312.323669663806
 20
264.4990901429876
 30
0.0
 11
312.3236696638059
 21
239.3358151803883
 31
0.0
  0
LINE
  5
1703
330
18
100
AcDbEntity
  8
外形線
100
AcDbLine
 10
311.5236696638059
 20
249.2358151803883
 30
0.0
 11
312.3236696638059
 21
249.2358151803883
 31
0.0
  0
LINE
  5
1704
330
18
100
AcDbEntity
  8
外形線
100
AcDbLine
 10
305.3236696638059
 20
260.3358151803884
 30
0.0
 11
311.323669663806
 21
260.3358151803884
 31
0.0
  0
LINE
  5
1707
330
18
100
AcDbEntity
  8
中心線
 48
0.5
100
AcDbLine
 10
286.8970387841775
 20
281.5358151803883
 30
0.0
 11
329.2761245535196
 21
281.5358151803883
 31
0.0
  0
INSERT
  5
1826
330
18
100
AcDbEntity
  8
ASHADE
 62
     1
100
AcDbBlockReference
  2
AVE_RENDER
 10
0.0
 20
0.0
 30
0.0
1001
AVE_RENDER
1002
{
1070
     7
1000
Pref
1070
    30
1070
    20
1070
     1
1070
     0
1000

1070
    10
1070
     1
1070
    10
1040
1.0
1070
     1
1040
0.3
1040
0.7
1040
0.0
1040
10.0
1010
-1.0
1020
-1.0
1030
-1.0
1040
0.3
1070
    49
1070
     0
1070
     0
1010
1.0
1020
1.0
1030
1.0
1040
45.0
1070
     1
1070
     0
1000
WCS
1040
0.0
1070
     0
1040
10.0
1002
}
  0
INSERT
  5
1827
330
18
100
AcDbEntity
  8
ASHADE
 62
     3
100
AcDbBlockReference
  2
AVE_RENDER
 10
0.0
 20
0.0
 30
0.0
1001
AVE_RENDER
1002
{
1070
     0
1000
Full Opt
1070
     0
1070
     1
1070
     1
1070
     1
1070
     0
1070
     0
1070
     0
1070
     1
1070
     1
1040
0.0001
1040
0.0001
1002
}
  0
INSERT
  5
1828
330
18
100
AcDbEntity
  8
ASHADE
 62
     4
100
AcDbBlockReference
  2
AVE_RENDER
 10
0.0
 20
0.0
 30
0.0
1001
AVE_RENDER
1002
{
1070
     0
1000
Quick Opt
1070
     0
1070
     1
1070
     1
1070
     1
1070
     0
1070
     0
1070
     1
1002
}
  0
INSERT
  5
1829
330
18
100
AcDbEntity
  8
ASHADE
 62
     5
100
AcDbBlockReference
  2
AVE_RENDER
 10
0.0
 20
0.0
 30
0.0
1001
AVE_RENDER
1002
{
1070
     1
1000
Scanl Opt
1070
     2
1070
     0
1070
     2
1040
2.0
1040
4.0
1070
     0
1070
     1
1070
     0
1040
0.03
1002
}
  0
INSERT
  5
182A
330
18
100
AcDbEntity
  8
ASHADE
 62
     6
100
AcDbBlockReference
  2
AVE_RENDER
 10
0.0
 20
0.0
 30
0.0
1001
AVE_RENDER
1002
{
1070
     2
1000
Raytr Opt
1070
     2
1070
     0
1070
     2
1040
2.0
1040
4.0
1070
     0
1070
     1
1070
     1
1040
0.03
1070
     3
1040
0.03
1002
}
  0
INSERT
  5
182B
330
18
100
AcDbEntity
  8
ASHADE
 62
     7
100
AcDbBlockReference
  2
AVE_RENDER
 10
0.0
 20
0.0
 30
0.0
1001
AVE_RENDER
1002
{
1070
     0
1000
RFile Opt
1070
     1
1070
   640
1070
   480
1070
 10000
1070
     1
1070
     8
1070
     8
1070
     0
1070
     0
1070
     0
1070
     0
1070
     0
1070
     0
1070
     0
1002
}
  0
INSERT
  5
182C
330
18
100
AcDbEntity
  8
ASHADE
 62
     8
100
AcDbBlockReference
  2
AVE_RENDER
 10
0.0
 20
0.0
 30
0.0
1001
AVE_RENDER
1002
{
1070
     0
1000
Fog Opt
1070
     0
1070
     0
1040
0.0
1040
1.0
1040
0.0
1040
1.0
1010
0.5
1020
0.5
1030
0.5
1002
}
  0
INSERT
  5
182D
330
18
100
AcDbEntity
  8
ASHADE
 62
     9
100
AcDbBlockReference
  2
AVE_RENDER
 10
0.0
 20
0.0
 30
0.0
1001
AVE_RENDER
1002
{
1070
     0
1000
BG Opt
1070
     0
1070
     1
1010
0.0
1020
0.0
1030
0.0
1010
1.0
1020
0.0
1030
0.0
1010
0.0
1020
1.0
1030
0.0
1010
0.0
1020
0.0
1030
1.0
1040
0.5
1040
0.33
1040
0.0
1000

1070
     1
1000

1070
     1
1070
     1
1040
1.0
1040
1.0
1040
0.0
1040
0.0
1070
     0
1002
}
  0
INSERT
  5
1834
330
18
100
AcDbEntity
  8
ASHADE
 62
     1
100
AcDbBlockReference
  2
AVE_GLOBAL
 10
0.0
 20
0.0
 30
0.0
1001
AVE_MATERIAL
1002
{
1000
*GLOBAL*
1000
1
1000
Global finish.
1002
{
1002
}
1002
{
1070
    63
1002
{
1002
{
1010
-1.0
1020
-1.0
1030
-1.0
1002
}
1040
0.1000000014901161
1000

1040
0.0
1002
{
1002
}
1040
0.0
1002
{
1002
}
1040
0.0
1002
}
1002
{
1002
{
1010
-1.0
1020
-1.0
1030
-1.0
1002
}
1040
0.6999999880790711
1000

1040
0.0
1002
{
1002
}
1040
0.0
1002
{
1002
}
1040
0.0
1002
}
1002
{
1002
{
1010
-1.0
1020
-1.0
1030
-1.0
1002
}
1040
0.2000000029802322
1000

1040
0.0
1002
{
1002
}
1040
0.0
1002
{
1002
}
1040
0.0
1002
}
1002
{
1070
     0
1002
{
1070
     1
1002
{
1040
1.0
1040
1.0
1000

1040
0.0
1002
{
1002
}
1040
0.0
1002
{
1002
}
1040
0.0
1002
}
1002
}
1040
1.0
1040
0.0
1040
0.0
1002
}
1002
{
1040
1.0
1040
1.0
1000

1040
0.0
1002
{
1002
}
1040
0.0
1002
{
1002
}
1040
0.0
1002
}
1002
{
1040
0.5
1040
1.0
1000

1040
0.0
1002
{
1002
}
1040
0.0
1002
{
1002
}
1040
0.0
1002
}
1002
{
1070
     0
1040
0.0
1002
{
1002
}
1040
1.0
1002
{
1002
}
1040
0.0
1002
}
1002
{
1040
0.0
1002
{
1002
{
1010
0.0
1020
0.0
1030
0.0
1002
}
1040
1.0
1000

1040
0.0
1002
{
1002
}
1040
0.0
1002
{
1002
}
1040
0.0
1002
}
1002
}
1002
{
1002
{
1070
     1
1002
{
1040
0.0
1040
1.0
1000

1040
0.0
1002
{
1002
}
1040
0.0
1002
{
1002
}
1040
0.0
1002
}
1002
}
1040
0.0
1002
{
1002
}
1010
1.0
1020
0.0
1030
0.0
1010
0.0
1020
1.0
1030
0.0
1010
0.0
1020
0.0
1030
1.0
1070
     0
1002
}
1002
{
1002
{
1040
1.0
1040
1.0
1002
{
1070
     1
1002
{
1040
1.0
1040
1.0
1000

1040
0.0
1002
{
1002
}
1040
0.0
1002
{
1002
}
1040
0.0
1002
}
1002
}
1002
}
1070
     0
1040
0.0
1002
{
1002
}
1002
}
1002
{
1002
}
1002
}
1002
{
1071
        3
1070
     3
1070
     0
1002
{
1070
     2
1070
     0
1070
     0
1040
0.0
1002
}
1070
     0
1070
     2
1002
{
1002
}
1002
}
1002
{
1040
8030.0
1040
190.3000030517578
1040
0.3050000071525574
1040
228.0
1040
545.0
1040
14.0
1040
17.39999961853027
1040
0.4560000002384186
1002
}
1002
}
  0
ARC
  5
1837
330
18
100
AcDbEntity
  8
外形線
100
AcDbCircle
 10
389.943566305395
 20
243.3358151803882
 30
0.0
 40
4.0
100
AcDbArc
 50
199.9281732991189
 51
341.6307198030625
  0
LINE
  5
1838
330
18
100
AcDbEntity
  8
中心線
 48
0.5
100
AcDbLine
 10
381.9845891715719
 20
243.3358151803883
 30
0.0
 11
398.2011110027898
 21
243.3358151803883
 31
0.0
  0
LINE
  5
183A
330
18
100
AcDbEntity
  8
中心線
 48
0.5
100
AcDbLine
 10
389.943566305395
 20
316.5504307134605
 30
0.0
 11
389.943566305395
 21
222.91484385194
 31
0.0
  0
LINE
  5
183F
330
18
100
AcDbEntity
  8
外形線
100
AcDbLine
 10
381.943566305395
 20
296.6858151803884
 30
0.0
 11
397.793566305395
 21
296.6858151803884
 31
0.0
  0
LINE
  5
1852
330
18
100
AcDbEntity
  8
外形線
100
AcDbLine
 10
381.943566305395
 20
298.3358151803884
 30
0.0
 11
397.443566305395
 21
298.3358151803884
 31
0.0
  0
LINE
  5
1854
330
18
100
AcDbEntity
  8
外形線
100
AcDbLine
 10
397.793566305395
 20
296.3358151803884
 30
0.0
 11
399.443566305395
 21
296.3358151803884
 31
0.0
  0
LINE
  5
1855
330
18
100
AcDbEntity
  8
外形線
100
AcDbLine
 10
399.443566305395
 20
296.3358151803884
 30
0.0
 11
399.443566305395
 21
258.7858151803884
 31
0.0
  0
LINE
  5
1858
330
18
100
AcDbEntity
  8
外形線
100
AcDbLine
 10
397.793566305395
 20
257.1358151803884
 30
0.0
 11
399.443566305395
 21
258.7858151803884
 31
0.0
  0
LINE
  5
187E
330
18
100
AcDbEntity
  8
外形線
100
AcDbLine
 10
381.943566305395
 20
298.3358151803884
 30
0.0
 11
381.943566305395
 21
260.3358151803885
 31
0.0
  0
LINE
  5
187F
330
18
100
AcDbEntity
  8
外形線
100
AcDbLine
 10
397.793566305395
 20
296.6858151803884
 30
0.0
 11
397.793566305395
 21
252.6358151803884
 31
0.0
  0
LINE
  5
1882
330
18
100
AcDbEntity
  8
外形線
100
AcDbLine
 10
397.443566305395
 20
296.6858151803884
 30
0.0
 11
397.443566305395
 21
298.3358151803884
 31
0.0
  0
LINE
  5
1886
330
18
100
AcDbEntity
  8
外形線
100
AcDbLine
 10
397.793566305395
 20
252.6358151803884
 30
0.0
 11
393.7397467621032
 21
242.0752542179167
 31
0.0
  0
LINE
  5
1889
330
18
100
AcDbEntity
  8
外形線
100
AcDbLine
 10
381.943566305395
 20
260.3358151803885
 30
0.0
 11
386.1830837334371
 21
241.9724477222169
 31
0.0
  0
LINE
  5
188A
330
18
100
AcDbEntity
  8
外形線
100
AcDbLine
 10
380.3358556984994
 20
259.9646459407211
 30
0.0
 11
383.1360169166055
 21
247.8358151803884
 31
0.0
  0
LINE
  5
188B
330
18
100
AcDbEntity
  8
外形線
100
AcDbLine
 10
381.943566305395
 20
260.3358151803885
 30
0.0
 11
380.3358556984994
 21
259.9646459407211
 31
0.0
  0
LINE
  5
188C
330
18
100
AcDbEntity
  8
外形線
100
AcDbLine
 10
383.1360169166055
 20
247.8358151803884
 30
0.0
 11
384.8294186944646
 21
247.8358151803884
 31
0.0
  0
LINE
  5
188D
330
18
100
AcDbEntity
  8
外形線
100
AcDbLine
 10
311.3236696638059
 20
247.8358151803884
 30
0.0
 11
305.3236696638058
 21
247.8358151803884
 31
0.0
  0
LINE
  5
188E
330
18
100
AcDbEntity
  8
外形線
100
AcDbLine
 10
311.323669663806
 20
259.9646459407211
 30
0.0
 11
305.3236696638058
 21
259.9646459407211
 31
0.0
  0
LINE
  5
188F
330
18
100
AcDbEntity
  8
外形線
100
AcDbLine
 10
311.323669663806
 20
260.3358151803884
 30
0.0
 11
311.3236696638059
 21
247.8358151803884
 31
0.0
  0
LINE
  5
1890
330
18
100
AcDbEntity
  8
外形線
100
AcDbLine
 10
305.3236696638059
 20
260.3358151803884
 30
0.0
 11
305.3236696638058
 21
247.8358151803884
 31
0.0
  0
LINE
  5
1891
330
18
100
AcDbEntity
  8
中心線
 48
0.5
100
AcDbLine
 10
307.8450775142385
 20
249.3358151803883
 30
0.0
 11
311.7834567782633
 21
249.3358151803883
 31
0.0
  0
LINE
  5
1892
330
18
100
AcDbEntity
  8
中心線
 48
0.5
100
AcDbLine
 10
309.5236696638059
 20
251.5239209944957
 30
0.0
 11
309.523669663806
 21
246.7863486891447
 31
0.0
  0
CIRCLE
  5
1897
330
18
100
AcDbEntity
  8
外形線
100
AcDbCircle
 10
309.5236696638059
 20
249.3358151803883
 30
0.0
 40
1.0
  0
CIRCLE
  5
1898
330
18
100
AcDbEntity
  8
外形線
100
AcDbCircle
 10
309.5236696638059
 20
249.3358151803883
 30
0.0
 40
0.675
  0
LINE
  5
18A8
330
18
100
AcDbEntity
  8
中心線
 48
0.5
100
AcDbLine
 10
384.393566305395
 20
296.0650383363381
 30
0.0
 11
384.3935663053949
 21
290.7849193232924
 31
0.0
  0
LINE
  5
18B7
330
18
100
AcDbEntity
  8
外形線
100
AcDbLine
 10
384.4946598173325
 20
249.2858151803884
 30
0.0
 11
396.5076217880264
 21
249.2858151803885
 31
0.0
  0
LINE
  5
18B9
330
18
100
AcDbEntity
  8
中心線
 48
0.5
100
AcDbLine
 10
381.409084999278
 20
293.3858151803884
 30
0.0
 11
387.2478564336928
 21
293.3858151803885
 31
0.0
  0
LINE
  5
18BD
330
18
100
AcDbEntity
  8
中心線
 48
0.5
100
AcDbLine
 10
382.909084999278
 20
251.5858151803884
 30
0.0
 11
388.7478564336928
 21
251.5858151803885
 31
0.0
  0
LINE
  5
18BE
330
18
100
AcDbEntity
  8
外形線
100
AcDbLine
 10
386.4337575739444
 20
250.9420402954066
 30
0.0
 11
385.3533750368455
 21
252.2295900653703
 31
0.0
  0
LINE
  5
18BF
330
18
100
AcDbEntity
  8
外形線
100
AcDbLine
 10
385.2497914204131
 20
251.045623911839
 30
0.0
 11
386.5373411903768
 21
252.1260064489379
 31
0.0
  0
CIRCLE
  5
18C0
330
18
100
AcDbEntity
  8
外形線
100
AcDbCircle
 10
385.893566305395
 20
251.5858151803884
 30
0.0
 40
1.5
  0
LINE
  5
18C1
330
18
100
AcDbEntity
  8
中心線
 48
0.5
100
AcDbLine
 10
385.893566305395
 20
254.2650383363381
 30
0.0
 11
385.8935663053949
 21
248.9849193232924
 31
0.0
  0
LINE
  5
18C2
330
18
100
AcDbEntity
  8
中心線
 48
0.5
100
AcDbLine
 10
392.309084999278
 20
251.5858151803885
 30
0.0
 11
398.1478564336928
 21
251.5858151803885
 31
0.0
  0
LINE
  5
18C3
330
18
100
AcDbEntity
  8
外形線
100
AcDbLine
 10
395.8337575739443
 20
250.9420402954067
 30
0.0
 11
394.7533750368454
 21
252.2295900653704
 31
0.0
  0
LINE
  5
18C4
330
18
100
AcDbEntity
  8
外形線
100
AcDbLine
 10
394.649791420413
 20
251.0456239118391
 30
0.0
 11
395.9373411903767
 21
252.126006448938
 31
0.0
  0
CIRCLE
  5
18C5
330
18
100
AcDbEntity
  8
外形線
100
AcDbCircle
 10
395.2935663053949
 20
251.5858151803885
 30
0.0
 40
1.5
  0
LINE
  5
18C6
330
18
100
AcDbEntity
  8
中心線
 48
0.5
100
AcDbLine
 10
395.2935663053949
 20
254.2650383363382
 30
0.0
 11
395.2935663053949
 21
248.9849193232925
 31
0.0
  0
LINE
  5
18C7
330
18
100
AcDbEntity
  8
中心線
 48
0.5
100
AcDbLine
 10
395.2935663053949
 20
296.065038336338
 30
0.0
 11
395.2935663053949
 21
290.7849193232923
 31
0.0
  0
LINE
  5
18C9
330
18
100
AcDbEntity
  8
中心線
 48
0.5
100
AcDbLine
 10
392.3090849992779
 20
293.3858151803885
 30
0.0
 11
398.1478564336928
 21
293.3858151803885
 31
0.0
  0
LINE
  5
18CA
330
18
100
AcDbEntity
  8
外形線
100
AcDbLine
 10
395.8337575739443
 20
292.7420402954067
 30
0.0
 11
394.7533750368454
 21
294.0295900653704
 31
0.0
  0
LINE
  5
18CB
330
18
100
AcDbEntity
  8
外形線
100
AcDbLine
 10
394.649791420413
 20
292.8456239118391
 30
0.0
 11
395.9373411903767
 21
293.926006448938
 31
0.0
  0
CIRCLE
  5
18CC
330
18
100
AcDbEntity
  8
外形線
100
AcDbCircle
 10
395.2935663053949
 20
293.3858151803885
 30
0.0
 40
1.5
  0
LINE
  5
18CF
330
18
100
AcDbEntity
  8
中心線
 48
0.5
100
AcDbLine
 10
370.0812937569627
 20
281.5358151803883
 30
0.0
 11
403.7449932337341
 21
281.5358151803883
 31
0.0
  0
LINE
  5
192E
330
18
100
AcDbEntity
  8
外形線
100
AcDbLine
 10
307.2236696638059
 20
236.7358151803883
 30
0.0
 11
307.7236696638061
 21
227.5358151803884
 31
0.0
  0
LINE
  5
192F
330
18
100
AcDbEntity
  8
外形線
100
AcDbLine
 10
309.4236696638059
 20
236.7358151803884
 30
0.0
 11
308.9236696638061
 21
227.5358151803884
 31
0.0
  0
LINE
  5
1930
330
18
100
AcDbEntity
  8
中心線
 48
0.5
100
AcDbLine
 10
305.9402674188214
 20
226.7358151803883
 30
0.0
 11
311.2844176290535
 21
226.7358151803883
 31
0.0
  0
LINE
  5
1931
330
18
100
AcDbEntity
  8
隠れ線
 62
     4
 48
0.3
100
AcDbLine
 10
308.3236696638061
 20
227.7354370101661
 30
0.0
 11
307.7236696638061
 21
227.5358151803884
 31
0.0
  0
LINE
  5
1932
330
18
100
AcDbEntity
  8
外形線
100
AcDbLine
 10
307.7236696638061
 20
227.5358151803884
 30
0.0
 11
308.9236696638061
 21
227.5358151803884
 31
0.0
  0
ARC
  5
1933
330
18
100
AcDbEntity
  8
外形線
100
AcDbCircle
 10
308.3236696638061
 20
226.7358151803883
 30
0.0
 40
1.0
100
AcDbArc
 50
126.869897645842
 51
53.13010235415791
  0
LINE
  5
1934
330
18
100
AcDbEntity
  8
隠れ線
 62
     4
 48
0.3
100
AcDbLine
 10
308.3236696638061
 20
227.7354370101661
 30
0.0
 11
308.9236696638061
 21
227.5358151803884
 31
0.0
  0
LINE
  5
1936
330
18
100
AcDbEntity
  8
外形線
 62
     4
100
AcDbLine
 10
308.9906569619135
 20
238.1358151803884
 30
0.0
 11
307.6566823656983
 21
238.1358151803884
 31
0.0
  0
LINE
  5
1942
330
18
100
AcDbEntity
  8
外形線
100
AcDbLine
 10
309.4236696638059
 20
238.3858151803884
 30
0.0
 11
308.9906569619135
 21
238.1358151803884
 31
0.0
  0
LINE
  5
1945
330
18
100
AcDbEntity
  8
外形線
100
AcDbLine
 10
308.3236696638059
 20
239.5758151803883
 30
0.0
 11
310.1236696638058
 21
239.5758151803884
 31
0.0
  0
LINE
  5
1946
330
18
100
AcDbEntity
  8
外形線
100
AcDbLine
 10
308.3236696638059
 20
239.5758151803883
 30
0.0
 11
306.8236696638059
 21
239.5758151803883
 31
0.0
  0
LINE
  5
1948
330
18
100
AcDbEntity
  8
外形線
100
AcDbLine
 10
309.323669663806
 20
247.8358151803884
 30
0.0
 11
309.3236696638058
 21
239.6758151803884
 31
0.0
  0
LINE
  5
1949
330
18
100
AcDbEntity
  8
外形線
100
AcDbLine
 10
306.7236696638059
 20
247.0758151803884
 30
0.0
 11
306.7236696638058
 21
239.6758151803884
 31
0.0
  0
LINE
  5
194A
330
18
100
AcDbEntity
  8
外形線
100
AcDbLine
 10
306.8236696638059
 20
247.1758151803884
 30
0.0
 11
309.2236696638059
 21
247.1758151803884
 31
0.0
  0
LINE
  5
194B
330
18
100
AcDbEntity
  8
外形線
100
AcDbLine
 10
306.7236696638059
 20
247.0758151803884
 30
0.0
 11
306.8236696638059
 21
247.1758151803884
 31
0.0
  0
LINE
  5
194C
330
18
100
AcDbEntity
  8
外形線
100
AcDbLine
 10
309.2236696638059
 20
247.1758151803884
 30
0.0
 11
309.3236696638059
 21
247.0758151803884
 31
0.0
  0
LINE
  5
194D
330
18
100
AcDbEntity
  8
外形線
100
AcDbLine
 10
306.7236696638058
 20
239.6758151803884
 30
0.0
 11
306.8236696638058
 21
239.5758151803883
 31
0.0
  0
LINE
  5
194E
330
18
100
AcDbEntity
  8
外形線
100
AcDbLine
 10
309.3236696638058
 20
239.6758151803884
 30
0.0
 11
309.2236696638058
 21
239.5758151803883
 31
0.0
  0
LINE
  5
194F
330
18
100
AcDbEntity
  8
外形線
100
AcDbLine
 10
310.1236696638059
 20
247.678565599979
 30
0.0
 11
310.1236696638058
 21
239.5758151803883
 31
0.0
  0
LINE
  5
1952
330
18
100
AcDbEntity
  8
外形線
100
AcDbLine
 10
306.3207492478627
 20
245.3358151803883
 30
0.0
 11
306.3207492478627
 21
241.3358151803883
 31
0.0
  0
LINE
  5
1953
330
18
100
AcDbEntity
  8
外形線
100
AcDbLine
 10
306.3207492478627
 20
245.3358151803883
 30
0.0
 11
306.0442578991
 21
245.3358151803883
 31
0.0
  0
LINE
  5
1954
330
18
100
AcDbEntity
  8
外形線
100
AcDbLine
 10
306.3207492478627
 20
241.3358151803883
 30
0.0
 11
305.9971990755706
 21
241.3358151803883
 31
0.0
  0
LINE
  5
1955
330
18
100
AcDbEntity
  8
外形線
100
AcDbLine
 10
306.3207492478627
 20
243.9858151803883
 30
0.0
 11
306.7236696638059
 21
243.9858151803883
 31
0.0
  0
LINE
  5
1956
330
18
100
AcDbEntity
  8
外形線
100
AcDbLine
 10
306.3207492478627
 20
242.6858151803884
 30
0.0
 11
306.7236696638059
 21
242.6858151803884
 31
0.0
  0
LINE
  5
1957
330
18
100
AcDbEntity
  8
外形線
100
AcDbLine
 10
310.1236696638059
 20
243.9858151803883
 30
0.0
 11
310.618963781453
 21
243.9858151803883
 31
0.0
  0
LINE
  5
1958
330
18
100
AcDbEntity
  8
外形線
100
AcDbLine
 10
310.1236696638059
 20
242.6858151803884
 30
0.0
 11
310.6342578991
 21
242.6858151803884
 31
0.0
  0
LINE
  5
1985
330
18
100
AcDbEntity
  8
0
  6
ByBlock
 62
     2
100
AcDbLine
 10
399.443566305395
 20
296.3358151803884
 30
0.0
 11
399.443566305395
 21
325.2389037186516
 31
0.0
  0
LINE
  5
1986
330
18
100
AcDbEntity
  8
0
  6
ByBlock
 62
     2
100
AcDbLine
 10
395.293566305395
 20
323.9889037186516
 30
0.0
 11
392.793566305395
 21
323.9889037186516
 31
0.0
  0
LINE
  5
1987
330
18
100
AcDbEntity
  8
0
  6
ByBlock
 62
     2
100
AcDbLine
 10
401.943566305395
 20
323.9889037186516
 30
0.0
 11
410.7801922367682
 21
323.9889037186516
 31
0.0
  0
MTEXT
  5
1988
330
18
100
AcDbEntity
  8
0
  6
ByBlock
 62
     6
100
AcDbMText
 10
406.3467271827355
 20
326.2227394129105
 30
0.0
 40
2.5
 41
0.0
 71
     5
 72
     1
  1
\A1;1.65
  7
STYLE3
 73
     1
 44
1.0
  0
LINE
  5
1989
330
18
100
AcDbEntity
  8
0
  6
ByBlock
 62
     2
100
AcDbLine
 10
397.793566305395
 20
323.9889037186516
 30
0.0
 11
399.443566305395
 21
323.9889037186516
 31
0.0
  0
LINE
  5
198A
330
18
100
AcDbEntity
  8
0
  6
ByBlock
 62
     2
100
AcDbLine
 10
397.793566305395
 20
323.9889037186516
 30
0.0
 11
399.443566305395
 21
323.9889037186516
 31
0.0
  0
INSERT
  5
198B
330
18
100
AcDbEntity
  8
0
  6
ByBlock
 62
     2
100
AcDbBlockReference
  2
_OPEN
 10
397.793566305395
 20
323.9889037186516
 30
0.0
 41
2.5
 42
2.5
 43
2.5
  0
INSERT
  5
198C
330
18
100
AcDbEntity
  8
0
  6
ByBlock
 62
     2
100
AcDbBlockReference
  2
_OPEN
 10
399.443566305395
 20
323.9889037186516
 30
0.0
 41
2.5
 42
2.5
 43
2.5
 50
180.0
  0
POINT
  5
198D
330
18
100
AcDbEntity
  8
DEFPOINTS
  6
ByBlock
 62
     0
100
AcDbPoint
 10
397.793566305395
 20
296.6858151803884
 30
0.0
  0
POINT
  5
198E
330
18
100
AcDbEntity
  8
DEFPOINTS
  6
ByBlock
 62
     0
100
AcDbPoint
 10
399.443566305395
 20
296.3358151803884
 30
0.0
  0
POINT
  5
198F
330
18
100
AcDbEntity
  8
DEFPOINTS
  6
ByBlock
 62
     0
100
AcDbPoint
 10
399.443566305395
 20
323.9889037186516
 30
0.0
  0
TEXT
  5
1AA1
330
18
100
AcDbEntity
  8
文字
100
AcDbText
 10
301.855337839442
 20
285.8466979275813
 30
0.0
 40
1.5
  1
NEW PIC-TEST
 41
0.8
  7
STYLE3
100
AcDbText
  0
LINE
  5
1B1E
330
18
100
AcDbEntity
  8
外形線
100
AcDbLine
 10
309.4236696638059
 20
239.5758151803884
 30
0.0
 11
309.4236696638059
 21
238.3858151803884
 31
0.0
  0
LINE
  5
1B1F
330
18
100
AcDbEntity
  8
外形線
100
AcDbLine
 10
307.2236696638059
 20
239.5758151803883
 30
0.0
 11
307.2236696638059
 21
238.3858151803884
 31
0.0
  0
LINE
  5
1B23
330
18
100
AcDbEntity
  8
外形線
100
AcDbLine
 10
309.4236696638059
 20
238.3858151803884
 30
0.0
 11
307.2236696638059
 21
238.3858151803884
 31
0.0
  0
LINE
  5
1B24
330
18
100
AcDbEntity
  8
外形線
100
AcDbLine
 10
309.4236696638059
 20
237.8858151803884
 30
0.0
 11
307.2236696638059
 21
237.8858151803884
 31
0.0
  0
LINE
  5
1B25
330
18
100
AcDbEntity
  8
外形線
100
AcDbLine
 10
309.4236696638059
 20
237.8858151803886
 30
0.0
 11
308.9906569619137
 21
238.1358151803885
 31
0.0
  0
LINE
  5
1B26
330
18
100
AcDbEntity
  8
外形線
100
AcDbLine
 10
307.2236696638059
 20
238.3858151803884
 30
0.0
 11
307.6566823656983
 21
238.1358151803884
 31
0.0
  0
LINE
  5
1B27
330
18
100
AcDbEntity
  8
外形線
100
AcDbLine
 10
307.2236696638059
 20
237.8858151803886
 30
0.0
 11
307.6566823656981
 21
238.1358151803885
 31
0.0
  0
LINE
  5
1B28
330
18
100
AcDbEntity
  8
外形線
100
AcDbLine
 10
307.2236696638059
 20
237.8858151803886
 30
0.0
 11
307.2236696638059
 21
236.7358151803883
 31
0.0
  0
LINE
  5
1B29
330
18
100
AcDbEntity
  8
外形線
100
AcDbLine
 10
309.4236696638059
 20
237.8858151803886
 30
0.0
 11
309.4236696638059
 21
236.7358151803884
 31
0.0
  0
LINE
  5
1B43
330
18
100
AcDbEntity
  8
外形線
100
AcDbLine
 10
391.043566305395
 20
235.2758151803882
 30
0.0
 11
390.543566305395
 21
226.3358151803883
 31
0.0
  0
LINE
  5
1B44
330
18
100
AcDbEntity
  8
外形線
100
AcDbLine
 10
388.843566305395
 20
235.2758151803882
 30
0.0
 11
389.343566305395
 21
226.3358151803883
 31
0.0
  0
ARC
  5
1B45
330
18
100
AcDbEntity
  8
外形線
100
AcDbCircle
 10
389.943566305395
 20
225.5358151803882
 30
0.0
 40
1.0
100
AcDbArc
 50
126.869897645842
 51
53.13010235415791
  0
LINE
  5
1B47
330
18
100
AcDbEntity
  8
中心線
 48
0.5
100
AcDbLine
 10
387.5601640604103
 20
225.5358151803882
 30
0.0
 11
392.9043142706423
 21
225.5358151803882
 31
0.0
  0
LINE
  5
1B48
330
18
100
AcDbEntity
  8
隠れ線
 62
     4
 48
0.3
100
AcDbLine
 10
389.943566305395
 20
226.535437010166
 30
0.0
 11
389.343566305395
 21
226.3358151803883
 31
0.0
  0
LINE
  5
1B49
330
18
100
AcDbEntity
  8
外形線
100
AcDbLine
 10
389.343566305395
 20
226.3358151803883
 30
0.0
 11
390.543566305395
 21
226.3358151803883
 31
0.0
  0
LINE
  5
1B4A
330
18
100
AcDbEntity
  8
隠れ線
 62
     4
 48
0.3
100
AcDbLine
 10
389.943566305395
 20
226.535437010166
 30
0.0
 11
390.543566305395
 21
226.3358151803883
 31
0.0
  0
LINE
  5
1B4B
330
18
100
AcDbEntity
  8
外形線
100
AcDbLine
 10
391.043566305395
 20
239.4758151803883
 30
0.0
 11
391.043566305395
 21
238.2258151803883
 31
0.0
  0
LINE
  5
1B4C
330
18
100
AcDbEntity
  8
外形線
100
AcDbLine
 10
388.843566305395
 20
239.4758151803882
 30
0.0
 11
388.843566305395
 21
238.2258151803883
 31
0.0
  0
LINE
  5
1B4D
330
18
100
AcDbEntity
  8
外形線
100
AcDbLine
 10
388.843566305395
 20
235.2758151803882
 30
0.0
 11
391.043566305395
 21
235.2758151803882
 31
0.0
  0
LINE
  5
1B4E
330
18
100
AcDbEntity
  8
外形線
 62
     4
100
AcDbLine
 10
390.6105536035026
 20
237.9758151803883
 30
0.0
 11
389.2765790072873
 21
237.9758151803883
 31
0.0
  0
LINE
  5
1B4F
330
18
100
AcDbEntity
  8
外形線
100
AcDbLine
 10
391.043566305395
 20
237.7258151803883
 30
0.0
 11
388.843566305395
 21
237.7258151803883
 31
0.0
  0
LINE
  5
1B50
330
18
100
AcDbEntity
  8
外形線
100
AcDbLine
 10
391.043566305395
 20
238.2258151803883
 30
0.0
 11
388.843566305395
 21
238.2258151803883
 31
0.0
  0
LINE
  5
1B51
330
18
100
AcDbEntity
  8
外形線
100
AcDbLine
 10
388.843566305395
 20
237.7258151803885
 30
0.0
 11
388.843566305395
 21
235.2758151803882
 31
0.0
  0
LINE
  5
1B52
330
18
100
AcDbEntity
  8
外形線
100
AcDbLine
 10
388.843566305395
 20
238.2258151803883
 30
0.0
 11
389.2765790072873
 21
237.9758151803883
 31
0.0
  0
LINE
  5
1B53
330
18
100
AcDbEntity
  8
外形線
100
AcDbLine
 10
388.843566305395
 20
237.7258151803885
 30
0.0
 11
389.2765790072872
 21
237.9758151803883
 31
0.0
  0
LINE
  5
1B54
330
18
100
AcDbEntity
  8
外形線
100
AcDbLine
 10
391.043566305395
 20
237.7258151803885
 30
0.0
 11
391.043566305395
 21
235.2758151803882
 31
0.0
  0
LINE
  5
1B55
330
18
100
AcDbEntity
  8
外形線
100
AcDbLine
 10
391.043566305395
 20
238.2258151803883
 30
0.0
 11
390.6105536035026
 21
237.9758151803883
 31
0.0
  0
LINE
  5
1B56
330
18
100
AcDbEntity
  8
外形線
100
AcDbLine
 10
391.043566305395
 20
237.7258151803885
 30
0.0
 11
390.6105536035028
 21
237.9758151803883
 31
0.0
  0
LINE
  5
1B57
330
18
100
AcDbEntity
  8
外形線
100
AcDbLine
 10
388.843566305395
 20
239.4758151803882
 30
0.0
 11
388.8945667820395
 21
239.4758151803882
 31
0.0
  0
LINE
  5
1B59
330
18
100
AcDbEntity
  8
外形線
100
AcDbLine
 10
388.843566305395
 20
239.4758151803882
 30
0.0
 11
388.8546394129983
 21
239.4868882879915
 31
0.0
  0
LINE
  5
1B5B
330
18
100
AcDbEntity
  8
外形線
100
AcDbLine
 10
390.9925658287505
 20
239.4758151803883
 30
0.0
 11
391.043566305395
 21
239.4758151803883
 31
0.0
  0
LINE
  5
1B5C
330
18
100
AcDbEntity
  8
外形線
100
AcDbLine
 10
391.0324931977919
 20
239.4868882879915
 30
0.0
 11
391.043566305395
 21
239.4758151803883
 31
0.0
  0
TEXT
  5
1EE9
330
18
100
AcDbEntity
  8
文字
100
AcDbText
 10
300.3215752750362
 20
289.3308448054073
 30
0.0
 40
1.8
  1
20
  7
STYLE3
100
AcDbText
  0
TEXT
  5
1EEC
330
18
100
AcDbEntity
  8
文字
100
AcDbText
 10
296.6926897098472
 20
277.0443615998622
 30
0.0
 40
1.8
  1
60
  7
STYLE3
100
AcDbText
  0
LINE
  5
1F17
330
18
100
AcDbEntity
  8
0
  6
ByBlock
 62
     2
100
AcDbLine
 10
389.943566305395
 20
314.3358151803884
 30
0.0
 11
411.7498597068929
 21
314.3358151803884
 31
0.0
  0
LINE
  5
1F18
330
18
100
AcDbEntity
  8
0
  6
ByBlock
 62
     2
100
AcDbLine
 10
397.443566305395
 20
298.3358151803884
 30
0.0
 11
411.7498597068929
 21
298.3358151803884
 31
0.0
  0
LINE
  5
1F19
330
18
100
AcDbEntity
  8
0
  6
ByBlock
 62
     2
100
AcDbLine
 10
410.4998597068929
 20
311.8358151803884
 30
0.0
 11
410.4998597068929
 21
300.8358151803885
 31
0.0
  0
INSERT
  5
1F1A
330
18
100
AcDbEntity
  8
0
  6
ByBlock
 62
     2
100
AcDbBlockReference
  2
_OPEN
 10
410.4998597068929
 20
314.3358151803884
 30
0.0
 41
2.5
 42
2.5
 43
2.5
 50
90.0
  0
INSERT
  5
1F1B
330
18
100
AcDbEntity
  8
0
  6
ByBlock
 62
     2
100
AcDbBlockReference
  2
_OPEN
 10
410.4998597068929
 20
298.3358151803884
 30
0.0
 41
2.5
 42
2.5
 43
2.5
 50
270.0
  0
MTEXT
  5
1F1C
330
18
100
AcDbEntity
  8
0
  6
ByBlock
 62
     6
100
AcDbMText
 10
408.6248597068929
 20
306.3358151803885
 30
0.0
 40
2.5
 41
0.0
 71
     5
 72
     1
  1
\A1;16
  7
STYLE3
 11
0.0000000000000001
 21
1.0
 31
0.0
 73
     1
 44
1.0
  0
POINT
  5
1F1D
330
18
100
AcDbEntity
  8
DEFPOINTS
  6
ByBlock
 62
     0
100
AcDbPoint
 10
389.943566305395
 20
314.3358151803884
 30
0.0
  0
POINT
  5
1F1E
330
18
100
AcDbEntity
  8
DEFPOINTS
  6
ByBlock
 62
     0
100
AcDbPoint
 10
397.443566305395
 20
298.3358151803884
 30
0.0
  0
POINT
  5
1F1F
330
18
100
AcDbEntity
  8
DEFPOINTS
  6
ByBlock
 62
     0
100
AcDbPoint
 10
410.4998597068929
 20
298.3358151803884
 30
0.0
  0
LINE
  5
1F20
330
18
100
AcDbEntity
  8
0
  6
ByBlock
 62
     2
100
AcDbLine
 10
373.443566305395
 20
281.5358151803883
 30
0.0
 11
373.443566305395
 21
330.6385825315402
 31
0.0
  0
LINE
  5
1F21
330
18
100
AcDbEntity
  8
0
  6
ByBlock
 62
     2
100
AcDbLine
 10
399.443566305395
 20
325.2389037186516
 30
0.0
 11
399.443566305395
 21
330.6385825315402
 31
0.0
  0
LINE
  5
1F22
330
18
100
AcDbEntity
  8
0
  6
ByBlock
 62
     2
100
AcDbLine
 10
375.943566305395
 20
329.3885825315402
 30
0.0
 11
396.943566305395
 21
329.3885825315402
 31
0.0
  0
INSERT
  5
1F23
330
18
100
AcDbEntity
  8
0
  6
ByBlock
 62
     2
100
AcDbBlockReference
  2
_OPEN
 10
373.443566305395
 20
329.3885825315402
 30
0.0
 41
2.5
 42
2.5
 43
2.5
 50
180.0
  0
INSERT
  5
1F24
330
18
100
AcDbEntity
  8
0
  6
ByBlock
 62
     2
100
AcDbBlockReference
  2
_OPEN
 10
399.443566305395
 20
329.3885825315402
 30
0.0
 41
2.5
 42
2.5
 43
2.5
  0
MTEXT
  5
1F25
330
18
100
AcDbEntity
  8
0
  6
ByBlock
 62
     6
100
AcDbMText
 10
386.443566305395
 20
331.2635825315402
 30
0.0
 40
2.5
 41
0.0
 71
     5
 72
     1
  1
\A1;26
  7
STYLE3
 73
     1
 44
1.0
  0
POINT
  5
1F26
330
18
100
AcDbEntity
  8
DEFPOINTS
  6
ByBlock
 62
     0
100
AcDbPoint
 10
373.443566305395
 20
281.5358151803883
 30
0.0
  0
POINT
  5
1F27
330
18
100
AcDbEntity
  8
DEFPOINTS
  6
ByBlock
 62
     0
100
AcDbPoint
 10
399.443566305395
 20
325.2389037186516
 30
0.0
  0
POINT
  5
1F28
330
18
100
AcDbEntity
  8
DEFPOINTS
  6
ByBlock
 62
     0
100
AcDbPoint
 10
399.443566305395
 20
329.3885825315402
 30
0.0
  0
LINE
  5
1F29
330
18
100
AcDbEntity
  8
寸法線
 62
     2
100
AcDbLine
 10
398.5310879395302
 20
269.3568759306426
 30
0.0
 11
405.7122741201017
 21
278.6581458655007
 31
0.0
1001
ACAD
1000
DSTYLE
1002
{
1070
   271
1070
     2
1002
}
  0
LINE
  5
1F2A
330
18
100
AcDbEntity
  8
寸法線
 62
     2
100
AcDbLine
 10
405.7122741201017
 20
278.6581458655007
 30
0.0
 11
410.7420360248637
 21
278.6581458655007
 31
0.0
1001
ACAD
1000
DSTYLE
1002
{
1070
   271
1070
     2
1002
}
  0
POINT
  5
1F31
330
18
100
AcDbEntity
  8
DEFPOINTS
  6
ByBlock
 62
     0
100
AcDbPoint
 10
335.4149429428929
 20
314.5358151803884
 30
0.0
  0
POINT
  5
1F32
330
18
100
AcDbEntity
  8
DEFPOINTS
  6
ByBlock
 62
     0
100
AcDbPoint
 10
308.3236696638061
 20
225.7358151803884
 30
0.0
  0
LINE
  5
1F34
330
18
100
AcDbEntity
  8
0
  6
ByBlock
 62
     2
100
AcDbLine
 10
376.5073082739878
 20
299.0358151803883
 30
0.0
 11
363.9974709570405
 21
299.0358151803883
 31
0.0
  0
LINE
  5
1F35
330
18
100
AcDbEntity
  8
0
  6
ByBlock
 62
     2
100
AcDbLine
 10
376.5073082739878
 20
264.0358151803884
 30
0.0
 11
363.9974709570405
 21
264.0358151803884
 31
0.0
  0
LINE
  5
1F36
330
18
100
AcDbEntity
  8
0
  6
ByBlock
 62
     2
100
AcDbLine
 10
365.2474709570405
 20
296.5358151803883
 30
0.0
 11
365.2474709570405
 21
266.5358151803884
 31
0.0
  0
INSERT
  5
1F37
330
18
100
AcDbEntity
  8
0
  6
ByBlock
 62
     2
100
AcDbBlockReference
  2
_OPEN
 10
365.2474709570405
 20
299.0358151803883
 30
0.0
 41
2.5
 42
2.5
 43
2.5
 50
90.0
  0
INSERT
  5
1F38
330
18
100
AcDbEntity
  8
0
  6
ByBlock
 62
     2
100
AcDbBlockReference
  2
_OPEN
 10
365.2474709570405
 20
264.0358151803884
 30
0.0
 41
2.5
 42
2.5
 43
2.5
 50
270.0
  0
MTEXT
  5
1F39
330
18
100
AcDbEntity
  8
0
  6
ByBlock
 62
     6
100
AcDbMText
 10
363.3724709570405
 20
281.5358151803883
 30
0.0
 40
2.5
 41
0.0
 71
     5
 72
     1
  1
\A1;φ35
  7
STYLE3
 11
0.0000000000000001
 21
1.0
 31
0.0
 73
     1
 44
1.0
  0
POINT
  5
1F3A
330
18
100
AcDbEntity
  8
DEFPOINTS
  6
ByBlock
 62
     0
100
AcDbPoint
 10
376.5073082739878
 20
299.0358151803883
 30
0.0
  0
POINT
  5
1F3B
330
18
100
AcDbEntity
  8
DEFPOINTS
  6
ByBlock
 62
     0
100
AcDbPoint
 10
376.5073082739878
 20
264.0358151803884
 30
0.0
  0
POINT
  5
1F3C
330
18
100
AcDbEntity
  8
DEFPOINTS
  6
ByBlock
 62
     0
100
AcDbPoint
 10
365.2474709570405
 20
264.0358151803884
 30
0.0
  0
POINT
  5
1F43
330
18
100
AcDbEntity
  8
DEFPOINTS
  6
ByBlock
 62
     0
100
AcDbPoint
 10
316.4121457755959
 20
243.3358151803883
 30
0.0
  0
LINE
  5
1F46
330
18
100
AcDbEntity
  8
0
  6
ByBlock
 62
     2
100
AcDbLine
 10
303.3236696638059
 20
241.3358151803883
 30
0.0
 11
303.3236696638059
 21
231.8324480507844
 31
0.0
  0
LINE
  5
1F47
330
18
100
AcDbEntity
  8
0
  6
ByBlock
 62
     2
100
AcDbLine
 10
313.3236696638059
 20
241.3358151803883
 30
0.0
 11
313.3236696638059
 21
231.8324480507844
 31
0.0
  0
LINE
  5
1F48
330
18
100
AcDbEntity
  8
0
  6
ByBlock
 62
     2
100
AcDbLine
 10
305.8236696638059
 20
233.0824480507844
 30
0.0
 11
310.8236696638059
 21
233.0824480507844
 31
0.0
  0
LINE
  5
1F49
330
18
100
AcDbEntity
  8
0
  6
ByBlock
 62
     2
100
AcDbLine
 10
313.3236696638059
 20
233.0824480507844
 30
0.0
 11
324.2165268066631
 21
233.0824480507844
 31
0.0
  0
INSERT
  5
1F4A
330
18
100
AcDbEntity
  8
0
  6
ByBlock
 62
     2
100
AcDbBlockReference
  2
_OPEN
 10
303.3236696638059
 20
233.0824480507844
 30
0.0
 41
2.5
 42
2.5
 43
2.5
 50
180.0
  0
INSERT
  5
1F4B
330
18
100
AcDbEntity
  8
0
  6
ByBlock
 62
     2
100
AcDbBlockReference
  2
_OPEN
 10
313.3236696638059
 20
233.0824480507844
 30
0.0
 41
2.5
 42
2.5
 43
2.5
  0
MTEXT
  5
1F4C
330
18
100
AcDbEntity
  8
0
  6
ByBlock
 62
     6
100
AcDbMText
 10
320.0200982352344
 20
235.6122099555463
 30
0.0
 40
2.5
 41
0.0
 71
     5
 72
     1
  1
\A1;(10)
  7
STYLE3
 73
     1
 44
1.0
  0
POINT
  5
1F4D
330
18
100
AcDbEntity
  8
DEFPOINTS
  6
ByBlock
 62
     0
100
AcDbPoint
 10
303.3236696638059
 20
241.3358151803883
 30
0.0
  0
POINT
  5
1F4E
330
18
100
AcDbEntity
  8
DEFPOINTS
  6
ByBlock
 62
     0
100
AcDbPoint
 10
313.3236696638059
 20
241.3358151803883
 30
0.0
  0
POINT
  5
1F4F
330
18
100
AcDbEntity
  8
DEFPOINTS
  6
ByBlock
 62
     0
100
AcDbPoint
 10
313.3236696638059
 20
233.0824480507844
 30
0.0
  0
POINT
  5
1F56
330
18
100
AcDbEntity
  8
DEFPOINTS
  6
ByBlock
 62
     0
100
AcDbPoint
 10
304.3236696638059
 20
239.3358151803883
 30
0.0
  0
POINT
  5
1F57
330
18
100
AcDbEntity
  8
DEFPOINTS
  6
ByBlock
 62
     0
100
AcDbPoint
 10
305.9402674188214
 20
226.7358151803883
 30
0.0
  0
LINE
  5
1F59
330
18
100
AcDbEntity
  8
0
  6
ByBlock
 62
     2
100
AcDbLine
 10
450.5985813799252
 20
274.9445593978292
 30
0.0
 11
450.5985813799252
 21
285.970323626574
 31
0.0
  0
LINE
  5
1F5A
330
18
100
AcDbEntity
  8
0
  6
ByBlock
 62
     2
100
AcDbLine
 10
463.052712324719
 20
274.9445593978292
 30
0.0
 11
463.052712324719
 21
285.970323626574
 31
0.0
  0
LINE
  5
1F5B
330
18
100
AcDbEntity
  8
0
  6
ByBlock
 62
     2
100
AcDbLine
 10
453.0985813799252
 20
284.720323626574
 30
0.0
 11
460.5527123247191
 21
284.720323626574
 31
0.0
  0
INSERT
  5
1F5C
330
18
100
AcDbEntity
  8
0
  6
ByBlock
 62
     2
100
AcDbBlockReference
  2
_OPEN
 10
450.5985813799252
 20
284.720323626574
 30
0.0
 41
2.5
 42
2.5
 43
2.5
 50
180.0
  0
INSERT
  5
1F5D
330
18
100
AcDbEntity
  8
0
  6
ByBlock
 62
     2
100
AcDbBlockReference
  2
_OPEN
 10
463.052712324719
 20
284.720323626574
 30
0.0
 41
2.5
 42
2.5
 43
2.5
  0
MTEXT
  5
1F5E
330
18
100
AcDbEntity
  8
0
  6
ByBlock
 62
     6
100
AcDbMText
 10
456.8256468523221
 20
287.2500855313358
 30
0.0
 40
2.5
 41
0.0
 71
     5
 72
     1
  1
\A1;(6.35)
  7
STYLE3
 73
     1
 44
1.0
  0
POINT
  5
1F5F
330
18
100
AcDbEntity
  8
DEFPOINTS
  6
ByBlock
 62
     0
100
AcDbPoint
 10
450.5985813799252
 20
274.9445593978292
 30
0.0
  0
POINT
  5
1F60
330
18
100
AcDbEntity
  8
DEFPOINTS
  6
ByBlock
 62
     0
100
AcDbPoint
 10
463.052712324719
 20
274.9445593978292
 30
0.0
  0
POINT
  5
1F61
330
18
100
AcDbEntity
  8
DEFPOINTS
  6
ByBlock
 62
     0
100
AcDbPoint
 10
463.052712324719
 20
284.720323626574
 30
0.0
  0
LINE
  5
1F62
330
18
100
AcDbEntity
  8
0
  6
ByBlock
 62
     2
100
AcDbLine
 10
448.4085813799252
 20
273.1445593978291
 30
0.0
 11
448.4085813799252
 21
292.5703050289764
 31
0.0
  0
LINE
  5
1F63
330
18
100
AcDbEntity
  8
0
  6
ByBlock
 62
     2
100
AcDbLine
 10
465.4885813799253
 20
273.1445593978291
 30
0.0
 11
465.4885813799253
 21
292.5703050289764
 31
0.0
  0
LINE
  5
1F64
330
18
100
AcDbEntity
  8
0
  6
ByBlock
 62
     2
100
AcDbLine
 10
450.9085813799251
 20
291.3203050289764
 30
0.0
 11
462.9885813799253
 21
291.3203050289764
 31
0.0
  0
INSERT
  5
1F65
330
18
100
AcDbEntity
  8
0
  6
ByBlock
 62
     2
100
AcDbBlockReference
  2
_OPEN
 10
448.4085813799252
 20
291.3203050289764
 30
0.0
 41
2.5
 42
2.5
 43
2.5
 50
180.0
  0
INSERT
  5
1F66
330
18
100
AcDbEntity
  8
0
  6
ByBlock
 62
     2
100
AcDbBlockReference
  2
_OPEN
 10
465.4885813799253
 20
291.3203050289764
 30
0.0
 41
2.5
 42
2.5
 43
2.5
  0
MTEXT
  5
1F67
330
18
100
AcDbEntity
  8
0
  6
ByBlock
 62
     6
100
AcDbMText
 10
456.9485813799253
 20
293.1953050289764
 30
0.0
 40
2.5
 41
0.0
 71
     5
 72
     1
  1
\A1;8.54
  7
STYLE3
 73
     1
 44
1.0
  0
POINT
  5
1F68
330
18
100
AcDbEntity
  8
DEFPOINTS
  6
ByBlock
 62
     0
100
AcDbPoint
 10
448.4085813799252
 20
273.1445593978291
 30
0.0
  0
POINT
  5
1F69
330
18
100
AcDbEntity
  8
DEFPOINTS
  6
ByBlock
 62
     0
100
AcDbPoint
 10
465.4885813799253
 20
273.1445593978291
 30
0.0
  0
POINT
  5
1F6A
330
18
100
AcDbEntity
  8
DEFPOINTS
  6
ByBlock
 62
     0
100
AcDbPoint
 10
465.4885813799253
 20
291.3203050289764
 30
0.0
  0
LINE
  5
1F6B
330
18
100
AcDbEntity
  8
0
  6
ByBlock
 62
     2
100
AcDbLine
 10
304.3236696638059
 20
255.4580183185739
 30
0.0
 11
304.3236696638059
 21
253.7001028875443
 31
0.0
  0
LINE
  5
1F6C
330
18
100
AcDbEntity
  8
0
  6
ByBlock
 62
     2
100
AcDbLine
 10
312.323669663806
 20
255.034755612739
 30
0.0
 11
312.323669663806
 21
253.7001028875443
 31
0.0
  0
LINE
  5
1F6D
330
18
100
AcDbEntity
  8
0
  6
ByBlock
 62
     2
100
AcDbLine
 10
306.823669663806
 20
254.9501028875444
 30
0.0
 11
309.823669663806
 21
254.9501028875444
 31
0.0
  0
LINE
  5
1F6E
330
18
100
AcDbEntity
  8
0
  6
ByBlock
 62
     2
100
AcDbLine
 10
312.323669663806
 20
254.9501028875444
 30
0.0
 11
317.7403363304727
 21
254.9501028875444
 31
0.0
  0
INSERT
  5
1F6F
330
18
100
AcDbEntity
  8
0
  6
ByBlock
 62
     2
100
AcDbBlockReference
  2
_OPEN
 10
304.3236696638059
 20
254.9501028875444
 30
0.0
 41
2.5
 42
2.5
 43
2.5
 50
180.0
  0
INSERT
  5
1F70
330
18
100
AcDbEntity
  8
0
  6
ByBlock
 62
     2
100
AcDbBlockReference
  2
_OPEN
 10
312.323669663806
 20
254.9501028875444
 30
0.0
 41
2.5
 42
2.5
 43
2.5
  0
MTEXT
  5
1F71
330
18
100
AcDbEntity
  8
0
  6
ByBlock
 62
     6
100
AcDbMText
 10
316.2820029971393
 20
256.8251028875443
 30
0.0
 40
2.5
 41
0.0
 71
     5
 72
     1
  1
\A1;8
  7
STYLE3
 73
     1
 44
1.0
  0
POINT
  5
1F72
330
18
100
AcDbEntity
  8
DEFPOINTS
  6
ByBlock
 62
     0
100
AcDbPoint
 10
304.3236696638059
 20
255.4580183185739
 30
0.0
  0
POINT
  5
1F73
330
18
100
AcDbEntity
  8
DEFPOINTS
  6
ByBlock
 62
     0
100
AcDbPoint
 10
312.323669663806
 20
255.034755612739
 30
0.0
  0
POINT
  5
1F74
330
18
100
AcDbEntity
  8
DEFPOINTS
  6
ByBlock
 62
     0
100
AcDbPoint
 10
312.323669663806
 20
254.9501028875444
 30
0.0
  0
HATCH
  5
1F75
330
18
100
AcDbEntity
  8
ROGO
 62
     4
100
AcDbHatch
 10
0.0
 20
0.0
 30
0.0
210
0.0
220
0.0
230
1.0
  2
SOLID
 70
     1
 71
     1
 91
        1
 92
        7
 72
     0
 73
     1
 93
       11
 10
312.223387262982
 20
276.5497034843202
 10
312.770561889442
 20
276.5497034843201
 10
312.9638243375429
 20
276.9372885831318
 10
313.1570867856437
 20
276.5497034843202
 10
313.7042494403631
 20
276.5497034843202
 10
313.3340309030826
 20
277.292171510384
 10
314.2335187378534
 20
278.0346395364479
 10
313.6863560831342
 20
278.034639536448
 10
313.4301583029067
 20
277.8725147371045
 10
313.5109989640029
 20
278.0346395364479
 10
312.9638243375429
 20
278.0346395364479
 97
       11
330
1FC3
330
1FC6
330
1FC5
330
1FC4
330
1F7A
330
1F77
330
1FC0
330
1FBF
330
1FC1
330
1FBE
330
1FC2
 75
     0
 76
     1
 47
0.0514683685270805
 98
        1
 10
312.9167325500296
 20
277.3975730333136
450
        0
451
        0
460
0.0
461
0.0
452
        0
462
0.0
453
        0
470

  0
HATCH
  5
1F76
330
18
100
AcDbEntity
  8
ROGO
 62
     4
100
AcDbHatch
 10
0.0
 20
0.0
 30
0.0
210
0.0
220
0.0
230
1.0
  2
SOLID
 70
     1
 71
     1
 91
        1
 92
        5
 93
        8
 72
     4
 94
        3
 73
     0
 74
     0
 95
       26
 96
       22
 40
0.0
 40
0.0
 40
0.0
 40
0.0
 40
0.1723984759424608
 40
0.2878059064036966
 40
0.3710240621887089
 40
0.4331603664333254
 40
0.5137544142125283
 40
0.572580212192407
 40
0.6788058922657624
 40
0.7652720686804436
 40
0.8240829233522806
 40
0.8817499774613361
 40
0.984905126098422
 40
1.057848128260907
 40
1.097133570529052
 40
1.152937380796412
 40
1.193234564309735
 40
1.251611879021434
 40
1.284648389624301
 40
1.356539542405996
 40
1.389365667278746
 40
1.389365667278746
 40
1.389365667278746
 40
1.389365667278746
 10
311.8131020868099
 20
278.0346395364479
 10
311.7545873803713
 20
278.0311484487196
 10
311.6569016088907
 20
278.0253203480796
 10
311.5496432260553
 20
277.9601620323767
 10
311.4710594555402
 20
277.9222818510026
 10
311.4150136057116
 20
277.8707869716033
 10
311.3739317705942
 20
277.8175965228139
 10
311.3221404051289
 20
277.7542204930835
 10
311.2799060265317
 20
277.6804216710432
 10
311.2583986251053
 20
277.5990825035735
 10
311.2393475730492
 20
277.5342547151554
 10
311.2252189939121
 20
277.4620126051624
 10
311.2288137044193
 20
277.3839657129246
 10
311.2339614943828
 20
277.3114797549996
 10
311.2569451247917
 20
277.2597356336774
 10
311.2831194087253
 20
277.2228973849413
 10
311.3151694609468
 20
277.1823241380227
 10
311.350239226848
 20
277.1554526079697
 10
311.3792447858417
 20
277.1067730255554
 10
311.4300180383766
 20
277.1005611597598
 10
311.4622915376247
 20
277.088197692833
 10
311.4724084346653
 20
277.0843220696475
 72
     1
 10
311.4724084346653
 20
277.0843220696475
 11
312.2909293788544
 21
277.0843220696475
 72
     1
 10
312.2909293788544
 20
277.0843220696475
 11
312.4672337756337
 21
277.4378980370333
 72
     1
 10
312.4672337756337
 20
277.4378980370333
 11
311.8595601501971
 21
277.4378980370333
 72
     4
 94
        3
 73
     0
 74
     0
 95
       16
 96
       12
 40
0.0
 40
0.0
 40
0.0
 40
0.0
 40
0.0520638816757992
 40
0.1046647644702509
 40
0.1360388269655429
 40
0.1661200957203634
 40
0.1991564750640333
 40
0.222226618446301
 40
0.2441181822786699
 40
0.2885111307736893
 40
0.3794005943324992
 40
0.3794005943324992
 40
0.3794005943324992
 40
0.3794005943324992
 10
311.8595601501971
 20
277.4378980370332
 10
311.8412305721785
 20
277.4432908676462
 10
311.8043823598593
 20
277.4541321520023
 10
311.8012984620443
 20
277.5066867157941
 10
311.8054998266547
 20
277.5441361430209
 10
311.8230951510272
 20
277.5714015129479
 10
311.8444413313593
 20
277.5912406569767
 10
311.8523894610265
 20
277.6170780401028
 10
311.8757522640324
 20
277.6365884969014
 10
311.9171807736975
 20
277.6693828493503
 10
311.9629935336866
 20
277.6763673136796
 10
311.9937728280261
 20
277.6810598247495
 72
     1
 10
311.9937728280262
 20
277.6810598247496
 11
312.5884820963837
 21
277.6810598247496
 72
     1
 10
312.5884820963837
 20
277.6810598247496
 11
312.7647883601982
 21
278.0346395364479
 72
     1
 10
312.7647883601982
 20
278.0346395364479
 11
311.8131020868097
 21
278.0346395364479
 97
        8
330
1F78
330
1F9C
330
1FA8
330
1FA1
330
1FBC
330
1FBB
330
1FBD
330
1F79
 75
     0
 76
     1
 47
0.0514683685270805
 98
        1
 10
311.9773212768877
 20
277.8606331759661
450
        0
451
        0
460
0.0
461
0.0
452
        0
462
0.0
453
        0
470

  0
LINE
  5
1F77
102
{ACAD_REACTORS
330
1F75
330
1F80
102
}
330
18
100
AcDbEntity
  8
ROGO
 62
     4
100
AcDbLine
 10
302.7190226806379
 20
276.5497034843202
 30
0.0
 11
312.7705618894421
 21
276.5497034843202
 31
0.0
  0
LINE
  5
1F78
102
{ACAD_REACTORS
330
1F76
102
}
330
18
100
AcDbEntity
  8
ROGO
 62
     4
100
AcDbLine
 10
311.8131020868101
 20
278.0346395364479
 30
0.0
 11
312.7647883601982
 21
278.0346395364479
 31
0.0
  0
LINE
  5
1F79
102
{ACAD_REACTORS
330
1F76
102
}
330
18
100
AcDbEntity
  8
ROGO
 62
     4
100
AcDbLine
 10
312.7647883601982
 20
278.0346395364479
 30
0.0
 11
312.5884820963837
 21
277.6810598247496
 31
0.0
  0
LINE
  5
1F7A
102
{ACAD_REACTORS
330
1F75
102
}
330
18
100
AcDbEntity
  8
ROGO
 62
     4
100
AcDbLine
 10
312.9638243375429
 20
278.0346395364479
 30
0.0
 11
312.223387262982
 21
276.5497034843202
 31
0.0
  0
HATCH
  5
1F7B
330
18
100
AcDbEntity
  8
ROGO
 62
     4
100
AcDbHatch
 10
0.0
 20
0.0
 30
0.0
210
0.0
220
0.0
230
1.0
  2
SOLID
 70
     1
 71
     0
 91
        1
 92
        7
 72
     0
 73
     1
 93
        4
 10
312.2976050223306
 20
276.6985461481349
 10
303.4766250666293
 20
276.6985461481349
 10
303.4092844234089
 20
276.5497034843201
 10
312.223387262982
 20
276.5497034843201
 97
        0
 75
     0
 76
     1
 47
0.0514683685270805
 98
        1
 10
309.0463581759236
 20
276.6591796556304
450
        0
451
        0
460
0.0
461
0.0
452
        0
462
0.0
453
        0
470

  0
HATCH
  5
1F7C
330
18
100
AcDbEntity
  8
ROGO
 62
     4
100
AcDbHatch
 10
0.0
 20
0.0
 30
0.0
210
0.0
220
0.0
230
1.0
  2
SOLID
 70
     1
 71
     1
 91
        2
 92
        7
 72
     0
 73
     1
 93
        8
 10
307.5170510341872
 20
278.0346395364479
 10
306.967804706848
 20
278.0346395364479
 10
306.2825123123336
 20
277.0843220696475
 10
306.8088180915988
 20
277.0843220696475
 10
306.9392935234747
 20
277.2652566355242
 10
307.5455622175606
 20
277.2652566355242
 10
307.6760376494366
 20
277.0843220696475
 10
308.2023434287016
 20
277.0843220696474
 97
        8
330
1F7E
330
1F86
330
1F8B
330
1F87
330
1F7D
330
1F9F
330
1FA5
330
1F9E
 92
       22
 72
     0
 73
     1
 93
        3
 10
307.4079458450957
 20
277.4560937782065
 10
307.0769098959396
 20
277.4560937782065
 10
307.2424278705176
 20
277.6856229887596
 97
        3
330
1FAA
330
1FA9
330
1FAB
 75
     0
 76
     1
 47
0.0514683685270805
 98
        2
 10
307.5808766254415
 20
277.5477546603
 10
307.5808766254415
 20
277.5477546603
450
        0
451
        0
460
0.0
461
0.0
452
        0
462
0.0
453
        0
470

  0
LINE
  5
1F7D
102
{ACAD_REACTORS
330
1F7C
102
}
330
18
100
AcDbEntity
  8
ROGO
 62
     4
100
AcDbLine
 10
306.9392935234747
 20
277.2652566355242
 30
0.0
 11
307.5455622175605
 21
277.2652566355242
 31
0.0
  0
LINE
  5
1F7E
102
{ACAD_REACTORS
330
1F7C
102
}
330
18
100
AcDbEntity
  8
ROGO
 62
     4
100
AcDbLine
 10
306.967804706848
 20
278.0346395364479
 30
0.0
 11
307.5170510341873
 21
278.0346395364479
 31
0.0
  0
LINE
  5
1F7F
330
18
100
AcDbEntity
  8
ROGO
 62
     4
100
AcDbLine
 10
303.4663026700482
 20
276.698546148135
 30
0.0
 11
312.2976050223307
 21
276.698546148135
 31
0.0
  0
HATCH
  5
1F80
330
18
100
AcDbEntity
  8
ROGO
 62
     4
100
AcDbHatch
 10
0.0
 20
0.0
 30
0.0
210
0.0
220
0.0
230
1.0
  2
SOLID
 70
     1
 71
     1
 91
        2
 92
        5
 93
        6
 72
     1
 10
302.7190226806379
 20
276.5497034843202
 11
303.4092844234089
 21
276.5497034843202
 72
     1
 10
303.4092844234089
 20
276.5497034843202
 11
303.651161036544
 21
277.0843220696474
 72
     1
 10
303.651161036544
 20
277.0843220696474
 11
304.2964141925898
 21
277.0843220696475
 72
     4
 94
        3
 73
     0
 74
     0
 95
       18
 96
       14
 40
0.108740278791501
 40
0.108740278791501
 40
0.108740278791501
 40
0.108740278791501
 40
0.6623149649549278
 40
1.384304701649787
 40
2.097394834876493
 40
2.774073369849618
 40
3.428974823686337
 40
4.005208313035923
 40
4.455173659284313
 40
4.720999734343524
 40
5.086034088486724
 40
5.569973738255373
 40
6.060470601257719
 40
6.060470601257719
 40
6.060470601257719
 40
6.060470601257719
 10
304.2964141925899
 20
277.0843220696475
 10
304.3418260436945
 20
277.0846602379524
 10
304.4464654773483
 20
277.0854394561311
 10
304.5928552262329
 20
277.1636440766904
 10
304.7316745344977
 20
277.2632710653701
 10
304.8434840436212
 20
277.3877445936192
 10
304.913144736485
 20
277.5300587478823
 10
304.9239349576239
 20
277.6664537928131
 10
304.9173477927159
 20
277.7743405776757
 10
304.8702791908677
 20
277.8495403451199
 10
304.8213456355305
 20
277.9258604188929
 10
304.7316180417029
 20
277.9919717015145
 10
304.6580992708405
 20
278.0209382708216
 10
304.62071348059
 20
278.034639536448
 72
     1
 10
304.6207134805899
 20
278.0346395364479
 11
303.4537552291763
 21
278.0346395364479
 72
     1
 10
303.4537552291763
 20
278.0346395364479
 11
302.7190226806379
 21
276.5497034843202
 97
        6
330
1F82
330
1F8C
330
1F83
330
1F77
330
1F89
330
1F88
 92
       20
 93
        4
 72
     1
 10
303.8005061522325
 20
277.4144187806935
 11
303.914848493356
 21
277.6671490461876
 72
     1
 10
303.914848493356
 20
277.6671490461876
 11
304.208659578148
 21
277.6671490461876
 72
     4
 94
        3
 73
     0
 74
     0
 95
       15
 96
       11
 40
0.0
 40
0.0
 40
0.0
 40
0.0
 40
0.1114278057886432
 40
0.1622327562563865
 40
0.2198997572250677
 40
0.259185199493265
 40
0.3213155338880433
 40
0.3585299069784071
 40
0.4223775764185746
 40
0.4436601464819452
 40
0.4436601464819452
 40
0.4436601464819452
 40
0.4436601464819452
 10
304.208659578148
 20
277.6671490461876
 10
304.2505097011649
 20
277.66734074209
 10
304.3114411783544
 20
277.6676198407798
 10
304.3447606802157
 20
277.5922474272891
 10
304.3298252908021
 20
277.543719350954
 10
304.3110502890552
 20
277.493896141666
 10
304.2778706087117
 20
277.4600405195141
 10
304.2333386177654
 20
277.4274318481122
 10
304.1912537582299
 20
277.4234844224241
 10
304.1638822812869
 20
277.4162319097339
 10
304.1570394087757
 20
277.4144187806935
 72
     1
 10
304.1570394087757
 20
277.4144187806935
 11
303.8005061522325
 21
277.4144187806935
 97
        4
330
1F8F
330
1F8D
330
1F91
330
1F8E
 75
     0
 76
     1
 47
0.0514683685270805
 98
        2
 10
303.4599924399787
 20
277.5727850155385
 10
303.4599924399787
 20
277.5727850155385
450
        0
451
        0
460
0.0
461
0.0
452
        0
462
0.0
453
        0
470

  0
HATCH
  5
1F81
330
18
100
AcDbEntity
  8
ROGO
 62
     4
100
AcDbHatch
 10
0.0
 20
0.0
 30
0.0
210
0.0
220
0.0
230
1.0
  2
SOLID
 70
     1
 71
     1
 91
        1
 92
        1
 93
       12
 72
     1
 10
305.3101234603796
 20
278.0346395364479
 11
306.5954673696598
 21
278.034639536448
 72
     1
 10
306.5954673696598
 20
278.0346395364479
 11
306.4877566877904
 21
277.816950154066
 72
     1
 10
306.4877566877904
 20
277.816950154066
 11
305.8122124089925
 21
277.816950154066
 72
     1
 10
305.8122124089925
 20
277.816950154066
 11
305.7279960405156
 21
277.6467441083704
 72
     1
 10
305.7279960405156
 20
277.6467441083704
 11
306.4035403193135
 21
277.6467441083704
 72
     1
 10
306.4035403193135
 20
277.6467441083704
 11
306.3171843228301
 21
277.4722137534125
 72
     1
 10
306.3171843228301
 20
277.4722137534125
 11
305.6416400440323
 21
277.4722137534125
 72
     1
 10
305.6416400440323
 20
277.4722137534125
 11
305.5574201102392
 21
277.3020005020111
 72
     1
 10
305.5574201102392
 20
277.3020005020111
 11
306.2329643890371
 21
277.3020005020111
 72
     1
 10
306.2329643890371
 20
277.3020005020111
 11
306.1252591251348
 21
277.0843220696475
 72
     1
 10
306.1252591251348
 20
277.0843220696475
 11
304.8399152158546
 21
277.0843220696475
 72
     1
 10
304.8399152158546
 20
277.0843220696475
 11
305.3101234603796
 21
278.0346395364479
 97
       12
330
1F90
330
1F92
330
1F94
330
1F93
330
1F95
330
1F98
330
1F97
330
1F99
330
1F96
330
1F85
330
1F8A
330
1F84
 75
     0
 76
     1
 98
        1
 10
252.7335304833465
 20
212.3244390712821
450
        0
451
        0
460
0.0
461
0.0
452
        0
462
0.0
453
        0
470

  0
SPLINE
  5
1F82
102
{ACAD_REACTORS
330
1F80
102
}
330
18
100
AcDbEntity
  8
ROGO
 62
     4
100
AcDbSpline
210
0.0
220
0.0
230
1.0
 70
     8
 71
     3
 72
    18
 73
    14
 74
     0
 42
0.0000000001
 43
0.0000000001
 40
0.1087402787915014
 40
0.1087402787915014
 40
0.1087402787915014
 40
0.1087402787915014
 40
0.5992371417938475
 40
1.083176791562496
 40
1.448211145705696
 40
1.714037220764907
 40
2.164002567013297
 40
2.740236056362883
 40
3.395137510199602
 40
4.071816045172726
 40
4.784906178399433
 40
5.506895915094292
 40
6.060470601257719
 40
6.060470601257719
 40
6.060470601257719
 40
6.060470601257719
 10
304.62071348059
 20
278.034639536448
 30
0.0
 10
304.6580992708405
 20
278.0209382708216
 30
0.0
 10
304.7316180417029
 20
277.9919717015145
 30
0.0
 10
304.8213456355305
 20
277.9258604188929
 30
0.0
 10
304.8702791908677
 20
277.8495403451199
 30
0.0
 10
304.9173477927159
 20
277.7743405776757
 30
0.0
 10
304.9239349576239
 20
277.6664537928131
 30
0.0
 10
304.913144736485
 20
277.5300587478823
 30
0.0
 10
304.8434840436212
 20
277.3877445936192
 30
0.0
 10
304.7316745344977
 20
277.2632710653701
 30
0.0
 10
304.5928552262329
 20
277.1636440766904
 30
0.0
 10
304.4464654773483
 20
277.0854394561311
 30
0.0
 10
304.3418260436945
 20
277.0846602379524
 30
0.0
 10
304.2964141925899
 20
277.0843220696475
 30
0.0
  0
LINE
  5
1F83
102
{ACAD_REACTORS
330
1F80
102
}
330
18
100
AcDbEntity
  8
ROGO
 62
     4
100
AcDbLine
 10
303.4537552291763
 20
278.0346395364479
 30
0.0
 11
302.7190226806379
 21
276.5497034843202
 31
0.0
  0
LINE
  5
1F84
102
{ACAD_REACTORS
330
1F81
102
}
330
18
100
AcDbEntity
  8
ROGO
 62
     4
100
AcDbLine
 10
305.3101234603796
 20
278.0346395364479
 30
0.0
 11
304.8399152158546
 21
277.0843220696475
 31
0.0
  0
LINE
  5
1F85
102
{ACAD_REACTORS
330
1F81
102
}
330
18
100
AcDbEntity
  8
ROGO
 62
     4
100
AcDbLine
 10
306.2329643890371
 20
277.3020005020111
 30
0.0
 11
306.1252591251348
 21
277.0843220696475
 31
0.0
  0
LINE
  5
1F86
102
{ACAD_REACTORS
330
1F7C
102
}
330
18
100
AcDbEntity
  8
ROGO
 62
     4
100
AcDbLine
 10
306.9678047068481
 20
278.0346395364479
 30
0.0
 11
306.2825123123336
 21
277.0843220696475
 31
0.0
  0
LINE
  5
1F87
102
{ACAD_REACTORS
330
1F7C
102
}
330
18
100
AcDbEntity
  8
ROGO
 62
     4
100
AcDbLine
 10
306.9392935234747
 20
277.2652566355242
 30
0.0
 11
306.8088180915988
 21
277.0843220696475
 31
0.0
  0
LINE
  5
1F88
102
{ACAD_REACTORS
330
1F80
102
}
330
18
100
AcDbEntity
  8
ROGO
 62
     4
100
AcDbLine
 10
304.2964141928135
 20
277.0843220696475
 30
0.0
 11
303.651161036544
 21
277.0843220696475
 31
0.0
  0
LINE
  5
1F89
102
{ACAD_REACTORS
330
1F80
102
}
330
18
100
AcDbEntity
  8
ROGO
 62
     4
100
AcDbLine
 10
303.6511610365441
 20
277.0843220696475
 30
0.0
 11
303.4092844234089
 21
276.5497034843202
 31
0.0
  0
LINE
  5
1F8A
102
{ACAD_REACTORS
330
1F81
102
}
330
18
100
AcDbEntity
  8
ROGO
 62
     4
100
AcDbLine
 10
304.8399152158546
 20
277.0843220696475
 30
0.0
 11
306.1252591251348
 21
277.0843220696475
 31
0.0
  0
LINE
  5
1F8B
102
{ACAD_REACTORS
330
1F7C
102
}
330
18
100
AcDbEntity
  8
ROGO
 62
     4
100
AcDbLine
 10
306.2825123123336
 20
277.0843220696475
 30
0.0
 11
306.8088180915988
 21
277.0843220696475
 31
0.0
  0
LINE
  5
1F8C
102
{ACAD_REACTORS
330
1F80
102
}
330
18
100
AcDbEntity
  8
ROGO
 62
     4
100
AcDbLine
 10
303.4537552291763
 20
278.0346395364479
 30
0.0
 11
304.62071348059
 21
278.0346395364479
 31
0.0
  0
LINE
  5
1F8D
102
{ACAD_REACTORS
330
1F80
102
}
330
18
100
AcDbEntity
  8
ROGO
 62
     4
100
AcDbLine
 10
304.208659578148
 20
277.6671490461876
 30
0.0
 11
303.914848493356
 21
277.6671490461876
 31
0.0
  0
LINE
  5
1F8E
102
{ACAD_REACTORS
330
1F80
102
}
330
18
100
AcDbEntity
  8
ROGO
 62
     4
100
AcDbLine
 10
304.1570394087757
 20
277.4144187806935
 30
0.0
 11
303.8005061522325
 21
277.4144187806935
 31
0.0
  0
LINE
  5
1F8F
102
{ACAD_REACTORS
330
1F80
102
}
330
18
100
AcDbEntity
  8
ROGO
 62
     4
100
AcDbLine
 10
303.914848493356
 20
277.6671490461876
 30
0.0
 11
303.8005061522325
 21
277.4144187806935
 31
0.0
  0
LINE
  5
1F90
102
{ACAD_REACTORS
330
1F81
102
}
330
18
100
AcDbEntity
  8
ROGO
 62
     4
100
AcDbLine
 10
305.3101234603796
 20
278.0346395364479
 30
0.0
 11
306.5954673696598
 21
278.034639536448
 31
0.0
  0
SPLINE
  5
1F91
102
{ACAD_REACTORS
330
1F80
102
}
330
18
100
AcDbEntity
  8
ROGO
 62
     4
100
AcDbSpline
210
0.0
220
0.0
230
1.0
 70
     8
 71
     3
 72
    15
 73
    11
 74
     9
 42
0.0000000001
 43
0.0000000001
 44
0.0000000001
 40
0.0
 40
0.0
 40
0.0
 40
0.0
 40
0.1114278057886432
 40
0.1622327562563865
 40
0.2198997572250677
 40
0.259185199493265
 40
0.3213155338880433
 40
0.3585299069784071
 40
0.4223775764185746
 40
0.4436601464819452
 40
0.4436601464819452
 40
0.4436601464819452
 40
0.4436601464819452
 10
304.208659578148
 20
277.6671490461876
 30
0.0
 10
304.2505097011649
 20
277.66734074209
 30
0.0
 10
304.3114411783544
 20
277.6676198407798
 30
0.0
 10
304.3447606802157
 20
277.5922474272891
 30
0.0
 10
304.3298252908021
 20
277.543719350954
 30
0.0
 10
304.3110502890552
 20
277.493896141666
 30
0.0
 10
304.2778706087117
 20
277.4600405195141
 30
0.0
 10
304.2333386177654
 20
277.4274318481122
 30
0.0
 10
304.1912537582299
 20
277.4234844224241
 30
0.0
 10
304.1638822812869
 20
277.4162319097339
 30
0.0
 10
304.1570394087757
 20
277.4144187806935
 30
0.0
 11
304.208659578148
 21
277.6671490461876
 31
0.0
 11
304.3170620228778
 21
277.6413601749543
 31
0.0
 11
304.3377101499919
 21
277.5949403748825
 31
0.0
 11
304.3273862348479
 21
277.5382050263172
 31
0.0
 11
304.3119002137189
 21
277.5021006065905
 31
0.0
 11
304.2706039594905
 21
277.4556808065187
 31
0.0
 11
304.2396319172324
 21
277.435049709532
 31
0.0
 11
304.1776875358899
 21
277.4195765549401
 31
0.0
 11
304.1570394087757
 21
277.4144187806935
 31
0.0
  0
LINE
  5
1F92
102
{ACAD_REACTORS
330
1F81
102
}
330
18
100
AcDbEntity
  8
ROGO
 62
     4
100
AcDbLine
 10
306.5954673696598
 20
278.0346395364479
 30
0.0
 11
306.4877566877904
 21
277.816950154066
 31
0.0
  0
LINE
  5
1F93
102
{ACAD_REACTORS
330
1F81
102
}
330
18
100
AcDbEntity
  8
ROGO
 62
     4
100
AcDbLine
 10
305.8122124089925
 20
277.816950154066
 30
0.0
 11
305.7279960405156
 21
277.6467441083704
 31
0.0
  0
LINE
  5
1F94
102
{ACAD_REACTORS
330
1F81
102
}
330
18
100
AcDbEntity
  8
ROGO
 62
     4
100
AcDbLine
 10
305.8122124089925
 20
277.816950154066
 30
0.0
 11
306.4877566877904
 21
277.816950154066
 31
0.0
  0
LINE
  5
1F95
102
{ACAD_REACTORS
330
1F81
102
}
330
18
100
AcDbEntity
  8
ROGO
 62
     4
100
AcDbLine
 10
305.7279960405156
 20
277.6467441083704
 30
0.0
 11
306.4035403193135
 21
277.6467441083704
 31
0.0
  0
LINE
  5
1F96
102
{ACAD_REACTORS
330
1F81
102
}
330
18
100
AcDbEntity
  8
ROGO
 62
     4
100
AcDbLine
 10
305.5574201102392
 20
277.3020005020111
 30
0.0
 11
306.2329643890371
 21
277.3020005020111
 31
0.0
  0
LINE
  5
1F97
102
{ACAD_REACTORS
330
1F81
102
}
330
18
100
AcDbEntity
  8
ROGO
 62
     4
100
AcDbLine
 10
305.6416400440323
 20
277.4722137534125
 30
0.0
 11
306.3171843228301
 21
277.4722137534125
 31
0.0
  0
LINE
  5
1F98
102
{ACAD_REACTORS
330
1F81
102
}
330
18
100
AcDbEntity
  8
ROGO
 62
     4
100
AcDbLine
 10
306.4035403193135
 20
277.6467441083704
 30
0.0
 11
306.3171843228301
 21
277.4722137534125
 31
0.0
  0
LINE
  5
1F99
102
{ACAD_REACTORS
330
1F81
102
}
330
18
100
AcDbEntity
  8
ROGO
 62
     4
100
AcDbLine
 10
305.6416400440323
 20
277.4722137534125
 30
0.0
 11
305.5574201102392
 21
277.3020005020111
 31
0.0
  0
HATCH
  5
1F9A
330
18
100
AcDbEntity
  8
ROGO
 62
     4
100
AcDbHatch
 10
0.0
 20
0.0
 30
0.0
210
0.0
220
0.0
230
1.0
  2
SOLID
 70
     1
 71
     1
 91
        2
 92
        7
 72
     1
 73
     1
 93
        4
 10
310.5687291711673
 20
278.0346395364479
 42
0.0
 10
310.1844551713896
 20
278.0346395364479
 42
0.9597396185048687
 10
310.1844551713893
 20
277.0843220696475
 42
0.0
 10
310.5963447968943
 20
277.0843220696475
 42
0.9713627655753143
 97
        4
330
1FBA
330
1FA2
330
1FA7
330
1FA3
 92
       22
 72
     1
 73
     1
 93
        2
 10
310.5046433246598
 20
277.5134889858977
 42
0.1034173650222558
 10
310.5103023608104
 20
277.5539763179815
 42
0.0
 97
        8
330
1FB2
330
1FB8
330
1FB4
330
1FB7
330
1FB3
330
1FB6
330
1FB1
330
1FB5
 75
     0
 76
     1
 47
0.0514683685270805
 98
        2
 10
310.662145435124
 20
277.6478757449576
 10
310.662145435124
 20
277.6478757449576
450
        0
451
        0
460
0.0
461
0.0
452
        0
462
0.0
453
        0
470

  0
HATCH
  5
1F9B
330
18
100
AcDbEntity
  8
ROGO
 62
     4
100
AcDbHatch
 10
0.0
 20
0.0
 30
0.0
210
0.0
220
0.0
230
1.0
  2
SOLID
 70
     1
 71
     1
 91
        1
 92
        5
 93
        8
 72
     1
 10
309.5264746873027
 20
277.6810598247496
 11
309.7027809511171
 21
278.0346395364479
 72
     1
 10
309.7027809511171
 20
278.0346395364479
 11
308.7510946777289
 21
278.0346395364479
 72
     4
 94
        3
 73
     0
 74
     0
 95
       26
 96
       22
 40
0.0
 40
0.0
 40
0.0
 40
0.0
 40
0.1723984759425082
 40
0.2878059064037186
 40
0.3710240621887309
 40
0.4331603664333474
 40
0.5137544142125066
 40
0.572580212192465
 40
0.6788058922657929
 40
0.7652720686804741
 40
0.8240829233522561
 40
0.8817499774613677
 40
0.9849051260984536
 40
1.057848128260939
 40
1.097133570529084
 40
1.152937380796444
 40
1.19323456430973
 40
1.251611879021469
 40
1.284648389624336
 40
1.356539542406011
 40
1.38936566727878
 40
1.38936566727878
 40
1.38936566727878
 40
1.38936566727878
 10
308.7510946777288
 20
278.0346395364479
 10
308.6925799712902
 20
278.0311484487196
 10
308.5948941998097
 20
278.0253203480796
 10
308.4876358169741
 20
277.9601620323767
 10
308.4090520464592
 20
277.9222818510025
 10
308.3530061966306
 20
277.8707869716034
 10
308.3119243615131
 20
277.8175965228139
 10
308.2601329960478
 20
277.7542204930835
 10
308.2178986174508
 20
277.6804216710432
 10
308.1963912160243
 20
277.5990825035735
 10
308.1773401639682
 20
277.5342547151555
 10
308.163211584831
 20
277.4620126051623
 10
308.1668062953385
 20
277.3839657129246
 10
308.1719540853017
 20
277.3114797549997
 10
308.1949377157108
 20
277.2597356336774
 10
308.2211119996441
 20
277.2228973849413
 10
308.2531620518657
 20
277.1823241380227
 10
308.288231817767
 20
277.1554526079698
 10
308.3172373767606
 20
277.1067730255554
 10
308.3680106292955
 20
277.1005611597599
 10
308.4002841285437
 20
277.088197692833
 10
308.4104010255843
 20
277.0843220696475
 72
     1
 10
308.4104010255843
 20
277.0843220696475
 11
309.2289219697733
 21
277.0843220696475
 72
     1
 10
309.2289219697733
 20
277.0843220696475
 11
309.4052263665527
 21
277.4378980370333
 72
     1
 10
309.4052263665527
 20
277.4378980370333
 11
308.797552741116
 21
277.4378980370332
 72
     4
 94
        3
 73
     0
 74
     0
 95
       16
 96
       12
 40
0.0
 40
0.0
 40
0.0
 40
0.0
 40
0.0520638816757735
 40
0.1046647644702809
 40
0.1360388269655169
 40
0.1661200957203374
 40
0.1991564750640073
 40
0.2222266184463259
 40
0.2441181822786546
 40
0.2885111307736739
 40
0.3794005943324437
 40
0.3794005943324437
 40
0.3794005943324437
 40
0.3794005943324437
 10
308.797552741116
 20
277.4378980370333
 10
308.7792231630975
 20
277.4432908676462
 10
308.7423749507783
 20
277.4541321520024
 10
308.7392910529631
 20
277.506686715794
 10
308.7434924175738
 20
277.544136143021
 10
308.7610877419461
 20
277.5714015129479
 10
308.7824339222783
 20
277.5912406569766
 10
308.7903820519454
 20
277.6170780401029
 10
308.8137448549515
 20
277.6365884969014
 10
308.8551733646164
 20
277.6693828493502
 10
308.9009861246054
 20
277.6763673136796
 10
308.931765418945
 20
277.6810598247496
 72
     1
 10
308.931765418945
 20
277.6810598247496
 11
309.5264746873027
 21
277.6810598247496
 97
        8
330
1FB0
330
1F9D
330
1FA4
330
1FA0
330
1FAF
330
1FAC
330
1FAE
330
1FAD
 75
     0
 76
     1
 47
0.0514683685270805
 98
        1
 10
309.0839346031032
 20
277.8230877271824
450
        0
451
        0
460
0.0
461
0.0
452
        0
462
0.0
453
        0
470

  0
SPLINE
  5
1F9C
102
{ACAD_REACTORS
330
1F76
102
}
330
18
100
AcDbEntity
  8
ROGO
 62
     4
100
AcDbSpline
210
0.0
220
0.0
230
1.0
 70
     8
 71
     3
 72
    26
 73
    22
 74
    20
 42
0.0000000001
 43
0.0000000001
 44
0.0000000001
 40
0.0
 40
0.0
 40
0.0
 40
0.0
 40
0.1723984759424608
 40
0.2878059064036966
 40
0.3710240621887089
 40
0.4331603664333254
 40
0.5137544142125283
 40
0.572580212192407
 40
0.6788058922657624
 40
0.7652720686804436
 40
0.8240829233522806
 40
0.8817499774613361
 40
0.984905126098422
 40
1.057848128260907
 40
1.097133570529052
 40
1.152937380796412
 40
1.193234564309735
 40
1.251611879021434
 40
1.284648389624301
 40
1.356539542405996
 40
1.389365667278746
 40
1.389365667278746
 40
1.389365667278746
 40
1.389365667278746
 10
311.8131020868099
 20
278.0346395364479
 30
0.0
 10
311.7545873803713
 20
278.0311484487196
 30
0.0
 10
311.6569016088907
 20
278.0253203480796
 30
0.0
 10
311.5496432260553
 20
277.9601620323767
 30
0.0
 10
311.4710594555402
 20
277.9222818510026
 30
0.0
 10
311.4150136057116
 20
277.8707869716033
 30
0.0
 10
311.3739317705942
 20
277.8175965228139
 30
0.0
 10
311.3221404051289
 20
277.7542204930835
 30
0.0
 10
311.2799060265317
 20
277.6804216710432
 30
0.0
 10
311.2583986251053
 20
277.5990825035735
 30
0.0
 10
311.2393475730492
 20
277.5342547151554
 30
0.0
 10
311.2252189939121
 20
277.4620126051624
 30
0.0
 10
311.2288137044193
 20
277.3839657129246
 30
0.0
 10
311.2339614943828
 20
277.3114797549996
 30
0.0
 10
311.2569451247917
 20
277.2597356336774
 30
0.0
 10
311.2831194087253
 20
277.2228973849413
 30
0.0
 10
311.3151694609468
 20
277.1823241380227
 30
0.0
 10
311.350239226848
 20
277.1554526079697
 30
0.0
 10
311.3792447858417
 20
277.1067730255554
 30
0.0
 10
311.4300180383766
 20
277.1005611597598
 30
0.0
 10
311.4622915376247
 20
277.088197692833
 30
0.0
 10
311.4724084346653
 20
277.0843220696475
 30
0.0
 11
311.8131020868099
 21
278.0346395364479
 31
0.0
 11
311.6427552607376
 21
278.008121743282
 31
0.0
 11
311.5395146251667
 21
277.9565441689635
 31
0.0
 11
311.4672463286802
 21
277.9152821431383
 31
0.0
 11
311.420788265293
 21
277.874019949165
 31
0.0
 11
311.3691680959207
 21
277.8121268263531
 31
0.0
 11
311.3330339476775
 21
277.7657070262812
 31
0.0
 11
311.2814134814789
 21
277.6728672579894
 31
0.0
 11
311.2556035452059
 21
277.5903430381908
 31
0.0
 11
311.2401175240768
 21
277.5336076896256
 31
0.0
 11
311.2297933121066
 21
277.4768723410604
 31
0.0
 11
311.2297933121066
 21
277.3737171924233
 31
0.0
 11
311.2401175240768
 21
277.3015085211181
 31
0.0
 11
311.2556035452059
 21
277.2654041013915
 31
0.0
 11
311.286575587464
 21
277.2189843013196
 31
0.0
 11
311.3123858205633
 21
277.1880376558396
 31
0.0
 11
311.3536817779654
 21
277.1467756300144
 31
0.0
 11
311.3743299050796
 21
277.120986758781
 31
0.0
 11
311.4414363924073
 21
277.0951980556958
 31
0.0
 11
311.4724084346653
 21
277.0843220696475
 31
0.0
  0
SPLINE
  5
1F9D
102
{ACAD_REACTORS
330
1F9B
102
}
330
18
100
AcDbEntity
  8
ROGO
 62
     4
100
AcDbSpline
210
0.0
220
0.0
230
1.0
 70
     8
 71
     3
 72
    26
 73
    22
 74
    20
 42
0.0000000001
 43
0.0000000001
 44
0.0000000001
 40
0.0
 40
0.0
 40
0.0
 40
0.0
 40
0.1723984759425082
 40
0.2878059064037186
 40
0.3710240621887309
 40
0.4331603664333474
 40
0.5137544142125066
 40
0.572580212192465
 40
0.6788058922657929
 40
0.7652720686804741
 40
0.8240829233522561
 40
0.8817499774613677
 40
0.9849051260984536
 40
1.057848128260939
 40
1.097133570529084
 40
1.152937380796444
 40
1.19323456430973
 40
1.251611879021469
 40
1.284648389624336
 40
1.356539542406011
 40
1.38936566727878
 40
1.38936566727878
 40
1.38936566727878
 40
1.38936566727878
 10
308.7510946777288
 20
278.0346395364479
 30
0.0
 10
308.6925799712902
 20
278.0311484487196
 30
0.0
 10
308.5948941998097
 20
278.0253203480796
 30
0.0
 10
308.4876358169741
 20
277.9601620323767
 30
0.0
 10
308.4090520464592
 20
277.9222818510025
 30
0.0
 10
308.3530061966306
 20
277.8707869716034
 30
0.0
 10
308.3119243615131
 20
277.8175965228139
 30
0.0
 10
308.2601329960478
 20
277.7542204930835
 30
0.0
 10
308.2178986174508
 20
277.6804216710432
 30
0.0
 10
308.1963912160243
 20
277.5990825035735
 30
0.0
 10
308.1773401639682
 20
277.5342547151555
 30
0.0
 10
308.163211584831
 20
277.4620126051623
 30
0.0
 10
308.1668062953385
 20
277.3839657129246
 30
0.0
 10
308.1719540853017
 20
277.3114797549997
 30
0.0
 10
308.1949377157108
 20
277.2597356336774
 30
0.0
 10
308.2211119996441
 20
277.2228973849413
 30
0.0
 10
308.2531620518657
 20
277.1823241380227
 30
0.0
 10
308.288231817767
 20
277.1554526079698
 30
0.0
 10
308.3172373767606
 20
277.1067730255554
 30
0.0
 10
308.3680106292955
 20
277.1005611597599
 30
0.0
 10
308.4002841285437
 20
277.088197692833
 30
0.0
 10
308.4104010255843
 20
277.0843220696475
 30
0.0
 11
308.7510946777288
 21
278.0346395364479
 31
0.0
 11
308.5807478516565
 21
278.0081217432821
 31
0.0
 11
308.4775072160856
 21
277.9565441689635
 31
0.0
 11
308.4052389195992
 21
277.9152821431383
 31
0.0
 11
308.358780856212
 21
277.874019949165
 31
0.0
 11
308.3071606868397
 21
277.8121268263531
 31
0.0
 11
308.2710265385964
 21
277.7657070262812
 31
0.0
 11
308.2194060723979
 21
277.6728672579894
 31
0.0
 11
308.1935961361248
 21
277.5903430381908
 31
0.0
 11
308.1781101149958
 21
277.5336076896256
 31
0.0
 11
308.1677859030255
 21
277.4768723410604
 31
0.0
 11
308.1677859030255
 21
277.3737171924233
 31
0.0
 11
308.1781101149958
 21
277.3015085211181
 31
0.0
 11
308.1935961361248
 21
277.2654041013915
 31
0.0
 11
308.2245681783829
 21
277.2189843013196
 31
0.0
 11
308.2503784114822
 21
277.1880376558396
 31
0.0
 11
308.2916743688843
 21
277.1467756300144
 31
0.0
 11
308.3123224959985
 21
277.120986758781
 31
0.0
 11
308.3794289833262
 21
277.0951980556958
 31
0.0
 11
308.4104010255843
 21
277.0843220696475
 31
0.0
  0
LINE
  5
1F9E
102
{ACAD_REACTORS
330
1F7C
102
}
330
18
100
AcDbEntity
  8
ROGO
 62
     4
100
AcDbLine
 10
307.5170510341873
 20
278.0346395364479
 30
0.0
 11
308.2023434287017
 21
277.0843220696475
 31
0.0
  0
LINE
  5
1F9F
102
{ACAD_REACTORS
330
1F7C
102
}
330
18
100
AcDbEntity
  8
ROGO
 62
     4
100
AcDbLine
 10
307.5455622175605
 20
277.2652566355242
 30
0.0
 11
307.6760376494365
 21
277.0843220696475
 31
0.0
  0
LINE
  5
1FA0
102
{ACAD_REACTORS
330
1F9B
102
}
330
18
100
AcDbEntity
  8
ROGO
 62
     4
100
AcDbLine
 10
309.4052263665527
 20
277.4378980370333
 30
0.0
 11
309.2289219697733
 21
277.0843220696475
 31
0.0
  0
LINE
  5
1FA1
102
{ACAD_REACTORS
330
1F76
102
}
330
18
100
AcDbEntity
  8
ROGO
 62
     4
100
AcDbLine
 10
312.4672337756337
 20
277.4378980370333
 30
0.0
 11
312.2909293788544
 21
277.0843220696474
 31
0.0
  0
ARC
  5
1FA2
102
{ACAD_REACTORS
330
1F9A
102
}
330
18
100
AcDbEntity
  8
ROGO
 62
     4
100
AcDbCircle
 10
310.2039864895929
 20
277.5594808030477
 30
0.0
 40
0.4755599797263065
100
AcDbArc
 50
92.3538081120337
 51
270.0
  0
ARC
  5
1FA3
102
{ACAD_REACTORS
330
1F9A
102
}
330
18
100
AcDbEntity
  8
ROGO
 62
     4
100
AcDbCircle
 10
310.5687291711673
 20
277.5590795567216
 30
0.0
 40
0.4755599797263065
100
AcDbArc
 50
273.3290215232082
 51
90.0000000000006
  0
LINE
  5
1FA4
102
{ACAD_REACTORS
330
1F9B
102
}
330
18
100
AcDbEntity
  8
ROGO
 62
     4
100
AcDbLine
 10
308.4104010255842
 20
277.0843220696475
 30
0.0
 11
309.2289219697734
 21
277.0843220696475
 31
0.0
  0
LINE
  5
1FA5
102
{ACAD_REACTORS
330
1F7C
102
}
330
18
100
AcDbEntity
  8
ROGO
 62
     4
100
AcDbLine
 10
308.2023434287016
 20
277.0843220696475
 30
0.0
 11
307.6760376494365
 21
277.0843220696475
 31
0.0
  0
LINE
  5
1FA6
330
18
100
AcDbEntity
  8
ROGO
 62
     4
100
AcDbLine
 10
310.1844551713899
 20
277.0843220696475
 30
0.0
 11
310.596344796894
 21
277.0843220696475
 31
0.0
  0
LINE
  5
1FA7
102
{ACAD_REACTORS
330
1F9A
102
}
330
18
100
AcDbEntity
  8
ROGO
 62
     4
100
AcDbLine
 10
310.1844551713896
 20
277.0843220696475
 30
0.0
 11
310.5963447968943
 21
277.0843220696475
 31
0.0
  0
LINE
  5
1FA8
102
{ACAD_REACTORS
330
1F76
102
}
330
18
100
AcDbEntity
  8
ROGO
 62
     4
100
AcDbLine
 10
311.4724084346653
 20
277.0843220696475
 30
0.0
 11
312.2909293788544
 21
277.0843220696475
 31
0.0
  0
LINE
  5
1FA9
102
{ACAD_REACTORS
330
1F7C
102
}
330
18
100
AcDbEntity
  8
ROGO
 62
     4
100
AcDbLine
 10
307.2424278705176
 20
277.6856229887596
 30
0.0
 11
307.0769098959396
 21
277.4560937782064
 31
0.0
  0
LINE
  5
1FAA
102
{ACAD_REACTORS
330
1F7C
102
}
330
18
100
AcDbEntity
  8
ROGO
 62
     4
100
AcDbLine
 10
307.0769098959396
 20
277.4560937782065
 30
0.0
 11
307.4079458450957
 21
277.4560937782065
 31
0.0
  0
LINE
  5
1FAB
102
{ACAD_REACTORS
330
1F7C
102
}
330
18
100
AcDbEntity
  8
ROGO
 62
     4
100
AcDbLine
 10
307.2424278705176
 20
277.6856229887596
 30
0.0
 11
307.4079458450957
 21
277.4560937782064
 31
0.0
  0
SPLINE
  5
1FAC
102
{ACAD_REACTORS
330
1F9B
102
}
330
18
100
AcDbEntity
  8
ROGO
 62
     4
100
AcDbSpline
210
0.0
220
0.0
230
1.0
 70
     8
 71
     3
 72
    16
 73
    12
 74
    10
 42
0.0000000001
 43
0.0000000001
 44
0.0000000001
 40
0.0
 40
0.0
 40
0.0
 40
0.0
 40
0.0908894635587698
 40
0.1352824120537892
 40
0.1571739758861179
 40
0.1802441192684364
 40
0.2132804986121064
 40
0.2433617673669269
 40
0.2747358298621628
 40
0.3273367126566702
 40
0.3794005943324437
 40
0.3794005943324437
 40
0.3794005943324437
 40
0.3794005943324437
 10
308.931765418945
 20
277.6810598247496
 30
0.0
 10
308.9009861246054
 20
277.6763673136796
 30
0.0
 10
308.8551733646164
 20
277.6693828493502
 30
0.0
 10
308.8137448549515
 20
277.6365884969014
 30
0.0
 10
308.7903820519454
 20
277.6170780401029
 30
0.0
 10
308.7824339222783
 20
277.5912406569766
 30
0.0
 10
308.7610877419461
 20
277.5714015129479
 30
0.0
 10
308.7434924175738
 20
277.544136143021
 30
0.0
 10
308.7392910529631
 20
277.506686715794
 30
0.0
 10
308.7423749507783
 20
277.4541321520024
 30
0.0
 10
308.7792231630975
 20
277.4432908676462
 30
0.0
 10
308.797552741116
 20
277.4378980370333
 30
0.0
 11
308.931765418945
 21
277.6810598247496
 31
0.0
 11
308.8440111013294
 21
277.6573939352494
 31
0.0
 11
308.8078769530862
 21
277.6316052321641
 31
0.0
 11
308.7923909319572
 21
277.6161319094242
 31
0.0
 11
308.7820667199869
 21
277.5955008124375
 31
0.0
 11
308.7614185928728
 21
277.5697121093523
 31
0.0
 11
308.7459325717436
 21
277.543923238119
 31
0.0
 11
308.7407704657585
 21
277.5129767607871
 31
0.0
 11
308.7510946777288
 21
277.4613990183204
 31
0.0
 11
308.797552741116
 21
277.4378980370333
 31
0.0
  0
LINE
  5
1FAD
102
{ACAD_REACTORS
330
1F9B
102
}
330
18
100
AcDbEntity
  8
ROGO
 62
     4
100
AcDbLine
 10
309.7027809511171
 20
278.0346395364479
 30
0.0
 11
309.5264746873027
 21
277.6810598247496
 31
0.0
  0
LINE
  5
1FAE
102
{ACAD_REACTORS
330
1F9B
102
}
330
18
100
AcDbEntity
  8
ROGO
 62
     4
100
AcDbLine
 10
308.931765418945
 20
277.6810598247496
 30
0.0
 11
309.5264746873027
 21
277.6810598247496
 31
0.0
  0
LINE
  5
1FAF
102
{ACAD_REACTORS
330
1F9B
102
}
330
18
100
AcDbEntity
  8
ROGO
 62
     4
100
AcDbLine
 10
308.797552741116
 20
277.4378980370333
 30
0.0
 11
309.4052263665527
 21
277.4378980370333
 31
0.0
  0
LINE
  5
1FB0
102
{ACAD_REACTORS
330
1F9B
102
}
330
18
100
AcDbEntity
  8
ROGO
 62
     4
100
AcDbLine
 10
308.7510946777291
 20
278.034639536448
 30
0.0
 11
309.7027809511171
 21
278.034639536448
 31
0.0
  0
LINE
  5
1FB1
102
{ACAD_REACTORS
330
1F9A
102
}
330
18
100
AcDbEntity
  8
ROGO
 62
     4
100
AcDbLine
 10
310.3931918042475
 20
277.6505073706966
 30
0.0
 11
310.4276306924757
 21
277.6456937437314
 31
0.0
  0
LINE
  5
1FB2
102
{ACAD_REACTORS
330
1F9A
102
}
330
18
100
AcDbEntity
  8
ROGO
 62
     4
100
AcDbLine
 10
310.5103023608104
 20
277.5539763179813
 30
0.0
 11
310.4976556323617
 21
277.4634958402377
 31
0.0
  0
LINE
  5
1FB3
102
{ACAD_REACTORS
330
1F9A
102
}
330
18
100
AcDbEntity
  8
ROGO
 62
     4
100
AcDbLine
 10
310.2713051138193
 20
277.4969395179442
 30
0.0
 11
310.283951842268
 21
277.5874199956877
 31
0.0
  0
LINE
  5
1FB4
102
{ACAD_REACTORS
330
1F9A
102
}
330
18
100
AcDbEntity
  8
ROGO
 62
     4
100
AcDbLine
 10
310.3603489299358
 20
277.4155344312321
 30
0.0
 11
310.394787818164
 21
277.4107208042668
 31
0.0
  0
ARC
  5
1FB5
102
{ACAD_REACTORS
330
1F9A
102
}
330
18
100
AcDbEntity
  8
ROGO
 62
     4
100
AcDbCircle
 10
310.4106459850569
 20
277.5472664329953
 30
0.0
 40
0.0998820093152177
100
AcDbArc
 50
3.851923331663601
 51
80.20940670206341
  0
ARC
  5
1FB6
102
{ACAD_REACTORS
330
1F9A
102
}
330
18
100
AcDbEntity
  8
ROGO
 62
     4
100
AcDbCircle
 10
310.3797886224311
 20
277.5475940696368
 30
0.0
 40
0.1037824301982561
100
AcDbArc
 50
82.57970078354313
 51
157.4341870372611
  0
ARC
  5
1FB7
102
{ACAD_REACTORS
330
1F9A
102
}
330
18
100
AcDbEntity
  8
ROGO
 62
     4
100
AcDbCircle
 10
310.3660767334041
 20
277.5112019190872
 30
0.0
 40
0.0958388019806556
100
AcDbArc
 50
188.5583509056651
 51
266.5736774635929
  0
ARC
  5
1FB8
102
{ACAD_REACTORS
330
1F9A
102
}
330
18
100
AcDbEntity
  8
ROGO
 62
     4
100
AcDbCircle
 10
310.4154014015043
 20
277.4971825463544
 30
0.0
 40
0.0888850530907803
100
AcDbArc
 50
256.5902863289752
 51
337.7287536965499
  0
LINE
  5
1FB9
330
18
100
AcDbEntity
  8
ROGO
 62
     4
100
AcDbLine
 10
310.1844551713897
 20
278.0346395364479
 30
0.0
 11
310.4537685805361
 21
278.0346395364479
 31
0.0
  0
LINE
  5
1FBA
102
{ACAD_REACTORS
330
1F9A
102
}
330
18
100
AcDbEntity
  8
ROGO
 62
     4
100
AcDbLine
 10
310.1844551713896
 20
278.0346395364479
 30
0.0
 11
310.5687291711673
 21
278.0346395364479
 31
0.0
  0
SPLINE
  5
1FBB
102
{ACAD_REACTORS
330
1F76
102
}
330
18
100
AcDbEntity
  8
ROGO
 62
     4
100
AcDbSpline
210
0.0
220
0.0
230
1.0
 70
     8
 71
     3
 72
    16
 73
    12
 74
    10
 42
0.0000000001
 43
0.0000000001
 44
0.0000000001
 40
0.0
 40
0.0
 40
0.0
 40
0.0
 40
0.0908894635588099
 40
0.1352824120538293
 40
0.1571739758861982
 40
0.1802441192684659
 40
0.2132804986121358
 40
0.2433617673669563
 40
0.2747358298622484
 40
0.3273367126567001
 40
0.3794005943324992
 40
0.3794005943324992
 40
0.3794005943324992
 40
0.3794005943324992
 10
311.9937728280261
 20
277.6810598247495
 30
0.0
 10
311.9629935336866
 20
277.6763673136796
 30
0.0
 10
311.9171807736975
 20
277.6693828493503
 30
0.0
 10
311.8757522640324
 20
277.6365884969014
 30
0.0
 10
311.8523894610265
 20
277.6170780401028
 30
0.0
 10
311.8444413313593
 20
277.5912406569767
 30
0.0
 10
311.8230951510272
 20
277.5714015129479
 30
0.0
 10
311.8054998266547
 20
277.5441361430209
 30
0.0
 10
311.8012984620443
 20
277.5066867157941
 30
0.0
 10
311.8043823598593
 20
277.4541321520023
 30
0.0
 10
311.8412305721785
 20
277.4432908676462
 30
0.0
 10
311.8595601501971
 20
277.4378980370332
 30
0.0
 11
311.9937728280261
 21
277.6810598247495
 31
0.0
 11
311.9060185104105
 21
277.6573939352494
 31
0.0
 11
311.8698843621673
 21
277.6316052321641
 31
0.0
 11
311.8543983410382
 21
277.6161319094241
 31
0.0
 11
311.844074129068
 21
277.5955008124375
 31
0.0
 11
311.8234260019538
 21
277.5697121093523
 31
0.0
 11
311.8079399808247
 21
277.543923238119
 31
0.0
 11
311.8027778748396
 21
277.512976760787
 31
0.0
 11
311.8131020868099
 21
277.4613990183204
 31
0.0
 11
311.8595601501971
 21
277.4378980370332
 31
0.0
  0
LINE
  5
1FBC
102
{ACAD_REACTORS
330
1F76
102
}
330
18
100
AcDbEntity
  8
ROGO
 62
     4
100
AcDbLine
 10
311.8595601501971
 20
277.4378980370333
 30
0.0
 11
312.4672337756337
 21
277.4378980370333
 31
0.0
  0
LINE
  5
1FBD
102
{ACAD_REACTORS
330
1F76
102
}
330
18
100
AcDbEntity
  8
ROGO
 62
     4
100
AcDbLine
 10
311.993772828026
 20
277.6810598247496
 30
0.0
 11
312.5884820963837
 21
277.6810598247496
 31
0.0
  0
LINE
  5
1FBE
102
{ACAD_REACTORS
330
1F75
102
}
330
18
100
AcDbEntity
  8
ROGO
 62
     4
100
AcDbLine
 10
313.3340309030826
 20
277.292171510384
 30
0.0
 11
313.7042494403631
 21
276.5497034843202
 31
0.0
  0
LINE
  5
1FBF
102
{ACAD_REACTORS
330
1F75
102
}
330
18
100
AcDbEntity
  8
ROGO
 62
     4
100
AcDbLine
 10
312.9638243375429
 20
276.9372885831319
 30
0.0
 11
313.1570867856438
 21
276.5497034843202
 31
0.0
  0
LINE
  5
1FC0
102
{ACAD_REACTORS
330
1F75
102
}
330
18
100
AcDbEntity
  8
ROGO
 62
     4
100
AcDbLine
 10
312.963824337543
 20
276.9372885831318
 30
0.0
 11
312.7705618894421
 21
276.5497034843202
 31
0.0
  0
LINE
  5
1FC1
102
{ACAD_REACTORS
330
1F75
102
}
330
18
100
AcDbEntity
  8
ROGO
 62
     4
100
AcDbLine
 10
313.1570867856438
 20
276.5497034843202
 30
0.0
 11
313.7042494403631
 21
276.5497034843202
 31
0.0
  0
LINE
  5
1FC2
102
{ACAD_REACTORS
330
1F75
102
}
330
18
100
AcDbEntity
  8
ROGO
 62
     4
100
AcDbLine
 10
313.3340309030826
 20
277.292171510384
 30
0.0
 11
314.2335187378534
 21
278.0346395364479
 31
0.0
  0
LINE
  5
1FC3
102
{ACAD_REACTORS
330
1F75
102
}
330
18
100
AcDbEntity
  8
ROGO
 62
     4
100
AcDbLine
 10
313.6863560831342
 20
278.0346395364479
 30
0.0
 11
314.2335187378534
 21
278.0346395364479
 31
0.0
  0
LINE
  5
1FC4
102
{ACAD_REACTORS
330
1F75
102
}
330
18
100
AcDbEntity
  8
ROGO
 62
     4
100
AcDbLine
 10
312.9638243375429
 20
278.0346395364479
 30
0.0
 11
313.5109989640029
 21
278.0346395364479
 31
0.0
  0
LINE
  5
1FC5
102
{ACAD_REACTORS
330
1F75
102
}
330
18
100
AcDbEntity
  8
ROGO
 62
     4
100
AcDbLine
 10
313.5109989640029
 20
278.0346395364479
 30
0.0
 11
313.4301583029067
 21
277.8725147371046
 31
0.0
  0
LINE
  5
1FC6
102
{ACAD_REACTORS
330
1F75
102
}
330
18
100
AcDbEntity
  8
ROGO
 62
     4
100
AcDbLine
 10
313.4301583029067
 20
277.8725147371046
 30
0.0
 11
313.6863560831342
 21
278.0346395364479
 31
0.0
  0
LINE
  5
1FD0
330
18
100
AcDbEntity
  8
ROGO
 62
     4
100
AcDbLine
 10
306.967804706848
 20
277.9550689014952
 30
0.0
 11
307.5170510341873
 21
277.9550689014952
 31
0.0
  0
LINE
  5
1FD1
330
18
100
AcDbEntity
  8
ROGO
 62
     4
100
AcDbLine
 10
303.4663026700482
 20
276.6189755131823
 30
0.0
 11
312.2976050223307
 21
276.6189755131823
 31
0.0
  0
LINE
  5
1FDE
330
18
100
AcDbEntity
  8
ROGO
 62
     4
100
AcDbLine
 10
303.4537552291763
 20
277.9550689014952
 30
0.0
 11
304.62071348059
 21
277.9550689014952
 31
0.0
  0
LINE
  5
1FE0
330
18
100
AcDbEntity
  8
ROGO
 62
     4
100
AcDbLine
 10
304.1570394087757
 20
277.3348481457408
 30
0.0
 11
303.8005061522325
 21
277.3348481457408
 31
0.0
  0
LINE
  5
1FFC
330
18
100
AcDbEntity
  8
ROGO
 62
     4
100
AcDbLine
 10
307.0769098959396
 20
277.3765231432538
 30
0.0
 11
307.4079458450957
 21
277.3765231432538
 31
0.0
  0
LINE
  5
2004
330
18
100
AcDbEntity
  8
ROGO
 62
     4
100
AcDbLine
 10
310.5103023608104
 20
277.4744056830286
 30
0.0
 11
310.4976556323617
 21
277.383925205285
 31
0.0
  0
LINE
  5
2006
330
18
100
AcDbEntity
  8
ROGO
 62
     4
100
AcDbLine
 10
310.3603489299358
 20
277.3359637962794
 30
0.0
 11
310.394787818164
 21
277.3311501693141
 31
0.0
  0
ARC
  5
2009
330
18
100
AcDbEntity
  8
ROGO
 62
     4
100
AcDbCircle
 10
310.3660767334041
 20
277.4316312841345
 30
0.0
 40
0.0958388019806556
100
AcDbArc
 50
188.5583509056651
 51
266.5736774635929
  0
ARC
  5
200A
330
18
100
AcDbEntity
  8
ROGO
 62
     4
100
AcDbCircle
 10
310.4154014015043
 20
277.4176119114017
 30
0.0
 40
0.0888850530907803
100
AcDbArc
 50
256.5902863289752
 51
337.7287536965499
  0
LINE
  5
200B
330
18
100
AcDbEntity
  8
ROGO
 62
     4
100
AcDbLine
 10
310.1844551713897
 20
277.9550689014952
 30
0.0
 11
310.4537685805361
 21
277.9550689014952
 31
0.0
  0
LINE
  5
200C
330
18
100
AcDbEntity
  8
ROGO
 62
     4
100
AcDbLine
 10
310.1844551713896
 20
277.9550689014952
 30
0.0
 11
310.5687291711673
 21
277.9550689014952
 31
0.0
  0
LINE
  5
2018
330
18
100
AcDbEntity
  8
ROGO
 62
     4
100
AcDbLine
 10
313.4301583029067
 20
277.7929441021519
 30
0.0
 11
313.6863560831342
 21
277.9550689014952
 31
0.0
  0
POINT
  5
201F
330
18
100
AcDbEntity
  8
DEFPOINTS
  6
ByBlock
 62
     0
100
AcDbPoint
 10
329.2761245535196
 20
281.5358151803883
 30
0.0
  0
LINE
  5
2022
330
18
100
AcDbEntity
  8
文字
 62
     2
100
AcDbLine
 10
382.300424715732
 20
254.6730031978687
 30
0.0
 11
375.5443803873675
 21
242.7460503858853
 31
0.0
1001
ACAD
1000
DSTYLE
1002
{
1070
   271
1070
     2
1002
}
  0
LINE
  5
2023
330
18
100
AcDbEntity
  8
文字
 62
     2
100
AcDbLine
 10
375.5443803873675
 20
242.7460503858853
 30
0.0
 11
370.6336661016532
 21
242.7460503858853
 31
0.0
1001
ACAD
1000
DSTYLE
1002
{
1070
   271
1070
     2
1002
}
  0
TEXT
  5
2024
330
18
100
AcDbEntity
  8
外形線
 62
     6
100
AcDbText
 10
371.703062764905
 20
243.4465532263277
 30
0.0
 40
2.5
  1
C
  7
STYLE3
100
AcDbText
  0
LINE
  5
2025
330
18
100
AcDbEntity
  8
0
  6
ByBlock
 62
     2
100
AcDbLine
 10
308.3236696638059
 20
314.5358151803884
 30
0.0
 11
335.4149429428929
 21
314.5358151803884
 31
0.0
  0
LINE
  5
2026
330
18
100
AcDbEntity
  8
0
  6
ByBlock
 62
     2
100
AcDbLine
 10
308.3236696638059
 20
299.0358151803883
 30
0.0
 11
335.4149429428929
 21
299.0358151803883
 31
0.0
  0
LINE
  5
2027
330
18
100
AcDbEntity
  8
0
  6
ByBlock
 62
     2
100
AcDbLine
 10
334.164942942893
 20
312.0358151803884
 30
0.0
 11
334.164942942893
 21
301.5358151803884
 31
0.0
  0
INSERT
  5
2028
330
18
100
AcDbEntity
  8
0
  6
ByBlock
 62
     2
100
AcDbBlockReference
  2
_OPEN
 10
334.164942942893
 20
314.5358151803884
 30
0.0
 41
2.5
 42
2.5
 43
2.5
 50
90.0
  0
INSERT
  5
2029
330
18
100
AcDbEntity
  8
0
  6
ByBlock
 62
     2
100
AcDbBlockReference
  2
_OPEN
 10
334.164942942893
 20
299.0358151803883
 30
0.0
 41
2.5
 42
2.5
 43
2.5
 50
270.0
  0
MTEXT
  5
202A
330
18
100
AcDbEntity
  8
0
  6
ByBlock
 62
     6
100
AcDbMText
 10
332.2899429428929
 20
306.7858151803883
 30
0.0
 40
2.5
 41
0.0
 71
     5
 72
     1
  1
\A1;15.5
  7
STYLE3
 11
0.0000000000000001
 21
1.0
 31
0.0
 73
     1
 44
1.0
  0
POINT
  5
202B
330
18
100
AcDbEntity
  8
DEFPOINTS
  6
ByBlock
 62
     0
100
AcDbPoint
 10
308.3236696638059
 20
314.5358151803884
 30
0.0
  0
POINT
  5
202C
330
18
100
AcDbEntity
  8
DEFPOINTS
  6
ByBlock
 62
     0
100
AcDbPoint
 10
308.3236696638059
 20
299.0358151803883
 30
0.0
  0
POINT
  5
202D
330
18
100
AcDbEntity
  8
DEFPOINTS
  6
ByBlock
 62
     0
100
AcDbPoint
 10
334.164942942893
 20
299.0358151803883
 30
0.0
  0
LINE
  5
202E
330
18
100
AcDbEntity
  8
0
  6
ByBlock
 62
     2
100
AcDbLine
 10
381.943566305395
 20
298.3358151803884
 30
0.0
 11
381.943566305395
 21
325.2389037186516
 31
0.0
  0
LINE
  5
202F
330
18
100
AcDbEntity
  8
0
  6
ByBlock
 62
     2
100
AcDbLine
 10
397.793566305395
 20
296.6858151803884
 30
0.0
 11
397.793566305395
 21
325.2389037186516
 31
0.0
  0
LINE
  5
2030
330
18
100
AcDbEntity
  8
0
  6
ByBlock
 62
     2
100
AcDbLine
 10
384.443566305395
 20
323.9889037186516
 30
0.0
 11
395.293566305395
 21
323.9889037186516
 31
0.0
  0
INSERT
  5
2031
330
18
100
AcDbEntity
  8
0
  6
ByBlock
 62
     2
100
AcDbBlockReference
  2
_OPEN
 10
381.943566305395
 20
323.9889037186516
 30
0.0
 41
2.5
 42
2.5
 43
2.5
 50
180.0
  0
INSERT
  5
2032
330
18
100
AcDbEntity
  8
0
  6
ByBlock
 62
     2
100
AcDbBlockReference
  2
_OPEN
 10
397.793566305395
 20
323.9889037186516
 30
0.0
 41
2.5
 42
2.5
 43
2.5
  0
MTEXT
  5
2033
330
18
100
AcDbEntity
  8
0
  6
ByBlock
 62
     6
100
AcDbMText
 10
389.868566305395
 20
325.8639037186516
 30
0.0
 40
2.5
 41
0.0
 71
     5
 72
     1
  1
\A1;15.85
  7
STYLE3
 73
     1
 44
1.0
  0
POINT
  5
2034
330
18
100
AcDbEntity
  8
DEFPOINTS
  6
ByBlock
 62
     0
100
AcDbPoint
 10
381.943566305395
 20
298.3358151803884
 30
0.0
  0
POINT
  5
2035
330
18
100
AcDbEntity
  8
DEFPOINTS
  6
ByBlock
 62
     0
100
AcDbPoint
 10
397.793566305395
 20
296.6858151803884
 30
0.0
  0
POINT
  5
2036
330
18
100
AcDbEntity
  8
DEFPOINTS
  6
ByBlock
 62
     0
100
AcDbPoint
 10
397.793566305395
 20
323.9889037186516
 30
0.0
  0
LINE
  5
2037
330
18
100
AcDbEntity
  8
寸法線
 62
     2
100
AcDbLine
 10
384.7130906058169
 20
297.5892106772426
 30
0.0
 11
379.4551950056867
 21
313.5656259047816
 31
0.0
1001
ACAD
1000
DSTYLE
1002
{
1070
   271
1070
     2
1002
}
  0
LINE
  5
2038
330
18
100
AcDbEntity
  8
寸法線
 62
     2
100
AcDbLine
 10
379.4551950056867
 20
313.5656259047816
 30
0.0
 11
374.66352833902
 21
313.5656259047816
 31
0.0
1001
ACAD
1000
DSTYLE
1002
{
1070
   271
1070
     2
1002
}
  0
TEXT
  5
2039
330
18
100
AcDbEntity
  8
外形線
 62
     6
100
AcDbText
 10
375.5856476272121
 20
314.1906259047816
 30
0.0
 40
2.5
  1
B
  7
STYLE3
100
AcDbText
  0
LINE
  5
2050
330
18
100
AcDbEntity
  8
目盛
100
AcDbLine
 10
309.2655274567456
 20
296.5062161068124
 30
0.0
 11
309.1713416774517
 21
295.00917601417
 31
0.0
  0
LINE
  5
2051
330
18
100
AcDbEntity
  8
目盛
100
AcDbLine
 10
310.2036681672705
 20
296.4175357001055
 30
0.0
 11
310.015668316924
 21
294.9293636481338
 31
0.0
  0
LINE
  5
2052
330
18
100
AcDbEntity
  8
目盛
100
AcDbLine
 10
311.1343893825918
 20
296.2701239413187
 30
0.0
 11
310.8533174107131
 21
294.7966930652257
 31
0.0
  0
LINE
  5
2053
330
18
100
AcDbEntity
  8
目盛
100
AcDbLine
 10
312.0540179712787
 20
296.0645625973178
 30
0.0
 11
311.6809831405315
 21
294.6116878556249
 31
0.0
  0
LINE
  5
2055
330
18
100
AcDbEntity
  8
目盛
100
AcDbLine
 10
307.3818118708662
 20
296.5062161068124
 30
0.0
 11
307.4759976501602
 21
295.0091760141699
 31
0.0
  0
LINE
  5
2056
330
18
100
AcDbEntity
  8
目盛
100
AcDbLine
 10
306.4436711603414
 20
296.4175357001055
 30
0.0
 11
306.6316710106877
 21
294.9293636481338
 31
0.0
  0
LINE
  5
2057
330
18
100
AcDbEntity
  8
目盛
100
AcDbLine
 10
305.5129499450201
 20
296.2701239413186
 30
0.0
 11
305.7940219168986
 21
294.7966930652256
 31
0.0
  0
LINE
  5
2058
330
18
100
AcDbEntity
  8
目盛
100
AcDbLine
 10
304.5933213563331
 20
296.0645625973178
 30
0.0
 11
304.9663561870803
 21
294.6116878556249
 31
0.0
  0
LINE
  5
2059
330
18
100
AcDbEntity
  8
目盛
100
AcDbLine
 10
303.6884147481817
 20
295.8016629248156
 30
0.0
 11
304.4609572341191
 21
293.4240216340778
 31
0.0
  0
LINE
  5
205A
330
18
100
AcDbEntity
  8
目盛
100
AcDbLine
 10
302.8018013735358
 20
295.4824624687121
 30
0.0
 11
303.3539882025627
 21
294.0877977398797
 31
0.0
  0
LINE
  5
205B
330
18
100
AcDbEntity
  8
目盛
100
AcDbLine
 10
301.9369802903298
 20
295.1082209673787
 30
0.0
 11
302.5756492276773
 21
293.7509803886797
 31
0.0
  0
LINE
  5
205C
330
18
100
AcDbEntity
  8
目盛
100
AcDbLine
 10
301.0973645522802
 20
294.6804153810463
 30
0.0
 11
301.8199950634328
 21
293.3659553609805
 31
0.0
  0
LINE
  5
205D
330
18
100
AcDbEntity
  8
目盛
100
AcDbLine
 10
300.286267739121
 20
294.2007340629186
 30
0.0
 11
301.0900079315895
 21
292.9342421746655
 31
0.0
  0
LINE
  5
205E
330
18
100
AcDbEntity
  8
目盛
100
AcDbLine
 10
299.5068908794188
 20
293.6710700960126
 30
0.0
 11
300.97635401015
 21
291.6485276100752
 31
0.0
  0
LINE
  5
205F
330
18
100
AcDbEntity
  8
目盛
100
AcDbLine
 10
298.7623098175756
 20
293.0935138220251
 30
0.0
 11
299.7184458021986
 21
291.9377439578615
 31
0.0
  0
LINE
  5
2060
330
18
100
AcDbEntity
  8
目盛
100
AcDbLine
 10
298.0554630748756
 20
292.4703445917095
 30
0.0
 11
299.0822837337686
 21
291.3768916505774
 31
0.0
  0
LINE
  5
2061
330
18
100
AcDbEntity
  8
目盛
100
AcDbLine
 10
297.3891402524848
 20
291.8040217693187
 30
0.0
 11
298.4825931936168
 21
290.7772011104257
 31
0.0
  0
LINE
  5
2062
330
18
100
AcDbEntity
  8
目盛
100
AcDbLine
 10
296.7659710221691
 20
291.0971750266187
 30
0.0
 11
297.9217408863328
 21
290.1410390419957
 31
0.0
  0
LINE
  5
2063
330
18
100
AcDbEntity
  8
目盛
100
AcDbLine
 10
296.1884147481817
 20
290.3525939647754
 30
0.0
 11
298.2109572341191
 21
288.8831308340443
 31
0.0
  0
LINE
  5
2064
330
18
100
AcDbEntity
  8
目盛
100
AcDbLine
 10
295.6587507812757
 20
289.5732171050732
 30
0.0
 11
296.9252426695287
 21
288.7694769126048
 31
0.0
  0
LINE
  5
2065
330
18
100
AcDbEntity
  8
目盛
100
AcDbLine
 10
295.1790694631479
 20
288.7621202919141
 30
0.0
 11
296.4935294832137
 21
288.0394897807614
 31
0.0
  0
LINE
  5
2066
330
18
100
AcDbEntity
  8
目盛
100
AcDbLine
 10
294.7512638768157
 20
287.9225045538644
 30
0.0
 11
296.1085044555147
 21
287.2838356165167
 31
0.0
  0
LINE
  5
2067
330
18
100
AcDbEntity
  8
目盛
100
AcDbLine
 10
294.3770223754821
 20
287.0576834706585
 30
0.0
 11
295.7716871043146
 21
286.5054966416315
 31
0.0
  0
LINE
  5
2068
330
18
100
AcDbEntity
  8
目盛
100
AcDbLine
 10
294.0578219193786
 20
286.1710700960125
 30
0.0
 11
296.4354632101165
 21
285.3985276100751
 31
0.0
  0
LINE
  5
2069
330
18
100
AcDbEntity
  8
目盛
100
AcDbLine
 10
293.7949222468765
 20
285.2661634878611
 30
0.0
 11
295.2477969885694
 21
284.8931286571139
 31
0.0
  0
LINE
  5
206A
330
18
100
AcDbEntity
  8
目盛
100
AcDbLine
 10
293.5893609028756
 20
284.3465348991742
 30
0.0
 11
295.0627917789686
 21
284.0654629272956
 31
0.0
  0
LINE
  5
206B
330
18
100
AcDbEntity
  8
目盛
100
AcDbLine
 10
293.4419491440888
 20
283.4158136838529
 30
0.0
 11
294.9301211960604
 21
283.2278138335064
 31
0.0
  0
LINE
  5
206C
330
18
100
AcDbEntity
  8
目盛
100
AcDbLine
 10
293.3532687373818
 20
282.4776729733281
 30
0.0
 11
294.8503088300242
 21
282.3834871940341
 31
0.0
  0
LINE
  5
206D
330
18
100
AcDbEntity
  8
目盛
100
AcDbLine
 10
293.3236696638059
 20
281.5358151803883
 30
0.0
 11
295.8236696638059
 21
281.5358151803883
 31
0.0
  0
LINE
  5
206E
330
18
100
AcDbEntity
  8
目盛
100
AcDbLine
 10
293.3532687373819
 20
280.5939573874487
 30
0.0
 11
294.8503088300243
 21
280.6881431667427
 31
0.0
  0
LINE
  5
206F
330
18
100
AcDbEntity
  8
目盛
100
AcDbLine
 10
293.4419491440888
 20
279.6558166769238
 30
0.0
 11
294.9301211960604
 21
279.8438165272703
 31
0.0
  0
LINE
  5
2070
330
18
100
AcDbEntity
  8
目盛
100
AcDbLine
 10
293.5893609028756
 20
278.7250954616025
 30
0.0
 11
295.0627917789686
 21
279.0061674334811
 31
0.0
  0
LINE
  5
2071
330
18
100
AcDbEntity
  8
目盛
100
AcDbLine
 10
293.7949222468765
 20
277.8054668729156
 30
0.0
 11
295.2477969885694
 21
278.1785017036629
 31
0.0
  0
LINE
  5
2072
330
18
100
AcDbEntity
  8
目盛
100
AcDbLine
 10
294.0578219193786
 20
276.9005602647641
 30
0.0
 11
296.4354632101165
 21
277.6731027507015
 31
0.0
  0
LINE
  5
2073
330
18
100
AcDbEntity
  8
目盛
100
AcDbLine
 10
294.3770223754822
 20
276.0139468901182
 30
0.0
 11
295.7716871043146
 21
276.5661337191452
 31
0.0
  0
LINE
  5
2074
330
18
100
AcDbEntity
  8
目盛
100
AcDbLine
 10
294.7512638768156
 20
275.1491258069123
 30
0.0
 11
296.1085044555147
 21
275.7877947442598
 31
0.0
  0
LINE
  5
2075
330
18
100
AcDbEntity
  8
目盛
100
AcDbLine
 10
295.179069463148
 20
274.3095100688627
 30
0.0
 11
296.4935294832138
 21
275.0321405800152
 31
0.0
  0
LINE
  5
2076
330
18
100
AcDbEntity
  8
目盛
100
AcDbLine
 10
295.6587507812757
 20
273.4984132557034
 30
0.0
 11
296.9252426695287
 21
274.3021534481719
 31
0.0
  0
LINE
  5
2077
330
18
100
AcDbEntity
  8
目盛
100
AcDbLine
 10
296.1884147481818
 20
272.7190363960012
 30
0.0
 11
298.2109572341192
 21
274.1884995267324
 31
0.0
  0
LINE
  5
2078
330
18
100
AcDbEntity
  8
目盛
100
AcDbLine
 10
296.7659710221691
 20
271.974455334158
 30
0.0
 11
297.9217408863327
 21
272.9305913187811
 31
0.0
  0
LINE
  5
2079
330
18
100
AcDbEntity
  8
目盛
100
AcDbLine
 10
297.3891402524847
 20
271.267608591458
 30
0.0
 11
298.4825931936168
 21
272.294429250351
 31
0.0
  0
LINE
  5
207A
330
18
100
AcDbEntity
  8
目盛
100
AcDbLine
 10
298.0554630748756
 20
270.6012857690673
 30
0.0
 11
299.0822837337686
 21
271.6947387101992
 31
0.0
  0
LINE
  5
207B
330
18
100
AcDbEntity
  8
目盛
100
AcDbLine
 10
298.7623098175756
 20
269.9781165387515
 30
0.0
 11
299.7184458021985
 21
271.1338864029153
 31
0.0
  0
LINE
  5
207C
330
18
100
AcDbEntity
  8
目盛
100
AcDbLine
 10
299.5068908794188
 20
269.4005602647641
 30
0.0
 11
300.97635401015
 21
271.4231027507015
 31
0.0
  0
LINE
  5
207D
330
18
100
AcDbEntity
  8
目盛
100
AcDbLine
 10
300.2862677391211
 20
268.8708962978582
 30
0.0
 11
301.0900079315895
 21
270.1373881861112
 31
0.0
  0
LINE
  5
207E
330
18
100
AcDbEntity
  8
目盛
100
AcDbLine
 10
301.0973645522802
 20
268.3912149797304
 30
0.0
 11
301.8199950634329
 21
269.7056749997961
 31
0.0
  0
LINE
  5
207F
330
18
100
AcDbEntity
  8
目盛
100
AcDbLine
 10
301.9369802903299
 20
267.9634093933981
 30
0.0
 11
302.5756492276775
 21
269.3206499720971
 31
0.0
  0
LINE
  5
2080
330
18
100
AcDbEntity
  8
目盛
100
AcDbLine
 10
302.8018013735358
 20
267.5891678920646
 30
0.0
 11
303.3539882025629
 21
268.983832620897
 31
0.0
  0
LINE
  5
2081
330
18
100
AcDbEntity
  8
目盛
100
AcDbLine
 10
303.6884147481818
 20
267.269967435961
 30
0.0
 11
304.4609572341191
 21
269.6476087266989
 31
0.0
  0
LINE
  5
2082
330
18
100
AcDbEntity
  8
目盛
100
AcDbLine
 10
304.5933213563332
 20
267.0070677634588
 30
0.0
 11
304.9663561870804
 21
268.4599425051518
 31
0.0
  0
LINE
  5
2083
330
18
100
AcDbEntity
  8
目盛
100
AcDbLine
 10
305.5129499450201
 20
266.8015064194579
 30
0.0
 11
305.7940219168987
 21
268.2749372955509
 31
0.0
  0
LINE
  5
2084
330
18
100
AcDbEntity
  8
目盛
100
AcDbLine
 10
306.4436711603414
 20
266.6540946606712
 30
0.0
 11
306.6316710106879
 21
268.1422667126428
 31
0.0
  0
LINE
  5
2085
330
18
100
AcDbEntity
  8
目盛
100
AcDbLine
 10
307.3818118708662
 20
266.5654142539642
 30
0.0
 11
307.4759976501602
 21
268.0624543466066
 31
0.0
  0
LINE
  5
2086
330
18
100
AcDbEntity
  8
目盛
100
AcDbLine
 10
308.3236696638059
 20
266.5358151803883
 30
0.0
 11
308.3236696638059
 21
269.0358151803883
 31
0.0
  0
LINE
  5
2087
330
18
100
AcDbEntity
  8
目盛
100
AcDbLine
 10
309.2655274567456
 20
266.5654142539642
 30
0.0
 11
309.1713416774516
 21
268.0624543466066
 31
0.0
  0
LINE
  5
2088
330
18
100
AcDbEntity
  8
目盛
100
AcDbLine
 10
310.2036681672704
 20
266.6540946606711
 30
0.0
 11
310.015668316924
 21
268.1422667126428
 31
0.0
  0
LINE
  5
2089
330
18
100
AcDbEntity
  8
目盛
100
AcDbLine
 10
311.1343893825917
 20
266.8015064194579
 30
0.0
 11
310.8533174107131
 21
268.2749372955509
 31
0.0
  0
LINE
  5
208A
330
18
100
AcDbEntity
  8
目盛
100
AcDbLine
 10
312.0540179712786
 20
267.0070677634588
 30
0.0
 11
311.6809831405313
 21
268.4599425051517
 31
0.0
  0
LINE
  5
208B
330
18
100
AcDbEntity
  8
目盛
100
AcDbLine
 10
312.9589245794301
 20
267.269967435961
 30
0.0
 11
312.1863820934927
 21
269.6476087266988
 31
0.0
  0
LINE
  5
208C
330
18
100
AcDbEntity
  8
目盛
100
AcDbLine
 10
313.8455379540761
 20
267.5891678920645
 30
0.0
 11
313.2933511250491
 21
268.9838326208969
 31
0.0
  0
LINE
  5
208D
330
18
100
AcDbEntity
  8
目盛
100
AcDbLine
 10
314.710359037282
 20
267.963409393398
 30
0.0
 11
314.0716900999345
 21
269.320649972097
 31
0.0
  0
LINE
  5
208E
330
18
100
AcDbEntity
  8
目盛
100
AcDbLine
 10
315.5499747753316
 20
268.3912149797304
 30
0.0
 11
314.827344264179
 21
269.7056749997961
 31
0.0
  0
LINE
  5
208F
330
18
100
AcDbEntity
  8
目盛
100
AcDbLine
 10
316.3610715884908
 20
268.870896297858
 30
0.0
 11
315.5573313960223
 21
270.1373881861111
 31
0.0
  0
LINE
  5
2090
330
18
100
AcDbEntity
  8
目盛
100
AcDbLine
 10
317.140448448193
 20
269.4005602647641
 30
0.0
 11
315.6709853174618
 21
271.4231027507015
 31
0.0
  0
LINE
  5
2091
330
18
100
AcDbEntity
  8
目盛
100
AcDbLine
 10
317.8850295100362
 20
269.9781165387515
 30
0.0
 11
316.9288935254132
 21
271.1338864029151
 31
0.0
  0
LINE
  5
2092
330
18
100
AcDbEntity
  8
目盛
100
AcDbLine
 10
318.5918762527363
 20
270.6012857690672
 30
0.0
 11
317.5650555938432
 21
271.6947387101992
 31
0.0
  0
LINE
  5
2093
330
18
100
AcDbEntity
  8
目盛
100
AcDbLine
 10
319.258199075127
 20
271.267608591458
 30
0.0
 11
318.164746133995
 21
272.294429250351
 31
0.0
  0
LINE
  5
2094
330
18
100
AcDbEntity
  8
目盛
100
AcDbLine
 10
319.8813683054427
 20
271.974455334158
 30
0.0
 11
318.725598441279
 21
272.9305913187809
 31
0.0
  0
LINE
  5
2095
330
18
100
AcDbEntity
  8
目盛
100
AcDbLine
 10
320.4589245794301
 20
272.7190363960012
 30
0.0
 11
318.4363820934927
 21
274.1884995267324
 31
0.0
  0
LINE
  5
2096
330
18
100
AcDbEntity
  8
目盛
100
AcDbLine
 10
320.9885885463361
 20
273.4984132557034
 30
0.0
 11
319.7220966580831
 21
274.3021534481719
 31
0.0
  0
LINE
  5
2097
330
18
100
AcDbEntity
  8
目盛
100
AcDbLine
 10
321.4682698644639
 20
274.3095100688625
 30
0.0
 11
320.1538098443981
 21
275.0321405800152
 31
0.0
  0
LINE
  5
2098
330
18
100
AcDbEntity
  8
目盛
100
AcDbLine
 10
321.8960754507961
 20
275.1491258069121
 30
0.0
 11
320.5388348720971
 21
275.7877947442598
 31
0.0
  0
LINE
  5
2099
330
18
100
AcDbEntity
  8
目盛
100
AcDbLine
 10
322.2703169521296
 20
276.0139468901181
 30
0.0
 11
320.8756522232973
 21
276.5661337191451
 31
0.0
  0
LINE
  5
209A
330
18
100
AcDbEntity
  8
目盛
100
AcDbLine
 10
322.5895174082332
 20
276.9005602647641
 30
0.0
 11
320.2118761174953
 21
277.6731027507015
 31
0.0
  0
LINE
  5
209B
330
18
100
AcDbEntity
  8
目盛
100
AcDbLine
 10
322.8524170807353
 20
277.8054668729155
 30
0.0
 11
321.3995423390424
 21
278.1785017036627
 31
0.0
  0
LINE
  5
209C
330
18
100
AcDbEntity
  8
目盛
100
AcDbLine
 10
323.0579784247362
 20
278.7250954616024
 30
0.0
 11
321.5845475486432
 21
279.006167433481
 31
0.0
  0
LINE
  5
209D
330
18
100
AcDbEntity
  8
目盛
100
AcDbLine
 10
323.2053901835231
 20
279.6558166769237
 30
0.0
 11
321.7172181315514
 21
279.8438165272702
 31
0.0
  0
LINE
  5
209E
330
18
100
AcDbEntity
  8
目盛
100
AcDbLine
 10
323.29407059023
 20
280.5939573874486
 30
0.0
 11
321.7970304975876
 21
280.6881431667425
 31
0.0
  0
LINE
  5
209F
330
18
100
AcDbEntity
  8
目盛
100
AcDbLine
 10
323.3236696638059
 20
281.5358151803883
 30
0.0
 11
320.8236696638059
 21
281.5358151803883
 31
0.0
  0
LINE
  5
20A0
330
18
100
AcDbEntity
  8
目盛
100
AcDbLine
 10
323.2940705902299
 20
282.477672973328
 30
0.0
 11
321.7970304975875
 21
282.383487194034
 31
0.0
  0
LINE
  5
20A1
330
18
100
AcDbEntity
  8
目盛
100
AcDbLine
 10
323.2053901835231
 20
283.4158136838529
 30
0.0
 11
321.7172181315514
 21
283.2278138335065
 31
0.0
  0
LINE
  5
20A2
330
18
100
AcDbEntity
  8
目盛
100
AcDbLine
 10
323.0579784247362
 20
284.3465348991742
 30
0.0
 11
321.5845475486432
 21
284.0654629272956
 31
0.0
  0
LINE
  5
20A3
330
18
100
AcDbEntity
  8
目盛
100
AcDbLine
 10
322.8524170807354
 20
285.2661634878611
 30
0.0
 11
321.3995423390424
 21
284.8931286571138
 31
0.0
  0
LINE
  5
20A4
330
18
100
AcDbEntity
  8
目盛
100
AcDbLine
 10
322.5895174082332
 20
286.1710700960125
 30
0.0
 11
320.2118761174954
 21
285.3985276100752
 31
0.0
  0
LINE
  5
20A5
330
18
100
AcDbEntity
  8
目盛
100
AcDbLine
 10
322.2703169521296
 20
287.0576834706584
 30
0.0
 11
320.8756522232973
 21
286.5054966416315
 31
0.0
  0
LINE
  5
20A6
330
18
100
AcDbEntity
  8
目盛
100
AcDbLine
 10
321.8960754507961
 20
287.9225045538644
 30
0.0
 11
320.5388348720971
 21
287.2838356165169
 31
0.0
  0
LINE
  5
20A7
330
18
100
AcDbEntity
  8
目盛
100
AcDbLine
 10
321.4682698644638
 20
288.762120291914
 30
0.0
 11
320.153809844398
 21
288.0394897807615
 31
0.0
  0
LINE
  5
20A8
330
18
100
AcDbEntity
  8
目盛
100
AcDbLine
 10
320.9885885463361
 20
289.5732171050732
 30
0.0
 11
319.7220966580831
 21
288.7694769126047
 31
0.0
  0
LINE
  5
20A9
330
18
100
AcDbEntity
  8
目盛
100
AcDbLine
 10
320.4589245794301
 20
290.3525939647754
 30
0.0
 11
318.4363820934927
 21
288.8831308340442
 31
0.0
  0
LINE
  5
20AA
330
18
100
AcDbEntity
  8
目盛
100
AcDbLine
 10
319.8813683054427
 20
291.0971750266187
 30
0.0
 11
318.725598441279
 21
290.1410390419956
 31
0.0
  0
LINE
  5
20AB
330
18
100
AcDbEntity
  8
目盛
100
AcDbLine
 10
319.258199075127
 20
291.8040217693187
 30
0.0
 11
318.1647461339949
 21
290.7772011104257
 31
0.0
  0
LINE
  5
20AC
330
18
100
AcDbEntity
  8
目盛
100
AcDbLine
 10
318.5918762527362
 20
292.4703445917094
 30
0.0
 11
317.5650555938432
 21
291.3768916505774
 31
0.0
  0
LINE
  5
20AD
330
18
100
AcDbEntity
  8
目盛
100
AcDbLine
 10
317.8850295100363
 20
293.0935138220251
 30
0.0
 11
316.9288935254132
 21
291.9377439578615
 31
0.0
  0
LINE
  5
20AE
330
18
100
AcDbEntity
  8
目盛
100
AcDbLine
 10
317.140448448193
 20
293.6710700960126
 30
0.0
 11
315.6709853174618
 21
291.6485276100752
 31
0.0
  0
LINE
  5
20AF
330
18
100
AcDbEntity
  8
目盛
100
AcDbLine
 10
316.3610715884908
 20
294.2007340629185
 30
0.0
 11
315.5573313960224
 21
292.9342421746655
 31
0.0
  0
LINE
  5
20B0
330
18
100
AcDbEntity
  8
目盛
100
AcDbLine
 10
315.5499747753317
 20
294.6804153810463
 30
0.0
 11
314.827344264179
 21
293.3659553609805
 31
0.0
  0
LINE
  5
20B1
330
18
100
AcDbEntity
  8
目盛
100
AcDbLine
 10
314.710359037282
 20
295.1082209673785
 30
0.0
 11
314.0716900999344
 21
293.7509803886796
 31
0.0
  0
LINE
  5
20B2
330
18
100
AcDbEntity
  8
目盛
100
AcDbLine
 10
313.8455379540761
 20
295.4824624687121
 30
0.0
 11
313.2933511250491
 21
294.0877977398797
 31
0.0
  0
LINE
  5
20B3
330
18
100
AcDbEntity
  8
目盛
100
AcDbLine
 10
312.9589245794301
 20
295.8016629248156
 30
0.0
 11
312.1863820934928
 21
293.4240216340778
 31
0.0
  0
LINE
  5
20D2
330
18
100
AcDbEntity
  8
外形線
100
AcDbLine
 10
307.2236696638059
 20
236.7358151803883
 30
0.0
 11
309.4236696638059
 21
236.7358151803884
 31
0.0
  0
DIMENSION
  5
20FD
330
18
100
AcDbEntity
  8
外形線
100
AcDbDimension
  2
*D4
 10
329.2966127417875
 20
226.7358151803883
 30
0.0
 11
327.4216127417874
 21
235.0358151803884
 31
0.0
 70
    32
 71
     5
 42
16.59999999999999
  3
STYLE3
100
AcDbAlignedDimension
 13
316.4121457755959
 23
243.3358151803883
 33
0.0
 14
311.2844176290535
 24
226.7358151803883
 34
0.0
 50
90.0
100
AcDbRotatedDimension
1001
ACAD
1000
DSTYLE
1002
{
1070
   271
1070
     2
1002
}
  0
DIMENSION
  5
210A
330
18
100
AcDbEntity
  8
外形線
100
AcDbDimension
  2
*D5
 10
334.2752740786341
 20
226.7358151803883
 30
0.0
 11
332.400274078634
 21
254.1358151803884
 31
0.0
 70
    32
 71
     5
 42
54.79999999999995
  3
STYLE3
100
AcDbAlignedDimension
 13
329.2761245535196
 23
281.5358151803883
 33
0.0
 14
330.5466127417875
 24
226.7358151803883
 34
0.0
 50
90.0
100
AcDbRotatedDimension
1001
ACAD
1000
DSTYLE
1002
{
1070
   271
1070
     2
1002
}
  0
DIMENSION
  5
2124
330
18
100
AcDbEntity
  8
外形線
100
AcDbDimension
  2
*D6
 10
295.8684589573444
 20
226.7358151803883
 30
0.0
 11
293.9934589573443
 21
233.0358151803884
 31
0.0
 70
    32
 71
     5
 42
12.59999999999994
  3
STYLE3
100
AcDbAlignedDimension
 13
304.3236696638059
 23
239.3358151803883
 33
0.0
 14
305.9402674188214
 24
226.7358151803883
 34
0.0
 50
90.0
100
AcDbRotatedDimension
1001
ACAD
1000
DSTYLE
1002
{
1070
   271
1070
     2
1002
}
  0
DIMENSION
  5
2132
330
18
100
AcDbEntity
  8
外形線
100
AcDbDimension
  2
*D7
 10
339.7280934115844
 20
225.7358151803883
 30
0.0
 11
337.8530934115843
 21
270.1358151803884
 31
0.0
 70
    32
 71
     5
 42
88.79999999999999
  3
STYLE3
100
AcDbAlignedDimension
 13
335.4149429428929
 23
314.5358151803884
 33
0.0
 14
308.3236696638061
 24
225.7358151803884
 34
0.0
 50
90.0
100
AcDbRotatedDimension
1001
ACAD
1000
DSTYLE
1002
{
1070
   271
1070
     2
1002
}
  0
INSERT
  5
26FD
330
18
100
AcDbEntity
  8
目盛
100
AcDbBlockReference
  2
PC_PCN針
 10
308.323669663806
 20
281.5358151803884
 30
0.0
 50
287.9999999999995
  0
TEXT
  5
2745
330
18
100
AcDbEntity
  8
文字
100
AcDbText
 10
306.14222077982
 20
357.7792901934413
 30
0.0
 40
4.0
  1
Model No.PCN-2B New Pic Test Indicator
  7
STYLE3
100
AcDbText
  0
LINE
  5
2746
330
18
100
AcDbEntity
  8
外形線
100
AcDbLine
 10
305.53109877982
 20
355.3611041934413
 30
0.0
 11
428.5310987798199
 21
355.3611041934413
 31
0.0
  0
LINE
  5
2747
330
18
100
AcDbEntity
  8
外形線
100
AcDbLine
 10
305.53109877982
 20
356.3611041934414
 30
0.0
 11
428.5310987798199
 21
356.3611041934414
 31
0.0
  0
LINE
  5
274D
330
18
100
AcDbEntity
  8
外形線
100
AcDbLine
 10
350.5568977798199
 20
192.5600151934413
 30
0.0
 11
491.3483157798199
 21
192.5600151934413
 31
0.0
  0
LINE
  5
274E
330
18
100
AcDbEntity
  8
外形線
100
AcDbLine
 10
350.5568977798199
 20
181.7798091934413
 30
0.0
 11
491.3483157798199
 21
181.7798091934413
 31
0.0
  0
TEXT
  5
274F
330
18
100
AcDbEntity
  8
0
  6
Continuous
100
AcDbText
 10
352.01436477982
 20
183.6777991934413
 30
0.0
 40
2.1
  1
Design and specifications are subject to change without notice for future improvement.
  7
STYLE3
100
AcDbText
  0
TEXT
  5
2750
330
18
100
AcDbEntity
  8
0
  6
Continuous
100
AcDbText
 10
352.30585877982
 20
187.6069471934413
 30
0.0
 40
3.5
  1
仕様及び外観は予告なく変更される場合がございますのでご了承下さい。
  7
STYLE3
100
AcDbText
  0
TEXT
  5
2751
330
18
100
AcDbEntity
  8
0
  6
Continuous
100
AcDbText
 10
351.72287377982
 20
173.9131711934413
 30
0.0
 40
2.1
  1
3RD Angle Projection
  7
STYLE3
100
AcDbText
  0
TEXT
  5
2752
330
18
100
AcDbEntity
  8
0
  6
Continuous
100
AcDbText
 10
354.34631677982
 20
177.4094541934413
 30
0.0
 40
3.0
  1
三　　角　　法
  7
STYLE3
100
AcDbText
  0
LINE
  5
2753
330
18
100
AcDbEntity
  8
外形線
100
AcDbLine
 10
350.5568977798199
 20
172.1650311934413
 30
0.0
 11
350.5568977798199
 21
192.5600151934413
 31
0.0
  0
LINE
  5
2754
330
18
100
AcDbEntity
  8
外形線
100
AcDbLine
 10
452.5796647798199
 20
181.7798091934413
 30
0.0
 11
452.5796647798199
 21
172.1650311934413
 31
0.0
  0
LINE
  5
2755
330
18
100
AcDbEntity
  8
外形線
100
AcDbLine
 10
422.8473147798199
 20
181.7798091934413
 30
0.0
 11
422.8473147798199
 21
172.1650311934413
 31
0.0
  0
LINE
  5
2756
330
18
100
AcDbEntity
  8
外形線
100
AcDbLine
 10
403.3172427798199
 20
181.7798091934413
 30
0.0
 11
403.3172427798199
 21
172.1650311934413
 31
0.0
  0
LINE
  5
2757
330
18
100
AcDbEntity
  8
外形線
100
AcDbLine
 10
385.82762577982
 20
181.7798091934413
 30
0.0
 11
385.82762577982
 21
172.1650311934413
 31
0.0
  0
TEXT
  5
2758
330
18
100
AcDbEntity
  8
0
  6
Continuous
100
AcDbText
 10
387.2850947798199
 20
177.4154091934413
 30
0.0
 40
3.0
  1
単位
  7
STYLE3
100
AcDbText
  0
TEXT
  5
2759
330
18
100
AcDbEntity
  8
0
  6
Continuous
100
AcDbText
 10
387.45681577982
 20
173.9131721934413
 30
0.0
 40
2.1
  1
Unit
  7
STYLE3
100
AcDbText
  0
TEXT
  5
275A
330
18
100
AcDbEntity
  8
0
  6
Continuous
100
AcDbText
 10
404.6029907798199
 20
177.1240511934413
 30
0.0
 40
3.0
  1
尺 度
  7
STYLE3
100
AcDbText
  0
TEXT
  5
275B
330
18
100
AcDbEntity
  8
0
  6
Continuous
100
AcDbText
 10
395.3271427798199
 20
175.6613151934413
 30
0.0
 40
2.399999999999999
  1
mm
  7
STYLE3
100
AcDbText
  0
TEXT
  5
275C
330
18
100
AcDbEntity
  8
0
  6
Continuous
100
AcDbText
 10
405.0662057798199
 20
174.2045291934413
 30
0.0
 40
2.1
  1
Scale
  7
STYLE3
100
AcDbText
  0
TEXT
  5
275D
330
18
100
AcDbEntity
  8
0
  6
Continuous
100
AcDbText
 10
414.68549477982
 20
175.9526721934413
 30
0.0
 40
2.399999999999999
  1
1/1
  7
STYLE3
100
AcDbText
  0
TEXT
  5
275E
330
18
100
AcDbEntity
  8
0
  6
Continuous
100
AcDbText
 10
424.7792657798199
 20
173.9131731934413
 30
0.0
 40
2.1
  1
Date
  7
STYLE3
100
AcDbText
  0
TEXT
  5
275F
330
18
100
AcDbEntity
  8
0
  6
Continuous
100
AcDbText
 10
424.3959047798199
 20
177.2462561934413
 30
0.0
 40
3.0
  1
日 付
  7
STYLE3
100
AcDbText
  0
TEXT
  5
2760
330
18
100
AcDbEntity
  8
0
  6
Continuous
100
AcDbText
 10
433.52407377982
 20
175.6613141934413
 30
0.0
 40
2.1
  1
2010.06.14
  7
STYLE3
100
AcDbText
  0
TEXT
  5
2761
330
18
100
AcDbEntity
  8
0
  6
Continuous
100
AcDbText
 10
453.92862777982
 20
177.7008111934413
 30
0.0
 40
3.0
  1
株式会社　尾崎製作所
  7
STYLE3
100
AcDbText
  0
TEXT
  5
2762
330
18
100
AcDbEntity
  8
0
  6
Continuous
100
AcDbText
 10
454.8031067798198
 20
173.9131721934413
 30
0.0
 40
2.1
  1
OZAKI MFG. CO., LTD.
  7
STYLE3
100
AcDbText
  0
ENDSEC
  0
SECTION
  2
OBJECTS
  0
DICTIONARY
  5
C
330
0
100
AcDbDictionary
281
     1
  3
ACAD_COLOR
350
219C
  3
ACAD_GROUP
350
D
  3
ACAD_IMAGE_DICT
350
B2C
  3
ACAD_LAYOUT
350
219F
  3
ACAD_MATERIAL
350
219B
  3
ACAD_MLINESTYLE
350
1B
  3
ACAD_PLOTSETTINGS
350
21A0
  3
ACAD_PLOTSTYLENAME
350
2199
  3
ACAD_TABLESTYLE
350
219D
  3
ACDBVARIABLEDICTIONARY
350
1297
  3
AVE_ACITABLE
350
1835
  0
DICTIONARY
  5
21A8
330
21A7
100
AcDbDictionary
280
     1
281
     1
  3
ACAD_SORTENTS
360
21A9
  0
DICTIONARY
  5
219C
102
{ACAD_REACTORS
330
C
102
}
330
C
100
AcDbDictionary
281
     1
  0
DICTIONARY
  5
D
102
{ACAD_REACTORS
330
C
102
}
330
C
100
AcDbDictionary
281
     1
  0
DICTIONARY
  5
B2C
102
{ACAD_REACTORS
330
C
102
}
330
C
100
AcDbDictionary
281
     1
  3
ROGO01
350
B2D
  0
DICTIONARY
  5
219F
102
{ACAD_REACTORS
330
C
102
}
330
C
100
AcDbDictionary
281
     1
  3
Model
350
21A1
  3
レイアウト1
350
21A2
  0
DICTIONARY
  5
219B
102
{ACAD_REACTORS
330
C
102
}
330
C
100
AcDbDictionary
281
     1
  0
DICTIONARY
  5
1B
102
{ACAD_REACTORS
330
C
102
}
330
C
100
AcDbDictionary
281
     1
  3
STANDARD
350
1C
  0
DICTIONARY
  5
21A0
102
{ACAD_REACTORS
330
C
102
}
330
C
100
AcDbDictionary
281
     1
  0
ACDBDICTIONARYWDFLT
  5
2199
102
{ACAD_REACTORS
330
C
102
}
330
C
100
AcDbDictionary
281
     1
  3
Normal
350
219A
100
AcDbDictionaryWithDefault
340
219A
  0
DICTIONARY
  5
219D
102
{ACAD_REACTORS
330
C
102
}
330
C
100
AcDbDictionary
281
     1
  3
Standard
350
219E
  0
DICTIONARY
  5
1297
102
{ACAD_REACTORS
330
C
102
}
330
C
100
AcDbDictionary
281
     1
  3
CTABLESTYLE
350
2700
  3
SORTENTS
350
1298
  0
DICTIONARY
  5
1835
102
{ACAD_REACTORS
330
C
102
}
330
C
100
AcDbDictionary
281
     1
  0
SORTENTSTABLE
  5
21A9
102
{ACAD_REACTORS
330
21A8
102
}
330
21A8
100
AcDbSortentsTable
330
21A7
  0
IMAGEDEF
  5
B2D
102
{ACAD_REACTORS
330
B2C
102
}
330
B2C
100
AcDbRasterImageDef
 90
        0
  1
D:\ﾃｽﾄ\rogo01.TIF
 10
3388.0
 20
4668.0
 11
0.0635
 21
0.0635
280
     1
281
     5
  0
LAYOUT
  5
21A1
102
{ACAD_REACTORS
330
219F
102
}
330
219F
100
AcDbPlotSettings
  1

  2
A4 EPSON LP-6100.pc3
  4
A4
  6

 40
5.873749732971191
 41
5.873747825622558
 42
5.873748779296875
 43
5.873748779296875
 44
209.9733276367187
 45
297.0106506347656
 46
0.9
 47
25.0
 48
0.0
 49
0.0
140
0.0
141
0.0
142
1.0
143
1.0
 70
 28336
 72
     1
 73
     1
 74
     1
  7
AutoCAD LT 98.ctb
 75
    16
147
1.0
 76
     1
 77
     2
 78
   300
148
-236.458331892788
149
-171.6287557624776
100
AcDbLayout
  1
Model
 70
     1
 71
     0
 10
0.0
 20
0.0
 11
12.0
 21
9.0
 12
0.0
 22
0.0
 32
0.0
 14
0.0
 24
0.0
 34
0.0
 15
0.0
 25
0.0
 35
0.0
146
0.0
 13
0.0
 23
0.0
 33
0.0
 16
1.0
 26
0.0
 36
0.0
 17
0.0
 27
1.0
 37
0.0
 76
     0
330
18
1001
ACAD_PSEXT
1000
A4 EPSON LP-6100.pc3
1000
EPSON LP-6100
1000
\\SATO-MATE2
1000

1070
     0
  0
LAYOUT
  5
21A2
102
{ACAD_REACTORS
330
219F
102
}
330
219F
100
AcDbPlotSettings
  1

  2
WIDR Printer
  4

  6

 40
0.0
 41
0.0
 42
0.0
 43
0.0
 44
0.0
 45
0.0
 46
0.0
 47
0.0
 48
0.0
 49
0.0
140
0.0
141
0.0
142
1.0
143
1.0
 70
   688
 72
     0
 73
     0
 74
     5
  7
AutoCad LT 98.ctb
 75
    16
147
1.0
 76
     0
 77
     2
 78
   300
148
0.0
149
0.0
100
AcDbLayout
  1
レイアウト1
 70
     1
 71
     1
 10
0.0
 20
0.0
 11
420.0
 21
297.0
 12
0.0
 22
0.0
 32
0.0
 14
1.000000000000000E+20
 24
1.000000000000000E+20
 34
1.000000000000000E+20
 15
-1.000000000000000E+20
 25
-1.000000000000000E+20
 35
-1.000000000000000E+20
146
0.0
 13
0.0
 23
0.0
 33
0.0
 16
1.0
 26
0.0
 36
0.0
 17
0.0
 27
1.0
 37
0.0
 76
     0
330
15
  0
MLINESTYLE
  5
1C
102
{ACAD_REACTORS
330
1B
102
}
330
1B
100
AcDbMlineStyle
  2
STANDARD
 70
     0
  3

 62
   256
 51
90.0
 52
90.0
 71
     2
 49
0.5
 62
   256
  6
BYLAYER
 49
-0.5
 62
   256
  6
BYLAYER
  0
ACDBPLACEHOLDER
  5
219A
102
{ACAD_REACTORS
330
2199
102
}
330
2199
  0
ACAD_PROXY_OBJECT
  5
219E
102
{ACAD_REACTORS
330
219D
102
}
330
219D
100
AcDbProxyObject
 90
      499
 91
      505
 95
  2555929
 70
     0
 93
     1849
310
4214DD185B99185C992420000000000000F83F0000000000003E0FC00000000000004901028000000C1008070000C3001FDFF8000000C1003FBFF000000182007F7FE00000030400FEFFC00000060801FDFF8000000C1003FBFF000000182000000000000000C2020B0000001820100E000186003FBFF000000182007F7FE0
310
0000030400FEFFC00000060801FDFF8000000C1003FBFF000000182007F7FE0000003040000000000000012404160000003040201C00030C007F7FE00000030400FEFFC00000060801FDFF8000000C1003FBFF000000182007F7FE00000030400FEFFC000000608055
340
F
340
F
340
F
 94
        0
  0
DICTIONARYVAR
  5
2700
102
{ACAD_REACTORS
330
1297
102
}
330
1297
100
DictionaryVariables
280
     0
  1
STANDARD
  0
DICTIONARYVAR
  5
1298
102
{ACAD_REACTORS
330
1297
102
}
330
1297
100
DictionaryVariables
280
     0
  1
96
  0
ENDSEC
  0
EOF
