  0
SECTION
  2
HEADER
  9
$ACADVER
  1
AC1018
  9
$ACADMAINTVER
 70
     0
  9
$DWGCODEPAGE
  3
ANSI_932
  9
$INSBASE
 10
0.0
 20
0.0
 30
0.0
  9
$EXTMIN
 10
-0.2064080253769589
 20
-0.2045322825848643
 30
-0.0000000011639827
  9
$EXTMAX
 10
255.220968870147
 20
195.216756504897
 30
0.000000004656961
  9
$LIMMIN
 10
0.0
 20
0.0
  9
$LIMMAX
 10
420.0
 20
297.0
  9
$ORTHOMODE
 70
     0
  9
$REGENMODE
 70
     1
  9
$FILLMODE
 70
     1
  9
$QTEXTMODE
 70
     0
  9
$MIRRTEXT
 70
     1
  9
$LTSCALE
 40
1.0
  9
$ATTMODE
 70
     1
  9
$TEXTSIZE
 40
1.5
  9
$TRACEWID
 40
1.0
  9
$TEXTSTYLE
  7
STYLE3
  9
$CLAYER
  8
外形線
  9
$CELTYPE
  6
BYLAYER
  9
$CECOLOR
 62
   256
  9
$CELTSCALE
 40
1.0
  9
$DISPSILH
 70
     0
  9
$DIMSCALE
 40
1.0
  9
$DIMASZ
 40
2.5
  9
$DIMEXO
 40
0.625
  9
$DIMDLI
 40
3.75
  9
$DIMRND
 40
0.0
  9
$DIMDLE
 40
0.0
  9
$DIMEXE
 40
1.25
  9
$DIMTP
 40
0.0
  9
$DIMTM
 40
0.0
  9
$DIMTXT
 40
2.5
  9
$DIMCEN
 40
2.5
  9
$DIMTSZ
 40
0.0
  9
$DIMTOL
 70
     0
  9
$DIMLIM
 70
     0
  9
$DIMTIH
 70
     0
  9
$DIMTOH
 70
     0
  9
$DIMSE1
 70
     0
  9
$DIMSE2
 70
     0
  9
$DIMTAD
 70
     1
  9
$DIMZIN
 70
     8
  9
$DIMBLK
  1

  9
$DIMASO
 70
     1
  9
$DIMSHO
 70
     1
  9
$DIMPOST
  1

  9
$DIMAPOST
  1

  9
$DIMALT
 70
     0
  9
$DIMALTD
 70
     4
  9
$DIMALTF
 40
0.0394
  9
$DIMLFAC
 40
1.0
  9
$DIMTOFL
 70
     1
  9
$DIMTVP
 40
0.0
  9
$DIMTIX
 70
     0
  9
$DIMSOXD
 70
     0
  9
$DIMSAH
 70
     0
  9
$DIMBLK1
  1

  9
$DIMBLK2
  1

  9
$DIMSTYLE
  2
STYLE3
  9
$DIMCLRD
 70
     0
  9
$DIMCLRE
 70
     0
  9
$DIMCLRT
 70
     0
  9
$DIMTFAC
 40
1.0
  9
$DIMGAP
 40
0.625
  9
$DIMJUST
 70
     0
  9
$DIMSD1
 70
     0
  9
$DIMSD2
 70
     0
  9
$DIMTOLJ
 70
     1
  9
$DIMTZIN
 70
     0
  9
$DIMALTZ
 70
     0
  9
$DIMALTTZ
 70
     0
  9
$DIMUPT
 70
     0
  9
$DIMDEC
 70
     2
  9
$DIMTDEC
 70
     4
  9
$DIMALTU
 70
     8
  9
$DIMALTTD
 70
     4
  9
$DIMTXSTY
  7
STANDARD
  9
$DIMAUNIT
 70
     0
  9
$DIMADEC
 70
     0
  9
$DIMALTRND
 40
0.0
  9
$DIMAZIN
 70
     0
  9
$DIMDSEP
 70
    46
  9
$DIMATFIT
 70
     3
  9
$DIMFRAC
 70
     0
  9
$DIMLDRBLK
  1

  9
$DIMLUNIT
 70
     6
  9
$DIMLWD
 70
    -2
  9
$DIMLWE
 70
    -2
  9
$DIMTMOVE
 70
     0
  9
$LUNITS
 70
     2
  9
$LUPREC
 70
     4
  9
$SKETCHINC
 40
1.0
  9
$FILLETRAD
 40
0.0
  9
$AUNITS
 70
     0
  9
$AUPREC
 70
     0
  9
$MENU
  1
.
  9
$ELEVATION
 40
0.0
  9
$PELEVATION
 40
0.0
  9
$THICKNESS
 40
0.0
  9
$LIMCHECK
 70
     0
  9
$CHAMFERA
 40
0.1
  9
$CHAMFERB
 40
0.1
  9
$CHAMFERC
 40
20.0
  9
$CHAMFERD
 40
0.0
  9
$SKPOLY
 70
     0
  9
$TDCREATE
 40
2451066.662483449
  9
$TDUCREATE
 40
2451066.287483449
  9
$TDUPDATE
 40
2455370.383584340
  9
$TDUUPDATE
 40
2455370.008584340
  9
$TDINDWG
 40
1.0577351620
  9
$TDUSRTIMER
 40
1.0577351620
  9
$USRTIMER
 70
     1
  9
$ANGBASE
 50
0.0
  9
$ANGDIR
 70
     0
  9
$PDMODE
 70
     0
  9
$PDSIZE
 40
0.0
  9
$PLINEWID
 40
0.0
  9
$SPLFRAME
 70
     0
  9
$SPLINETYPE
 70
     6
  9
$SPLINESEGS
 70
     8
  9
$HANDSEED
  5
2EFA
  9
$SURFTAB1
 70
     6
  9
$SURFTAB2
 70
     6
  9
$SURFTYPE
 70
     6
  9
$SURFU
 70
     6
  9
$SURFV
 70
     6
  9
$UCSBASE
  2

  9
$UCSNAME
  2

  9
$UCSORG
 10
0.0
 20
0.0
 30
0.0
  9
$UCSXDIR
 10
1.0
 20
0.0
 30
0.0
  9
$UCSYDIR
 10
0.0
 20
1.0
 30
0.0
  9
$UCSORTHOREF
  2

  9
$UCSORTHOVIEW
 70
     0
  9
$UCSORGTOP
 10
0.0
 20
0.0
 30
0.0
  9
$UCSORGBOTTOM
 10
0.0
 20
0.0
 30
0.0
  9
$UCSORGLEFT
 10
0.0
 20
0.0
 30
0.0
  9
$UCSORGRIGHT
 10
0.0
 20
0.0
 30
0.0
  9
$UCSORGFRONT
 10
0.0
 20
0.0
 30
0.0
  9
$UCSORGBACK
 10
0.0
 20
0.0
 30
0.0
  9
$PUCSBASE
  2

  9
$PUCSNAME
  2

  9
$PUCSORG
 10
0.0
 20
0.0
 30
0.0
  9
$PUCSXDIR
 10
1.0
 20
0.0
 30
0.0
  9
$PUCSYDIR
 10
0.0
 20
1.0
 30
0.0
  9
$PUCSORTHOREF
  2

  9
$PUCSORTHOVIEW
 70
     0
  9
$PUCSORGTOP
 10
0.0
 20
0.0
 30
0.0
  9
$PUCSORGBOTTOM
 10
0.0
 20
0.0
 30
0.0
  9
$PUCSORGLEFT
 10
0.0
 20
0.0
 30
0.0
  9
$PUCSORGRIGHT
 10
0.0
 20
0.0
 30
0.0
  9
$PUCSORGFRONT
 10
0.0
 20
0.0
 30
0.0
  9
$PUCSORGBACK
 10
0.0
 20
0.0
 30
0.0
  9
$USERI1
 70
     0
  9
$USERI2
 70
     0
  9
$USERI3
 70
     0
  9
$USERI4
 70
     0
  9
$USERI5
 70
     0
  9
$USERR1
 40
0.0
  9
$USERR2
 40
0.0
  9
$USERR3
 40
0.0
  9
$USERR4
 40
0.0
  9
$USERR5
 40
0.0
  9
$WORLDVIEW
 70
     1
  9
$SHADEDGE
 70
     3
  9
$SHADEDIF
 70
    70
  9
$TILEMODE
 70
     1
  9
$MAXACTVP
 70
    48
  9
$PINSBASE
 10
0.0
 20
0.0
 30
0.0
  9
$PLIMCHECK
 70
     0
  9
$PEXTMIN
 10
1.000000000000000E+20
 20
1.000000000000000E+20
 30
1.000000000000000E+20
  9
$PEXTMAX
 10
-1.000000000000000E+20
 20
-1.000000000000000E+20
 30
-1.000000000000000E+20
  9
$PLIMMIN
 10
0.0
 20
0.0
  9
$PLIMMAX
 10
420.0
 20
297.0
  9
$UNITMODE
 70
     0
  9
$VISRETAIN
 70
     1
  9
$PLINEGEN
 70
     0
  9
$PSLTSCALE
 70
     1
  9
$TREEDEPTH
 70
  3020
  9
$CMLSTYLE
  2
STANDARD
  9
$CMLJUST
 70
     0
  9
$CMLSCALE
 40
20.0
  9
$PROXYGRAPHICS
 70
     1
  9
$MEASUREMENT
 70
     1
  9
$CELWEIGHT
370
    -1
  9
$ENDCAPS
280
     0
  9
$JOINSTYLE
280
     0
  9
$LWDISPLAY
290
     0
  9
$INSUNITS
 70
     0
  9
$HYPERLINKBASE
  1

  9
$STYLESHEET
  1
AutoCad LT 98.ctb
  9
$XEDIT
290
     1
  9
$CEPSNTYPE
380
     0
  9
$PSTYLEMODE
290
     1
  9
$FINGERPRINTGUID
  2
{DAD97F44-2358-4CB7-BDBA-856B4E220457}
  9
$VERSIONGUID
  2
{607A16BA-DFA0-4246-AC01-56DAD934778E}
  9
$EXTNAMES
290
     1
  9
$PSVPSCALE
 40
0.0
  9
$OLESTARTUP
290
     0
  9
$SORTENTS
280
    96
  9
$INDEXCTL
280
     0
  9
$HIDETEXT
280
     0
  9
$XCLIPFRAME
290
     0
  9
$HALOGAP
280
     0
  9
$OBSCOLOR
 70
   257
  9
$OBSLTYPE
280
     0
  9
$INTERSECTIONDISPLAY
280
     0
  9
$INTERSECTIONCOLOR
 70
   257
  9
$DIMASSOC
280
     1
  9
$PROJECTNAME
  1

  0
ENDSEC
  0
SECTION
  2
CLASSES
  0
CLASS
  1
HATCH
  2
AcDbHatch
  3
ObjectDBX Classes
 90
        0
 91
       24
280
     0
281
     1
  0
CLASS
  1
LWPOLYLINE
  2
AcDbPolyline
  3
ObjectDBX Classes
 90
        0
 91
        1
280
     0
281
     1
  0
CLASS
  1
IMAGEDEF
  2
AcDbRasterImageDef
  3
ISM
 90
        0
 91
        1
280
     0
281
     0
  0
CLASS
  1
DICTIONARYVAR
  2
AcDbDictionaryVar
  3
ObjectDBX Classes
 90
        0
 91
        2
280
     0
281
     0
  0
CLASS
  1
ACDBDICTIONARYWDFLT
  2
AcDbDictionaryWithDefault
  3
ObjectDBX Classes
 90
        0
 91
        1
280
     0
281
     0
  0
CLASS
  1
TABLESTYLE
  2
AcDbTableStyle
  3
ObjectDBX Classes
 90
     2047
 91
        1
280
     0
281
     0
  0
ENDSEC
  0
SECTION
  2
TABLES
  0
TABLE
  2
VPORT
  5
8
330
0
100
AcDbSymbolTable
 70
     3
  0
VPORT
  5
2EF9
330
8
100
AcDbSymbolTableRecord
100
AcDbViewportTableRecord
  2
*Active
 70
     0
 10
0.0
 20
0.0
 11
1.0
 21
1.0
 12
127.507280422385
 22
97.50611211115609
 13
0.0
 23
0.0
 14
10.0
 24
10.0
 15
10.0
 25
10.0
 16
0.0
 26
0.0
 36
1.0
 17
0.0
 27
0.0
 37
0.0
 40
196.9073822383372
 41
1.530456852791878
 42
50.0
 43
0.0
 44
0.0
 50
0.0
 51
0.0
 71
     0
 72
   100
 73
     1
 74
     1
 75
     0
 76
     0
 77
     0
 78
     0
281
     0
 65
     1
110
0.0
120
0.0
130
0.0
111
1.0
121
0.0
131
0.0
112
0.0
122
1.0
132
0.0
 79
     0
146
0.0
  0
ENDTAB
  0
TABLE
  2
LTYPE
  5
5
330
0
100
AcDbSymbolTable
 70
     3
  0
LTYPE
  5
12
330
5
100
AcDbSymbolTableRecord
100
AcDbLinetypeTableRecord
  2
BYBLOCK
 70
     0
  3

 72
    65
 73
     0
 40
0.0
  0
LTYPE
  5
13
330
5
100
AcDbSymbolTableRecord
100
AcDbLinetypeTableRecord
  2
BYLAYER
 70
     0
  3

 72
    65
 73
     0
 40
0.0
  0
LTYPE
  5
14
330
5
100
AcDbSymbolTableRecord
100
AcDbLinetypeTableRecord
  2
CONTINUOUS
 70
     0
  3
Solid line
 72
    65
 73
     0
 40
0.0
  0
LTYPE
  5
22
330
5
100
AcDbSymbolTableRecord
100
AcDbLinetypeTableRecord
  2
CENTER2
 70
     0
  3
Center (.5x) ___ _ ___ _ ___ _ ___ _ ___ _ ___
 72
    65
 73
     4
 40
28.575
 49
19.05
 74
     0
 49
-3.174999999999999
 74
     0
 49
3.174999999999999
 74
     0
 49
-3.174999999999999
 74
     0
  0
LTYPE
  5
23
330
5
100
AcDbSymbolTableRecord
100
AcDbLinetypeTableRecord
  2
HIDDEN2
 70
     0
  3
Hidden (.5x) _ _ _ _ _ _ _ _ _ _ _ _ _ _ _ _ _
 72
    65
 73
     2
 40
4.762499999999999
 49
3.174999999999999
 74
     0
 49
-1.587499999999999
 74
     0
  0
ENDTAB
  0
TABLE
  2
LAYER
  5
2
102
{ACAD_XDICTIONARY
360
2E44
102
}
330
0
100
AcDbSymbolTable
 70
    14
  0
LAYER
  5
E
330
2
100
AcDbSymbolTableRecord
100
AcDbLayerTableRecord
  2
0
 70
     0
 62
     7
  6
CONTINUOUS
370
    -3
390
2B8B
  0
LAYER
  5
25
330
2
100
AcDbSymbolTableRecord
100
AcDbLayerTableRecord
  2
外形線
 70
     0
 62
     7
  6
CONTINUOUS
370
    -3
390
2B8B
  0
LAYER
  5
26
330
2
100
AcDbSymbolTableRecord
100
AcDbLayerTableRecord
  2
寸法線
 70
     0
 62
     2
  6
CONTINUOUS
370
    -3
390
2B8B
  0
LAYER
  5
27
330
2
100
AcDbSymbolTableRecord
100
AcDbLayerTableRecord
  2
中心線
 70
     0
 62
     4
  6
CENTER2
370
    -3
390
2B8B
  0
LAYER
  5
28
330
2
100
AcDbSymbolTableRecord
100
AcDbLayerTableRecord
  2
隠れ線
 70
     0
 62
     6
  6
HIDDEN2
370
    -3
390
2B8B
  0
LAYER
  5
2B
330
2
100
AcDbSymbolTableRecord
100
AcDbLayerTableRecord
  2
文字
 70
     0
 62
     6
  6
CONTINUOUS
370
    -3
390
2B8B
  0
LAYER
  5
2C
330
2
100
AcDbSymbolTableRecord
100
AcDbLayerTableRecord
  2
目盛
 70
     0
 62
    70
  6
CONTINUOUS
370
    -3
390
2B8B
  0
LAYER
  5
2D
330
2
100
AcDbSymbolTableRecord
100
AcDbLayerTableRecord
  2
針
 70
     0
 62
     5
  6
CONTINUOUS
370
    -3
390
2B8B
  0
LAYER
  5
53
330
2
100
AcDbSymbolTableRecord
100
AcDbLayerTableRecord
  2
DEFPOINTS
 70
     0
 62
     7
  6
CONTINUOUS
290
     0
370
    -3
390
2B8B
  0
LAYER
  5
A5
330
2
100
AcDbSymbolTableRecord
100
AcDbLayerTableRecord
  2
C
 70
     0
 62
     7
  6
CONTINUOUS
370
    -3
390
2B8B
  0
LAYER
  5
AD4
330
2
100
AcDbSymbolTableRecord
100
AcDbLayerTableRecord
  2
ROGO
 70
     0
 62
     6
  6
CONTINUOUS
370
    -3
390
2B8B
  0
LAYER
  5
1822
330
2
100
AcDbSymbolTableRecord
100
AcDbLayerTableRecord
  2
ASHADE
 70
     0
 62
     7
  6
CONTINUOUS
370
    -3
390
2B8B
  0
ENDTAB
  0
TABLE
  2
STYLE
  5
3
330
0
100
AcDbSymbolTable
 70
     4
  0
STYLE
  5
F
330
3
100
AcDbSymbolTableRecord
100
AcDbTextStyleTableRecord
  2
STANDARD
 70
     0
 40
0.0
 41
1.0
 50
0.0
 71
     0
 42
2.5
  3
txt
  4

  0
STYLE
  5
3F
330
3
100
AcDbSymbolTableRecord
100
AcDbTextStyleTableRecord
  2
STYLE3
 70
     0
 40
0.0
 41
1.0
 50
0.0
 71
     0
 42
1.5
  3
romans.shx
  4
bigfont.shx
  0
ENDTAB
  0
TABLE
  2
VIEW
  5
6
330
0
100
AcDbSymbolTable
 70
     0
  0
ENDTAB
  0
TABLE
  2
UCS
  5
7
330
0
100
AcDbSymbolTable
 70
     0
  0
ENDTAB
  0
TABLE
  2
APPID
  5
9
330
0
100
AcDbSymbolTable
 70
     7
  0
APPID
  5
10
330
9
100
AcDbSymbolTableRecord
100
AcDbRegAppTableRecord
  2
ACAD
 70
     0
  0
APPID
  5
1820
330
9
100
AcDbSymbolTableRecord
100
AcDbRegAppTableRecord
  2
AVE_RENDER
 70
     0
  0
APPID
  5
1821
330
9
100
AcDbSymbolTableRecord
100
AcDbRegAppTableRecord
  2
AVE_ENTITY_MATERIAL
 70
     0
  0
APPID
  5
182E
330
9
100
AcDbSymbolTableRecord
100
AcDbRegAppTableRecord
  2
AVE_FINISH
 70
     0
  0
APPID
  5
182F
330
9
100
AcDbSymbolTableRecord
100
AcDbRegAppTableRecord
  2
AVE_MATERIAL
 70
     0
  0
APPID
  5
1830
330
9
100
AcDbSymbolTableRecord
100
AcDbRegAppTableRecord
  2
AVE_GLOBAL
 70
     0
  0
APPID
  5
2B98
330
9
100
AcDbSymbolTableRecord
100
AcDbRegAppTableRecord
  2
ACAD_PSEXT
 70
     0
  0
ENDTAB
  0
TABLE
  2
DIMSTYLE
  5
A
330
0
100
AcDbSymbolTable
 70
     6
100
AcDbDimStyleTable
 71
     1
340
8F
  0
DIMSTYLE
105
1D
330
A
100
AcDbSymbolTableRecord
100
AcDbDimStyleTableRecord
  2
STANDARD
 70
     0
 41
2.5
 42
0.625
 43
3.75
 44
1.25
 73
     0
 74
     0
 77
     1
 78
     8
140
2.5
141
2.5
143
0.0394
147
0.625
171
     4
172
     1
273
     8
274
     4
277
     6
340
F
  0
DIMSTYLE
105
8F
102
{ACAD_REACTORS
330
2847
330
285D
330
286D
330
29BA
102
}
330
A
100
AcDbSymbolTableRecord
100
AcDbDimStyleTableRecord
  2
STYLE3
 70
     0
 41
2.5
 42
0.0
 43
3.75
 44
1.25
 73
     0
 74
     0
 77
     1
 78
     8
140
2.5
141
2.5
143
0.0394
147
0.625
171
     4
172
     1
173
     1
176
     2
177
     2
178
     6
271
     1
273
     8
274
     4
340
3F
341
45
343
45
344
45
  0
ENDTAB
  0
TABLE
  2
BLOCK_RECORD
  5
1
330
0
100
AcDbSymbolTable
 70
    20
  0
BLOCK_RECORD
  5
18
330
1
100
AcDbSymbolTableRecord
100
AcDbBlockTableRecord
  2
*MODEL_SPACE
340
2B92
  0
BLOCK_RECORD
  5
15
330
1
100
AcDbSymbolTableRecord
100
AcDbBlockTableRecord
  2
*PAPER_SPACE
340
2B93
  0
BLOCK_RECORD
  5
45
330
1
100
AcDbSymbolTableRecord
100
AcDbBlockTableRecord
  2
_OPEN
340
0
102
{BLKREFS
331
1637
331
1638
331
1654
331
1669
331
166A
331
1B83
331
1B84
331
1B8C
331
1B8D
331
283F
331
287E
331
2889
331
28C3
331
28C7
331
29F9
331
2A3C
331
2A3F
331
2A48
331
2A49
331
2A50
331
2A7B
331
2A7F
331
2A82
331
2A83
331
2A8B
331
2A8D
331
2A93
331
2EB3
331
2EB4
331
2EBC
331
2EBD
331
2EC5
331
2EC6
331
2ECE
331
2ECF
102
}
  0
BLOCK_RECORD
  5
ADD
330
1
100
AcDbSymbolTableRecord
100
AcDbBlockTableRecord
  2
ROGO1
340
0
102
{BLKREFS
331
B43
331
B44
331
FCB
331
FCC
331
1FDE
102
}
  0
BLOCK_RECORD
  5
1823
330
1
100
AcDbSymbolTableRecord
100
AcDbBlockTableRecord
  2
AVE_RENDER
340
0
102
{BLKREFS
331
1826
331
1827
331
1828
331
1829
331
182A
331
182B
331
182C
331
182D
331
1C6C
102
}
  0
BLOCK_RECORD
  5
1831
330
1
100
AcDbSymbolTableRecord
100
AcDbBlockTableRecord
  2
AVE_GLOBAL
340
0
102
{BLKREFS
331
1834
102
}
  0
BLOCK_RECORD
  5
2232
330
1
100
AcDbSymbolTableRecord
100
AcDbBlockTableRecord
  2
A$C4BFB2CFF
340
0
102
{BLKREFS
331
223F
102
}
  0
BLOCK_RECORD
  5
2A97
330
1
100
AcDbSymbolTableRecord
100
AcDbBlockTableRecord
  2
*D5
340
0
  0
BLOCK_RECORD
  5
2AA3
330
1
100
AcDbSymbolTableRecord
100
AcDbBlockTableRecord
  2
*D6
340
0
  0
BLOCK_RECORD
  5
2AAF
330
1
100
AcDbSymbolTableRecord
100
AcDbBlockTableRecord
  2
*D7
340
0
  0
BLOCK_RECORD
  5
2ABB
330
1
100
AcDbSymbolTableRecord
100
AcDbBlockTableRecord
  2
*D8
340
0
  0
ENDTAB
  0
ENDSEC
  0
SECTION
  2
BLOCKS
  0
BLOCK
  5
19
330
18
100
AcDbEntity
  8
0
100
AcDbBlockBegin
  2
*MODEL_SPACE
 70
     0
 10
0.0
 20
0.0
 30
0.0
  3
*MODEL_SPACE
  1

  0
ENDBLK
  5
1A
330
18
100
AcDbEntity
  8
0
100
AcDbBlockEnd
  0
BLOCK
  5
16
330
15
100
AcDbEntity
 67
     1
  8
0
100
AcDbBlockBegin
  2
*PAPER_SPACE
 70
     0
 10
0.0
 20
0.0
 30
0.0
  3
*PAPER_SPACE
  1

  0
ENDBLK
  5
17
330
15
100
AcDbEntity
 67
     1
  8
0
100
AcDbBlockEnd
  0
BLOCK
  5
46
330
45
100
AcDbEntity
  8
0
100
AcDbBlockBegin
  2
_OPEN
 70
     0
 10
0.0
 20
0.0
 30
0.0
  3
_OPEN
  1

  0
LINE
  5
47
330
45
100
AcDbEntity
  8
0
  6
ByBlock
 62
     0
100
AcDbLine
 10
-1.0
 20
0.1666666666666666
 30
0.0
 11
0.0
 21
0.0
 31
0.0
  0
LINE
  5
48
330
45
100
AcDbEntity
  8
0
  6
ByBlock
 62
     0
100
AcDbLine
 10
0.0
 20
0.0
 30
0.0
 11
-1.0
 21
-0.1666666666666666
 31
0.0
  0
LINE
  5
49
330
45
100
AcDbEntity
  8
0
  6
ByBlock
 62
     0
100
AcDbLine
 10
0.0
 20
0.0
 30
0.0
 11
-1.0
 21
0.0
 31
0.0
  0
ENDBLK
  5
4A
330
45
100
AcDbEntity
  8
0
100
AcDbBlockEnd
  0
BLOCK
  5
B2A
330
ADD
100
AcDbEntity
  8
0
100
AcDbBlockBegin
  2
ROGO1
 70
     0
 10
0.0
 20
0.0
 30
0.0
  3
ROGO1
  1

  0
MTEXT
  5
B42
330
ADD
100
AcDbEntity
  8
DEFPOINTS
  6
Continuous
100
AcDbMText
 10
1039.786461861274
 20
160.9640365185991
 30
0.0
 40
1.0
 41
0.0
 71
     4
 72
     1
  1
\A1;
 73
     1
 44
1.0
  0
ENDBLK
  5
B2B
330
ADD
100
AcDbEntity
  8
0
100
AcDbBlockEnd
  0
BLOCK
  5
1824
330
1823
100
AcDbEntity
  8
ASHADE
100
AcDbBlockBegin
  2
AVE_RENDER
 70
     0
 10
0.0
 20
0.0
 30
0.0
  3
AVE_RENDER
  1
AVE_RENDER
  0
ENDBLK
  5
1825
330
1823
100
AcDbEntity
  8
0
100
AcDbBlockEnd
  0
BLOCK
  5
1832
330
1831
100
AcDbEntity
  8
ASHADE
100
AcDbBlockBegin
  2
AVE_GLOBAL
 70
     0
 10
0.0
 20
0.0
 30
0.0
  3
AVE_GLOBAL
  1
AVE_GLOBAL
  0
ENDBLK
  5
1833
330
1831
100
AcDbEntity
  8
0
100
AcDbBlockEnd
  0
BLOCK
  5
223D
330
2232
100
AcDbEntity
  8
0
100
AcDbBlockBegin
  2
A$C4BFB2CFF
 70
     0
 10
0.0
 20
0.0
 30
0.0
  3
A$C4BFB2CFF
  1

  0
CIRCLE
  5
2233
330
2232
100
AcDbEntity
  8
針
100
AcDbCircle
 10
0.6999999832366939
 20
0.6999999305095344
 30
0.0
 40
0.4
  0
CIRCLE
  5
2234
330
2232
100
AcDbEntity
  8
針
100
AcDbCircle
 10
0.6999999832366939
 20
0.6999999305095344
 30
0.0
 40
0.275
  0
CIRCLE
  5
2235
102
{ACAD_REACTORS
330
2238
102
}
330
2232
100
AcDbEntity
  8
針
100
AcDbCircle
 10
0.6999999832366939
 20
0.6999999305095344
 30
0.0
 40
0.7
  0
ARC
  5
2236
102
{ACAD_REACTORS
330
2238
102
}
330
2232
100
AcDbEntity
  8
針
100
AcDbCircle
 10
1.285940300081449
 20
1.747221943782591
 30
0.0
 40
0.5
100
AcDbArc
 50
240.7721702881896
 51
297.9757798350735
  0
ARC
  5
2237
102
{ACAD_REACTORS
330
2238
102
}
330
2232
100
AcDbEntity
  8
針
100
AcDbCircle
 10
1.89804357385347
 20
0.6315050039094956
 30
0.0
 40
0.5
100
AcDbArc
 50
119.5242201649264
 51
176.7278297118104
  0
HATCH
  5
2238
330
2232
100
AcDbEntity
  8
針
100
AcDbHatch
 10
0.0
 20
0.0
 30
0.0
210
0.0
220
0.0
230
1.0
  2
SOLID
 70
     1
 71
     1
 91
        1
 92
        7
 72
     1
 73
     1
 93
        8
 10
3.991987856246367
 20
2.391985699940462
 42
0.0
 10
3.943888979354454
 20
2.479658375511206
 42
0.0
 10
3.895790102462513
 20
2.56733105108195
 42
0.0
 10
1.520489439987159
 20
1.30564895890977
 42
-0.2549126604385726
 10
1.041800003084745
 20
1.310878598030242
 42
-0.2715629374459081
 10
1.399999983236682
 20
0.6999999305095344
 42
-0.0142778933762944
 10
1.398858842406156
 20
0.6600462703473085
 42
-0.2549126627183762
 10
1.651647856719108
 20
1.066578733957399
 42
0.0
 97
        7
330
223C
330
223B
330
2239
330
2236
330
2235
330
2237
330
223A
 75
     0
 76
     1
 47
0.0080572292577995
 98
        1
 10
2.314954628194783
 20
1.560926759672554
450
        0
451
        0
460
0.0
461
0.0
452
        0
462
0.0
453
        0
470

  0
LINE
  5
2239
102
{ACAD_REACTORS
330
2238
102
}
330
2232
100
AcDbEntity
  8
針
100
AcDbLine
 10
1.52048943998713
 20
1.305648958909756
 30
0.0
 11
3.895790102462541
 21
2.567331051081964
 31
0.0
  0
LINE
  5
223A
102
{ACAD_REACTORS
330
2238
102
}
330
2232
100
AcDbEntity
  8
針
100
AcDbLine
 10
1.65164785671908
 20
1.066578733957385
 30
0.0
 11
3.991987856246396
 21
2.391985699940477
 31
0.0
  0
LINE
  5
223B
102
{ACAD_REACTORS
330
2238
102
}
330
2232
100
AcDbEntity
  8
針
100
AcDbLine
 10
3.943888979354454
 20
2.479658375511206
 30
0.0
 11
3.895790102462541
 21
2.567331051081936
 31
0.0
  0
LINE
  5
223C
102
{ACAD_REACTORS
330
2238
102
}
330
2232
100
AcDbEntity
  8
針
100
AcDbLine
 10
3.943888979354454
 20
2.479658375511206
 30
0.0
 11
3.991987856246367
 21
2.391985699940505
 31
0.0
  0
ENDBLK
  5
223E
330
2232
100
AcDbEntity
  8
0
100
AcDbBlockEnd
  0
BLOCK
  5
2AC7
330
2A97
100
AcDbEntity
  8
0
100
AcDbBlockBegin
  2
*D5
 70
     1
 10
0.0
 20
0.0
 30
0.0
  3
*D5
  1

  0
LINE
  5
2EB9
330
2A97
100
AcDbEntity
  8
外形線
 62
     2
370
    -2
100
AcDbLine
 10
99.66449912397031
 20
142.5723229578296
 30
0.0
 11
105.2276495926617
 21
142.5723229578296
 31
0.0
  0
LINE
  5
2EBA
330
2A97
100
AcDbEntity
  8
外形線
 62
     2
370
    -2
100
AcDbLine
 10
72.57322584488344
 20
53.77232295782966
 30
0.0
 11
105.2276495926617
 21
53.77232295782965
 31
0.0
  0
LINE
  5
2EBB
330
2A97
100
AcDbEntity
  8
外形線
 62
     2
370
    -2
100
AcDbLine
 10
103.9776495926617
 20
140.0723229578296
 30
0.0
 11
103.9776495926617
 21
56.27232295782965
 31
0.0
  0
INSERT
  5
2EBC
330
2A97
100
AcDbEntity
  8
外形線
 62
     2
370
    -2
100
AcDbBlockReference
  2
_OPEN
 10
103.9776495926617
 20
142.5723229578296
 30
0.0
 41
2.5
 42
2.5
 43
2.5
 50
90.0
  0
INSERT
  5
2EBD
330
2A97
100
AcDbEntity
  8
外形線
 62
     2
370
    -2
100
AcDbBlockReference
  2
_OPEN
 10
103.9776495926617
 20
53.77232295782965
 30
0.0
 41
2.5
 42
2.5
 43
2.5
 50
270.0
  0
MTEXT
  5
2EBE
330
2A97
100
AcDbEntity
  8
外形線
 62
     6
100
AcDbMText
 10
102.1026495926617
 20
98.17232295782966
 30
0.0
 40
2.5
 41
0.0
 71
     5
 72
     1
  1
\A1;88.8
  7
STYLE3
 11
0.0000000000000001
 21
1.0
 31
0.0
 73
     1
 44
1.0
  0
POINT
  5
2EBF
330
2A97
100
AcDbEntity
  8
DEFPOINTS
 62
     0
100
AcDbPoint
 10
99.66449912397031
 20
142.5723229578296
 30
0.0
  0
POINT
  5
2EC0
330
2A97
100
AcDbEntity
  8
DEFPOINTS
 62
     0
100
AcDbPoint
 10
72.57322584488344
 20
53.77232295782966
 30
0.0
  0
POINT
  5
2EC1
330
2A97
100
AcDbEntity
  8
DEFPOINTS
 62
     0
100
AcDbPoint
 10
103.9776495926617
 20
53.77232295782965
 30
0.0
  0
ENDBLK
  5
2AD1
330
2A97
100
AcDbEntity
  8
0
100
AcDbBlockEnd
  0
BLOCK
  5
2AD2
330
2AA3
100
AcDbEntity
  8
0
100
AcDbBlockBegin
  2
*D6
 70
     1
 10
0.0
 20
0.0
 30
0.0
  3
*D6
  1

  0
LINE
  5
2EB0
330
2AA3
100
AcDbEntity
  8
外形線
 62
     2
370
    -2
100
AcDbLine
 10
80.6617019566733
 20
71.37232295782962
 30
0.0
 11
94.79616892286486
 21
71.37232295782962
 31
0.0
  0
LINE
  5
2EB1
330
2AA3
100
AcDbEntity
  8
外形線
 62
     2
370
    -2
100
AcDbLine
 10
75.53397381013081
 20
54.77232295782965
 30
0.0
 11
94.79616892286486
 21
54.77232295782965
 31
0.0
  0
LINE
  5
2EB2
330
2AA3
100
AcDbEntity
  8
外形線
 62
     2
370
    -2
100
AcDbLine
 10
93.54616892286486
 20
68.87232295782962
 30
0.0
 11
93.54616892286486
 21
57.27232295782965
 31
0.0
  0
INSERT
  5
2EB3
330
2AA3
100
AcDbEntity
  8
外形線
 62
     2
370
    -2
100
AcDbBlockReference
  2
_OPEN
 10
93.54616892286486
 20
71.37232295782962
 30
0.0
 41
2.5
 42
2.5
 43
2.5
 50
90.0
  0
INSERT
  5
2EB4
330
2AA3
100
AcDbEntity
  8
外形線
 62
     2
370
    -2
100
AcDbBlockReference
  2
_OPEN
 10
93.54616892286486
 20
54.77232295782965
 30
0.0
 41
2.5
 42
2.5
 43
2.5
 50
270.0
  0
MTEXT
  5
2EB5
330
2AA3
100
AcDbEntity
  8
外形線
 62
     6
100
AcDbMText
 10
91.67116892286484
 20
63.07232295782965
 30
0.0
 40
2.5
 41
0.0
 71
     5
 72
     1
  1
\A1;16.6
  7
STYLE3
 11
0.0000000000000001
 21
1.0
 31
0.0
 73
     1
 44
1.0
  0
POINT
  5
2EB6
330
2AA3
100
AcDbEntity
  8
DEFPOINTS
 62
     0
100
AcDbPoint
 10
80.6617019566733
 20
71.37232295782962
 30
0.0
  0
POINT
  5
2EB7
330
2AA3
100
AcDbEntity
  8
DEFPOINTS
 62
     0
100
AcDbPoint
 10
75.53397381013081
 20
54.77232295782965
 30
0.0
  0
POINT
  5
2EB8
330
2AA3
100
AcDbEntity
  8
DEFPOINTS
 62
     0
100
AcDbPoint
 10
93.54616892286486
 20
54.77232295782965
 30
0.0
  0
ENDBLK
  5
2ADC
330
2AA3
100
AcDbEntity
  8
0
100
AcDbBlockEnd
  0
BLOCK
  5
2ADD
330
2AAF
100
AcDbEntity
  8
0
100
AcDbBlockBegin
  2
*D7
 70
     1
 10
0.0
 20
0.0
 30
0.0
  3
*D7
  1

  0
LINE
  5
2EC2
330
2AAF
100
AcDbEntity
  8
外形線
 62
     2
370
    -2
100
AcDbLine
 10
68.57322584488321
 20
67.37232295782956
 30
0.0
 11
58.86801513842176
 21
67.37232295782956
 31
0.0
  0
LINE
  5
2EC3
330
2AAF
100
AcDbEntity
  8
外形線
 62
     2
370
    -2
100
AcDbLine
 10
70.18982359989883
 20
54.77232295782965
 30
0.0
 11
58.86801513842176
 21
54.77232295782965
 31
0.0
  0
LINE
  5
2EC4
330
2AAF
100
AcDbEntity
  8
外形線
 62
     2
370
    -2
100
AcDbLine
 10
60.11801513842176
 20
64.87232295782956
 30
0.0
 11
60.11801513842176
 21
57.27232295782965
 31
0.0
  0
INSERT
  5
2EC5
330
2AAF
100
AcDbEntity
  8
外形線
 62
     2
370
    -2
100
AcDbBlockReference
  2
_OPEN
 10
60.11801513842176
 20
67.37232295782956
 30
0.0
 41
2.5
 42
2.5
 43
2.5
 50
90.0
  0
INSERT
  5
2EC6
330
2AAF
100
AcDbEntity
  8
外形線
 62
     2
370
    -2
100
AcDbBlockReference
  2
_OPEN
 10
60.11801513842176
 20
54.77232295782965
 30
0.0
 41
2.5
 42
2.5
 43
2.5
 50
270.0
  0
MTEXT
  5
2EC7
330
2AAF
100
AcDbEntity
  8
外形線
 62
     6
100
AcDbMText
 10
58.24301513842175
 20
61.07232295782962
 30
0.0
 40
2.5
 41
0.0
 71
     5
 72
     1
  1
\A1;12.6
  7
STYLE3
 11
0.0000000000000001
 21
1.0
 31
0.0
 73
     1
 44
1.0
  0
POINT
  5
2EC8
330
2AAF
100
AcDbEntity
  8
DEFPOINTS
 62
     0
100
AcDbPoint
 10
68.57322584488321
 20
67.37232295782956
 30
0.0
  0
POINT
  5
2EC9
330
2AAF
100
AcDbEntity
  8
DEFPOINTS
 62
     0
100
AcDbPoint
 10
70.18982359989883
 20
54.77232295782965
 30
0.0
  0
POINT
  5
2ECA
330
2AAF
100
AcDbEntity
  8
DEFPOINTS
 62
     0
100
AcDbPoint
 10
60.11801513842176
 20
54.77232295782965
 30
0.0
  0
ENDBLK
  5
2AE7
330
2AAF
100
AcDbEntity
  8
0
100
AcDbBlockEnd
  0
BLOCK
  5
2AE8
330
2ABB
100
AcDbEntity
  8
0
100
AcDbBlockBegin
  2
*D8
 70
     1
 10
0.0
 20
0.0
 30
0.0
  3
*D8
  1

  0
LINE
  5
2ECB
330
2ABB
100
AcDbEntity
  8
外形線
 62
     2
370
    -2
100
AcDbLine
 10
93.52568073459696
 20
109.5723229578296
 30
0.0
 11
99.77483025971146
 21
109.5723229578296
 31
0.0
  0
LINE
  5
2ECC
330
2ABB
100
AcDbEntity
  8
外形線
 62
     2
370
    -2
100
AcDbLine
 10
94.79616892286486
 20
54.77232295782965
 30
0.0
 11
99.77483025971146
 21
54.77232295782965
 31
0.0
  0
LINE
  5
2ECD
330
2ABB
100
AcDbEntity
  8
外形線
 62
     2
370
    -2
100
AcDbLine
 10
98.52483025971146
 20
107.0723229578296
 30
0.0
 11
98.52483025971146
 21
57.27232295782965
 31
0.0
  0
INSERT
  5
2ECE
330
2ABB
100
AcDbEntity
  8
外形線
 62
     2
370
    -2
100
AcDbBlockReference
  2
_OPEN
 10
98.52483025971146
 20
109.5723229578296
 30
0.0
 41
2.5
 42
2.5
 43
2.5
 50
90.0
  0
INSERT
  5
2ECF
330
2ABB
100
AcDbEntity
  8
外形線
 62
     2
370
    -2
100
AcDbBlockReference
  2
_OPEN
 10
98.52483025971146
 20
54.77232295782965
 30
0.0
 41
2.5
 42
2.5
 43
2.5
 50
270.0
  0
MTEXT
  5
2ED0
330
2ABB
100
AcDbEntity
  8
外形線
 62
     6
100
AcDbMText
 10
96.64983025971144
 20
82.17232295782965
 30
0.0
 40
2.5
 41
0.0
 71
     5
 72
     1
  1
\A1;54.8
  7
STYLE3
 11
0.0000000000000001
 21
1.0
 31
0.0
 73
     1
 44
1.0
  0
POINT
  5
2ED1
330
2ABB
100
AcDbEntity
  8
DEFPOINTS
 62
     0
100
AcDbPoint
 10
93.52568073459696
 20
109.5723229578296
 30
0.0
  0
POINT
  5
2ED2
330
2ABB
100
AcDbEntity
  8
DEFPOINTS
 62
     0
100
AcDbPoint
 10
94.79616892286486
 20
54.77232295782965
 30
0.0
  0
POINT
  5
2ED3
330
2ABB
100
AcDbEntity
  8
DEFPOINTS
 62
     0
100
AcDbPoint
 10
98.52483025971146
 20
54.77232295782965
 30
0.0
  0
ENDBLK
  5
2AF2
330
2ABB
100
AcDbEntity
  8
0
100
AcDbBlockEnd
  0
ENDSEC
  0
SECTION
  2
ENTITIES
  0
LWPOLYLINE
  5
10B
330
18
100
AcDbEntity
  8
C
100
AcDbPolyline
 90
        5
 70
     0
 43
0.4
 10
0.0
 20
195.0
 10
255.0
 20
195.0
 10
255.0
 20
0.0
 10
0.0
 20
0.0
 10
0.0
 20
195.0
  0
TEXT
  5
35E
330
18
100
AcDbEntity
  8
文字
100
AcDbText
 10
65.11321613645503
 20
107.6502566492019
 30
0.0
 40
0.8
  1
0.002mm
 41
0.9
  7
STYLE3
100
AcDbText
  0
TEXT
  5
363
330
18
100
AcDbEntity
  8
文字
100
AcDbText
 10
69.26152334671877
 20
102.9482296805889
 30
0.0
 40
1.1
  1
PCN-7C
  7
STYLE3
100
AcDbText
  0
TEXT
  5
368
330
18
100
AcDbEntity
  8
文字
100
AcDbText
 10
69.8931034059654
 20
112.9136660720059
 30
0.0
 40
0.5
  1
MADE IN JAPAN
  7
STYLE3
100
AcDbText
  0
INSERT
  5
B43
330
18
100
AcDbEntity
  8
文字
100
AcDbBlockReference
  2
ROGO1
 10
301.1334577592202
 20
275.1168679656769
 30
0.0
  0
INSERT
  5
B44
330
18
100
AcDbEntity
  8
文字
100
AcDbBlockReference
  2
ROGO1
 10
301.1095809474122
 20
275.1436630917189
 30
0.0
  0
INSERT
  5
FCB
330
18
100
AcDbEntity
  8
文字
100
AcDbBlockReference
  2
ROGO1
 10
579.0605083803766
 20
282.754069537204
 30
0.0
  0
INSERT
  5
FCC
330
18
100
AcDbEntity
  8
文字
100
AcDbBlockReference
  2
ROGO1
 10
579.0366315685687
 20
282.780864663246
 30
0.0
  0
LINE
  5
157C
330
18
100
AcDbEntity
  8
外形線
100
AcDbLine
 10
223.2460560371359
 20
96.48686176274265
 30
0.0
 11
236.1264493570477
 21
96.48686176274271
 31
0.0
  0
LINE
  5
157F
330
18
100
AcDbEntity
  8
外形線
100
AcDbLine
 10
212.4513119254615
 20
99.78686176274273
 30
0.0
 11
225.1513119254615
 21
99.78686176274266
 31
0.0
  0
LINE
  5
1584
330
18
100
AcDbEntity
  8
外形線
100
AcDbLine
 10
223.2460560371359
 20
96.48686176274265
 30
0.0
 11
225.1513119254615
 21
99.78686176274266
 31
0.0
  0
LINE
  5
1585
330
18
100
AcDbEntity
  8
外形線
100
AcDbLine
 10
214.3565678137873
 20
96.48686176274265
 30
0.0
 11
212.4513119254615
 21
99.78686176274273
 31
0.0
  0
LINE
  5
1586
330
18
100
AcDbEntity
  8
外形線
100
AcDbLine
 10
214.3565678137873
 20
96.48686176274265
 30
0.0
 11
201.4761744938754
 21
96.48686176274265
 31
0.0
  0
CIRCLE
  5
1588
330
18
100
AcDbEntity
  8
外形線
100
AcDbCircle
 10
211.7613119254614
 20
97.98686176274266
 30
0.0
 40
1.5
  0
CIRCLE
  5
1589
330
18
100
AcDbEntity
  8
外形線
100
AcDbCircle
 10
225.8413119254616
 20
97.98686176274266
 30
0.0
 40
1.5
  0
LINE
  5
158C
330
18
100
AcDbEntity
  8
中心線
100
AcDbLine
 10
208.8245064209124
 20
97.98686176274266
 30
0.0
 11
214.9015706014242
 21
97.98686176274266
 31
0.0
  0
LINE
  5
158D
330
18
100
AcDbEntity
  8
中心線
100
AcDbLine
 10
225.8413119254616
 20
101.4032838768841
 30
0.0
 11
225.8413119254616
 21
94.26263419305234
 31
0.0
  0
LINE
  5
158E
330
18
100
AcDbEntity
  8
中心線
100
AcDbLine
 10
211.7613119254614
 20
101.4032838768841
 30
0.0
 11
211.7613119254614
 21
94.26263419305234
 31
0.0
  0
LINE
  5
1591
330
18
100
AcDbEntity
  8
中心線
100
AcDbLine
 10
222.932833643355
 20
97.98686176274271
 30
0.0
 11
229.1660535856399
 21
97.98686176274266
 31
0.0
  0
LINE
  5
15A3
330
18
100
AcDbEntity
  8
寸法線
100
AcDbLine
 10
201.4761744938754
 20
94.3181056285012
 30
0.0
 11
203.6449306281169
 21
96.48686176274265
 31
0.0
  0
LINE
  5
15A4
330
18
100
AcDbEntity
  8
寸法線
100
AcDbLine
 10
201.4761744938754
 20
89.82797756796657
 30
0.0
 11
208.1350586886515
 21
96.48686176274265
 31
0.0
  0
LINE
  5
15A5
330
18
100
AcDbEntity
  8
寸法線
100
AcDbLine
 10
204.5308598269895
 20
88.39253484054614
 30
0.0
 11
212.6251867491861
 21
96.48686176274271
 31
0.0
  0
LINE
  5
15A6
330
18
100
AcDbEntity
  8
寸法線
100
AcDbLine
 10
213.7228383605119
 20
97.58451337406853
 30
0.0
 11
215.9251867491861
 21
99.78686176274273
 31
0.0
  0
LINE
  5
15A7
330
18
100
AcDbEntity
  8
寸法線
100
AcDbLine
 10
209.020987887524
 20
88.39253484054609
 30
0.0
 11
220.4153148097208
 21
99.78686176274278
 31
0.0
  0
LINE
  5
15A8
330
18
100
AcDbEntity
  8
寸法線
100
AcDbLine
 10
213.5111159480587
 20
88.39253484054609
 30
0.0
 11
224.9054428702554
 21
99.78686176274278
 31
0.0
  0
LINE
  5
15A9
330
18
100
AcDbEntity
  8
寸法線
100
AcDbLine
 10
218.0012440085932
 20
88.39253484054609
 30
0.0
 11
226.0955709307899
 21
96.48686176274276
 31
0.0
  0
LINE
  5
15AA
330
18
100
AcDbEntity
  8
寸法線
100
AcDbLine
 10
222.4913720691279
 20
88.39253484054609
 30
0.0
 11
230.5856989913244
 21
96.48686176274271
 31
0.0
  0
LINE
  5
15AB
330
18
100
AcDbEntity
  8
寸法線
100
AcDbLine
 10
226.9815001296623
 20
88.39253484054609
 30
0.0
 11
235.0758270518589
 21
96.48686176274271
 31
0.0
  0
LINE
  5
15AC
330
18
100
AcDbEntity
  8
寸法線
100
AcDbLine
 10
231.4716281901971
 20
88.39253484054621
 30
0.0
 11
236.1264493570477
 21
93.04735600739684
 31
0.0
  0
LINE
  5
1634
330
18
100
AcDbEntity
  8
0
  6
ByBlock
 62
     2
100
AcDbLine
 10
225.1513119254615
 20
99.78686176274266
 30
0.0
 11
236.7712056344637
 21
119.9131080452853
 31
0.0
  0
LINE
  5
1635
330
18
100
AcDbEntity
  8
0
  6
ByBlock
 62
     2
100
AcDbLine
 10
212.4513119254615
 20
99.78686176274273
 30
0.0
 11
200.8314182164592
 21
119.9131080452851
 31
0.0
  0
ARC
  5
1636
330
18
100
AcDbEntity
  8
0
  6
ByBlock
 62
     2
100
AcDbCircle
 10
218.8013119254616
 20
88.78833913467985
 30
0.0
 40
34.6897874180055
100
AcDbArc
 50
64.13004734756665
 51
115.869952652434
  0
INSERT
  5
1637
330
18
100
AcDbEntity
  8
0
  6
ByBlock
 62
     2
100
AcDbBlockReference
  2
_OPEN
 10
236.1462056344637
 20
118.8305762905548
 30
0.0
 41
2.5
 42
2.5
 43
2.5
 50
332.0650236737839
  0
INSERT
  5
1638
330
18
100
AcDbEntity
  8
0
  6
ByBlock
 62
     2
100
AcDbBlockReference
  2
_OPEN
 10
201.4564182164591
 20
118.8305762905546
 30
0.0
 41
2.5
 42
2.5
 43
2.5
 50
207.9349763262168
  0
MTEXT
  5
1639
330
18
100
AcDbEntity
  8
0
  6
ByBlock
 62
     6
100
AcDbMText
 10
220.2957730236848
 20
125.3531265526853
 30
0.0
 40
2.5
 41
0.0
 71
     5
 72
     1
  1
\A1;60°
  7
STYLE3
 73
     1
 44
1.0
  0
POINT
  5
163A
330
18
100
AcDbEntity
  8
DEFPOINTS
  6
ByBlock
 62
     0
100
AcDbPoint
 10
224.8251302942511
 20
122.9511107342771
 30
0.0
  0
POINT
  5
163B
330
18
100
AcDbEntity
  8
DEFPOINTS
  6
ByBlock
 62
     0
100
AcDbPoint
 10
214.3565678137873
 20
96.48686176274265
 30
0.0
  0
POINT
  5
163C
330
18
100
AcDbEntity
  8
DEFPOINTS
  6
ByBlock
 62
     0
100
AcDbPoint
 10
223.2460560371359
 20
96.48686176274265
 30
0.0
  0
POINT
  5
163D
330
18
100
AcDbEntity
  8
DEFPOINTS
  6
ByBlock
 62
     0
100
AcDbPoint
 10
225.1513119254615
 20
99.78686176274266
 30
0.0
  0
POINT
  5
163E
330
18
100
AcDbEntity
  8
DEFPOINTS
  6
ByBlock
 62
     0
100
AcDbPoint
 10
212.4513119254615
 20
99.78686176274273
 30
0.0
  0
LINE
  5
164E
330
18
100
AcDbEntity
  8
0
  6
ByBlock
 62
     2
100
AcDbLine
 10
209.5289169751742
 20
104.8485982964233
 30
0.0
 11
200.8314182164592
 21
119.9131080452852
 31
0.0
  0
LINE
  5
164F
330
18
100
AcDbEntity
  8
0
  6
ByBlock
 62
     2
100
AcDbLine
 10
210.4622738197847
 20
97.23686176274265
 30
0.0
 11
198.2354572473763
 21
118.4143292809794
 31
0.0
  0
LINE
  5
1651
330
18
100
AcDbEntity
  8
0
  6
ByBlock
 62
     2
100
AcDbLine
 10
196.6953937379152
 20
116.0817975262489
 30
0.0
 11
194.5303302284541
 21
114.8317975262489
 31
0.0
  0
LINE
  5
1652
330
18
100
AcDbEntity
  8
0
  6
ByBlock
 62
     2
100
AcDbLine
 10
201.4564182164592
 20
118.8305762905546
 30
0.0
 11
198.8604572473763
 21
117.3317975262489
 31
0.0
  0
INSERT
  5
1654
330
18
100
AcDbEntity
  8
0
  6
ByBlock
 62
     2
100
AcDbBlockReference
  2
_OPEN
 10
198.8604572473763
 20
117.3317975262489
 30
0.0
 41
2.5
 42
2.5
 43
2.5
 50
29.99999999999951
  0
MTEXT
  5
1655
330
18
100
AcDbEntity
  8
0
  6
ByBlock
 62
     6
100
AcDbMText
 10
196.9121858232849
 20
119.7049845404976
 30
0.0
 40
2.5
 41
0.0
 71
     5
 72
     1
  1
φ1.5
  7
STYLE3
 11
0.8660254037844429
 21
0.4999999999999926
 31
0.0
 73
     1
 44
1.0
  0
POINT
  5
1656
330
18
100
AcDbEntity
  8
DEFPOINTS
  6
ByBlock
 62
     0
100
AcDbPoint
 10
209.5289169751742
 20
104.8485982964233
 30
0.0
 50
60.00000000000049
  0
POINT
  5
1657
330
18
100
AcDbEntity
  8
DEFPOINTS
  6
ByBlock
 62
     0
100
AcDbPoint
 10
210.4622738197847
 20
97.23686176274265
 30
0.0
 50
60.00000000000049
  0
POINT
  5
1658
330
18
100
AcDbEntity
  8
DEFPOINTS
  6
ByBlock
 62
     0
100
AcDbPoint
 10
198.8604572473763
 20
117.3317975262489
 30
0.0
 50
60.00000000000049
  0
LINE
  5
1664
330
18
100
AcDbEntity
  8
0
  6
ByBlock
 62
     2
100
AcDbLine
 10
225.1513119254615
 20
99.78686176274266
 30
0.0
 11
242.9074616791876
 21
99.78686176274266
 31
0.0
  0
LINE
  5
1665
330
18
100
AcDbEntity
  8
0
  6
ByBlock
 62
     2
100
AcDbLine
 10
236.1264493570477
 20
96.48686176274271
 30
0.0
 11
242.9074616791876
 21
96.48686176274271
 31
0.0
  0
LINE
  5
1666
330
18
100
AcDbEntity
  8
0
  6
ByBlock
 62
     2
100
AcDbLine
 10
241.6574616791876
 20
102.2868617627426
 30
0.0
 11
241.6574616791876
 21
104.7868617627426
 31
0.0
  0
LINE
  5
1667
330
18
100
AcDbEntity
  8
0
  6
ByBlock
 62
     2
100
AcDbLine
 10
241.6574616791876
 20
93.98686176274271
 30
0.0
 11
241.6574616791876
 21
85.61392972074697
 31
0.0
  0
LINE
  5
1668
330
18
100
AcDbEntity
  8
0
  6
ByBlock
 62
     2
100
AcDbLine
 10
241.6574616791876
 20
99.78686176274266
 30
0.0
 11
241.6574616791876
 21
96.48686176274271
 31
0.0
  0
INSERT
  5
1669
330
18
100
AcDbEntity
  8
0
  6
ByBlock
 62
     2
100
AcDbBlockReference
  2
_OPEN
 10
241.6574616791876
 20
99.78686176274266
 30
0.0
 41
2.5
 42
2.5
 43
2.5
 50
270.0
  0
INSERT
  5
166A
330
18
100
AcDbEntity
  8
0
  6
ByBlock
 62
     2
100
AcDbBlockReference
  2
_OPEN
 10
241.6574616791876
 20
96.48686176274271
 30
0.0
 41
2.5
 42
2.5
 43
2.5
 50
90.0
  0
MTEXT
  5
166B
330
18
100
AcDbEntity
  8
0
  6
ByBlock
 62
     6
100
AcDbMText
 10
239.7824616791876
 20
89.47403644396402
 30
0.0
 40
2.5
 41
0.0
 71
     5
 72
     1
  1
\A1;1.65
  7
STYLE3
 11
0.0000000000000001
 21
1.0
 31
0.0
 73
     1
 44
1.0
  0
POINT
  5
166C
330
18
100
AcDbEntity
  8
DEFPOINTS
  6
ByBlock
 62
     0
100
AcDbPoint
 10
225.1513119254615
 20
99.78686176274266
 30
0.0
  0
POINT
  5
166D
330
18
100
AcDbEntity
  8
DEFPOINTS
  6
ByBlock
 62
     0
100
AcDbPoint
 10
236.1264493570477
 20
96.48686176274271
 30
0.0
  0
POINT
  5
166E
330
18
100
AcDbEntity
  8
DEFPOINTS
  6
ByBlock
 62
     0
100
AcDbPoint
 10
241.6574616791876
 20
96.48686176274271
 30
0.0
  0
TEXT
  5
166F
330
18
100
AcDbEntity
  8
文字
100
AcDbText
 10
196.6442603769965
 20
79.27254823649088
 30
0.0
 40
4.0
  1
A.B.C 断面図 
  7
STYLE3
100
AcDbText
  0
TEXT
  5
1670
330
18
100
AcDbEntity
  8
文字
100
AcDbText
 10
230.7870072799261
 20
79.38477261236982
 30
0.0
 40
3.0
  1
S=2／1
  7
STYLE3
100
AcDbText
  0
LINE
  5
1671
330
18
100
AcDbEntity
  8
外形線
100
AcDbLine
 10
196.3073250397679
 20
78.59920198121722
 30
0.0
 11
246.1737056115357
 21
78.59920198121722
 31
0.0
  0
INSERT
  5
1826
330
18
100
AcDbEntity
  8
ASHADE
 62
     1
100
AcDbBlockReference
  2
AVE_RENDER
 10
0.0
 20
0.0
 30
0.0
1001
AVE_RENDER
1002
{
1070
     7
1000
Pref
1070
    30
1070
    20
1070
     1
1070
     0
1000

1070
    10
1070
     1
1070
    10
1040
1.0
1070
     1
1040
0.3
1040
0.7
1040
0.0
1040
10.0
1010
-1.0
1020
-1.0
1030
-1.0
1040
0.3
1070
    49
1070
     0
1070
     0
1010
1.0
1020
1.0
1030
1.0
1040
45.0
1070
     1
1070
     0
1000
WCS
1040
0.0
1070
     0
1040
10.0
1002
}
  0
INSERT
  5
1827
330
18
100
AcDbEntity
  8
ASHADE
 62
     3
100
AcDbBlockReference
  2
AVE_RENDER
 10
0.0
 20
0.0
 30
0.0
1001
AVE_RENDER
1002
{
1070
     0
1000
Full Opt
1070
     0
1070
     1
1070
     1
1070
     1
1070
     0
1070
     0
1070
     0
1070
     1
1070
     1
1040
0.0001
1040
0.0001
1002
}
  0
INSERT
  5
1828
330
18
100
AcDbEntity
  8
ASHADE
 62
     4
100
AcDbBlockReference
  2
AVE_RENDER
 10
0.0
 20
0.0
 30
0.0
1001
AVE_RENDER
1002
{
1070
     0
1000
Quick Opt
1070
     0
1070
     1
1070
     1
1070
     1
1070
     0
1070
     0
1070
     1
1002
}
  0
INSERT
  5
1829
330
18
100
AcDbEntity
  8
ASHADE
 62
     5
100
AcDbBlockReference
  2
AVE_RENDER
 10
0.0
 20
0.0
 30
0.0
1001
AVE_RENDER
1002
{
1070
     1
1000
Scanl Opt
1070
     2
1070
     0
1070
     2
1040
2.0
1040
4.0
1070
     0
1070
     1
1070
     0
1040
0.03
1002
}
  0
INSERT
  5
182A
330
18
100
AcDbEntity
  8
ASHADE
 62
     6
100
AcDbBlockReference
  2
AVE_RENDER
 10
0.0
 20
0.0
 30
0.0
1001
AVE_RENDER
1002
{
1070
     2
1000
Raytr Opt
1070
     2
1070
     0
1070
     2
1040
2.0
1040
4.0
1070
     0
1070
     1
1070
     1
1040
0.03
1070
     3
1040
0.03
1002
}
  0
INSERT
  5
182B
330
18
100
AcDbEntity
  8
ASHADE
 62
     7
100
AcDbBlockReference
  2
AVE_RENDER
 10
0.0
 20
0.0
 30
0.0
1001
AVE_RENDER
1002
{
1070
     0
1000
RFile Opt
1070
     1
1070
   640
1070
   480
1070
 10000
1070
     1
1070
     8
1070
     8
1070
     0
1070
     0
1070
     0
1070
     0
1070
     0
1070
     0
1070
     0
1002
}
  0
INSERT
  5
182C
330
18
100
AcDbEntity
  8
ASHADE
 62
     8
100
AcDbBlockReference
  2
AVE_RENDER
 10
0.0
 20
0.0
 30
0.0
1001
AVE_RENDER
1002
{
1070
     0
1000
Fog Opt
1070
     0
1070
     0
1040
0.0
1040
1.0
1040
0.0
1040
1.0
1010
0.5
1020
0.5
1030
0.5
1002
}
  0
INSERT
  5
182D
330
18
100
AcDbEntity
  8
ASHADE
 62
     9
100
AcDbBlockReference
  2
AVE_RENDER
 10
0.0
 20
0.0
 30
0.0
1001
AVE_RENDER
1002
{
1070
     0
1000
BG Opt
1070
     0
1070
     1
1010
0.0
1020
0.0
1030
0.0
1010
1.0
1020
0.0
1030
0.0
1010
0.0
1020
1.0
1030
0.0
1010
0.0
1020
0.0
1030
1.0
1040
0.5
1040
0.33
1040
0.0
1000

1070
     1
1000

1070
     1
1070
     1
1040
1.0
1040
1.0
1040
0.0
1040
0.0
1070
     0
1002
}
  0
INSERT
  5
1834
330
18
100
AcDbEntity
  8
ASHADE
 62
     1
100
AcDbBlockReference
  2
AVE_GLOBAL
 10
0.0
 20
0.0
 30
0.0
1001
AVE_MATERIAL
1002
{
1000
*GLOBAL*
1000
1
1000
Global finish.
1002
{
1002
}
1002
{
1070
    63
1002
{
1002
{
1010
-1.0
1020
-1.0
1030
-1.0
1002
}
1040
0.1000000014901161
1000

1040
0.0
1002
{
1002
}
1040
0.0
1002
{
1002
}
1040
0.0
1002
}
1002
{
1002
{
1010
-1.0
1020
-1.0
1030
-1.0
1002
}
1040
0.6999999880790711
1000

1040
0.0
1002
{
1002
}
1040
0.0
1002
{
1002
}
1040
0.0
1002
}
1002
{
1002
{
1010
-1.0
1020
-1.0
1030
-1.0
1002
}
1040
0.2000000029802322
1000

1040
0.0
1002
{
1002
}
1040
0.0
1002
{
1002
}
1040
0.0
1002
}
1002
{
1070
     0
1002
{
1070
     1
1002
{
1040
1.0
1040
1.0
1000

1040
0.0
1002
{
1002
}
1040
0.0
1002
{
1002
}
1040
0.0
1002
}
1002
}
1040
1.0
1040
0.0
1040
0.0
1002
}
1002
{
1040
1.0
1040
1.0
1000

1040
0.0
1002
{
1002
}
1040
0.0
1002
{
1002
}
1040
0.0
1002
}
1002
{
1040
0.5
1040
1.0
1000

1040
0.0
1002
{
1002
}
1040
0.0
1002
{
1002
}
1040
0.0
1002
}
1002
{
1070
     0
1040
0.0
1002
{
1002
}
1040
1.0
1002
{
1002
}
1040
0.0
1002
}
1002
{
1040
0.0
1002
{
1002
{
1010
0.0
1020
0.0
1030
0.0
1002
}
1040
1.0
1000

1040
0.0
1002
{
1002
}
1040
0.0
1002
{
1002
}
1040
0.0
1002
}
1002
}
1002
{
1002
{
1070
     1
1002
{
1040
0.0
1040
1.0
1000

1040
0.0
1002
{
1002
}
1040
0.0
1002
{
1002
}
1040
0.0
1002
}
1002
}
1040
0.0
1002
{
1002
}
1010
1.0
1020
0.0
1030
0.0
1010
0.0
1020
1.0
1030
0.0
1010
0.0
1020
0.0
1030
1.0
1070
     0
1002
}
1002
{
1002
{
1040
1.0
1040
1.0
1002
{
1070
     1
1002
{
1040
1.0
1040
1.0
1000

1040
0.0
1002
{
1002
}
1040
0.0
1002
{
1002
}
1040
0.0
1002
}
1002
}
1002
}
1070
     0
1040
0.0
1002
{
1002
}
1002
}
1002
{
1002
}
1002
}
1002
{
1071
        3
1070
     3
1070
     0
1002
{
1070
     2
1070
     0
1070
     0
1040
0.0
1002
}
1070
     0
1070
     2
1002
{
1002
}
1002
}
1002
{
1040
8030.0
1040
190.3000030517578
1040
0.3050000071525574
1040
228.0
1040
545.0
1040
14.0
1040
17.39999961853027
1040
0.4560000002384186
1002
}
1002
}
  0
LINE
  5
1B80
330
18
100
AcDbEntity
  8
0
  6
ByBlock
 62
     2
100
AcDbLine
 10
212.4513119254615
 20
99.78686176274273
 30
0.0
 11
212.4513119254615
 21
110.8126259914875
 31
0.0
  0
LINE
  5
1B81
330
18
100
AcDbEntity
  8
0
  6
ByBlock
 62
     2
100
AcDbLine
 10
224.9054428702554
 20
99.78686176274278
 30
0.0
 11
224.9054428702554
 21
110.8126259914875
 31
0.0
  0
LINE
  5
1B82
330
18
100
AcDbEntity
  8
0
  6
ByBlock
 62
     2
100
AcDbLine
 10
214.9513119254615
 20
109.5626259914875
 30
0.0
 11
222.4054428702554
 21
109.5626259914875
 31
0.0
  0
INSERT
  5
1B83
330
18
100
AcDbEntity
  8
0
  6
ByBlock
 62
     2
100
AcDbBlockReference
  2
_OPEN
 10
212.4513119254615
 20
109.5626259914875
 30
0.0
 41
2.5
 42
2.5
 43
2.5
 50
180.0
  0
INSERT
  5
1B84
330
18
100
AcDbEntity
  8
0
  6
ByBlock
 62
     2
100
AcDbBlockReference
  2
_OPEN
 10
224.9054428702554
 20
109.5626259914875
 30
0.0
 41
2.5
 42
2.5
 43
2.5
  0
MTEXT
  5
1B85
330
18
100
AcDbEntity
  8
0
  6
ByBlock
 62
     6
100
AcDbMText
 10
218.6783773978584
 20
112.0923878962494
 30
0.0
 40
2.5
 41
0.0
 71
     5
 72
     1
  1
\A1;(6.35)
  7
STYLE3
 73
     1
 44
1.0
  0
POINT
  5
1B86
330
18
100
AcDbEntity
  8
DEFPOINTS
  6
ByBlock
 62
     0
100
AcDbPoint
 10
212.4513119254615
 20
99.78686176274273
 30
0.0
  0
POINT
  5
1B87
330
18
100
AcDbEntity
  8
DEFPOINTS
  6
ByBlock
 62
     0
100
AcDbPoint
 10
224.9054428702554
 20
99.78686176274278
 30
0.0
  0
POINT
  5
1B88
330
18
100
AcDbEntity
  8
DEFPOINTS
  6
ByBlock
 62
     0
100
AcDbPoint
 10
224.9054428702554
 20
109.5626259914875
 30
0.0
  0
LINE
  5
1B89
330
18
100
AcDbEntity
  8
0
  6
ByBlock
 62
     2
100
AcDbLine
 10
210.2613119254614
 20
97.98686176274266
 30
0.0
 11
210.2613119254614
 21
117.4126073938899
 31
0.0
  0
LINE
  5
1B8A
330
18
100
AcDbEntity
  8
0
  6
ByBlock
 62
     2
100
AcDbLine
 10
227.3413119254616
 20
97.98686176274266
 30
0.0
 11
227.3413119254616
 21
117.4126073938899
 31
0.0
  0
LINE
  5
1B8B
330
18
100
AcDbEntity
  8
0
  6
ByBlock
 62
     2
100
AcDbLine
 10
212.7613119254614
 20
116.1626073938899
 30
0.0
 11
224.8413119254616
 21
116.1626073938899
 31
0.0
  0
INSERT
  5
1B8C
330
18
100
AcDbEntity
  8
0
  6
ByBlock
 62
     2
100
AcDbBlockReference
  2
_OPEN
 10
210.2613119254614
 20
116.1626073938899
 30
0.0
 41
2.5
 42
2.5
 43
2.5
 50
180.0
  0
INSERT
  5
1B8D
330
18
100
AcDbEntity
  8
0
  6
ByBlock
 62
     2
100
AcDbBlockReference
  2
_OPEN
 10
227.3413119254616
 20
116.1626073938899
 30
0.0
 41
2.5
 42
2.5
 43
2.5
  0
MTEXT
  5
1B8E
330
18
100
AcDbEntity
  8
0
  6
ByBlock
 62
     6
100
AcDbMText
 10
218.8013119254615
 20
118.0376073938899
 30
0.0
 40
2.5
 41
0.0
 71
     5
 72
     1
  1
\A1;8.54
  7
STYLE3
 73
     1
 44
1.0
  0
POINT
  5
1B8F
330
18
100
AcDbEntity
  8
DEFPOINTS
  6
ByBlock
 62
     0
100
AcDbPoint
 10
210.2613119254614
 20
97.98686176274266
 30
0.0
  0
POINT
  5
1B90
330
18
100
AcDbEntity
  8
DEFPOINTS
  6
ByBlock
 62
     0
100
AcDbPoint
 10
227.3413119254616
 20
97.98686176274266
 30
0.0
  0
POINT
  5
1B91
330
18
100
AcDbEntity
  8
DEFPOINTS
  6
ByBlock
 62
     0
100
AcDbPoint
 10
227.3413119254616
 20
116.1626073938899
 30
0.0
  0
HATCH
  5
1B9C
330
18
100
AcDbEntity
  8
ROGO
 62
     4
100
AcDbHatch
 10
0.0
 20
0.0
 30
0.0
210
0.0
220
0.0
230
1.0
  2
SOLID
 70
     1
 71
     1
 91
        1
 92
        7
 72
     0
 73
     1
 93
       11
 10
76.06984250270518
 20
114.8886218470896
 10
76.56314898211028
 20
114.8886218470896
 10
76.73738516424222
 20
115.2380500393317
 10
76.91162134637401
 20
114.8886218470896
 10
77.40491703263017
 20
114.8886218470896
 10
77.07114570186167
 20
115.5579955173893
 10
77.88208092360109
 20
116.2273691876891
 10
77.38878523734484
 20
116.2273691876891
 10
77.15780956909617
 20
116.0812052207929
 10
77.23069164364716
 20
116.2273691876891
 10
76.73738516424221
 20
116.2273691876891
 97
       11
330
1BEA
330
1BED
330
1BEC
330
1BEB
330
1BA1
330
1B9E
330
1BE7
330
1BE6
330
1BE8
330
1BE5
330
1BE9
 75
     0
 76
     1
 47
0.0514683685270805
 98
        1
 10
76.69492946037036
 20
115.6530204905623
450
        0
451
        0
460
0.0
461
0.0
452
        0
462
0.0
453
        0
470

  0
HATCH
  5
1B9D
330
18
100
AcDbEntity
  8
ROGO
 62
     4
100
AcDbHatch
 10
0.0
 20
0.0
 30
0.0
210
0.0
220
0.0
230
1.0
  2
SOLID
 70
     1
 71
     1
 91
        1
 92
        5
 93
        8
 72
     4
 94
        3
 73
     0
 74
     0
 95
       26
 96
       22
 40
0.0
 40
0.0
 40
0.0
 40
0.0
 40
0.1554262224697466
 40
0.2594720434289648
 40
0.3344975535087428
 40
0.3905166742937748
 40
0.4631764140704176
 40
0.5162109407029707
 40
0.6119789345487469
 40
0.6899327047202544
 40
0.7429537591808297
 40
0.7949436177461765
 40
0.8879433672702164
 40
0.9537052901627138
 40
0.9891231664311227
 40
1.03943321344206
 40
1.075763227239454
 40
1.128393422802106
 40
1.158177561081369
 40
1.222991186867616
 40
1.252585651432274
 40
1.252585651432274
 40
1.252585651432274
 40
1.252585651432274
 10
75.69994900614625
 20
116.2273691876891
 10
75.64719494477209
 20
116.2242217899238
 10
75.55912612416756
 20
116.2189674530643
 10
75.46242709489141
 20
116.1602238312497
 10
75.39157972497221
 20
116.126072871009
 10
75.34105146666639
 20
116.0796475500323
 10
75.30401404850173
 20
116.0316935847687
 10
75.25732142986448
 20
115.9745567867647
 10
75.21924493360872
 20
115.9080232975923
 10
75.19985488888488
 20
115.8346917935317
 10
75.18267937130014
 20
115.7762461593123
 10
75.16994171992476
 20
115.7111161272858
 10
75.17318253903288
 20
115.64075278115
 10
75.17782354031627
 20
115.5754029074879
 10
75.19854448250303
 20
115.528752881911
 10
75.22214196534267
 20
115.4955412783156
 10
75.25103675991392
 20
115.4589623789523
 10
75.28265398394745
 20
115.4347362923508
 10
75.30880400900082
 20
115.390849108519
 10
75.35457874570211
 20
115.3852487873454
 10
75.38367498942815
 20
115.374102476738
 10
75.39279590004838
 20
115.3706084001916
 72
     1
 10
75.39279590004838
 20
115.3706084001916
 11
76.13073524476838
 21
115.3706084001916
 72
     1
 10
76.13073524476838
 20
115.3706084001916
 11
76.28968285869821
 21
115.6893755857276
 72
     1
 10
76.28968285869821
 20
115.6893755857276
 11
75.74183337464804
 21
115.6893755857276
 72
     4
 94
        3
 73
     0
 74
     0
 95
       16
 96
       12
 40
0.0
 40
0.0
 40
0.0
 40
0.0
 40
0.0469383062218308
 40
0.0943607469750109
 40
0.1226461015323857
 40
0.1497659350697631
 40
0.1795499550118643
 40
0.2003488931587634
 40
0.2200852803386661
 40
0.2601078399996743
 40
0.3420494343556223
 40
0.3420494343556223
 40
0.3420494343556223
 40
0.3420494343556223
 10
75.74183337464802
 20
115.6893755857276
 10
75.72530830355734
 20
115.6942375039435
 10
75.69208771727193
 20
115.70401148753
 10
75.68930742246189
 20
115.7513921692851
 10
75.6930951719016
 20
115.7851547821836
 10
75.70895827501421
 20
115.8097359359834
 10
75.72820297050849
 20
115.8276219596072
 10
75.73536862416696
 20
115.8509157087883
 10
75.75643141023675
 20
115.8685054037221
 10
75.79378137359677
 20
115.8980712237886
 10
75.83508396741095
 20
115.9043680828573
 10
75.86283310743858
 20
115.90859862646
 72
     1
 10
75.86283310743856
 20
115.90859862646
 11
76.39899454705261
 21
115.9085986264599
 72
     1
 10
76.39899454705261
 20
115.9085986264599
 11
76.55794384421216
 21
116.2273691876891
 72
     1
 10
76.55794384421216
 20
116.2273691876891
 11
75.69994900614604
 21
116.227369187689
 97
        8
330
1B9F
330
1BC3
330
1BCF
330
1BC8
330
1BE3
330
1BE2
330
1BE4
330
1BA0
 75
     0
 76
     1
 47
0.0514683685270805
 98
        1
 10
75.84800117558285
 20
116.0704933734016
450
        0
451
        0
460
0.0
461
0.0
452
        0
462
0.0
453
        0
470

  0
LINE
  5
1B9E
102
{ACAD_REACTORS
330
1BA7
330
1B9C
102
}
330
18
100
AcDbEntity
  8
ROGO
 62
     4
100
AcDbLine
 10
67.50116185785879
 20
114.8886218470896
 30
0.0
 11
76.56314898211025
 21
114.8886218470896
 31
0.0
  0
LINE
  5
1B9F
102
{ACAD_REACTORS
330
1B9D
102
}
330
18
100
AcDbEntity
  8
ROGO
 62
     4
100
AcDbLine
 10
75.69994900614648
 20
116.2273691876891
 30
0.0
 11
76.55794384421216
 21
116.2273691876891
 31
0.0
  0
LINE
  5
1BA0
102
{ACAD_REACTORS
330
1B9D
102
}
330
18
100
AcDbEntity
  8
ROGO
 62
     4
100
AcDbLine
 10
76.55794384421216
 20
116.2273691876891
 30
0.0
 11
76.39899454705261
 21
115.90859862646
 31
0.0
  0
LINE
  5
1BA1
102
{ACAD_REACTORS
330
1B9C
102
}
330
18
100
AcDbEntity
  8
ROGO
 62
     4
100
AcDbLine
 10
76.7373851642422
 20
116.2273691876891
 30
0.0
 11
76.06984250270517
 21
114.8886218470896
 31
0.0
  0
HATCH
  5
1BA2
330
18
100
AcDbEntity
  8
ROGO
 62
     4
100
AcDbHatch
 10
0.0
 20
0.0
 30
0.0
210
0.0
220
0.0
230
1.0
  2
SOLID
 70
     1
 71
     0
 91
        1
 92
        7
 72
     0
 73
     1
 93
        4
 10
68.18417994340165
 20
115.0228112756945
 10
68.12346883944776
 20
114.8886218470896
 10
76.06984250270517
 20
114.8886218470896
 10
76.13675368572266
 20
115.0228112756945
 97
        0
 75
     0
 76
     1
 47
0.0514683685270805
 98
        1
 10
73.20558499127054
 20
114.9873203284085
450
        0
451
        0
460
0.0
461
0.0
452
        0
462
0.0
453
        0
470

  0
HATCH
  5
1BA3
330
18
100
AcDbEntity
  8
ROGO
 62
     4
100
AcDbHatch
 10
0.0
 20
0.0
 30
0.0
210
0.0
220
0.0
230
1.0
  2
SOLID
 70
     1
 71
     1
 91
        2
 92
        7
 72
     0
 73
     1
 93
        8
 10
71.82683479793677
 20
116.2273691876891
 10
71.33166057207988
 20
116.2273691876891
 10
70.71383371726374
 20
115.3706084001915
 10
71.18832584190686
 20
115.3706084001916
 10
71.30595625244684
 20
115.5337303531827
 10
71.85253911756973
 20
115.5337303531827
 10
71.97016952810971
 20
115.3706084001916
 10
72.44466165275302
 20
115.3706084001916
 97
        8
330
1BA5
330
1BAD
330
1BB2
330
1BAE
330
1BA4
330
1BC6
330
1BCC
330
1BC5
 92
       22
 72
     0
 73
     1
 93
        3
 10
71.72847077644729
 20
115.7057799959181
 10
71.4300245935693
 20
115.7057799959181
 10
71.57924768500826
 20
115.9127125569382
 97
        3
330
1BD1
330
1BD0
330
1BD2
 75
     0
 76
     1
 47
0.0514683685270805
 98
        2
 10
71.88437689911444
 20
115.7884170643386
 10
71.88437689911444
 20
115.7884170643386
450
        0
451
        0
460
0.0
461
0.0
452
        0
462
0.0
453
        0
470

  0
LINE
  5
1BA4
102
{ACAD_REACTORS
330
1BA3
102
}
330
18
100
AcDbEntity
  8
ROGO
 62
     4
100
AcDbLine
 10
71.30595625244684
 20
115.5337303531827
 30
0.0
 11
71.85253911756973
 21
115.5337303531827
 31
0.0
  0
LINE
  5
1BA5
102
{ACAD_REACTORS
330
1BA3
102
}
330
18
100
AcDbEntity
  8
ROGO
 62
     4
100
AcDbLine
 10
71.33166057207978
 20
116.2273691876891
 30
0.0
 11
71.82683479793678
 21
116.2273691876891
 31
0.0
  0
LINE
  5
1BA6
330
18
100
AcDbEntity
  8
ROGO
 62
     4
100
AcDbLine
 10
68.17487376422178
 20
115.0228112756945
 30
0.0
 11
76.13675368572268
 21
115.0228112756945
 31
0.0
  0
HATCH
  5
1BA7
330
18
100
AcDbEntity
  8
ROGO
 62
     4
100
AcDbHatch
 10
0.0
 20
0.0
 30
0.0
210
0.0
220
0.0
230
1.0
  2
SOLID
 70
     1
 71
     1
 91
        2
 92
        5
 93
        6
 72
     1
 10
67.50116185785879
 20
114.8886218470896
 11
68.12346883944775
 21
114.8886218470896
 72
     1
 10
68.12346883944775
 20
114.8886218470896
 11
68.34153322822995
 21
115.3706084001916
 72
     1
 10
68.34153322822995
 20
115.3706084001916
 11
68.92326262016699
 21
115.3706084001916
 72
     4
 94
        3
 73
     0
 74
     0
 95
       18
 96
       14
 40
0.108740278791501
 40
0.108740278791501
 40
0.108740278791501
 40
0.108740278791501
 40
0.6623149649549278
 40
1.384304701649787
 40
2.097394834876493
 40
2.774073369849618
 40
3.428974823686337
 40
4.005208313035923
 40
4.455173659284313
 40
4.720999734343524
 40
5.086034088486724
 40
5.569973738255373
 40
6.060470601257719
 40
6.060470601257719
 40
6.060470601257719
 40
6.060470601257719
 10
68.92326262016701
 20
115.3706084001916
 10
68.96420377370083
 20
115.3709132765654
 10
69.05854168362299
 20
115.3716157824161
 10
69.19051968141599
 20
115.4421213288645
 10
69.31567253193572
 20
115.5319402580742
 10
69.41647463905571
 20
115.6441596392925
 10
69.47927738883203
 20
115.7724632758541
 10
69.48900533626357
 20
115.895430526471
 10
69.48306666335572
 20
115.9926960929671
 10
69.44063186257102
 20
116.0604926075277
 10
69.3965157088956
 20
116.1292991367055
 10
69.31562160073321
 20
116.1889019079269
 10
69.24934059231185
 20
116.2150167817429
 10
69.21563535146839
 20
116.2273691876892
 72
     1
 10
69.21563535146853
 20
116.2273691876891
 11
68.16356159150274
 21
116.2273691876891
 72
     1
 10
68.16356159150274
 20
116.2273691876891
 11
67.50116185785879
 21
114.8886218470896
 97
        6
330
1BA9
330
1BB3
330
1BAA
330
1B9E
330
1BB0
330
1BAF
 92
       20
 93
        4
 72
     1
 10
68.47617564341868
 20
115.6682078109005
 11
68.57926123075941
 21
115.8960573336691
 72
     1
 10
68.57926123075941
 20
115.8960573336691
 11
68.84414725587848
 21
115.8960573336691
 72
     4
 94
        3
 73
     0
 74
     0
 95
       15
 96
       11
 40
0.0
 40
0.0
 40
0.0
 40
0.0
 40
0.1004579816448805
 40
0.146261295686925
 40
0.1982511063434505
 40
0.2336689826118593
 40
0.2896827212658584
 40
0.3232334205941626
 40
0.3807954264085014
 40
0.3999827739260015
 40
0.3999827739260015
 40
0.3999827739260015
 40
0.3999827739260015
 10
68.84414725587845
 20
115.8960573336691
 10
68.88187732567658
 20
115.8962301575285
 10
68.93681023199893
 20
115.8964817795618
 10
68.9668495016653
 20
115.8285296155809
 10
68.9533844687234
 20
115.7847790223854
 10
68.93645782489788
 20
115.7398607992479
 10
68.90654461162616
 20
115.709338189163
 10
68.86639669793966
 20
115.6799397702497
 10
68.82845500092044
 20
115.6763809600002
 10
68.8037781861087
 20
115.6698424413463
 10
68.79760897945272
 20
115.6682078109004
 72
     1
 10
68.79760897945274
 20
115.6682078109004
 11
68.47617564341868
 21
115.6682078109005
 97
        4
330
1BB6
330
1BB4
330
1BB8
330
1BB5
 75
     0
 76
     1
 47
0.0514683685270805
 98
        2
 10
68.16918476252244
 20
115.8109832357651
 10
68.16918476252244
 20
115.8109832357651
450
        0
451
        0
460
0.0
461
0.0
452
        0
462
0.0
453
        0
470

  0
HATCH
  5
1BA8
330
18
100
AcDbEntity
  8
ROGO
 62
     4
100
AcDbHatch
 10
0.0
 20
0.0
 30
0.0
210
0.0
220
0.0
230
1.0
  2
SOLID
 70
     1
 71
     1
 91
        1
 92
        1
 93
       12
 72
     1
 10
69.8371744242815
 20
116.2273691876891
 11
70.9959790326273
 21
116.2273691876891
 72
     1
 10
70.9959790326273
 20
116.2273691876891
 11
70.89887223216937
 21
116.0311108496125
 72
     1
 10
70.89887223216937
 20
116.0311108496125
 11
70.28983381236542
 21
116.0311108496125
 72
     1
 10
70.28983381236542
 20
116.0311108496125
 11
70.21390836145332
 21
115.8776612174196
 72
     1
 10
70.21390836145332
 20
115.8776612174196
 11
70.82294678125737
 21
115.8776612174196
 72
     1
 10
70.82294678125737
 20
115.8776612174196
 11
70.74509234404359
 21
115.7203129947679
 72
     1
 10
70.74509234404359
 20
115.7203129947679
 11
70.13605392423954
 21
115.7203129947679
 72
     1
 10
70.13605392423954
 20
115.7203129947679
 11
70.06012525900889
 21
115.5668568662552
 72
     1
 10
70.06012525900889
 20
115.5668568662552
 11
70.66916367881282
 21
115.5668568662552
 72
     1
 10
70.66916367881282
 20
115.5668568662552
 11
70.57206176293499
 21
115.3706084001916
 72
     1
 10
70.57206176293499
 20
115.3706084001916
 11
69.41325715458908
 21
115.3706084001916
 72
     1
 10
69.41325715458908
 20
115.3706084001916
 11
69.8371744242815
 21
116.2273691876891
 97
       12
330
1BB7
330
1BB9
330
1BBB
330
1BBA
330
1BBC
330
1BBF
330
1BBE
330
1BC0
330
1BBD
330
1BAC
330
1BB1
330
1BAB
 75
     0
 76
     1
 98
        1
 10
22.43663220905904
 20
56.98619446036502
450
        0
451
        0
460
0.0
461
0.0
452
        0
462
0.0
453
        0
470

  0
SPLINE
  5
1BA9
102
{ACAD_REACTORS
330
1BA7
102
}
330
18
100
AcDbEntity
  8
ROGO
 62
     4
100
AcDbSpline
210
0.0
220
0.0
230
1.0
 70
     8
 71
     3
 72
    18
 73
    14
 74
     0
 42
0.0000000001
 43
0.0000000001
 40
0.1087402787915014
 40
0.1087402787915014
 40
0.1087402787915014
 40
0.1087402787915014
 40
0.5992371417938475
 40
1.083176791562496
 40
1.448211145705696
 40
1.714037220764907
 40
2.164002567013297
 40
2.740236056362883
 40
3.395137510199602
 40
4.071816045172726
 40
4.784906178399433
 40
5.506895915094292
 40
6.060470601257719
 40
6.060470601257719
 40
6.060470601257719
 40
6.060470601257719
 10
69.21563535146839
 20
116.2273691876892
 30
0.0
 10
69.24934059231185
 20
116.2150167817429
 30
0.0
 10
69.31562160073321
 20
116.1889019079269
 30
0.0
 10
69.3965157088956
 20
116.1292991367055
 30
0.0
 10
69.44063186257102
 20
116.0604926075277
 30
0.0
 10
69.48306666335572
 20
115.9926960929671
 30
0.0
 10
69.48900533626357
 20
115.895430526471
 30
0.0
 10
69.47927738883203
 20
115.7724632758541
 30
0.0
 10
69.41647463905571
 20
115.6441596392925
 30
0.0
 10
69.31567253193572
 20
115.5319402580742
 30
0.0
 10
69.19051968141599
 20
115.4421213288645
 30
0.0
 10
69.05854168362299
 20
115.3716157824161
 30
0.0
 10
68.96420377370083
 20
115.3709132765654
 30
0.0
 10
68.92326262016701
 20
115.3706084001916
 30
0.0
  0
LINE
  5
1BAA
102
{ACAD_REACTORS
330
1BA7
102
}
330
18
100
AcDbEntity
  8
ROGO
 62
     4
100
AcDbLine
 10
68.16356159150274
 20
116.2273691876891
 30
0.0
 11
67.50116185785879
 21
114.8886218470896
 31
0.0
  0
LINE
  5
1BAB
102
{ACAD_REACTORS
330
1BA8
102
}
330
18
100
AcDbEntity
  8
ROGO
 62
     4
100
AcDbLine
 10
69.8371744242815
 20
116.2273691876891
 30
0.0
 11
69.41325715458908
 21
115.3706084001916
 31
0.0
  0
LINE
  5
1BAC
102
{ACAD_REACTORS
330
1BA8
102
}
330
18
100
AcDbEntity
  8
ROGO
 62
     4
100
AcDbLine
 10
70.66916367881282
 20
115.5668568662552
 30
0.0
 11
70.57206176293499
 21
115.3706084001916
 31
0.0
  0
LINE
  5
1BAD
102
{ACAD_REACTORS
330
1BA3
102
}
330
18
100
AcDbEntity
  8
ROGO
 62
     4
100
AcDbLine
 10
71.3316605720799
 20
116.2273691876891
 30
0.0
 11
70.71383371726375
 21
115.3706084001916
 31
0.0
  0
LINE
  5
1BAE
102
{ACAD_REACTORS
330
1BA3
102
}
330
18
100
AcDbEntity
  8
ROGO
 62
     4
100
AcDbLine
 10
71.30595625244684
 20
115.5337303531827
 30
0.0
 11
71.18832584190688
 21
115.3706084001916
 31
0.0
  0
LINE
  5
1BAF
102
{ACAD_REACTORS
330
1BA7
102
}
330
18
100
AcDbEntity
  8
ROGO
 62
     4
100
AcDbLine
 10
68.92326262036869
 20
115.3706084001916
 30
0.0
 11
68.34153322822982
 21
115.3706084001916
 31
0.0
  0
LINE
  5
1BB0
102
{ACAD_REACTORS
330
1BA7
102
}
330
18
100
AcDbEntity
  8
ROGO
 62
     4
100
AcDbLine
 10
68.34153322822993
 20
115.3706084001916
 30
0.0
 11
68.12346883944775
 21
114.8886218470896
 31
0.0
  0
LINE
  5
1BB1
102
{ACAD_REACTORS
330
1BA8
102
}
330
18
100
AcDbEntity
  8
ROGO
 62
     4
100
AcDbLine
 10
69.41325715458908
 20
115.3706084001916
 30
0.0
 11
70.57206176293499
 21
115.3706084001916
 31
0.0
  0
LINE
  5
1BB2
102
{ACAD_REACTORS
330
1BA3
102
}
330
18
100
AcDbEntity
  8
ROGO
 62
     4
100
AcDbLine
 10
70.71383371726375
 20
115.3706084001916
 30
0.0
 11
71.18832584190688
 21
115.3706084001916
 31
0.0
  0
LINE
  5
1BB3
102
{ACAD_REACTORS
330
1BA7
102
}
330
18
100
AcDbEntity
  8
ROGO
 62
     4
100
AcDbLine
 10
68.16356159150274
 20
116.2273691876891
 30
0.0
 11
69.21563535146839
 21
116.2273691876891
 31
0.0
  0
LINE
  5
1BB4
102
{ACAD_REACTORS
330
1BA7
102
}
330
18
100
AcDbEntity
  8
ROGO
 62
     4
100
AcDbLine
 10
68.84414725587845
 20
115.8960573336691
 30
0.0
 11
68.57926123075941
 21
115.8960573336691
 31
0.0
  0
LINE
  5
1BB5
102
{ACAD_REACTORS
330
1BA7
102
}
330
18
100
AcDbEntity
  8
ROGO
 62
     4
100
AcDbLine
 10
68.79760897945272
 20
115.6682078109004
 30
0.0
 11
68.47617564341868
 21
115.6682078109005
 31
0.0
  0
LINE
  5
1BB6
102
{ACAD_REACTORS
330
1BA7
102
}
330
18
100
AcDbEntity
  8
ROGO
 62
     4
100
AcDbLine
 10
68.57926123075941
 20
115.8960573336691
 30
0.0
 11
68.47617564341868
 21
115.6682078109005
 31
0.0
  0
LINE
  5
1BB7
102
{ACAD_REACTORS
330
1BA8
102
}
330
18
100
AcDbEntity
  8
ROGO
 62
     4
100
AcDbLine
 10
69.8371744242815
 20
116.2273691876891
 30
0.0
 11
70.9959790326273
 21
116.2273691876891
 31
0.0
  0
SPLINE
  5
1BB8
102
{ACAD_REACTORS
330
1BA7
102
}
330
18
100
AcDbEntity
  8
ROGO
 62
     4
100
AcDbSpline
210
0.0
220
0.0
230
1.0
 70
     8
 71
     3
 72
    15
 73
    11
 74
     9
 42
0.0000000001
 43
0.0000000001
 44
0.0000000001
 40
0.0
 40
0.0
 40
0.0
 40
0.0
 40
0.1004579816448805
 40
0.146261295686925
 40
0.1982511063434505
 40
0.2336689826118593
 40
0.2896827212658584
 40
0.3232334205941626
 40
0.3807954264085014
 40
0.3999827739260015
 40
0.3999827739260015
 40
0.3999827739260015
 40
0.3999827739260015
 10
68.84414725587845
 20
115.8960573336691
 30
0.0
 10
68.88187732567658
 20
115.8962301575285
 30
0.0
 10
68.93681023199893
 20
115.8964817795618
 30
0.0
 10
68.9668495016653
 20
115.8285296155809
 30
0.0
 10
68.9533844687234
 20
115.7847790223854
 30
0.0
 10
68.93645782489788
 20
115.7398607992479
 30
0.0
 10
68.90654461162616
 20
115.709338189163
 30
0.0
 10
68.86639669793966
 20
115.6799397702497
 30
0.0
 10
68.82845500092044
 20
115.6763809600002
 30
0.0
 10
68.8037781861087
 20
115.6698424413463
 30
0.0
 10
68.79760897945272
 20
115.6682078109004
 30
0.0
 11
68.84414725587845
 21
115.8960573336691
 31
0.0
 11
68.94187771665389
 21
115.8728073204909
 31
0.0
 11
68.96049308074504
 21
115.8309574483646
 31
0.0
 11
68.9511855325016
 21
115.7798075709669
 31
0.0
 11
68.93722407633442
 21
115.7472575525176
 31
0.0
 11
68.8999933481519
 21
115.7054076803911
 31
0.0
 11
68.87207043581742
 21
115.6868076698487
 31
0.0
 11
68.81622434354387
 21
115.672857813536
 31
0.0
 11
68.79760897945272
 21
115.6682078109004
 31
0.0
  0
LINE
  5
1BB9
102
{ACAD_REACTORS
330
1BA8
102
}
330
18
100
AcDbEntity
  8
ROGO
 62
     4
100
AcDbLine
 10
70.9959790326273
 20
116.2273691876891
 30
0.0
 11
70.89887223216937
 21
116.0311108496125
 31
0.0
  0
LINE
  5
1BBA
102
{ACAD_REACTORS
330
1BA8
102
}
330
18
100
AcDbEntity
  8
ROGO
 62
     4
100
AcDbLine
 10
70.28983381236542
 20
116.0311108496125
 30
0.0
 11
70.21390836145332
 21
115.8776612174196
 31
0.0
  0
LINE
  5
1BBB
102
{ACAD_REACTORS
330
1BA8
102
}
330
18
100
AcDbEntity
  8
ROGO
 62
     4
100
AcDbLine
 10
70.28983381236542
 20
116.0311108496125
 30
0.0
 11
70.89887223216937
 21
116.0311108496125
 31
0.0
  0
LINE
  5
1BBC
102
{ACAD_REACTORS
330
1BA8
102
}
330
18
100
AcDbEntity
  8
ROGO
 62
     4
100
AcDbLine
 10
70.21390836145332
 20
115.8776612174196
 30
0.0
 11
70.82294678125737
 21
115.8776612174196
 31
0.0
  0
LINE
  5
1BBD
102
{ACAD_REACTORS
330
1BA8
102
}
330
18
100
AcDbEntity
  8
ROGO
 62
     4
100
AcDbLine
 10
70.06012525900889
 20
115.5668568662552
 30
0.0
 11
70.66916367881282
 21
115.5668568662552
 31
0.0
  0
LINE
  5
1BBE
102
{ACAD_REACTORS
330
1BA8
102
}
330
18
100
AcDbEntity
  8
ROGO
 62
     4
100
AcDbLine
 10
70.13605392423954
 20
115.7203129947679
 30
0.0
 11
70.74509234404359
 21
115.7203129947679
 31
0.0
  0
LINE
  5
1BBF
102
{ACAD_REACTORS
330
1BA8
102
}
330
18
100
AcDbEntity
  8
ROGO
 62
     4
100
AcDbLine
 10
70.82294678125737
 20
115.8776612174196
 30
0.0
 11
70.74509234404359
 21
115.7203129947679
 31
0.0
  0
LINE
  5
1BC0
102
{ACAD_REACTORS
330
1BA8
102
}
330
18
100
AcDbEntity
  8
ROGO
 62
     4
100
AcDbLine
 10
70.13605392423954
 20
115.7203129947679
 30
0.0
 11
70.06012525900889
 21
115.5668568662552
 31
0.0
  0
HATCH
  5
1BC1
330
18
100
AcDbEntity
  8
ROGO
 62
     4
100
AcDbHatch
 10
0.0
 20
0.0
 30
0.0
210
0.0
220
0.0
230
1.0
  2
SOLID
 70
     1
 71
     1
 91
        2
 92
        7
 72
     1
 73
     1
 93
        4
 10
74.57808188658674
 20
116.2273691876891
 42
0.0
 10
74.23163882290947
 20
116.2273691876891
 42
0.9597396185036933
 10
74.23163882290943
 20
115.3706084001916
 42
0.0
 10
74.60297881426782
 20
115.3706084001916
 42
0.9713627655750112
 97
        4
330
1BE1
330
1BC9
330
1BCE
330
1BCA
 92
       22
 72
     1
 73
     1
 93
        2
 10
74.52030515171725
 20
115.7575247707521
 42
0.1034173650202995
 10
74.52540706811695
 20
115.7940262134078
 42
0.0
 97
        8
330
1BD9
330
1BDF
330
1BDB
330
1BDE
330
1BDA
330
1BDD
330
1BD8
330
1BDC
 75
     0
 76
     1
 47
0.0514683685270805
 98
        2
 10
74.6623015233593
 20
115.8786814468562
 10
74.6623015233593
 20
115.8786814468562
450
        0
451
        0
460
0.0
461
0.0
452
        0
462
0.0
453
        0
470

  0
HATCH
  5
1BC2
330
18
100
AcDbEntity
  8
ROGO
 62
     4
100
AcDbHatch
 10
0.0
 20
0.0
 30
0.0
210
0.0
220
0.0
230
1.0
  2
SOLID
 70
     1
 71
     1
 91
        1
 92
        5
 93
        8
 72
     1
 10
73.63843508058295
 20
115.90859862646
 11
73.79738437774252
 21
116.2273691876891
 72
     1
 10
73.79738437774252
 20
116.2273691876891
 11
72.93938953967657
 21
116.2273691876891
 72
     4
 94
        3
 73
     0
 74
     0
 95
       26
 96
       22
 40
0.0
 40
0.0
 40
0.0
 40
0.0
 40
0.1554262224698502
 40
0.2594720434289921
 40
0.3344975535087701
 40
0.3905166742938021
 40
0.4631764140704012
 40
0.5162109407029991
 40
0.6119789345487201
 40
0.6899327047202616
 40
0.7429537591807821
 40
0.7949436177461849
 40
0.8879433672702248
 40
0.9537052901627221
 40
0.9891231664311311
 40
1.039433213442069
 40
1.075763227239463
 40
1.128393422802195
 40
1.158177561081386
 40
1.222991186867614
 40
1.252585651432398
 40
1.252585651432398
 40
1.252585651432398
 40
1.252585651432398
 10
72.9393895396766
 20
116.2273691876891
 10
72.88663547830239
 20
116.2242217899239
 10
72.79856665769784
 20
116.2189674530645
 10
72.70186762842174
 20
116.1602238312497
 10
72.63102025850256
 20
116.126072871009
 10
72.58049200019673
 20
116.0796475500323
 10
72.54345458203201
 20
116.0316935847687
 10
72.49676196339487
 20
115.9745567867648
 10
72.45868546713921
 20
115.9080232975923
 10
72.43929542241523
 20
115.8346917935317
 10
72.42211990483046
 20
115.7762461593124
 10
72.40938225345511
 20
115.7111161272858
 10
72.41262307256324
 20
115.64075278115
 10
72.41726407384657
 20
115.5754029074879
 10
72.43798501603338
 20
115.528752881911
 10
72.46158249887301
 20
115.4955412783156
 10
72.49047729344424
 20
115.4589623789522
 10
72.52209451747794
 20
115.4347362923509
 10
72.5482445425311
 20
115.390849108519
 10
72.59401927923251
 20
115.3852487873454
 10
72.6231155229586
 20
115.3741024767381
 10
72.63223643357884
 20
115.3706084001916
 72
     1
 10
72.63223643357882
 20
115.3706084001916
 11
73.37017577829858
 21
115.3706084001916
 72
     1
 10
73.37017577829858
 20
115.3706084001916
 11
73.52912339222854
 21
115.6893755857276
 72
     1
 10
73.52912339222854
 20
115.6893755857276
 11
72.98127390817839
 21
115.6893755857276
 72
     4
 94
        3
 73
     0
 74
     0
 95
       16
 96
       12
 40
0.0
 40
0.0
 40
0.0
 40
0.0
 40
0.0469383062218051
 40
0.094360746975041
 40
0.1226461015323597
 40
0.1497659350697371
 40
0.1795499550119094
 40
0.2003488931588085
 40
0.220085280338671
 40
0.2601078399996791
 40
0.3420494343555322
 40
0.3420494343555322
 40
0.3420494343555322
 40
0.3420494343555322
 10
72.98127390817836
 20
115.6893755857276
 10
72.96474883708767
 20
115.6942375039436
 10
72.93152825080224
 20
115.7040114875301
 10
72.92874795599221
 20
115.7513921692851
 10
72.93253570543194
 20
115.7851547821836
 10
72.94839880854453
 20
115.8097359359834
 10
72.96764350403899
 20
115.8276219596072
 10
72.97480915769726
 20
115.8509157087884
 10
72.99587194376714
 20
115.8685054037221
 10
73.03322190712703
 20
115.8980712237885
 10
73.07452450094119
 20
115.9043680828573
 10
73.1022736409688
 20
115.90859862646
 72
     1
 10
73.10227364096869
 20
115.9085986264599
 11
73.63843508058295
 21
115.90859862646
 97
        8
330
1BD7
330
1BC4
330
1BCB
330
1BC7
330
1BD6
330
1BD3
330
1BD5
330
1BD4
 75
     0
 76
     1
 47
0.0514683685270805
 98
        1
 10
73.23946210125365
 20
116.0366441920589
450
        0
451
        0
460
0.0
461
0.0
452
        0
462
0.0
453
        0
470

  0
SPLINE
  5
1BC3
102
{ACAD_REACTORS
330
1B9D
102
}
330
18
100
AcDbEntity
  8
ROGO
 62
     4
100
AcDbSpline
210
0.0
220
0.0
230
1.0
 70
     8
 71
     3
 72
    26
 73
    22
 74
    20
 42
0.0000000001
 43
0.0000000001
 44
0.0000000001
 40
0.0
 40
0.0
 40
0.0
 40
0.0
 40
0.1554262224697466
 40
0.2594720434289648
 40
0.3344975535087428
 40
0.3905166742937748
 40
0.4631764140704176
 40
0.5162109407029707
 40
0.6119789345487469
 40
0.6899327047202544
 40
0.7429537591808297
 40
0.7949436177461765
 40
0.8879433672702164
 40
0.9537052901627138
 40
0.9891231664311227
 40
1.03943321344206
 40
1.075763227239454
 40
1.128393422802106
 40
1.158177561081369
 40
1.222991186867616
 40
1.252585651432274
 40
1.252585651432274
 40
1.252585651432274
 40
1.252585651432274
 10
75.69994900614625
 20
116.2273691876891
 30
0.0
 10
75.64719494477209
 20
116.2242217899238
 30
0.0
 10
75.55912612416756
 20
116.2189674530643
 30
0.0
 10
75.46242709489141
 20
116.1602238312497
 30
0.0
 10
75.39157972497221
 20
116.126072871009
 30
0.0
 10
75.34105146666639
 20
116.0796475500323
 30
0.0
 10
75.30401404850173
 20
116.0316935847687
 30
0.0
 10
75.25732142986448
 20
115.9745567867647
 30
0.0
 10
75.21924493360872
 20
115.9080232975923
 30
0.0
 10
75.19985488888488
 20
115.8346917935317
 30
0.0
 10
75.18267937130014
 20
115.7762461593123
 30
0.0
 10
75.16994171992476
 20
115.7111161272858
 30
0.0
 10
75.17318253903288
 20
115.64075278115
 30
0.0
 10
75.17782354031627
 20
115.5754029074879
 30
0.0
 10
75.19854448250303
 20
115.528752881911
 30
0.0
 10
75.22214196534267
 20
115.4955412783156
 30
0.0
 10
75.25103675991392
 20
115.4589623789523
 30
0.0
 10
75.28265398394745
 20
115.4347362923508
 30
0.0
 10
75.30880400900082
 20
115.390849108519
 30
0.0
 10
75.35457874570211
 20
115.3852487873454
 30
0.0
 10
75.38367498942815
 20
115.374102476738
 30
0.0
 10
75.39279590004838
 20
115.3706084001916
 30
0.0
 11
75.69994900614625
 21
116.2273691876891
 31
0.0
 11
75.54637245309738
 21
116.2034620133508
 31
0.0
 11
75.45329563264141
 21
116.1569621385888
 31
0.0
 11
75.38814199212453
 21
116.1197622690981
 31
0.0
 11
75.34625762362265
 21
116.082562248013
 31
0.0
 11
75.29971934719691
 21
116.0267623679797
 31
0.0
 11
75.26714252693847
 21
115.9849124958534
 31
0.0
 11
75.22060398290836
 21
115.9012126000064
 31
0.0
 11
75.19733497849762
 21
115.8268127094306
 31
0.0
 11
75.18337352233044
 21
115.7756628320329
 31
0.0
 11
75.17406570648251
 21
115.7245129546353
 31
0.0
 11
75.17406570648251
 21
115.6315132051113
 31
0.0
 11
75.18337352233044
 21
115.5664133198068
 31
0.0
 11
75.19733497849762
 21
115.5338633013574
 31
0.0
 11
75.22525789083221
 21
115.492013429231
 31
0.0
 11
75.24852716284732
 21
115.4641134134173
 31
0.0
 11
75.28575762342512
 21
115.4269135439265
 31
0.0
 11
75.3043729875165
 21
115.4036635307484
 31
0.0
 11
75.3648729877139
 21
115.3804136691644
 31
0.0
 11
75.39279590004838
 21
115.3706084001916
 31
0.0
  0
SPLINE
  5
1BC4
102
{ACAD_REACTORS
330
1BC2
102
}
330
18
100
AcDbEntity
  8
ROGO
 62
     4
100
AcDbSpline
210
0.0
220
0.0
230
1.0
 70
     8
 71
     3
 72
    26
 73
    22
 74
    20
 42
0.0000000001
 43
0.0000000001
 44
0.0000000001
 40
0.0
 40
0.0
 40
0.0
 40
0.0
 40
0.1554262224698502
 40
0.2594720434289921
 40
0.3344975535087701
 40
0.3905166742938021
 40
0.4631764140704012
 40
0.5162109407029991
 40
0.6119789345487201
 40
0.6899327047202616
 40
0.7429537591807821
 40
0.7949436177461849
 40
0.8879433672702248
 40
0.9537052901627221
 40
0.9891231664311311
 40
1.039433213442069
 40
1.075763227239463
 40
1.128393422802195
 40
1.158177561081386
 40
1.222991186867614
 40
1.252585651432398
 40
1.252585651432398
 40
1.252585651432398
 40
1.252585651432398
 10
72.9393895396766
 20
116.2273691876891
 30
0.0
 10
72.88663547830239
 20
116.2242217899239
 30
0.0
 10
72.79856665769784
 20
116.2189674530645
 30
0.0
 10
72.70186762842174
 20
116.1602238312497
 30
0.0
 10
72.63102025850256
 20
116.126072871009
 30
0.0
 10
72.58049200019673
 20
116.0796475500323
 30
0.0
 10
72.54345458203201
 20
116.0316935847687
 30
0.0
 10
72.49676196339487
 20
115.9745567867648
 30
0.0
 10
72.45868546713921
 20
115.9080232975923
 30
0.0
 10
72.43929542241523
 20
115.8346917935317
 30
0.0
 10
72.42211990483046
 20
115.7762461593124
 30
0.0
 10
72.40938225345511
 20
115.7111161272858
 30
0.0
 10
72.41262307256324
 20
115.64075278115
 30
0.0
 10
72.41726407384657
 20
115.5754029074879
 30
0.0
 10
72.43798501603338
 20
115.528752881911
 30
0.0
 10
72.46158249887301
 20
115.4955412783156
 30
0.0
 10
72.49047729344424
 20
115.4589623789522
 30
0.0
 10
72.52209451747794
 20
115.4347362923509
 30
0.0
 10
72.5482445425311
 20
115.390849108519
 30
0.0
 10
72.59401927923251
 20
115.3852487873454
 30
0.0
 10
72.6231155229586
 20
115.3741024767381
 30
0.0
 10
72.63223643357884
 20
115.3706084001916
 30
0.0
 11
72.9393895396766
 21
116.2273691876891
 31
0.0
 11
72.78581298662761
 21
116.2034620133509
 31
0.0
 11
72.69273616617176
 21
116.1569621385888
 31
0.0
 11
72.62758252565487
 21
116.1197622690981
 31
0.0
 11
72.58569815715299
 21
116.082562248013
 31
0.0
 11
72.53915988072725
 21
116.0267623679798
 31
0.0
 11
72.50658306046881
 21
115.9849124958534
 31
0.0
 11
72.46004451643881
 21
115.9012126000064
 31
0.0
 11
72.43677551202797
 21
115.8268127094306
 31
0.0
 11
72.42281405586078
 21
115.775662832033
 31
0.0
 11
72.41350624001285
 21
115.7245129546353
 31
0.0
 11
72.41350624001285
 21
115.6315132051113
 31
0.0
 11
72.42281405586078
 21
115.5664133198068
 31
0.0
 11
72.43677551202797
 21
115.5338633013574
 31
0.0
 11
72.46469842436255
 21
115.492013429231
 31
0.0
 11
72.48796769637767
 21
115.4641134134173
 31
0.0
 11
72.52519815695558
 21
115.4269135439265
 31
0.0
 11
72.54381352104684
 21
115.4036635307484
 31
0.0
 11
72.60431352124425
 21
115.3804136691645
 31
0.0
 11
72.63223643357884
 21
115.3706084001916
 31
0.0
  0
LINE
  5
1BC5
102
{ACAD_REACTORS
330
1BA3
102
}
330
18
100
AcDbEntity
  8
ROGO
 62
     4
100
AcDbLine
 10
71.82683479793678
 20
116.2273691876891
 30
0.0
 11
72.44466165275304
 21
115.3706084001916
 31
0.0
  0
LINE
  5
1BC6
102
{ACAD_REACTORS
330
1BA3
102
}
330
18
100
AcDbEntity
  8
ROGO
 62
     4
100
AcDbLine
 10
71.85253911756973
 20
115.5337303531827
 30
0.0
 11
71.97016952810969
 21
115.3706084001916
 31
0.0
  0
LINE
  5
1BC7
102
{ACAD_REACTORS
330
1BC2
102
}
330
18
100
AcDbEntity
  8
ROGO
 62
     4
100
AcDbLine
 10
73.52912339222854
 20
115.6893755857276
 30
0.0
 11
73.37017577829858
 21
115.3706084001916
 31
0.0
  0
LINE
  5
1BC8
102
{ACAD_REACTORS
330
1B9D
102
}
330
18
100
AcDbEntity
  8
ROGO
 62
     4
100
AcDbLine
 10
76.2896828586982
 20
115.6893755857276
 30
0.0
 11
76.13073524476835
 21
115.3706084001915
 31
0.0
  0
ARC
  5
1BC9
102
{ACAD_REACTORS
330
1BC1
102
}
330
18
100
AcDbEntity
  8
ROGO
 62
     4
100
AcDbCircle
 10
74.24924732548817
 20
115.7989887939403
 30
0.0
 40
0.428742138250266
100
AcDbArc
 50
92.3538081120337
 51
270.0
  0
ARC
  5
1BCA
102
{ACAD_REACTORS
330
1BC1
102
}
330
18
100
AcDbEntity
  8
ROGO
 62
     4
100
AcDbCircle
 10
74.57808188658674
 20
115.7986270494387
 30
0.0
 40
0.428742138250266
100
AcDbArc
 50
273.3290215232082
 51
90.0000000000006
  0
LINE
  5
1BCB
102
{ACAD_REACTORS
330
1BC2
102
}
330
18
100
AcDbEntity
  8
ROGO
 62
     4
100
AcDbLine
 10
72.63223643357861
 20
115.3706084001916
 30
0.0
 11
73.37017577829868
 21
115.3706084001916
 31
0.0
  0
LINE
  5
1BCC
102
{ACAD_REACTORS
330
1BA3
102
}
330
18
100
AcDbEntity
  8
ROGO
 62
     4
100
AcDbLine
 10
72.44466165275293
 20
115.3706084001916
 30
0.0
 11
71.97016952810969
 21
115.3706084001916
 31
0.0
  0
LINE
  5
1BCD
330
18
100
AcDbEntity
  8
ROGO
 62
     4
100
AcDbLine
 10
74.2316388229097
 20
115.3706084001916
 30
0.0
 11
74.6029788142676
 21
115.3706084001916
 31
0.0
  0
LINE
  5
1BCE
102
{ACAD_REACTORS
330
1BC1
102
}
330
18
100
AcDbEntity
  8
ROGO
 62
     4
100
AcDbLine
 10
74.23163882290947
 20
115.3706084001916
 30
0.0
 11
74.60297881426782
 21
115.3706084001916
 31
0.0
  0
LINE
  5
1BCF
102
{ACAD_REACTORS
330
1B9D
102
}
330
18
100
AcDbEntity
  8
ROGO
 62
     4
100
AcDbLine
 10
75.39279590004827
 20
115.3706084001916
 30
0.0
 11
76.13073524476835
 21
115.3706084001916
 31
0.0
  0
LINE
  5
1BD0
102
{ACAD_REACTORS
330
1BA3
102
}
330
18
100
AcDbEntity
  8
ROGO
 62
     4
100
AcDbLine
 10
71.57924768500828
 20
115.9127125569382
 30
0.0
 11
71.43002459356927
 21
115.7057799959181
 31
0.0
  0
LINE
  5
1BD1
102
{ACAD_REACTORS
330
1BA3
102
}
330
18
100
AcDbEntity
  8
ROGO
 62
     4
100
AcDbLine
 10
71.43002459356927
 20
115.7057799959181
 30
0.0
 11
71.72847077644729
 21
115.7057799959181
 31
0.0
  0
LINE
  5
1BD2
102
{ACAD_REACTORS
330
1BA3
102
}
330
18
100
AcDbEntity
  8
ROGO
 62
     4
100
AcDbLine
 10
71.57924768500828
 20
115.9127125569382
 30
0.0
 11
71.72847077644729
 21
115.7057799959181
 31
0.0
  0
SPLINE
  5
1BD3
102
{ACAD_REACTORS
330
1BC2
102
}
330
18
100
AcDbEntity
  8
ROGO
 62
     4
100
AcDbSpline
210
0.0
220
0.0
230
1.0
 70
     8
 71
     3
 72
    16
 73
    12
 74
    10
 42
0.0000000001
 43
0.0000000001
 44
0.0000000001
 40
0.0
 40
0.0
 40
0.0
 40
0.0
 40
0.0819415943558531
 40
0.1219641540168612
 40
0.1417005411967237
 40
0.1624994793436228
 40
0.1922834992857951
 40
0.2194033328231725
 40
0.2476886873804912
 40
0.2951111281337271
 40
0.3420494343555322
 40
0.3420494343555322
 40
0.3420494343555322
 40
0.3420494343555322
 10
73.1022736409688
 20
115.90859862646
 30
0.0
 10
73.07452450094119
 20
115.9043680828573
 30
0.0
 10
73.03322190712703
 20
115.8980712237885
 30
0.0
 10
72.99587194376714
 20
115.8685054037221
 30
0.0
 10
72.97480915769726
 20
115.8509157087884
 30
0.0
 10
72.96764350403899
 20
115.8276219596072
 30
0.0
 10
72.94839880854453
 20
115.8097359359834
 30
0.0
 10
72.93253570543194
 20
115.7851547821836
 30
0.0
 10
72.92874795599221
 20
115.7513921692851
 30
0.0
 10
72.93152825080224
 20
115.7040114875301
 30
0.0
 10
72.96474883708767
 20
115.6942375039436
 30
0.0
 10
72.98127390817836
 20
115.6893755857276
 30
0.0
 11
73.1022736409688
 21
115.90859862646
 31
0.0
 11
73.02315854428463
 21
115.8872625920995
 31
0.0
 11
72.99058172402618
 21
115.8640127305157
 31
0.0
 11
72.97662026785889
 21
115.8500627226088
 31
0.0
 11
72.96731245201119
 21
115.8314627120662
 31
0.0
 11
72.94869708791992
 21
115.8082128504824
 31
0.0
 11
72.93473563175263
 21
115.7849628373043
 31
0.0
 11
72.93008172382866
 21
115.7570629730847
 31
0.0
 11
72.9393895396766
 21
115.7105629467285
 31
0.0
 11
72.98127390817836
 21
115.6893755857276
 31
0.0
  0
LINE
  5
1BD4
102
{ACAD_REACTORS
330
1BC2
102
}
330
18
100
AcDbEntity
  8
ROGO
 62
     4
100
AcDbLine
 10
73.7973843777425
 20
116.2273691876891
 30
0.0
 11
73.63843508058295
 21
115.90859862646
 31
0.0
  0
LINE
  5
1BD5
102
{ACAD_REACTORS
330
1BC2
102
}
330
18
100
AcDbEntity
  8
ROGO
 62
     4
100
AcDbLine
 10
73.10227364096869
 20
115.90859862646
 30
0.0
 11
73.63843508058295
 21
115.90859862646
 31
0.0
  0
LINE
  5
1BD6
102
{ACAD_REACTORS
330
1BC2
102
}
330
18
100
AcDbEntity
  8
ROGO
 62
     4
100
AcDbLine
 10
72.98127390817836
 20
115.6893755857276
 30
0.0
 11
73.52912339222854
 21
115.6893755857276
 31
0.0
  0
LINE
  5
1BD7
102
{ACAD_REACTORS
330
1BC2
102
}
330
18
100
AcDbEntity
  8
ROGO
 62
     4
100
AcDbLine
 10
72.93938953967682
 20
116.2273691876891
 30
0.0
 11
73.7973843777425
 21
116.2273691876891
 31
0.0
  0
LINE
  5
1BD8
102
{ACAD_REACTORS
330
1BC1
102
}
330
18
100
AcDbEntity
  8
ROGO
 62
     4
100
AcDbLine
 10
74.41982579010169
 20
115.8810539947881
 30
0.0
 11
74.45087424499144
 21
115.8767142588855
 31
0.0
  0
LINE
  5
1BD9
102
{ACAD_REACTORS
330
1BC1
102
}
330
18
100
AcDbEntity
  8
ROGO
 62
     4
100
AcDbLine
 10
74.52540706811698
 20
115.794026213408
 30
0.0
 11
74.51400538246611
 21
115.712453341107
 31
0.0
  0
LINE
  5
1BDA
102
{ACAD_REACTORS
330
1BC1
102
}
330
18
100
AcDbEntity
  8
ROGO
 62
     4
100
AcDbLine
 10
74.3099385781698
 20
115.7426045617776
 30
0.0
 11
74.32134026382067
 21
115.8241774340785
 31
0.0
  0
LINE
  5
1BDB
102
{ACAD_REACTORS
330
1BC1
102
}
330
18
100
AcDbEntity
  8
ROGO
 62
     4
100
AcDbLine
 10
74.39021622504362
 20
115.6692136280798
 30
0.0
 11
74.42126467993336
 21
115.6648738921772
 31
0.0
  0
ARC
  5
1BDC
102
{ACAD_REACTORS
330
1BC1
102
}
330
18
100
AcDbEntity
  8
ROGO
 62
     4
100
AcDbCircle
 10
74.43556164492673
 20
115.7879769019458
 30
0.0
 40
0.0900488436204939
100
AcDbArc
 50
3.851923331663601
 51
80.20940670206341
  0
ARC
  5
1BDD
102
{ACAD_REACTORS
330
1BC1
102
}
330
18
100
AcDbEntity
  8
ROGO
 62
     4
100
AcDbCircle
 10
74.40774212226512
 20
115.7882722834755
 30
0.0
 40
0.0935652765853374
100
AcDbArc
 50
82.57970078354313
 51
157.4341870372611
  0
ARC
  5
1BDE
102
{ACAD_REACTORS
330
1BC1
102
}
330
18
100
AcDbEntity
  8
ROGO
 62
     4
100
AcDbCircle
 10
74.39538013876887
 20
115.7554628606743
 30
0.0
 40
0.0864036812184622
100
AcDbArc
 50
188.5583509056651
 51
266.5736774635929
  0
ARC
  5
1BDF
102
{ACAD_REACTORS
330
1BC1
102
}
330
18
100
AcDbEntity
  8
ROGO
 62
     4
100
AcDbCircle
 10
74.43984890100984
 20
115.7428236645716
 30
0.0
 40
0.0801345137211963
100
AcDbArc
 50
256.5902863289752
 51
337.7287536965499
  0
LINE
  5
1BE0
330
18
100
AcDbEntity
  8
ROGO
 62
     4
100
AcDbLine
 10
74.23163882290947
 20
116.2273691876891
 30
0.0
 11
74.47443891505219
 21
116.2273691876891
 31
0.0
  0
LINE
  5
1BE1
102
{ACAD_REACTORS
330
1BC1
102
}
330
18
100
AcDbEntity
  8
ROGO
 62
     4
100
AcDbLine
 10
74.23163882290947
 20
116.2273691876891
 30
0.0
 11
74.57808188658674
 21
116.2273691876891
 31
0.0
  0
SPLINE
  5
1BE2
102
{ACAD_REACTORS
330
1B9D
102
}
330
18
100
AcDbEntity
  8
ROGO
 62
     4
100
AcDbSpline
210
0.0
220
0.0
230
1.0
 70
     8
 71
     3
 72
    16
 73
    12
 74
    10
 42
0.0000000001
 43
0.0000000001
 44
0.0000000001
 40
0.0
 40
0.0
 40
0.0
 40
0.0
 40
0.0819415943559481
 40
0.1219641540169561
 40
0.1417005411968588
 40
0.162499479343758
 40
0.1922834992858592
 40
0.2194033328232366
 40
0.2476886873806114
 40
0.2951111281337915
 40
0.3420494343556223
 40
0.3420494343556223
 40
0.3420494343556223
 40
0.3420494343556223
 10
75.86283310743858
 20
115.90859862646
 30
0.0
 10
75.83508396741095
 20
115.9043680828573
 30
0.0
 10
75.79378137359677
 20
115.8980712237886
 30
0.0
 10
75.75643141023675
 20
115.8685054037221
 30
0.0
 10
75.73536862416696
 20
115.8509157087883
 30
0.0
 10
75.72820297050849
 20
115.8276219596072
 30
0.0
 10
75.70895827501421
 20
115.8097359359834
 30
0.0
 10
75.6930951719016
 20
115.7851547821836
 30
0.0
 10
75.68930742246189
 20
115.7513921692851
 30
0.0
 10
75.69208771727193
 20
115.70401148753
 30
0.0
 10
75.72530830355734
 20
115.6942375039435
 30
0.0
 10
75.74183337464802
 20
115.6893755857276
 30
0.0
 11
75.86283310743858
 21
115.90859862646
 31
0.0
 11
75.78371801075428
 21
115.8872625920995
 31
0.0
 11
75.75114119049584
 21
115.8640127305157
 31
0.0
 11
75.73717973432855
 21
115.8500627226087
 31
0.0
 11
75.72787191848073
 21
115.8314627120662
 31
0.0
 11
75.70925655438959
 21
115.8082128504824
 31
0.0
 11
75.69529509822229
 21
115.7849628373043
 31
0.0
 11
75.69064119029832
 21
115.7570629730847
 31
0.0
 11
75.69994900614625
 21
115.7105629467285
 31
0.0
 11
75.74183337464802
 21
115.6893755857276
 31
0.0
  0
LINE
  5
1BE3
102
{ACAD_REACTORS
330
1B9D
102
}
330
18
100
AcDbEntity
  8
ROGO
 62
     4
100
AcDbLine
 10
75.74183337464802
 20
115.6893755857276
 30
0.0
 11
76.28968285869831
 21
115.6893755857276
 31
0.0
  0
LINE
  5
1BE4
102
{ACAD_REACTORS
330
1B9D
102
}
330
18
100
AcDbEntity
  8
ROGO
 62
     4
100
AcDbLine
 10
75.86283310743834
 20
115.90859862646
 30
0.0
 11
76.39899454705261
 21
115.90859862646
 31
0.0
  0
LINE
  5
1BE5
102
{ACAD_REACTORS
330
1B9C
102
}
330
18
100
AcDbEntity
  8
ROGO
 62
     4
100
AcDbLine
 10
77.07114570186167
 20
115.5579955173893
 30
0.0
 11
77.40491703263018
 21
114.8886218470896
 31
0.0
  0
LINE
  5
1BE6
102
{ACAD_REACTORS
330
1B9C
102
}
330
18
100
AcDbEntity
  8
ROGO
 62
     4
100
AcDbLine
 10
76.7373851642422
 20
115.2380500393317
 30
0.0
 11
76.91162134637403
 21
114.8886218470896
 31
0.0
  0
LINE
  5
1BE7
102
{ACAD_REACTORS
330
1B9C
102
}
330
18
100
AcDbEntity
  8
ROGO
 62
     4
100
AcDbLine
 10
76.7373851642422
 20
115.2380500393316
 30
0.0
 11
76.56314898211025
 21
114.8886218470896
 31
0.0
  0
LINE
  5
1BE8
102
{ACAD_REACTORS
330
1B9C
102
}
330
18
100
AcDbEntity
  8
ROGO
 62
     4
100
AcDbLine
 10
76.91162134637403
 20
114.8886218470896
 30
0.0
 11
77.40491703263018
 21
114.8886218470896
 31
0.0
  0
LINE
  5
1BE9
102
{ACAD_REACTORS
330
1B9C
102
}
330
18
100
AcDbEntity
  8
ROGO
 62
     4
100
AcDbLine
 10
77.07114570186167
 20
115.5579955173893
 30
0.0
 11
77.88208092360111
 21
116.2273691876891
 31
0.0
  0
LINE
  5
1BEA
102
{ACAD_REACTORS
330
1B9C
102
}
330
18
100
AcDbEntity
  8
ROGO
 62
     4
100
AcDbLine
 10
77.38878523734484
 20
116.2273691876891
 30
0.0
 11
77.88208092360111
 21
116.2273691876891
 31
0.0
  0
LINE
  5
1BEB
102
{ACAD_REACTORS
330
1B9C
102
}
330
18
100
AcDbEntity
  8
ROGO
 62
     4
100
AcDbLine
 10
76.7373851642422
 20
116.2273691876891
 30
0.0
 11
77.23069164364716
 21
116.2273691876891
 31
0.0
  0
LINE
  5
1BEC
102
{ACAD_REACTORS
330
1B9C
102
}
330
18
100
AcDbEntity
  8
ROGO
 62
     4
100
AcDbLine
 10
77.23069164364716
 20
116.2273691876891
 30
0.0
 11
77.15780956909617
 21
116.0812052207929
 31
0.0
  0
LINE
  5
1BED
102
{ACAD_REACTORS
330
1B9C
102
}
330
18
100
AcDbEntity
  8
ROGO
 62
     4
100
AcDbLine
 10
77.15780956909617
 20
116.0812052207929
 30
0.0
 11
77.38878523734484
 21
116.2273691876891
 31
0.0
  0
LINE
  5
1BF7
330
18
100
AcDbEntity
  8
ROGO
 62
     4
100
AcDbLine
 10
71.33166057207978
 20
116.1556321079811
 30
0.0
 11
71.82683479793678
 21
116.1556321079811
 31
0.0
  0
LINE
  5
1BF8
330
18
100
AcDbEntity
  8
ROGO
 62
     4
100
AcDbLine
 10
68.17487376422178
 20
114.9510741959865
 30
0.0
 11
76.13675368572268
 21
114.9510741959865
 31
0.0
  0
LINE
  5
1C05
330
18
100
AcDbEntity
  8
ROGO
 62
     4
100
AcDbLine
 10
68.16356159150274
 20
116.1556321079811
 30
0.0
 11
69.21563535146839
 21
116.1556321079811
 31
0.0
  0
LINE
  5
1C07
330
18
100
AcDbEntity
  8
ROGO
 62
     4
100
AcDbLine
 10
68.79760897945272
 20
115.5964707311924
 30
0.0
 11
68.47617564341868
 21
115.5964707311925
 31
0.0
  0
LINE
  5
1C23
330
18
100
AcDbEntity
  8
ROGO
 62
     4
100
AcDbLine
 10
71.43002459356927
 20
115.6340429162102
 30
0.0
 11
71.72847077644729
 21
115.6340429162102
 31
0.0
  0
LINE
  5
1C2B
330
18
100
AcDbEntity
  8
ROGO
 62
     4
100
AcDbLine
 10
74.52540706811698
 20
115.7222891337001
 30
0.0
 11
74.51400538246611
 21
115.640716261399
 31
0.0
  0
LINE
  5
1C2D
330
18
100
AcDbEntity
  8
ROGO
 62
     4
100
AcDbLine
 10
74.39021622504362
 20
115.5974765483718
 30
0.0
 11
74.42126467993336
 21
115.5931368124693
 31
0.0
  0
ARC
  5
1C30
330
18
100
AcDbEntity
  8
ROGO
 62
     4
100
AcDbCircle
 10
74.39538013876887
 20
115.6837257809663
 30
0.0
 40
0.0864036812184622
100
AcDbArc
 50
188.5583509056651
 51
266.5736774635929
  0
ARC
  5
1C31
330
18
100
AcDbEntity
  8
ROGO
 62
     4
100
AcDbCircle
 10
74.43984890100984
 20
115.6710865848636
 30
0.0
 40
0.0801345137211963
100
AcDbArc
 50
256.5902863289752
 51
337.7287536965499
  0
LINE
  5
1C32
330
18
100
AcDbEntity
  8
ROGO
 62
     4
100
AcDbLine
 10
74.23163882290947
 20
116.1556321079811
 30
0.0
 11
74.47443891505219
 21
116.1556321079811
 31
0.0
  0
LINE
  5
1C33
330
18
100
AcDbEntity
  8
ROGO
 62
     4
100
AcDbLine
 10
74.23163882290947
 20
116.1556321079811
 30
0.0
 11
74.57808188658674
 21
116.1556321079811
 31
0.0
  0
LINE
  5
1C3F
330
18
100
AcDbEntity
  8
ROGO
 62
     4
100
AcDbLine
 10
77.15780956909617
 20
116.0094681410849
 30
0.0
 11
77.38878523734484
 21
116.1556321079811
 31
0.0
  0
INSERT
  5
1C6C
330
18
100
AcDbEntity
  8
文字
100
AcDbBlockReference
  2
AVE_RENDER
 10
401.8587549159702
 20
218.1081395175064
 30
0.0
  0
INSERT
  5
1FDE
330
18
100
AcDbEntity
  8
文字
100
AcDbBlockReference
  2
ROGO1
 10
300.7756054085867
 20
204.1511762370092
 30
0.0
  0
CIRCLE
  5
2167
330
18
100
AcDbEntity
  8
外形線
100
AcDbCircle
 10
72.57322584488321
 20
109.5723229578296
 30
0.0
 40
9.5
  0
LINE
  5
221C
330
18
100
AcDbEntity
  8
中心線
 48
0.3
100
AcDbLine
 10
73.22322584488318
 20
108.1123229578296
 30
0.0
 11
82.82322584488321
 21
108.1123229578296
 31
0.0
  0
LINE
  5
221D
330
18
100
AcDbEntity
  8
中心線
 48
0.3
100
AcDbLine
 10
78.02322584488326
 20
112.9123229578296
 30
0.0
 11
78.02322584488326
 21
103.3123229578296
 31
0.0
  0
ARC
  5
221E
330
18
100
AcDbEntity
  8
外形線
100
AcDbCircle
 10
78.02322584488326
 20
108.1123229578296
 30
0.0
 40
3.799999999999999
100
AcDbArc
 50
75.00000000000115
 51
254.9999999999851
  0
LINE
  5
221F
330
18
100
AcDbEntity
  8
外形線
100
AcDbLine
 10
79.00673821627271
 20
111.7828410977281
 30
0.0
 11
78.8773286937215
 21
111.2998781845836
 31
0.0
  0
LINE
  5
2222
330
18
100
AcDbEntity
  8
外形線
100
AcDbLine
 10
75.33622007637433
 20
110.7993287263385
 30
0.0
 11
75.68977346696755
 21
110.4457753357452
 31
0.0
  0
LINE
  5
2223
330
18
100
AcDbEntity
  8
外形線
100
AcDbLine
 10
74.35270770498465
 20
107.12881058644
 30
0.0
 11
74.83567061812931
 21
107.2582201089912
 31
0.0
  0
TEXT
  5
2227
330
18
100
AcDbEntity
  8
文字
100
AcDbText
 10
78.24970931559306
 20
110.0375620602016
 30
0.0
 40
1.0
  1
0
  7
STYLE3
100
AcDbText
  0
TEXT
  5
2228
330
18
100
AcDbEntity
  8
文字
100
AcDbText
 10
75.30928873529427
 20
109.2824634350312
 30
0.0
 40
1.0
  1
0.2
  7
STYLE3
100
AcDbText
  0
TEXT
  5
2229
330
18
100
AcDbEntity
  8
文字
100
AcDbText
 10
74.95202641509326
 20
106.9209362740155
 30
0.0
 40
1.0
  1
0.4
  7
STYLE3
100
AcDbText
  0
TEXT
  5
222A
330
18
100
AcDbEntity
  8
文字
100
AcDbText
 10
76.25156141445251
 20
105.1804302770351
 30
0.0
 40
1.0
  1
0.6
  7
STYLE3
100
AcDbText
  0
INSERT
  5
223F
330
18
100
AcDbEntity
  8
外形線
100
AcDbBlockReference
  2
A$C4BFB2CFF
 10
78.01906971161208
 20
107.1223822496047
 30
0.0
 50
44.75945492667417
  0
LINE
  5
283E
330
18
100
AcDbEntity
  8
寸法線
 62
     2
100
AcDbLine
 10
162.7806441206076
 20
97.3933837080839
 30
0.0
 11
169.9618303011792
 21
106.694653642942
 31
0.0
1001
ACAD
1000
DSTYLE
1002
{
1070
   271
1070
     2
1002
}
  0
INSERT
  5
283F
330
18
100
AcDbEntity
  8
0
  6
ByBlock
 62
     2
100
AcDbBlockReference
  2
_OPEN
 10
163.6931224864723
 20
157.4250903089814
 30
0.0
 41
2.5
 42
2.5
 43
2.5
  0
LINE
  5
2840
330
18
100
AcDbEntity
  8
0
  6
ByBlock
 62
     2
100
AcDbLine
 10
161.6931224864723
 20
126.3723229578297
 30
0.0
 11
175.9994158879703
 21
126.3723229578297
 31
0.0
  0
LINE
  5
2841
330
18
100
AcDbEntity
  8
0
  6
ByBlock
 62
     2
100
AcDbLine
 10
154.1931224864723
 20
142.3723229578297
 30
0.0
 11
175.9994158879703
 21
142.3723229578297
 31
0.0
  0
LINE
  5
2842
330
18
100
AcDbEntity
  8
0
  6
ByBlock
 62
     2
100
AcDbLine
 10
162.0431224864724
 20
152.0254114960929
 30
0.0
 11
163.6931224864723
 21
152.0254114960929
 31
0.0
  0
LINE
  5
2843
330
18
100
AcDbEntity
  8
0
  6
ByBlock
 62
     2
100
AcDbLine
 10
162.0431224864724
 20
152.0254114960929
 30
0.0
 11
163.6931224864723
 21
152.0254114960929
 31
0.0
  0
LINE
  5
2844
330
18
100
AcDbEntity
  8
中心線
 48
0.5
100
AcDbLine
 10
134.3308499380401
 20
109.5723229578296
 30
0.0
 11
167.9945494148115
 21
109.5723229578296
 31
0.0
  0
LINE
  5
2845
330
18
100
AcDbEntity
  8
外形線
100
AcDbLine
 10
162.0431224864724
 20
85.17232295782964
 30
0.0
 11
163.6931224864723
 21
86.82232295782966
 31
0.0
  0
LINE
  5
2846
330
18
100
AcDbEntity
  8
外形線
100
AcDbLine
 10
162.0431224864724
 20
124.3723229578296
 30
0.0
 11
163.6931224864723
 21
124.3723229578296
 31
0.0
  0
DIMENSION
  5
2847
330
18
100
AcDbEntity
  8
外形線
100
AcDbDimension
  2
*D5
 10
103.9776495926617
 20
53.77232295782965
 30
0.0
 11
102.1026495926617
 21
98.17232295782966
 31
0.0
 70
    32
 71
     5
 42
88.79999999999997
  3
STYLE3
100
AcDbAlignedDimension
 13
99.66449912397031
 23
142.5723229578296
 33
0.0
 14
72.57322584488344
 24
53.77232295782966
 34
0.0
 50
90.0
100
AcDbRotatedDimension
1001
ACAD
1000
DSTYLE
1002
{
1070
   271
1070
     2
1002
}
  0
LINE
  5
2848
330
18
100
AcDbEntity
  8
目盛
100
AcDbLine
 10
84.70848076050748
 20
118.3891017422166
 30
0.0
 11
82.68593827456999
 21
116.9196386114855
 31
0.0
  0
LINE
  5
2849
330
18
100
AcDbEntity
  8
目盛
100
AcDbLine
 10
85.23814472741339
 20
117.6097248825144
 30
0.0
 11
83.97165283916052
 21
116.805984690046
 31
0.0
  0
LINE
  5
284A
330
18
100
AcDbEntity
  8
目盛
100
AcDbLine
 10
59.90830696235303
 20
117.6097248825145
 30
0.0
 11
61.17479885060612
 21
116.805984690046
 31
0.0
  0
LINE
  5
284B
330
18
100
AcDbEntity
  8
目盛
100
AcDbLine
 10
60.43797092925905
 20
118.3891017422167
 30
0.0
 11
62.46051341519643
 21
116.9196386114855
 31
0.0
  0
LINE
  5
284C
330
18
100
AcDbEntity
  8
0
  6
ByBlock
 62
     2
100
AcDbLine
 10
129.4970271381178
 20
124.5723229578296
 30
0.0
 11
129.4970271381178
 21
94.57232295782961
 31
0.0
  0
LINE
  5
284D
330
18
100
AcDbEntity
  8
0
  6
ByBlock
 62
     2
100
AcDbLine
 10
137.6931224864723
 20
109.5723229578295
 30
0.0
 11
137.6931224864723
 21
158.6750903089814
 31
0.0
  0
TEXT
  5
284E
330
18
100
AcDbEntity
  8
文字
100
AcDbText
 10
64.00213646879137
 20
117.6734965273904
 30
0.0
 40
1.8
  1
20
  7
STYLE3
100
AcDbText
  0
LINE
  5
284F
330
18
100
AcDbEntity
  8
外形線
100
AcDbLine
 10
162.0431224864724
 20
124.7223229578297
 30
0.0
 11
162.0431224864724
 21
80.67232295782963
 31
0.0
  0
LINE
  5
2850
330
18
100
AcDbEntity
  8
外形線
100
AcDbLine
 10
146.1931224864723
 20
126.3723229578296
 30
0.0
 11
146.1931224864723
 21
88.3723229578298
 31
0.0
  0
LINE
  5
2851
330
18
100
AcDbEntity
  8
中心線
 48
0.5
100
AcDbLine
 10
154.1931224864723
 20
144.5869384909018
 30
0.0
 11
154.1931224864723
 21
50.95135162938124
 31
0.0
  0
LINE
  5
2852
330
18
100
AcDbEntity
  8
中心線
 48
0.5
100
AcDbLine
 10
72.57322584488321
 20
144.2159748455752
 30
0.0
 11
72.57322584488344
 21
51.90873781598748
 31
0.0
  0
ARC
  5
2853
330
18
100
AcDbEntity
  8
外形線
100
AcDbCircle
 10
200.0721540710494
 20
109.5723229578295
 30
0.0
 40
62.37903158457702
100
AcDbArc
 50
166.4545064755762
 51
193.5454935244236
  0
LINE
  5
2854
330
18
100
AcDbEntity
  8
外形線
100
AcDbLine
 10
140.0568644550651
 20
126.0723229578295
 30
0.0
 11
140.0568644550651
 21
93.07232295782966
 31
0.0
  0
LINE
  5
2855
330
18
100
AcDbEntity
  8
外形線
100
AcDbLine
 10
145.2568644550651
 20
126.7223229578296
 30
0.0
 11
145.2568644550651
 21
92.42232295782963
 31
0.0
  0
LINE
  5
2856
330
18
100
AcDbEntity
  8
外形線
100
AcDbLine
 10
144.2568644550652
 20
126.7223229578295
 30
0.0
 11
144.2568644550651
 21
92.42232295782969
 31
0.0
  0
LINE
  5
2857
330
18
100
AcDbEntity
  8
外形線
100
AcDbLine
 10
140.5568644550652
 20
126.8723229578296
 30
0.0
 11
140.5568644550649
 21
92.27232295782977
 31
0.0
  0
TEXT
  5
285B
330
18
100
AcDbEntity
  8
文字
100
AcDbText
 10
77.64975802205441
 20
117.7119157045741
 30
0.0
 40
1.8
  1
20
  7
STYLE3
100
AcDbText
  0
CIRCLE
  5
285C
330
18
100
AcDbEntity
  8
外形線
100
AcDbCircle
 10
72.57322584488321
 20
109.5723229578296
 30
0.0
 40
15.0
  0
DIMENSION
  5
285D
330
18
100
AcDbEntity
  8
外形線
100
AcDbDimension
  2
*D6
 10
93.54616892286486
 20
54.77232295782965
 30
0.0
 11
91.67116892286484
 21
63.07232295782965
 31
0.0
 70
    32
 71
     5
 42
16.59999999999996
  3
STYLE3
100
AcDbAlignedDimension
 13
80.6617019566733
 23
71.37232295782962
 33
0.0
 14
75.53397381013081
 24
54.77232295782965
 34
0.0
 50
90.0
100
AcDbRotatedDimension
1001
ACAD
1000
DSTYLE
1002
{
1070
   271
1070
     2
1002
}
  0
LINE
  5
285E
330
18
100
AcDbEntity
  8
目盛
100
AcDbLine
 10
86.83907358931065
 20
114.2075778734538
 30
0.0
 11
84.46143229857268
 21
113.4350353875164
 31
0.0
  0
LINE
  5
285F
330
18
100
AcDbEntity
  8
目盛
100
AcDbLine
 10
87.10197326181271
 20
113.3026712653023
 30
0.0
 11
85.6490985201197
 21
112.9296364345551
 31
0.0
  0
LINE
  5
2860
330
18
100
AcDbEntity
  8
目盛
100
AcDbLine
 10
87.30753460581359
 20
112.3830426766154
 30
0.0
 11
85.83410372972053
 21
112.1019707047368
 31
0.0
  0
LINE
  5
2861
330
18
100
AcDbEntity
  8
目盛
100
AcDbLine
 10
87.4549463646004
 20
111.4523214612941
 30
0.0
 11
85.96677431262873
 21
111.2643216109477
 31
0.0
  0
LINE
  5
2862
330
18
100
AcDbEntity
  8
目盛
100
AcDbLine
 10
87.54362677130728
 20
110.5141807507693
 30
0.0
 11
86.04658667866493
 21
110.4199949714752
 31
0.0
  0
LINE
  5
2863
330
18
100
AcDbEntity
  8
目盛
100
AcDbLine
 10
87.57322584488321
 20
109.5723229578295
 30
0.0
 11
85.07322584488321
 21
109.5723229578295
 31
0.0
  0
LINE
  5
2864
330
18
100
AcDbEntity
  8
目盛
100
AcDbLine
 10
87.54362677130741
 20
108.6304651648898
 30
0.0
 11
86.04658667866493
 21
108.7246509441838
 31
0.0
  0
LINE
  5
2865
330
18
100
AcDbEntity
  8
目盛
100
AcDbLine
 10
87.4549463646004
 20
107.6923244543649
 30
0.0
 11
85.96677431262873
 21
107.8803243047114
 31
0.0
  0
LINE
  5
2866
330
18
100
AcDbEntity
  8
目盛
100
AcDbLine
 10
87.30753460581359
 20
106.7616032390436
 30
0.0
 11
85.83410372972053
 21
107.0426752109223
 31
0.0
  0
LINE
  5
2867
330
18
100
AcDbEntity
  8
目盛
100
AcDbLine
 10
87.10197326181271
 20
105.8419746503567
 30
0.0
 11
85.6490985201197
 21
106.215009481104
 31
0.0
  0
LINE
  5
2868
330
18
100
AcDbEntity
  8
目盛
100
AcDbLine
 10
86.83907358931055
 20
104.9370680422053
 30
0.0
 11
84.46143229857268
 21
105.7096105281427
 31
0.0
  0
MTEXT
  5
2869
330
18
100
AcDbEntity
  8
0
  6
ByBlock
 62
     6
100
AcDbMText
 10
84.26965441631187
 20
63.64871773298756
 30
0.0
 40
2.5
 41
0.0
 71
     5
 72
     1
  1
\A1;(10)
  7
STYLE3
 73
     1
 44
1.0
  0
LINE
  5
286A
330
18
100
AcDbEntity
  8
0
  6
ByBlock
 62
     2
100
AcDbLine
 10
77.57322584488321
 20
61.11895582822569
 30
0.0
 11
88.46608298774043
 21
61.11895582822569
 31
0.0
  0
DIMENSION
  5
286D
330
18
100
AcDbEntity
  8
外形線
100
AcDbDimension
  2
*D7
 10
60.11801513842176
 20
54.77232295782965
 30
0.0
 11
58.24301513842175
 21
61.07232295782962
 31
0.0
 70
    32
 71
     5
 42
12.59999999999991
  3
STYLE3
100
AcDbAlignedDimension
 13
68.57322584488321
 23
67.37232295782956
 33
0.0
 14
70.18982359989883
 24
54.77232295782965
 34
0.0
 50
90.0
100
AcDbRotatedDimension
1001
ACAD
1000
DSTYLE
1002
{
1070
   271
1070
     2
1002
}
  0
LINE
  5
286E
330
18
100
AcDbEntity
  8
0
  6
ByBlock
 62
     2
100
AcDbLine
 10
77.57322584488321
 20
69.37232295782962
 30
0.0
 11
77.57322584488321
 21
59.86895582822569
 31
0.0
  0
LINE
  5
286F
330
18
100
AcDbEntity
  8
0
  6
ByBlock
 62
     2
100
AcDbLine
 10
67.57322584488321
 20
69.37232295782962
 30
0.0
 11
67.57322584488321
 21
59.86895582822569
 31
0.0
  0
LINE
  5
2870
330
18
100
AcDbEntity
  8
外形線
100
AcDbLine
 10
73.67322584488334
 20
64.77232295782965
 30
0.0
 11
73.17322584488346
 21
55.57232295782961
 31
0.0
  0
LINE
  5
2871
330
18
100
AcDbEntity
  8
外形線
100
AcDbLine
 10
71.4732258448833
 20
64.77232295782965
 30
0.0
 11
71.97322584488353
 21
55.57232295782961
 31
0.0
  0
ARC
  5
2874
330
18
100
AcDbEntity
  8
外形線
100
AcDbCircle
 10
72.57322584488344
 20
54.77232295782965
 30
0.0
 40
1.0
100
AcDbArc
 50
126.869897645842
 51
53.13010235415791
  0
LINE
  5
2875
330
18
100
AcDbEntity
  8
外形線
100
AcDbLine
 10
71.97322584488353
 20
55.57232295782961
 30
0.0
 11
73.17322584488346
 21
55.57232295782961
 31
0.0
  0
LINE
  5
2876
330
18
100
AcDbEntity
  8
隠れ線
 62
     4
 48
0.3
100
AcDbLine
 10
72.57322584488344
 20
55.77194478760742
 30
0.0
 11
71.97322584488353
 21
55.57232295782961
 31
0.0
  0
LINE
  5
2877
330
18
100
AcDbEntity
  8
中心線
 48
0.5
100
AcDbLine
 10
70.18982359989883
 20
54.77232295782965
 30
0.0
 11
75.53397381013081
 21
54.77232295782965
 31
0.0
  0
POINT
  5
2878
330
18
100
AcDbEntity
  8
DEFPOINTS
  6
ByBlock
 62
     0
100
AcDbPoint
 10
70.18982359989883
 20
54.77232295782965
 30
0.0
  0
POINT
  5
2879
330
18
100
AcDbEntity
  8
DEFPOINTS
  6
ByBlock
 62
     0
100
AcDbPoint
 10
72.57322584488344
 20
53.77232295782966
 30
0.0
  0
LINE
  5
287A
330
18
100
AcDbEntity
  8
隠れ線
 62
     4
 48
0.3
100
AcDbLine
 10
72.57322584488344
 20
55.77194478760742
 30
0.0
 11
73.17322584488346
 21
55.57232295782961
 31
0.0
  0
LINE
  5
287B
330
18
100
AcDbEntity
  8
外形線
100
AcDbLine
 10
76.57322584488333
 20
92.53559792042882
 30
0.0
 11
76.57322584488321
 21
67.37232295782956
 31
0.0
  0
LINE
  5
287C
330
18
100
AcDbEntity
  8
外形線
100
AcDbLine
 10
75.77322584488325
 20
92.36738180710199
 30
0.0
 11
75.77322584488325
 21
77.2723229578296
 31
0.0
  0
LINE
  5
287D
330
18
100
AcDbEntity
  8
外形線
100
AcDbLine
 10
68.57322584488321
 20
92.53559792042882
 30
0.0
 11
68.57322584488321
 21
67.37232295782956
 31
0.0
  0
INSERT
  5
287E
330
18
100
AcDbEntity
  8
0
  6
ByBlock
 62
     2
100
AcDbBlockReference
  2
_OPEN
 10
67.57322584488321
 20
61.11895582822569
 30
0.0
 41
2.5
 42
2.5
 43
2.5
 50
180.0
  0
LINE
  5
287F
330
18
100
AcDbEntity
  8
中心線
 48
0.5
100
AcDbLine
 10
64.44518012545541
 20
71.37232295782962
 30
0.0
 11
80.6617019566733
 21
71.37232295782962
 31
0.0
  0
LINE
  5
2880
330
18
100
AcDbEntity
  8
外形線
100
AcDbLine
 10
68.07322584488321
 20
73.37232295782962
 30
0.0
 11
67.57322584488321
 21
73.37232295782962
 31
0.0
  0
LINE
  5
2881
330
18
100
AcDbEntity
  8
外形線
100
AcDbLine
 10
68.07322584488321
 20
69.37232295782962
 30
0.0
 11
67.57322584488321
 21
69.37232295782962
 31
0.0
  0
POINT
  5
2882
330
18
100
AcDbEntity
  8
DEFPOINTS
  6
ByBlock
 62
     0
100
AcDbPoint
 10
67.57322584488321
 20
69.37232295782962
 30
0.0
  0
LINE
  5
2883
330
18
100
AcDbEntity
  8
外形線
100
AcDbLine
 10
67.57322584488321
 20
73.37232295782962
 30
0.0
 11
67.57322584488321
 21
69.37232295782962
 31
0.0
  0
LINE
  5
2884
330
18
100
AcDbEntity
  8
外形線
100
AcDbLine
 10
74.37322584488327
 20
75.71507337742031
 30
0.0
 11
74.37322584488317
 21
67.61232295782964
 31
0.0
  0
LINE
  5
2885
330
18
100
AcDbEntity
  8
外形線
100
AcDbLine
 10
70.9732258448833
 20
75.11232295782964
 30
0.0
 11
70.97322584488319
 21
67.71232295782965
 31
0.0
  0
LINE
  5
2886
330
18
100
AcDbEntity
  8
外形線
100
AcDbLine
 10
73.57322584488333
 20
75.87232295782968
 30
0.0
 11
73.57322584488321
 21
67.71232295782965
 31
0.0
  0
LINE
  5
2887
330
18
100
AcDbEntity
  8
外形線
100
AcDbLine
 10
70.2232258448833
 20
67.37232295782968
 30
0.0
 11
70.311599537728
 21
74.88408684962997
 31
0.0
  0
LINE
  5
2888
330
18
100
AcDbEntity
  8
外形線
100
AcDbLine
 10
74.92322584488334
 20
67.37232295782968
 30
0.0
 11
74.83485215203865
 21
74.88408684962997
 31
0.0
  0
INSERT
  5
2889
330
18
100
AcDbEntity
  8
0
  6
ByBlock
 62
     2
100
AcDbBlockReference
  2
_OPEN
 10
77.57322584488321
 20
61.11895582822569
 30
0.0
 41
2.5
 42
2.5
 43
2.5
  0
LINE
  5
288A
330
18
100
AcDbEntity
  8
外形線
100
AcDbLine
 10
77.07322584488332
 20
73.37232295782962
 30
0.0
 11
77.57322584488321
 21
73.37232295782962
 31
0.0
  0
LINE
  5
288B
330
18
100
AcDbEntity
  8
外形線
100
AcDbLine
 10
77.07322584488332
 20
69.37232295782962
 30
0.0
 11
77.57322584488321
 21
69.37232295782962
 31
0.0
  0
LINE
  5
288C
330
18
100
AcDbEntity
  8
外形線
100
AcDbLine
 10
71.4732258448833
 20
67.61232295782957
 30
0.0
 11
71.4732258448833
 21
66.42232295782964
 31
0.0
  0
LINE
  5
288D
330
18
100
AcDbEntity
  8
外形線
100
AcDbLine
 10
73.67322584488334
 20
67.61232295782969
 30
0.0
 11
73.67322584488334
 21
66.42232295782964
 31
0.0
  0
LINE
  5
288E
330
18
100
AcDbEntity
  8
外形線
100
AcDbLine
 10
71.4732258448833
 20
64.77232295782965
 30
0.0
 11
73.67322584488334
 21
64.77232295782965
 31
0.0
  0
LINE
  5
288F
330
18
100
AcDbEntity
  8
0
  6
ByBlock
 62
     2
100
AcDbLine
 10
70.07322584488321
 20
61.11895582822569
 30
0.0
 11
75.07322584488321
 21
61.11895582822569
 31
0.0
  0
LINE
  5
2890
330
18
100
AcDbEntity
  8
外形線
100
AcDbLine
 10
73.67322584488334
 20
65.92232295782963
 30
0.0
 11
71.4732258448833
 21
65.92232295782963
 31
0.0
  0
LINE
  5
2891
330
18
100
AcDbEntity
  8
外形線
100
AcDbLine
 10
73.67322584488334
 20
66.42232295782964
 30
0.0
 11
71.4732258448833
 21
66.42232295782964
 31
0.0
  0
LINE
  5
2892
330
18
100
AcDbEntity
  8
外形線
 62
     4
100
AcDbLine
 10
73.24021314299085
 20
66.17232295782963
 30
0.0
 11
71.90623854677557
 21
66.17232295782963
 31
0.0
  0
LINE
  5
2893
330
18
100
AcDbEntity
  8
外形線
100
AcDbLine
 10
71.4732258448833
 20
65.92232295782986
 30
0.0
 11
71.4732258448833
 21
64.77232295782965
 31
0.0
  0
LINE
  5
2894
330
18
100
AcDbEntity
  8
外形線
100
AcDbLine
 10
71.4732258448833
 20
65.92232295782986
 30
0.0
 11
71.90623854677546
 21
66.17232295782975
 31
0.0
  0
LINE
  5
2895
330
18
100
AcDbEntity
  8
外形線
100
AcDbLine
 10
71.4732258448833
 20
66.42232295782964
 30
0.0
 11
71.90623854677557
 21
66.17232295782963
 31
0.0
  0
LINE
  5
2896
330
18
100
AcDbEntity
  8
外形線
100
AcDbLine
 10
73.67322584488334
 20
65.92232295782986
 30
0.0
 11
73.67322584488334
 21
64.77232295782965
 31
0.0
  0
LINE
  5
2897
330
18
100
AcDbEntity
  8
外形線
100
AcDbLine
 10
73.67322584488334
 20
65.92232295782986
 30
0.0
 11
73.24021314299108
 21
66.17232295782975
 31
0.0
  0
LINE
  5
2898
330
18
100
AcDbEntity
  8
外形線
100
AcDbLine
 10
73.67322584488334
 20
66.42232295782964
 30
0.0
 11
73.24021314299085
 21
66.17232295782963
 31
0.0
  0
LINE
  5
2899
330
18
100
AcDbEntity
  8
外形線
100
AcDbLine
 10
72.57322584488321
 20
67.61232295782964
 30
0.0
 11
71.07322584488321
 21
67.61232295782957
 31
0.0
  0
POINT
  5
289A
330
18
100
AcDbEntity
  8
DEFPOINTS
  6
ByBlock
 62
     0
100
AcDbPoint
 10
68.57322584488321
 20
67.37232295782956
 30
0.0
  0
LINE
  5
289B
330
18
100
AcDbEntity
  8
外形線
100
AcDbLine
 10
70.57030542894001
 20
70.72232295782964
 30
0.0
 11
70.9732258448833
 21
70.72232295782964
 31
0.0
  0
LINE
  5
289C
330
18
100
AcDbEntity
  8
外形線
100
AcDbLine
 10
70.57030542894001
 20
72.0223229578296
 30
0.0
 11
70.9732258448833
 21
72.0223229578296
 31
0.0
  0
LINE
  5
289D
330
18
100
AcDbEntity
  8
外形線
100
AcDbLine
 10
70.57030542894001
 20
69.37232295782962
 30
0.0
 11
70.24675525664799
 21
69.37232295782962
 31
0.0
  0
LINE
  5
289E
330
18
100
AcDbEntity
  8
外形線
100
AcDbLine
 10
70.57030542894001
 20
73.37232295782962
 30
0.0
 11
70.29381408017735
 21
73.37232295782962
 31
0.0
  0
LINE
  5
289F
330
18
100
AcDbEntity
  8
外形線
100
AcDbLine
 10
70.57030542894001
 20
73.37232295782962
 30
0.0
 11
70.57030542894001
 21
69.37232295782962
 31
0.0
  0
LINE
  5
28A0
330
18
100
AcDbEntity
  8
外形線
100
AcDbLine
 10
70.97322584488319
 20
67.71232295782965
 30
0.0
 11
71.07322584488321
 21
67.61232295782964
 31
0.0
  0
LINE
  5
28A1
330
18
100
AcDbEntity
  8
外形線
100
AcDbLine
 10
70.2232258448833
 20
67.37232295782968
 30
0.0
 11
68.57322584488321
 21
67.37232295782956
 31
0.0
  0
LINE
  5
28A2
330
18
100
AcDbEntity
  8
外形線
100
AcDbLine
 10
68.57322584488321
 20
74.37232295782962
 30
0.0
 11
68.07322584488321
 21
74.37232295782962
 31
0.0
  0
LINE
  5
28A3
330
18
100
AcDbEntity
  8
外形線
100
AcDbLine
 10
68.57322584488321
 20
68.37232295782962
 30
0.0
 11
68.07322584488321
 21
68.37232295782962
 31
0.0
  0
LINE
  5
28A4
330
18
100
AcDbEntity
  8
外形線
100
AcDbLine
 10
68.07322584488321
 20
74.37232295782962
 30
0.0
 11
68.07322584488321
 21
68.37232295782962
 31
0.0
  0
LINE
  5
28A5
330
18
100
AcDbEntity
  8
外形線
100
AcDbLine
 10
74.37322584488327
 20
70.72232295782964
 30
0.0
 11
74.88381408017739
 21
70.72232295782964
 31
0.0
  0
LINE
  5
28A6
330
18
100
AcDbEntity
  8
外形線
100
AcDbLine
 10
74.37322584488327
 20
72.0223229578296
 30
0.0
 11
74.86851996253034
 21
72.0223229578296
 31
0.0
  0
LINE
  5
28A7
330
18
100
AcDbEntity
  8
外形線
100
AcDbLine
 10
73.57322584488321
 20
67.71232295782965
 30
0.0
 11
73.47322584488319
 21
67.61232295782964
 31
0.0
  0
LINE
  5
28A8
330
18
100
AcDbEntity
  8
外形線
100
AcDbLine
 10
72.57322584488321
 20
67.61232295782964
 30
0.0
 11
74.37322584488317
 21
67.61232295782969
 31
0.0
  0
LINE
  5
28A9
330
18
100
AcDbEntity
  8
外形線
100
AcDbLine
 10
74.92322584488334
 20
67.37232295782968
 30
0.0
 11
76.57322584488321
 21
67.37232295782956
 31
0.0
  0
LINE
  5
28AA
330
18
100
AcDbEntity
  8
外形線
100
AcDbLine
 10
76.57322584488333
 20
74.37232295782962
 30
0.0
 11
77.07322584488332
 21
74.37232295782962
 31
0.0
  0
LINE
  5
28AB
330
18
100
AcDbEntity
  8
外形線
100
AcDbLine
 10
76.57322584488333
 20
68.37232295782962
 30
0.0
 11
77.07322584488332
 21
68.37232295782962
 31
0.0
  0
LINE
  5
28AC
330
18
100
AcDbEntity
  8
外形線
100
AcDbLine
 10
77.07322584488332
 20
74.37232295782962
 30
0.0
 11
77.07322584488332
 21
68.37232295782962
 31
0.0
  0
POINT
  5
28AD
330
18
100
AcDbEntity
  8
DEFPOINTS
  6
ByBlock
 62
     0
100
AcDbPoint
 10
77.57322584488321
 20
61.11895582822569
 30
0.0
  0
POINT
  5
28AE
330
18
100
AcDbEntity
  8
DEFPOINTS
  6
ByBlock
 62
     0
100
AcDbPoint
 10
77.57322584488321
 20
69.37232295782962
 30
0.0
  0
POINT
  5
28AF
330
18
100
AcDbEntity
  8
DEFPOINTS
  6
ByBlock
 62
     0
100
AcDbPoint
 10
80.6617019566733
 20
71.37232295782962
 30
0.0
  0
LINE
  5
28B0
330
18
100
AcDbEntity
  8
外形線
100
AcDbLine
 10
77.57322584488321
 20
73.37232295782962
 30
0.0
 11
77.57322584488321
 21
69.37232295782962
 31
0.0
  0
LINE
  5
28B1
330
18
100
AcDbEntity
  8
0
  6
ByBlock
 62
     2
100
AcDbLine
 10
76.57322584488333
 20
82.98661066498562
 30
0.0
 11
81.98989251154996
 21
82.98661066498562
 31
0.0
  0
LINE
  5
28B2
330
18
100
AcDbEntity
  8
外形線
100
AcDbLine
 10
69.57322584488321
 20
88.37232295782962
 30
0.0
 11
69.57322584488321
 21
75.87232295782962
 31
0.0
  0
LINE
  5
28B3
330
18
100
AcDbEntity
  8
外形線
100
AcDbLine
 10
75.57322584488332
 20
88.37232295782962
 30
0.0
 11
75.57322584488321
 21
75.87232295782968
 31
0.0
  0
LINE
  5
28B4
330
18
100
AcDbEntity
  8
外形線
100
AcDbLine
 10
71.07322584488321
 20
75.21232295782965
 30
0.0
 11
73.4732258448833
 21
75.21232295782965
 31
0.0
  0
LINE
  5
28B5
330
18
100
AcDbEntity
  8
中心線
 48
0.5
100
AcDbLine
 10
72.09463369531596
 20
77.37232295782963
 30
0.0
 11
76.03301295934063
 21
77.37232295782963
 31
0.0
  0
LINE
  5
28B6
330
18
100
AcDbEntity
  8
外形線
100
AcDbLine
 10
75.57322584488321
 20
75.87232295782968
 30
0.0
 11
69.57322584488321
 21
75.87232295782962
 31
0.0
  0
LINE
  5
28B7
330
18
100
AcDbEntity
  8
外形線
100
AcDbLine
 10
70.9732258448833
 20
75.11232295782964
 30
0.0
 11
71.07322584488321
 21
75.21232295782965
 31
0.0
  0
ARC
  5
28B8
330
18
100
AcDbEntity
  8
外形線
100
AcDbCircle
 10
71.31153034075868
 20
74.87232295782963
 30
0.0
 40
1.0
100
AcDbArc
 50
90.0
 51
179.3259631020153
  0
LINE
  5
28B9
330
18
100
AcDbEntity
  8
外形線
100
AcDbLine
 10
73.4732258448833
 20
75.21232295782965
 30
0.0
 11
73.57322584488321
 21
75.11232295782964
 31
0.0
  0
CIRCLE
  5
28BA
330
18
100
AcDbEntity
  8
外形線
100
AcDbCircle
 10
73.77322584488325
 20
77.37232295782963
 30
0.0
 40
0.675
  0
CIRCLE
  5
28BB
330
18
100
AcDbEntity
  8
外形線
100
AcDbCircle
 10
73.77322584488325
 20
77.37232295782963
 30
0.0
 40
1.0
  0
LINE
  5
28BC
330
18
100
AcDbEntity
  8
中心線
 48
0.5
100
AcDbLine
 10
73.77322584488325
 20
79.56042877193692
 30
0.0
 11
73.77322584488325
 21
74.82285646658596
 31
0.0
  0
LINE
  5
28BD
330
18
100
AcDbEntity
  8
外形線
100
AcDbLine
 10
75.77322584488325
 20
77.2723229578296
 30
0.0
 11
76.57322584488321
 21
77.2723229578296
 31
0.0
  0
ARC
  5
28BE
330
18
100
AcDbEntity
  8
外形線
100
AcDbCircle
 10
73.83492134900786
 20
74.87232295782963
 30
0.0
 40
1.0
100
AcDbArc
 50
0.674036897984668
 51
90.0
  0
LINE
  5
28BF
330
18
100
AcDbEntity
  8
0
  6
ByBlock
 62
     2
100
AcDbLine
 10
71.07322584488333
 20
82.98661066498562
 30
0.0
 11
74.07322584488333
 21
82.98661066498562
 31
0.0
  0
LINE
  5
28C0
330
18
100
AcDbEntity
  8
外形線
100
AcDbLine
 10
75.57322584488344
 20
88.00115371816241
 30
0.0
 11
69.57322584488321
 21
88.00115371816241
 31
0.0
  0
LINE
  5
28C1
330
18
100
AcDbEntity
  8
外形線
100
AcDbLine
 10
69.57322584488321
 20
88.37232295782962
 30
0.0
 11
75.57322584488332
 21
88.37232295782962
 31
0.0
  0
POINT
  5
28C2
330
18
100
AcDbEntity
  8
DEFPOINTS
  6
ByBlock
 62
     0
100
AcDbPoint
 10
68.57322584488333
 20
83.49452609601518
 30
0.0
  0
INSERT
  5
28C3
330
18
100
AcDbEntity
  8
0
  6
ByBlock
 62
     2
100
AcDbBlockReference
  2
_OPEN
 10
68.57322584488333
 20
82.98661066498562
 30
0.0
 41
2.5
 42
2.5
 43
2.5
 50
180.0
  0
LINE
  5
28C4
330
18
100
AcDbEntity
  8
0
  6
ByBlock
 62
     2
100
AcDbLine
 10
68.57322584488333
 20
83.49452609601518
 30
0.0
 11
68.57322584488333
 21
81.73661066498562
 31
0.0
  0
POINT
  5
28C5
330
18
100
AcDbEntity
  8
DEFPOINTS
  6
ByBlock
 62
     0
100
AcDbPoint
 10
76.57322584488333
 20
82.98661066498562
 30
0.0
  0
POINT
  5
28C6
330
18
100
AcDbEntity
  8
DEFPOINTS
  6
ByBlock
 62
     0
100
AcDbPoint
 10
76.57322584488333
 20
83.07126339018026
 30
0.0
  0
INSERT
  5
28C7
330
18
100
AcDbEntity
  8
0
  6
ByBlock
 62
     2
100
AcDbBlockReference
  2
_OPEN
 10
76.57322584488333
 20
82.98661066498562
 30
0.0
 41
2.5
 42
2.5
 43
2.5
  0
LINE
  5
28C8
330
18
100
AcDbEntity
  8
0
  6
ByBlock
 62
     2
100
AcDbLine
 10
76.57322584488333
 20
83.07126339018026
 30
0.0
 11
76.57322584488333
 21
81.73661066498562
 31
0.0
  0
MTEXT
  5
28C9
330
18
100
AcDbEntity
  8
0
  6
ByBlock
 62
     6
100
AcDbMText
 10
80.53155917821669
 20
84.86161066498562
 30
0.0
 40
2.5
 41
0.0
 71
     5
 72
     1
  1
\A1;8
  7
STYLE3
 73
     1
 44
1.0
  0
LINE
  5
28CA
330
18
100
AcDbEntity
  8
目盛
100
AcDbLine
 10
67.05135755461316
 20
95.62567566950589
 30
0.0
 11
67.60354438364021
 21
97.02034039833826
 31
0.0
  0
TEXT
  5
28D3
330
18
100
AcDbEntity
  8
文字
100
AcDbText
 10
64.13724258859224
 20
99.6726337081866
 30
0.0
 40
1.8
  1
80
  7
STYLE3
100
AcDbText
  0
LINE
  5
28D4
330
18
100
AcDbEntity
  8
目盛
100
AcDbLine
 10
66.18653647140724
 20
95.99991717083941
 30
0.0
 11
66.82520540875481
 21
97.35715774953838
 31
0.0
  0
LINE
  5
28D5
330
18
100
AcDbEntity
  8
目盛
100
AcDbLine
 10
62.30501925595291
 20
98.63779354650853
 30
0.0
 11
63.33183991484594
 21
99.73124648764054
 31
0.0
  0
LINE
  5
28D6
330
18
100
AcDbEntity
  8
目盛
100
AcDbLine
 10
61.63869643356207
 20
99.30411636889932
 30
0.0
 11
62.73214937469418
 21
100.3309370277923
 31
0.0
  0
LINE
  5
28D7
330
18
100
AcDbEntity
  8
目盛
100
AcDbLine
 10
61.01552720324645
 20
100.0109631115993
 30
0.0
 11
62.17129706741008
 21
100.9670990962223
 31
0.0
  0
LINE
  5
28D8
330
18
100
AcDbEntity
  8
目盛
100
AcDbLine
 10
60.43797092925917
 20
100.7555441734425
 30
0.0
 11
62.46051341519654
 21
102.2250073041737
 31
0.0
  0
LINE
  5
28D9
330
18
100
AcDbEntity
  8
目盛
100
AcDbLine
 10
59.9083069623531
 20
101.5349210331446
 30
0.0
 11
61.17479885060612
 21
102.3386612256132
 31
0.0
  0
LINE
  5
28DA
330
18
100
AcDbEntity
  8
目盛
100
AcDbLine
 10
59.4286256442254
 20
102.3460178463039
 30
0.0
 11
60.74308566429118
 21
103.0686483574565
 31
0.0
  0
LINE
  5
28DB
330
18
100
AcDbEntity
  8
目盛
100
AcDbLine
 10
65.34692073335759
 20
96.4277227571717
 30
0.0
 11
66.06955124451025
 21
97.74218277723742
 31
0.0
  0
LINE
  5
28DC
330
18
100
AcDbEntity
  8
目盛
100
AcDbLine
 10
64.53582392019843
 20
96.90740407529943
 30
0.0
 11
65.33956411266689
 21
98.17389596355248
 31
0.0
  0
LINE
  5
28DD
330
18
100
AcDbEntity
  8
目盛
100
AcDbLine
 10
63.75644706049616
 20
97.4370680422054
 30
0.0
 11
65.22591019122734
 21
99.45961052814277
 31
0.0
  0
LINE
  5
28DE
330
18
100
AcDbEntity
  8
目盛
100
AcDbLine
 10
63.01186599865292
 20
98.01462431619279
 30
0.0
 11
63.96800198327588
 21
99.17039418035654
 31
0.0
  0
LINE
  5
28DF
330
18
100
AcDbEntity
  8
目盛
100
AcDbLine
 10
57.83891708395299
 20
106.7616032390438
 30
0.0
 11
59.31234796004599
 21
107.0426752109223
 31
0.0
  0
LINE
  5
28E0
330
18
100
AcDbEntity
  8
目盛
100
AcDbLine
 10
57.69150532516613
 20
107.6923244543651
 30
0.0
 11
59.1796773771378
 21
107.8803243047115
 31
0.0
  0
LINE
  5
28E1
330
18
100
AcDbEntity
  8
目盛
100
AcDbLine
 10
57.60282491845925
 20
108.63046516489
 30
0.0
 11
59.09986501110165
 21
108.7246509441839
 31
0.0
  0
LINE
  5
28E2
330
18
100
AcDbEntity
  8
目盛
100
AcDbLine
 10
57.57322584488327
 20
109.5723229578296
 30
0.0
 11
60.07322584488327
 21
109.5723229578296
 31
0.0
  0
LINE
  5
28E3
330
18
100
AcDbEntity
  8
目盛
100
AcDbLine
 10
57.60282491845919
 20
110.5141807507693
 30
0.0
 11
59.0998650111016
 21
110.4199949714754
 31
0.0
  0
LINE
  5
28E4
330
18
100
AcDbEntity
  8
目盛
100
AcDbLine
 10
57.69150532516613
 20
111.4523214612942
 30
0.0
 11
59.1796773771378
 21
111.2643216109477
 31
0.0
  0
LINE
  5
28E5
330
18
100
AcDbEntity
  8
目盛
100
AcDbLine
 10
57.83891708395294
 20
112.3830426766155
 30
0.0
 11
59.31234796004594
 21
112.1019707047368
 31
0.0
  0
TEXT
  5
28E6
330
18
100
AcDbEntity
  8
文字
100
AcDbText
 10
60.44649625621127
 20
104.9007365825144
 30
0.0
 40
1.8
  1
60
  7
STYLE3
100
AcDbText
  0
LINE
  5
28E7
330
18
100
AcDbEntity
  8
目盛
100
AcDbLine
 10
59.000820057893
 20
103.1856335843535
 30
0.0
 11
60.35806063659208
 21
103.824302521701
 31
0.0
  0
LINE
  5
28E8
330
18
100
AcDbEntity
  8
目盛
100
AcDbLine
 10
58.62657855655959
 20
104.0504546675594
 30
0.0
 11
60.02124328539202
 21
104.6026414965864
 31
0.0
  0
LINE
  5
28E9
330
18
100
AcDbEntity
  8
目盛
100
AcDbLine
 10
58.30737810045599
 20
104.9370680422054
 30
0.0
 11
60.68501939119386
 21
105.7096105281428
 31
0.0
  0
LINE
  5
28EA
330
18
100
AcDbEntity
  8
目盛
100
AcDbLine
 10
58.04447842795383
 20
105.8419746503568
 30
0.0
 11
59.49735316964677
 21
106.2150094811042
 31
0.0
  0
TEXT
  5
28EB
330
18
100
AcDbEntity
  8
文字
100
AcDbText
 10
60.3042655581363
 20
112.3725897993617
 30
0.0
 40
1.8
  1
40
  7
STYLE3
100
AcDbText
  0
LINE
  5
28EC
330
18
100
AcDbEntity
  8
目盛
100
AcDbLine
 10
58.04447842795383
 20
113.3026712653024
 30
0.0
 11
59.49735316964677
 21
112.9296364345551
 31
0.0
  0
LINE
  5
28ED
330
18
100
AcDbEntity
  8
目盛
100
AcDbLine
 10
58.30737810045599
 20
114.2075778734537
 30
0.0
 11
60.68501939119386
 21
113.4350353875164
 31
0.0
  0
LINE
  5
28EE
330
18
100
AcDbEntity
  8
目盛
100
AcDbLine
 10
58.62657855655953
 20
115.0941912480998
 30
0.0
 11
60.0212432853919
 21
114.5420044190727
 31
0.0
  0
LINE
  5
28EF
330
18
100
AcDbEntity
  8
目盛
100
AcDbLine
 10
59.00082005789307
 20
115.9590123313057
 30
0.0
 11
60.35806063659203
 21
115.320343393958
 31
0.0
  0
LINE
  5
28F0
330
18
100
AcDbEntity
  8
目盛
100
AcDbLine
 10
59.42862564422529
 20
116.7986280693553
 30
0.0
 11
60.74308566429107
 21
116.0759975582027
 31
0.0
  0
LINE
  5
28F2
330
18
100
AcDbEntity
  8
目盛
100
AcDbLine
 10
77.20848076050748
 20
95.30647521340222
 30
0.0
 11
76.4359382745701
 21
97.68411650414009
 31
0.0
  0
TEXT
  5
28F3
330
18
100
AcDbEntity
  8
文字
100
AcDbText
 10
77.51122700768411
 20
99.76744488879512
 30
0.0
 40
1.8
  1
80
  7
STYLE3
100
AcDbText
  0
LINE
  5
28F4
330
18
100
AcDbEntity
  8
目盛
100
AcDbLine
 10
76.30357415235602
 20
95.04357554090006
 30
0.0
 11
75.9305393216087
 21
96.496450282593
 31
0.0
  0
LINE
  5
28F5
330
18
100
AcDbEntity
  8
目盛
100
AcDbLine
 10
75.38394556366899
 20
94.83801419689923
 30
0.0
 11
75.10287359179057
 21
96.31144507299223
 31
0.0
  0
LINE
  5
28F6
330
18
100
AcDbEntity
  8
目盛
100
AcDbLine
 10
74.45322434834776
 20
94.69060243811236
 30
0.0
 11
74.26522449800137
 21
96.1787744900841
 31
0.0
  0
LINE
  5
28F7
330
18
100
AcDbEntity
  8
目盛
100
AcDbLine
 10
73.5150836378229
 20
94.60192203140548
 30
0.0
 11
73.42089785852891
 21
96.09896212404789
 31
0.0
  0
LINE
  5
28F8
330
18
100
AcDbEntity
  8
目盛
100
AcDbLine
 10
72.57322584488332
 20
94.57232295782956
 30
0.0
 11
72.57322584488332
 21
97.07232295782956
 31
0.0
  0
LINE
  5
28F9
330
18
100
AcDbEntity
  8
目盛
100
AcDbLine
 10
71.63136805194364
 20
94.60192203140548
 30
0.0
 11
71.7255538312375
 21
96.09896212404789
 31
0.0
  0
LINE
  5
28FA
330
18
100
AcDbEntity
  8
目盛
100
AcDbLine
 10
70.69322734141866
 20
94.69060243811242
 30
0.0
 11
70.88122719176528
 21
96.1787744900841
 31
0.0
  0
LINE
  5
28FB
330
18
100
AcDbEntity
  8
目盛
100
AcDbLine
 10
69.76250612609743
 20
94.83801419689923
 30
0.0
 11
70.04357809797608
 21
96.31144507299223
 31
0.0
  0
LINE
  5
28FC
330
18
100
AcDbEntity
  8
目盛
100
AcDbLine
 10
68.84287753741052
 20
95.04357554090011
 30
0.0
 11
69.21591236815771
 21
96.49645028259307
 31
0.0
  0
LINE
  5
28FD
330
18
100
AcDbEntity
  8
目盛
100
AcDbLine
 10
67.93797092925917
 20
95.30647521340233
 30
0.0
 11
68.71051341519643
 21
97.68411650414021
 31
0.0
  0
TEXT
  5
28FE
330
18
100
AcDbEntity
  8
文字
100
AcDbText
 10
70.11622375679445
 20
97.59792045437899
 30
0.0
 40
1.8
  1
100
 41
0.9
  7
STYLE3
100
AcDbText
  0
LINE
  5
28FF
330
18
100
AcDbEntity
  8
目盛
100
AcDbLine
 10
78.95991521835941
 20
95.99991717083923
 30
0.0
 11
78.32124628101183
 21
97.35715774953826
 31
0.0
  0
LINE
  5
2900
330
18
100
AcDbEntity
  8
目盛
100
AcDbLine
 10
78.09509413515349
 20
95.62567566950576
 30
0.0
 11
77.54290730612644
 21
97.02034039833813
 31
0.0
  0
LINE
  5
2901
330
18
100
AcDbEntity
  8
目盛
100
AcDbLine
 10
82.84143243381363
 20
98.63779354650842
 30
0.0
 11
81.81461177492058
 21
99.73124648764054
 31
0.0
  0
LINE
  5
2902
330
18
100
AcDbEntity
  8
目盛
100
AcDbLine
 10
82.13458569111361
 20
98.01462431619279
 30
0.0
 11
81.17844970649054
 21
99.17039418035642
 31
0.0
  0
LINE
  5
2903
330
18
100
AcDbEntity
  8
目盛
100
AcDbLine
 10
81.39000462927043
 20
97.43706804220535
 30
0.0
 11
79.92054149853919
 21
99.45961052814272
 31
0.0
  0
LINE
  5
2904
330
18
100
AcDbEntity
  8
目盛
100
AcDbLine
 10
80.61062776956811
 20
96.90740407529927
 30
0.0
 11
79.80688757709964
 21
98.17389596355235
 31
0.0
  0
LINE
  5
2905
330
18
100
AcDbEntity
  8
目盛
100
AcDbLine
 10
79.799530956409
 20
96.42772275717163
 30
0.0
 11
79.0769004452564
 21
97.74218277723742
 31
0.0
  0
LINE
  5
2906
330
18
100
AcDbEntity
  8
目盛
100
AcDbLine
 10
85.71782604554124
 20
102.3460178463037
 30
0.0
 11
84.40336602547546
 21
103.0686483574565
 31
0.0
  0
LINE
  5
2907
330
18
100
AcDbEntity
  8
目盛
100
AcDbLine
 10
85.23814472741349
 20
101.5349210331446
 30
0.0
 11
83.97165283916052
 21
102.3386612256131
 31
0.0
  0
LINE
  5
2908
330
18
100
AcDbEntity
  8
目盛
100
AcDbLine
 10
84.70848076050748
 20
100.7555441734425
 30
0.0
 11
82.6859382745701
 21
102.2250073041737
 31
0.0
  0
LINE
  5
2909
330
18
100
AcDbEntity
  8
目盛
100
AcDbLine
 10
84.13092448652008
 20
100.0109631115992
 30
0.0
 11
82.97515462235635
 21
100.9670990962222
 31
0.0
  0
LINE
  5
290A
330
18
100
AcDbEntity
  8
目盛
100
AcDbLine
 10
83.50775525620434
 20
99.30411636889926
 30
0.0
 11
82.41430231507235
 21
100.3309370277923
 31
0.0
  0
CIRCLE
  5
2912
330
18
100
AcDbEntity
  8
外形線
100
AcDbCircle
 10
72.57322584488321
 20
109.5723229578296
 30
0.0
 40
1.5
  0
CIRCLE
  5
291D
330
18
100
AcDbEntity
  8
外形線
 62
     4
100
AcDbCircle
 10
72.57322584488321
 20
109.5723229578296
 30
0.0
 40
0.25
  0
POINT
  5
299C
330
18
100
AcDbEntity
  8
DEFPOINTS
  6
ByBlock
 62
     0
100
AcDbPoint
 10
72.57322584488321
 20
109.5723229578296
 30
0.0
  0
POINT
  5
299D
330
18
100
AcDbEntity
  8
DEFPOINTS
  6
ByBlock
 62
     0
100
AcDbPoint
 10
72.57322584488321
 20
109.5723229578296
 30
0.0
  0
POINT
  5
299E
330
18
100
AcDbEntity
  8
DEFPOINTS
  6
ByBlock
 62
     0
100
AcDbPoint
 10
72.57322584488321
 20
109.5723229578296
 30
0.0
  0
POINT
  5
299F
330
18
100
AcDbEntity
  8
DEFPOINTS
  6
ByBlock
 62
     0
100
AcDbPoint
 10
72.57322584488321
 20
109.5723229578296
 30
0.0
  0
TEXT
  5
29A3
330
18
100
AcDbEntity
  8
文字
100
AcDbText
 10
81.1779235941754
 20
104.7721851286047
 30
0.0
 40
1.8
  1
60
  7
STYLE3
100
AcDbText
  0
LINE
  5
29B4
330
18
100
AcDbEntity
  8
目盛
100
AcDbLine
 10
86.51987313320701
 20
104.0504546675594
 30
0.0
 11
85.12520840437474
 21
104.6026414965864
 31
0.0
  0
LINE
  5
29B5
330
18
100
AcDbEntity
  8
目盛
100
AcDbLine
 10
86.14563163187353
 20
103.1856335843534
 30
0.0
 11
84.78839105317451
 21
103.8243025217011
 31
0.0
  0
TEXT
  5
29B6
330
18
100
AcDbEntity
  8
文字
100
AcDbText
 10
81.26262942582007
 20
112.2594879524461
 30
0.0
 40
1.8
  1
40
  7
STYLE3
100
AcDbText
  0
LINE
  5
29B7
330
18
100
AcDbEntity
  8
目盛
100
AcDbLine
 10
85.71782604554124
 20
116.7986280693552
 30
0.0
 11
84.40336602547546
 21
116.0759975582027
 31
0.0
  0
LINE
  5
29B8
330
18
100
AcDbEntity
  8
目盛
100
AcDbLine
 10
86.14563163187353
 20
115.9590123313056
 30
0.0
 11
84.78839105317451
 21
115.3203433939581
 31
0.0
  0
LINE
  5
29B9
330
18
100
AcDbEntity
  8
目盛
100
AcDbLine
 10
86.51987313320688
 20
115.0941912480997
 30
0.0
 11
85.12520840437463
 21
114.5420044190727
 31
0.0
  0
DIMENSION
  5
29BA
330
18
100
AcDbEntity
  8
外形線
100
AcDbDimension
  2
*D8
 10
98.52483025971146
 20
54.77232295782965
 30
0.0
 11
96.64983025971144
 21
82.17232295782965
 31
0.0
 70
    32
 71
     5
 42
54.79999999999995
  3
STYLE3
100
AcDbAlignedDimension
 13
93.52568073459696
 23
109.5723229578296
 33
0.0
 14
94.79616892286486
 24
54.77232295782965
 34
0.0
 50
90.0
100
AcDbRotatedDimension
1001
ACAD
1000
DSTYLE
1002
{
1070
   271
1070
     2
1002
}
  0
LINE
  5
29BB
330
18
100
AcDbEntity
  8
外形線
100
AcDbLine
 10
153.0931224864724
 20
63.3123229578295
 30
0.0
 11
153.5931224864724
 21
54.37232295782951
 31
0.0
  0
LINE
  5
29BC
330
18
100
AcDbEntity
  8
外形線
100
AcDbLine
 10
155.2931224864724
 20
63.3123229578295
 30
0.0
 11
154.7931224864723
 21
54.37232295782951
 31
0.0
  0
LINE
  5
29BD
330
18
100
AcDbEntity
  8
外形線
100
AcDbLine
 10
153.5931224864724
 20
54.37232295782951
 30
0.0
 11
154.7931224864723
 21
54.37232295782951
 31
0.0
  0
LINE
  5
29BE
330
18
100
AcDbEntity
  8
隠れ線
 62
     4
 48
0.3
100
AcDbLine
 10
154.1931224864723
 20
54.57194478760726
 30
0.0
 11
153.5931224864724
 21
54.37232295782951
 31
0.0
  0
LINE
  5
29BF
330
18
100
AcDbEntity
  8
中心線
 48
0.5
100
AcDbLine
 10
151.8097202414877
 20
53.57232295782949
 30
0.0
 11
157.1538704517197
 21
53.57232295782949
 31
0.0
  0
ARC
  5
29C0
330
18
100
AcDbEntity
  8
外形線
100
AcDbCircle
 10
154.1931224864723
 20
53.57232295782949
 30
0.0
 40
1.0
100
AcDbArc
 50
126.869897645842
 51
53.13010235415791
  0
LINE
  5
29C1
330
18
100
AcDbEntity
  8
隠れ線
 62
     4
 48
0.3
100
AcDbLine
 10
154.1931224864723
 20
54.57194478760726
 30
0.0
 11
154.7931224864723
 21
54.37232295782951
 31
0.0
  0
POINT
  5
29C2
330
18
100
AcDbEntity
  8
DEFPOINTS
  6
ByBlock
 62
     0
100
AcDbPoint
 10
93.52568073459696
 20
109.5723229578296
 30
0.0
  0
LINE
  5
29C3
330
18
100
AcDbEntity
  8
文字
 62
     2
100
AcDbLine
 10
146.5499808968093
 20
82.70951097530996
 30
0.0
 11
139.7939365684449
 21
70.7825581633266
 31
0.0
1001
ACAD
1000
DSTYLE
1002
{
1070
   271
1070
     2
1002
}
  0
LINE
  5
29C4
330
18
100
AcDbEntity
  8
文字
 62
     2
100
AcDbLine
 10
139.7939365684449
 20
70.7825581633266
 30
0.0
 11
134.8832222827306
 21
70.7825581633266
 31
0.0
1001
ACAD
1000
DSTYLE
1002
{
1070
   271
1070
     2
1002
}
  0
TEXT
  5
29C5
330
18
100
AcDbEntity
  8
外形線
 62
     6
100
AcDbText
 10
135.9526189459823
 20
71.48306100376896
 30
0.0
 40
2.5
  1
C
  7
STYLE3
100
AcDbText
  0
LINE
  5
29C6
330
18
100
AcDbEntity
  8
外形線
100
AcDbLine
 10
146.1931224864723
 20
88.3723229578298
 30
0.0
 11
150.4326399145143
 21
70.00895549965815
 31
0.0
  0
LINE
  5
29C7
330
18
100
AcDbEntity
  8
外形線
100
AcDbLine
 10
162.0431224864724
 20
80.67232295782963
 30
0.0
 11
157.9893029431806
 21
70.111761995358
 31
0.0
  0
ARC
  5
29C8
330
18
100
AcDbEntity
  8
外形線
100
AcDbCircle
 10
154.1931224864723
 20
71.37232295782951
 30
0.0
 40
3.0
100
AcDbArc
 50
54.59406822686052
 51
215.4059317731395
  0
LINE
  5
29C9
330
18
100
AcDbEntity
  8
外形線
100
AcDbLine
 10
155.2931224864724
 20
66.26232295782955
 30
0.0
 11
153.0931224864724
 21
66.26232295782955
 31
0.0
  0
LINE
  5
29CA
330
18
100
AcDbEntity
  8
外形線
100
AcDbLine
 10
155.2931224864724
 20
65.76232295782955
 30
0.0
 11
153.0931224864724
 21
65.76232295782955
 31
0.0
  0
LINE
  5
29CB
330
18
100
AcDbEntity
  8
外形線
 62
     4
100
AcDbLine
 10
154.8601097845799
 20
66.01232295782955
 30
0.0
 11
153.5261351883646
 21
66.01232295782955
 31
0.0
  0
LINE
  5
29CC
330
18
100
AcDbEntity
  8
外形線
100
AcDbLine
 10
153.0931224864724
 20
63.3123229578295
 30
0.0
 11
155.2931224864724
 21
63.3123229578295
 31
0.0
  0
LINE
  5
29CD
330
18
100
AcDbEntity
  8
中心線
 48
0.5
100
AcDbLine
 10
146.2341453526492
 20
71.37232295782962
 30
0.0
 11
162.4506671838672
 21
71.37232295782962
 31
0.0
  0
ARC
  5
29CE
330
18
100
AcDbEntity
  8
外形線
100
AcDbCircle
 10
154.1931224864723
 20
71.37232295782951
 30
0.0
 40
4.0
100
AcDbArc
 50
199.9281732991189
 51
341.6307198030625
  0
CIRCLE
  5
29CF
330
18
100
AcDbEntity
  8
外形線
100
AcDbCircle
 10
154.1931224864723
 20
71.37232295782962
 30
0.0
 40
2.0
  0
LINE
  5
29D0
330
18
100
AcDbEntity
  8
外形線
100
AcDbLine
 10
152.7789089240992
 20
69.95810939545652
 30
0.0
 11
155.6073360488454
 21
72.78653652020273
 31
0.0
  0
ARC
  5
29D1
330
18
100
AcDbEntity
  8
外形線
100
AcDbCircle
 10
154.1931224864723
 20
71.37232295782951
 30
0.0
 40
3.0
100
AcDbArc
 50
234.5940682268605
 51
35.4059317731395
  0
LINE
  5
29D2
330
18
100
AcDbEntity
  8
外形線
100
AcDbLine
 10
153.0931224864724
 20
67.5123229578295
 30
0.0
 11
153.0931224864724
 21
66.26232295782955
 31
0.0
  0
LINE
  5
29D3
330
18
100
AcDbEntity
  8
外形線
100
AcDbLine
 10
153.0931224864724
 20
65.76232295782978
 30
0.0
 11
153.5261351883645
 21
66.01232295782967
 31
0.0
  0
LINE
  5
29D4
330
18
100
AcDbEntity
  8
外形線
100
AcDbLine
 10
153.0931224864724
 20
66.26232295782955
 30
0.0
 11
153.5261351883646
 21
66.01232295782955
 31
0.0
  0
LINE
  5
29D5
330
18
100
AcDbEntity
  8
外形線
100
AcDbLine
 10
153.0931224864724
 20
65.76232295782978
 30
0.0
 11
153.0931224864724
 21
63.3123229578295
 31
0.0
  0
LINE
  5
29D6
330
18
100
AcDbEntity
  8
外形線
100
AcDbLine
 10
153.0931224864724
 20
67.5123229578295
 30
0.0
 11
153.1041955940756
 21
67.52339606543273
 31
0.0
  0
LINE
  5
29D7
330
18
100
AcDbEntity
  8
外形線
100
AcDbLine
 10
153.0931224864724
 20
67.5123229578295
 30
0.0
 11
153.1441229631169
 21
67.5123229578295
 31
0.0
  0
LINE
  5
29D8
330
18
100
AcDbEntity
  8
外形線
100
AcDbLine
 10
152.0718021429127
 20
69.95810939545652
 30
0.0
 11
151.7479190295437
 21
69.63422628208764
 31
0.0
  0
LINE
  5
29D9
330
18
100
AcDbEntity
  8
外形線
100
AcDbLine
 10
152.7789089240992
 20
69.25100261426996
 30
0.0
 11
152.4550258107304
 21
68.92711950090109
 31
0.0
  0
LINE
  5
29DA
330
18
100
AcDbEntity
  8
外形線
100
AcDbLine
 10
152.7789089240992
 20
69.25100261426996
 30
0.0
 11
152.0718021429127
 21
69.95810939545652
 31
0.0
  0
LINE
  5
29DB
330
18
100
AcDbEntity
  8
外形線
100
AcDbLine
 10
155.2931224864724
 20
67.51232295782955
 30
0.0
 11
155.2931224864724
 21
66.26232295782955
 31
0.0
  0
LINE
  5
29DC
330
18
100
AcDbEntity
  8
外形線
100
AcDbLine
 10
155.2931224864724
 20
65.76232295782978
 30
0.0
 11
154.8601097845802
 21
66.01232295782967
 31
0.0
  0
LINE
  5
29DD
330
18
100
AcDbEntity
  8
外形線
100
AcDbLine
 10
155.2931224864724
 20
66.26232295782955
 30
0.0
 11
154.8601097845799
 21
66.01232295782955
 31
0.0
  0
LINE
  5
29DE
330
18
100
AcDbEntity
  8
外形線
100
AcDbLine
 10
155.2931224864724
 20
65.76232295782978
 30
0.0
 11
155.2931224864724
 21
63.3123229578295
 31
0.0
  0
LINE
  5
29DF
330
18
100
AcDbEntity
  8
外形線
100
AcDbLine
 10
155.2820493788693
 20
67.52339606543279
 30
0.0
 11
155.2931224864724
 21
67.51232295782955
 31
0.0
  0
LINE
  5
29E0
330
18
100
AcDbEntity
  8
外形線
100
AcDbLine
 10
155.2421220098279
 20
67.51232295782955
 30
0.0
 11
155.2931224864724
 21
67.51232295782955
 31
0.0
  0
POINT
  5
29E1
330
18
100
AcDbEntity
  8
DEFPOINTS
  6
ByBlock
 62
     0
100
AcDbPoint
 10
154.1931224864723
 20
71.37232295782962
 30
0.0
  0
POINT
  5
29E2
330
18
100
AcDbEntity
  8
DEFPOINTS
  6
ByBlock
 62
     0
100
AcDbPoint
 10
154.1931224864723
 20
71.37232295782962
 30
0.0
  0
LINE
  5
29E3
330
18
100
AcDbEntity
  8
外形線
100
AcDbLine
 10
155.6073360488454
 20
73.49364330138917
 30
0.0
 11
155.9312191622141
 21
73.81752641475805
 31
0.0
  0
LINE
  5
29E4
330
18
100
AcDbEntity
  8
外形線
100
AcDbLine
 10
156.3144428300318
 20
72.78653652020262
 30
0.0
 11
155.6073360488454
 21
73.49364330138917
 31
0.0
  0
LINE
  5
29E5
330
18
100
AcDbEntity
  8
外形線
100
AcDbLine
 10
156.3144428300318
 20
72.78653652020262
 30
0.0
 11
156.6383259434008
 21
73.11041963357149
 31
0.0
  0
LINE
  5
29E6
330
18
100
AcDbEntity
  8
外形線
100
AcDbLine
 10
148.7442159984098
 20
77.32232295782967
 30
0.0
 11
160.7571779691037
 21
77.32232295782972
 31
0.0
  0
LINE
  5
29E7
330
18
100
AcDbEntity
  8
中心線
 48
0.5
100
AcDbLine
 10
150.1431224864723
 20
82.30154611377935
 30
0.0
 11
150.1431224864723
 21
77.02142710073371
 31
0.0
  0
LINE
  5
29E8
330
18
100
AcDbEntity
  8
外形線
100
AcDbLine
 10
144.5854118795767
 20
88.00115371816241
 30
0.0
 11
147.3855730976827
 21
75.87232295782962
 31
0.0
  0
CIRCLE
  5
29E9
330
18
100
AcDbEntity
  8
外形線
100
AcDbCircle
 10
150.1431224864723
 20
79.62232295782968
 30
0.0
 40
1.5
  0
LINE
  5
29EA
330
18
100
AcDbEntity
  8
中心線
 48
0.5
100
AcDbLine
 10
147.1586411803553
 20
79.62232295782968
 30
0.0
 11
152.9974126147702
 21
79.62232295782974
 31
0.0
  0
LINE
  5
29EB
330
18
100
AcDbEntity
  8
外形線
100
AcDbLine
 10
147.3855730976827
 20
75.87232295782962
 30
0.0
 11
149.0789748755419
 21
75.87232295782968
 31
0.0
  0
LINE
  5
29EC
330
18
100
AcDbEntity
  8
外形線
100
AcDbLine
 10
149.4993476014904
 20
79.08213168928028
 30
0.0
 11
150.7868973714541
 21
80.16251422637919
 31
0.0
  0
LINE
  5
29ED
330
18
100
AcDbEntity
  8
外形線
100
AcDbLine
 10
150.6833137550217
 20
78.9785480728479
 30
0.0
 11
149.6029312179228
 21
80.26609784281157
 31
0.0
  0
LINE
  5
29EE
330
18
100
AcDbEntity
  8
外形線
100
AcDbLine
 10
146.1931224864723
 20
88.3723229578298
 30
0.0
 11
144.5854118795767
 21
88.00115371816241
 31
0.0
  0
HATCH
  5
29EF
330
18
100
AcDbEntity
  8
寸法線
100
AcDbHatch
 10
0.0
 20
0.0
 30
0.0
210
0.0
220
0.0
230
1.0
  2
SOLID
 70
     1
 71
     1
 91
        1
 92
        7
 72
     1
 73
     1
 93
        2
 10
146.7726687950079
 20
82.70951097530996
 42
1.0
 10
146.3272929986107
 20
82.70951097530996
 42
1.0
 97
        1
330
29F0
 75
     0
 76
     1
 47
0.0124670341605454
 98
        1
 10
146.6079581981558
 20
82.68633903521878
450
        0
451
        0
460
0.0
461
0.0
452
        0
462
0.0
453
        0
470

  0
CIRCLE
  5
29F0
102
{ACAD_REACTORS
330
29EF
102
}
330
18
100
AcDbEntity
  8
寸法線
100
AcDbCircle
 10
146.5499808968093
 20
82.70951097530996
 30
0.0
 40
0.222687898198611
  0
LINE
  5
29F1
330
18
100
AcDbEntity
  8
中心線
 48
0.5
100
AcDbLine
 10
159.5431224864723
 20
82.3015461137794
 30
0.0
 11
159.5431224864722
 21
77.02142710073378
 31
0.0
  0
CIRCLE
  5
29F2
330
18
100
AcDbEntity
  8
外形線
100
AcDbCircle
 10
159.5431224864723
 20
79.62232295782974
 30
0.0
 40
1.5
  0
LINE
  5
29F3
330
18
100
AcDbEntity
  8
中心線
 48
0.5
100
AcDbLine
 10
156.5586411803554
 20
79.62232295782974
 30
0.0
 11
162.3974126147702
 21
79.62232295782979
 31
0.0
  0
LINE
  5
29F4
330
18
100
AcDbEntity
  8
外形線
100
AcDbLine
 10
158.8993476014904
 20
79.08213168928035
 30
0.0
 11
160.1868973714541
 21
80.16251422637925
 31
0.0
  0
LINE
  5
29F5
330
18
100
AcDbEntity
  8
外形線
100
AcDbLine
 10
160.0833137550217
 20
78.97854807284796
 30
0.0
 11
159.0029312179228
 21
80.26609784281163
 31
0.0
  0
LINE
  5
29F6
330
18
100
AcDbEntity
  8
外形線
100
AcDbLine
 10
144.2568644550651
 20
92.42232295782963
 30
0.0
 11
145.2568644550651
 21
92.42232295782963
 31
0.0
  0
LINE
  5
29F7
330
18
100
AcDbEntity
  8
0
  6
ByBlock
 62
     2
100
AcDbLine
 10
140.7568644550651
 20
92.07232295782961
 30
0.0
 11
128.2470271381178
 21
92.07232295782961
 31
0.0
  0
POINT
  5
29F8
330
18
100
AcDbEntity
  8
DEFPOINTS
  6
ByBlock
 62
     0
100
AcDbPoint
 10
129.4970271381178
 20
92.07232295782961
 30
0.0
  0
INSERT
  5
29F9
330
18
100
AcDbEntity
  8
0
  6
ByBlock
 62
     2
100
AcDbBlockReference
  2
_OPEN
 10
129.4970271381178
 20
92.07232295782961
 30
0.0
 41
2.5
 42
2.5
 43
2.5
 50
270.0
  0
ARC
  5
29FA
330
18
100
AcDbEntity
  8
外形線
100
AcDbCircle
 10
139.9143338171759
 20
95.07917933238685
 30
0.0
 40
0.5
100
AcDbArc
 50
193.5454935244249
 51
270.0000000000065
  0
POINT
  5
29FB
330
18
100
AcDbEntity
  8
DEFPOINTS
  6
ByBlock
 62
     0
100
AcDbPoint
 10
140.7568644550651
 20
92.07232295782961
 30
0.0
  0
LINE
  5
29FC
330
18
100
AcDbEntity
  8
外形線
100
AcDbLine
 10
139.914333817176
 20
94.57917933238679
 30
0.0
 11
140.056864455065
 21
94.57917933238679
 31
0.0
  0
LINE
  5
29FD
330
18
100
AcDbEntity
  8
外形線
100
AcDbLine
 10
140.5568644550652
 20
92.7723229578296
 30
0.0
 11
144.2568644550651
 21
92.7723229578296
 31
0.0
  0
LINE
  5
29FE
330
18
100
AcDbEntity
  8
外形線
100
AcDbLine
 10
140.5568644550652
 20
93.47232295782958
 30
0.0
 11
144.2568644550651
 21
93.47232295782958
 31
0.0
  0
LINE
  5
29FF
330
18
100
AcDbEntity
  8
外形線
100
AcDbLine
 10
140.5568644550652
 20
94.2723229578296
 30
0.0
 11
144.2568644550651
 21
94.27232295782966
 31
0.0
  0
LINE
  5
2A00
330
18
100
AcDbEntity
  8
外形線
100
AcDbLine
 10
140.5568644550652
 20
95.0723229578296
 30
0.0
 11
144.2568644550651
 21
95.0723229578296
 31
0.0
  0
LINE
  5
2A01
330
18
100
AcDbEntity
  8
外形線
100
AcDbLine
 10
140.5568644550652
 20
95.97232295782958
 30
0.0
 11
144.2568644550651
 21
95.97232295782958
 31
0.0
  0
LINE
  5
2A02
330
18
100
AcDbEntity
  8
外形線
100
AcDbLine
 10
140.0568644550651
 20
93.07232295782961
 30
0.0
 11
140.5568644550652
 21
92.5723229578296
 31
0.0
  0
LINE
  5
2A03
330
18
100
AcDbEntity
  8
外形線
100
AcDbLine
 10
140.7568644550651
 20
92.07232295782961
 30
0.0
 11
143.9068644550651
 21
92.07232295782961
 31
0.0
  0
LINE
  5
2A04
330
18
100
AcDbEntity
  8
外形線
 48
0.5
100
AcDbLine
 10
140.5568644550652
 20
92.27232295782959
 30
0.0
 11
140.7568644550651
 21
92.07232295782961
 31
0.0
  0
LINE
  5
2A05
330
18
100
AcDbEntity
  8
外形線
100
AcDbLine
 10
143.9068644550651
 20
92.07232295782961
 30
0.0
 11
144.2568644550651
 21
92.42232295782963
 31
0.0
  0
MTEXT
  5
2A06
330
18
100
AcDbEntity
  8
0
  6
ByBlock
 62
     6
100
AcDbMText
 10
127.6220271381178
 20
109.5723229578296
 30
0.0
 40
2.5
 41
0.0
 71
     5
 72
     1
  1
\A1;φ35
  7
STYLE3
 11
0.0000000000000001
 21
1.0
 31
0.0
 73
     1
 44
1.0
  0
POINT
  5
2A07
330
18
100
AcDbEntity
  8
DEFPOINTS
  6
ByBlock
 62
     0
100
AcDbPoint
 10
137.6931224864723
 20
109.5723229578295
 30
0.0
  0
LINE
  5
2A08
330
18
100
AcDbEntity
  8
外形線
100
AcDbLine
 10
140.556864455065
 20
109.5723229578296
 30
0.0
 11
144.256864455065
 21
109.5723229578296
 31
0.0
  0
LINE
  5
2A09
330
18
100
AcDbEntity
  8
外形線
100
AcDbLine
 10
140.5568644550652
 20
108.0723229578296
 30
0.0
 11
144.2568644550651
 21
108.0723229578296
 31
0.0
  0
LINE
  5
2A0A
330
18
100
AcDbEntity
  8
外形線
100
AcDbLine
 10
140.5568644550652
 20
108.8723229578296
 30
0.0
 11
144.2568644550651
 21
108.8723229578296
 31
0.0
  0
LINE
  5
2A0B
330
18
100
AcDbEntity
  8
外形線
100
AcDbLine
 10
140.5568644550652
 20
110.2723229578296
 30
0.0
 11
144.2568644550651
 21
110.2723229578296
 31
0.0
  0
LINE
  5
2A0C
330
18
100
AcDbEntity
  8
外形線
100
AcDbLine
 10
140.5568644550652
 20
111.0723229578296
 30
0.0
 11
144.2568644550651
 21
111.0723229578296
 31
0.0
  0
LINE
  5
2A0D
330
18
100
AcDbEntity
  8
外形線
100
AcDbLine
 10
145.2568644550651
 20
94.57232295782961
 30
0.0
 11
145.7568644550652
 21
94.57232295782961
 31
0.0
  0
ARC
  5
2A0E
330
18
100
AcDbEntity
  8
外形線
100
AcDbCircle
 10
145.7568644550652
 20
95.57232295782961
 30
0.0
 40
1.0
100
AcDbArc
 50
270.0
 51
295.8653714184359
  0
HATCH
  5
2A0F
330
18
100
AcDbEntity
  8
寸法線
100
AcDbHatch
 10
0.0
 20
0.0
 30
0.0
210
0.0
220
0.0
230
1.0
  2
SOLID
 70
     1
 71
     1
 91
        1
 92
        7
 72
     1
 73
     1
 93
        2
 10
163.0033320188062
 20
97.3933837080839
 42
1.0
 10
162.557956222409
 20
97.3933837080839
 42
1.0
 97
        1
330
2A10
 75
     0
 76
     1
 47
0.0200805185115556
 98
        1
 10
162.9051602240231
 20
97.27659728010571
450
        0
451
        0
460
0.0
461
0.0
452
        0
462
0.0
453
        0
470

  0
CIRCLE
  5
2A10
102
{ACAD_REACTORS
330
2A0F
102
}
330
18
100
AcDbEntity
  8
寸法線
100
AcDbCircle
 10
162.7806441206076
 20
97.3933837080839
 30
0.0
 40
0.222687898198611
  0
LINE
  5
2A11
330
18
100
AcDbEntity
  8
0
  6
ByBlock
 62
     2
100
AcDbLine
 10
72.57322584488321
 20
127.0723229578296
 30
0.0
 11
99.66449912397031
 21
127.0723229578296
 31
0.0
  0
LINE
  5
2A12
330
18
100
AcDbEntity
  8
0
  6
ByBlock
 62
     2
100
AcDbLine
 10
72.57322584488321
 20
142.5723229578296
 30
0.0
 11
99.66449912397031
 21
142.5723229578296
 31
0.0
  0
LINE
  5
2A13
330
18
100
AcDbEntity
  8
0
  6
ByBlock
 62
     2
100
AcDbLine
 10
75.57322584488321
 20
141.7684753805362
 30
0.0
 11
75.57322584488321
 21
153.2754114960929
 31
0.0
  0
LINE
  5
2A14
330
18
100
AcDbEntity
  8
0
  6
ByBlock
 62
     2
100
AcDbLine
 10
69.57322584488321
 20
141.7684753805362
 30
0.0
 11
69.57322584488321
 21
153.2754114960929
 31
0.0
  0
LINE
  5
2A15
330
18
100
AcDbEntity
  8
目盛
100
AcDbLine
 10
67.05135755461316
 20
123.5189702461534
 30
0.0
 11
67.6035443836401
 21
122.124305517321
 31
0.0
  0
LINE
  5
2A16
330
18
100
AcDbEntity
  8
目盛
100
AcDbLine
 10
62.30501925595297
 20
120.5068523691508
 30
0.0
 11
63.33183991484594
 21
119.4133994280187
 31
0.0
  0
LINE
  5
2A17
330
18
100
AcDbEntity
  8
目盛
100
AcDbLine
 10
61.01552720324645
 20
119.1336828040599
 30
0.0
 11
62.17129706741019
 21
118.1775468194369
 31
0.0
  0
LINE
  5
2A18
330
18
100
AcDbEntity
  8
目盛
100
AcDbLine
 10
61.63869643356219
 20
119.8405295467599
 30
0.0
 11
62.73214937469418
 21
118.8137088878669
 31
0.0
  0
LINE
  5
2A19
330
18
100
AcDbEntity
  8
目盛
100
AcDbLine
 10
63.01186599865292
 20
121.1300215994664
 30
0.0
 11
63.968001983276
 21
119.9742517353028
 31
0.0
  0
LINE
  5
2A1A
330
18
100
AcDbEntity
  8
目盛
100
AcDbLine
 10
63.75644706049616
 20
121.7075778734538
 30
0.0
 11
65.22591019122734
 21
119.6850353875164
 31
0.0
  0
LINE
  5
2A1B
330
18
100
AcDbEntity
  8
目盛
100
AcDbLine
 10
64.53582392019831
 20
122.2372418403599
 30
0.0
 11
65.33956411266683
 21
120.9707499521068
 31
0.0
  0
LINE
  5
2A1C
330
18
100
AcDbEntity
  8
目盛
100
AcDbLine
 10
65.34692073335759
 20
122.7169231584875
 30
0.0
 11
66.06955124451014
 21
121.4024631384217
 31
0.0
  0
LINE
  5
2A1D
330
18
100
AcDbEntity
  8
目盛
100
AcDbLine
 10
66.18653647140724
 20
123.1447287448199
 30
0.0
 11
66.82520540875469
 21
121.7874881661209
 31
0.0
  0
LINE
  5
2A1E
330
18
100
AcDbEntity
  8
外形線
100
AcDbLine
 10
69.57322584488321
 20
141.7684753805362
 30
0.0
 11
69.57322584488321
 21
126.8132626073962
 31
0.0
  0
LINE
  5
2A1F
330
18
100
AcDbEntity
  8
外形線
100
AcDbLine
 10
75.57322584488321
 20
141.7684753805362
 30
0.0
 11
75.57322584488321
 21
126.8132626073962
 31
0.0
  0
LINE
  5
2A20
330
18
100
AcDbEntity
  8
目盛
100
AcDbLine
 10
77.20848076050748
 20
123.8381707022569
 30
0.0
 11
76.43593827457022
 21
121.460529411519
 31
0.0
  0
TEXT
  5
2A21
330
18
100
AcDbEntity
  8
文字
100
AcDbText
 10
71.77281683161215
 20
119.8443941929498
 30
0.0
 40
1.8
  1
0
  7
STYLE3
100
AcDbText
  0
LINE
  5
2A22
330
18
100
AcDbEntity
  8
目盛
100
AcDbLine
 10
67.93797092925905
 20
123.8381707022569
 30
0.0
 11
68.71051341519643
 21
121.460529411519
 31
0.0
  0
LINE
  5
2A23
330
18
100
AcDbEntity
  8
目盛
100
AcDbLine
 10
68.84287753741052
 20
124.101070374759
 30
0.0
 11
69.21591236815771
 21
122.6481956330661
 31
0.0
  0
LINE
  5
2A24
330
18
100
AcDbEntity
  8
目盛
100
AcDbLine
 10
69.76250612609743
 20
124.3066317187599
 30
0.0
 11
70.04357809797596
 21
122.8332008426669
 31
0.0
  0
LINE
  5
2A25
330
18
100
AcDbEntity
  8
目盛
100
AcDbLine
 10
70.69322734141866
 20
124.4540434775467
 30
0.0
 11
70.88122719176505
 21
122.965871425575
 31
0.0
  0
LINE
  5
2A26
330
18
100
AcDbEntity
  8
目盛
100
AcDbLine
 10
71.63136805194352
 20
124.5427238842536
 30
0.0
 11
71.7255538312375
 21
123.0456837916112
 31
0.0
  0
LINE
  5
2A27
330
18
100
AcDbEntity
  8
針
100
AcDbLine
 10
68.12150899398631
 20
123.0566515313791
 30
0.0
 11
68.25466620267019
 21
123.0998852887393
 31
0.0
  0
LINE
  5
2A28
330
18
100
AcDbEntity
  8
目盛
100
AcDbLine
 10
76.30357415235613
 20
124.101070374759
 30
0.0
 11
75.93053932160882
 21
122.6481956330661
 31
0.0
  0
LINE
  5
2A29
330
18
100
AcDbEntity
  8
目盛
100
AcDbLine
 10
75.38394556366921
 20
124.3066317187599
 30
0.0
 11
75.10287359179057
 21
122.8332008426669
 31
0.0
  0
LINE
  5
2A2A
330
18
100
AcDbEntity
  8
目盛
100
AcDbLine
 10
74.45322434834787
 20
124.4540434775467
 30
0.0
 11
74.26522449800137
 21
122.965871425575
 31
0.0
  0
LINE
  5
2A2B
330
18
100
AcDbEntity
  8
目盛
100
AcDbLine
 10
73.51508363782301
 20
124.5427238842537
 30
0.0
 11
73.42089785852903
 21
123.0456837916113
 31
0.0
  0
LINE
  5
2A2C
330
18
100
AcDbEntity
  8
目盛
100
AcDbLine
 10
72.57322584488321
 20
124.5723229578296
 30
0.0
 11
72.57322584488321
 21
122.0723229578296
 31
0.0
  0
POINT
  5
2A2D
330
18
100
AcDbEntity
  8
DEFPOINTS
  6
ByBlock
 62
     0
100
AcDbPoint
 10
72.57322584488321
 20
127.0723229578296
 30
0.0
  0
LINE
  5
2A2E
330
18
100
AcDbEntity
  8
目盛
100
AcDbLine
 10
82.13458569111372
 20
121.1300215994664
 30
0.0
 11
81.17844970649054
 21
119.9742517353027
 31
0.0
  0
LINE
  5
2A2F
330
18
100
AcDbEntity
  8
目盛
100
AcDbLine
 10
82.8414324338135
 20
120.5068523691507
 30
0.0
 11
81.81461177492048
 21
119.4133994280187
 31
0.0
  0
LINE
  5
2A30
330
18
100
AcDbEntity
  8
目盛
100
AcDbLine
 10
78.09509413515349
 20
123.5189702461533
 30
0.0
 11
77.54290730612644
 21
122.124305517321
 31
0.0
  0
LINE
  5
2A31
330
18
100
AcDbEntity
  8
目盛
100
AcDbLine
 10
78.95991521835941
 20
123.1447287448198
 30
0.0
 11
78.32124628101183
 21
121.7874881661208
 31
0.0
  0
LINE
  5
2A32
330
18
100
AcDbEntity
  8
目盛
100
AcDbLine
 10
79.799530956409
 20
122.7169231584876
 30
0.0
 11
79.0769004452564
 21
121.4024631384218
 31
0.0
  0
LINE
  5
2A33
330
18
100
AcDbEntity
  8
目盛
100
AcDbLine
 10
80.61062776956822
 20
122.2372418403598
 30
0.0
 11
79.80688757709964
 21
120.9707499521067
 31
0.0
  0
LINE
  5
2A34
330
18
100
AcDbEntity
  8
目盛
100
AcDbLine
 10
81.39000462927043
 20
121.7075778734538
 30
0.0
 11
79.92054149853908
 21
119.6850353875164
 31
0.0
  0
LINE
  5
2A35
330
18
100
AcDbEntity
  8
目盛
100
AcDbLine
 10
83.50775525620434
 20
119.8405295467599
 30
0.0
 11
82.41430231507235
 21
118.8137088878669
 31
0.0
  0
LINE
  5
2A36
330
18
100
AcDbEntity
  8
目盛
100
AcDbLine
 10
84.13092448651998
 20
119.1336828040599
 30
0.0
 11
82.97515462235635
 21
118.1775468194369
 31
0.0
  0
ARC
  5
2A37
330
18
100
AcDbEntity
  8
外形線
100
AcDbCircle
 10
72.57322584488321
 20
136.5723229578296
 30
0.0
 40
6.0
100
AcDbArc
 50
60.0
 51
120.0
  0
LINE
  5
2A38
330
18
100
AcDbEntity
  8
外形線
100
AcDbLine
 10
69.57322584488321
 20
141.7684753805362
 30
0.0
 11
75.57322584488321
 21
141.7684753805362
 31
0.0
  0
POINT
  5
2A39
330
18
100
AcDbEntity
  8
DEFPOINTS
  6
ByBlock
 62
     0
100
AcDbPoint
 10
69.57322584488321
 20
141.7684753805362
 30
0.0
  0
POINT
  5
2A3A
330
18
100
AcDbEntity
  8
DEFPOINTS
  6
ByBlock
 62
     0
100
AcDbPoint
 10
72.57322584488321
 20
142.5723229578296
 30
0.0
  0
POINT
  5
2A3B
330
18
100
AcDbEntity
  8
DEFPOINTS
  6
ByBlock
 62
     0
100
AcDbPoint
 10
75.57322584488321
 20
141.7684753805362
 30
0.0
  0
INSERT
  5
2A3C
330
18
100
AcDbEntity
  8
0
  6
ByBlock
 62
     2
100
AcDbBlockReference
  2
_OPEN
 10
69.57322584488321
 20
152.0254114960929
 30
0.0
 41
2.5
 42
2.5
 43
2.5
  0
LINE
  5
2A3D
330
18
100
AcDbEntity
  8
0
  6
ByBlock
 62
     2
100
AcDbLine
 10
67.07322584488321
 20
152.0254114960929
 30
0.0
 11
64.57322584488327
 21
152.0254114960929
 31
0.0
  0
TEXT
  5
2A3E
330
18
100
AcDbEntity
  8
文字
100
AcDbText
 10
76.37701401750479
 20
156.200872798931
 30
0.0
 40
1.0
  1
-0.03
  7
STYLE3
100
AcDbText
  0
INSERT
  5
2A3F
330
18
100
AcDbEntity
  8
0
  6
ByBlock
 62
     2
100
AcDbBlockReference
  2
_OPEN
 10
75.57322584488321
 20
152.0254114960929
 30
0.0
 41
2.5
 42
2.5
 43
2.5
 50
180.0
  0
LINE
  5
2A40
330
18
100
AcDbEntity
  8
0
  6
ByBlock
 62
     2
100
AcDbLine
 10
69.57322584488321
 20
152.0254114960929
 30
0.0
 11
75.57322584488321
 21
152.0254114960929
 31
0.0
  0
POINT
  5
2A41
330
18
100
AcDbEntity
  8
DEFPOINTS
  6
ByBlock
 62
     0
100
AcDbPoint
 10
75.57322584488321
 20
152.0254114960929
 30
0.0
  0
MTEXT
  5
2A42
330
18
100
AcDbEntity
  8
0
  6
ByBlock
 62
     6
100
AcDbMText
 10
72.04842670229329
 20
154.8445211285802
 30
0.0
 40
2.5
 41
0.0
 71
     5
 72
     1
  1
\A1;φ6.0
  7
STYLE3
 73
     1
 44
1.0
  0
LINE
  5
2A43
330
18
100
AcDbEntity
  8
0
  6
ByBlock
 62
     2
100
AcDbLine
 10
78.07322584488321
 20
152.0254114960929
 30
0.0
 11
80.57322584488321
 21
152.0254114960929
 31
0.0
  0
TEXT
  5
2A44
330
18
100
AcDbEntity
  8
文字
100
AcDbText
 10
77.58669641076
 20
157.4294136250495
 30
0.0
 40
1.0
  1
0
  7
STYLE3
100
AcDbText
  0
MTEXT
  5
2A45
330
18
100
AcDbEntity
  8
0
  6
ByBlock
 62
     6
100
AcDbMText
 10
96.53949912397031
 20
134.8223229578296
 30
0.0
 40
2.5
 41
0.0
 71
     5
 72
     1
  1
\A1;15.5
  7
STYLE3
 11
0.0000000000000001
 21
1.0
 31
0.0
 73
     1
 44
1.0
  0
LINE
  5
2A46
330
18
100
AcDbEntity
  8
0
  6
ByBlock
 62
     2
100
AcDbLine
 10
98.41449912397031
 20
140.0723229578296
 30
0.0
 11
98.41449912397031
 21
129.5723229578296
 31
0.0
  0
POINT
  5
2A47
330
18
100
AcDbEntity
  8
DEFPOINTS
  6
ByBlock
 62
     0
100
AcDbPoint
 10
98.41449912397031
 20
127.0723229578296
 30
0.0
  0
INSERT
  5
2A48
330
18
100
AcDbEntity
  8
0
  6
ByBlock
 62
     2
100
AcDbBlockReference
  2
_OPEN
 10
98.41449912397031
 20
127.0723229578296
 30
0.0
 41
2.5
 42
2.5
 43
2.5
 50
270.0
  0
INSERT
  5
2A49
330
18
100
AcDbEntity
  8
0
  6
ByBlock
 62
     2
100
AcDbBlockReference
  2
_OPEN
 10
98.41449912397031
 20
142.5723229578296
 30
0.0
 41
2.5
 42
2.5
 43
2.5
 50
90.0
  0
POINT
  5
2A4A
330
18
100
AcDbEntity
  8
DEFPOINTS
  6
ByBlock
 62
     0
100
AcDbPoint
 10
99.66449912397031
 20
142.5723229578296
 30
0.0
  0
LINE
  5
2A4B
330
18
100
AcDbEntity
  8
0
  6
ByBlock
 62
     2
100
AcDbLine
 10
162.0431224864724
 20
124.7223229578297
 30
0.0
 11
162.0431224864724
 21
153.2754114960929
 31
0.0
  0
LINE
  5
2A4C
330
18
100
AcDbEntity
  8
0
  6
ByBlock
 62
     2
100
AcDbLine
 10
146.1931224864723
 20
126.3723229578296
 30
0.0
 11
146.1931224864723
 21
153.2754114960929
 31
0.0
  0
LINE
  5
2A4D
330
18
100
AcDbEntity
  8
寸法線
 62
     2
100
AcDbLine
 10
148.9626467868943
 20
125.6257184546839
 30
0.0
 11
143.7047511867641
 21
141.6021336822228
 31
0.0
1001
ACAD
1000
DSTYLE
1002
{
1070
   271
1070
     2
1002
}
  0
LINE
  5
2A4E
330
18
100
AcDbEntity
  8
外形線
100
AcDbLine
 10
144.2568644550651
 20
126.7223229578295
 30
0.0
 11
145.2568644550651
 21
126.7223229578296
 31
0.0
  0
LINE
  5
2A4F
330
18
100
AcDbEntity
  8
0
  6
ByBlock
 62
     2
100
AcDbLine
 10
140.7568644550651
 20
127.0723229578296
 30
0.0
 11
128.2470271381178
 21
127.0723229578296
 31
0.0
  0
INSERT
  5
2A50
330
18
100
AcDbEntity
  8
0
  6
ByBlock
 62
     2
100
AcDbBlockReference
  2
_OPEN
 10
129.4970271381178
 20
127.0723229578296
 30
0.0
 41
2.5
 42
2.5
 43
2.5
 50
90.0
  0
ARC
  5
2A51
330
18
100
AcDbEntity
  8
外形線
100
AcDbCircle
 10
139.9143338171759
 20
124.0654665832723
 30
0.0
 40
0.5
100
AcDbArc
 50
89.99999999999349
 51
166.4545064755751
  0
LINE
  5
2A52
330
18
100
AcDbEntity
  8
外形線
100
AcDbLine
 10
139.914333817176
 20
124.5654665832724
 30
0.0
 11
140.056864455065
 21
124.5654665832724
 31
0.0
  0
LINE
  5
2A53
330
18
100
AcDbEntity
  8
外形線
100
AcDbLine
 10
140.5568644550652
 20
123.1723229578296
 30
0.0
 11
144.2568644550651
 21
123.1723229578296
 31
0.0
  0
LINE
  5
2A54
330
18
100
AcDbEntity
  8
外形線
100
AcDbLine
 10
140.5568644550652
 20
124.0723229578296
 30
0.0
 11
144.2568644550651
 21
124.0723229578296
 31
0.0
  0
POINT
  5
2A55
330
18
100
AcDbEntity
  8
DEFPOINTS
  6
ByBlock
 62
     0
100
AcDbPoint
 10
140.7568644550651
 20
127.0723229578296
 30
0.0
  0
LINE
  5
2A56
330
18
100
AcDbEntity
  8
外形線
100
AcDbLine
 10
140.5568644550652
 20
124.8723229578296
 30
0.0
 11
144.2568644550651
 21
124.8723229578295
 31
0.0
  0
LINE
  5
2A57
330
18
100
AcDbEntity
  8
外形線
100
AcDbLine
 10
140.5568644550652
 20
125.6723229578296
 30
0.0
 11
144.2568644550651
 21
125.6723229578296
 31
0.0
  0
LINE
  5
2A58
330
18
100
AcDbEntity
  8
外形線
100
AcDbLine
 10
140.5568644550652
 20
126.3723229578296
 30
0.0
 11
144.2568644550651
 21
126.3723229578296
 31
0.0
  0
LINE
  5
2A59
330
18
100
AcDbEntity
  8
外形線
100
AcDbLine
 10
140.0568644550651
 20
126.0723229578296
 30
0.0
 11
140.5568644550652
 21
126.5723229578296
 31
0.0
  0
LINE
  5
2A5A
330
18
100
AcDbEntity
  8
外形線
100
AcDbLine
 10
143.9068644550651
 20
127.0723229578296
 30
0.0
 11
144.2568644550651
 21
126.7223229578296
 31
0.0
  0
LINE
  5
2A5B
330
18
100
AcDbEntity
  8
外形線
 48
0.5
100
AcDbLine
 10
140.5568644550652
 20
126.8723229578296
 30
0.0
 11
140.7568644550651
 21
127.0723229578296
 31
0.0
  0
LINE
  5
2A5C
330
18
100
AcDbEntity
  8
外形線
100
AcDbLine
 10
140.7568644550651
 20
127.0723229578296
 30
0.0
 11
143.9068644550651
 21
127.0723229578296
 31
0.0
  0
LINE
  5
2A5D
330
18
100
AcDbEntity
  8
寸法線
 62
     2
100
AcDbLine
 10
143.7047511867641
 20
141.6021336822228
 30
0.0
 11
138.9130845200973
 21
141.6021336822228
 31
0.0
1001
ACAD
1000
DSTYLE
1002
{
1070
   271
1070
     2
1002
}
  0
TEXT
  5
2A5E
330
18
100
AcDbEntity
  8
外形線
 62
     6
100
AcDbText
 10
139.8352038082894
 20
142.2271336822229
 30
0.0
 40
2.5
  1
B
  7
STYLE3
100
AcDbText
  0
LINE
  5
2A5F
330
18
100
AcDbEntity
  8
外形線
100
AcDbLine
 10
151.1931224864723
 20
141.5684753805363
 30
0.0
 11
151.1931224864723
 21
126.3723229578296
 31
0.0
  0
LINE
  5
2A60
330
18
100
AcDbEntity
  8
外形線
100
AcDbLine
 10
157.1931224864723
 20
141.5684753805363
 30
0.0
 11
157.1931224864723
 21
126.3723229578296
 31
0.0
  0
LINE
  5
2A61
330
18
100
AcDbEntity
  8
外形線
100
AcDbLine
 10
146.1931224864723
 20
126.3723229578296
 30
0.0
 11
161.6931224864723
 21
126.3723229578297
 31
0.0
  0
LINE
  5
2A62
330
18
100
AcDbEntity
  8
外形線
100
AcDbLine
 10
146.1931224864723
 20
124.7223229578296
 30
0.0
 11
162.0431224864724
 21
124.7223229578297
 31
0.0
  0
LINE
  5
2A63
330
18
100
AcDbEntity
  8
外形線
100
AcDbLine
 10
151.1931224864723
 20
126.3723229578296
 30
0.0
 11
157.1931224864723
 21
126.3723229578296
 31
0.0
  0
LINE
  5
2A64
330
18
100
AcDbEntity
  8
中心線
 48
0.5
100
AcDbLine
 10
145.6586411803553
 20
121.4223229578297
 30
0.0
 11
151.4974126147702
 21
121.4223229578297
 31
0.0
  0
CIRCLE
  5
2A65
330
18
100
AcDbEntity
  8
外形線
100
AcDbCircle
 10
148.6431224864723
 20
121.4223229578297
 30
0.0
 40
1.5
  0
LINE
  5
2A66
330
18
100
AcDbEntity
  8
外形線
100
AcDbLine
 10
147.9993476014904
 20
120.8821316892803
 30
0.0
 11
149.2868973714541
 21
121.9625142263792
 31
0.0
  0
LINE
  5
2A67
330
18
100
AcDbEntity
  8
中心線
 48
0.5
100
AcDbLine
 10
148.6431224864723
 20
124.1015461137793
 30
0.0
 11
148.6431224864723
 21
118.8214271007337
 31
0.0
  0
ARC
  5
2A68
330
18
100
AcDbEntity
  8
外形線
100
AcDbCircle
 10
145.7568644550652
 20
123.5723229578296
 30
0.0
 40
1.0
100
AcDbArc
 50
64.13462858156407
 51
90.0
  0
LINE
  5
2A69
330
18
100
AcDbEntity
  8
外形線
100
AcDbLine
 10
145.2568644550651
 20
124.5723229578296
 30
0.0
 11
145.7568644550652
 21
124.5723229578296
 31
0.0
  0
LINE
  5
2A6A
330
18
100
AcDbEntity
  8
外形線
100
AcDbLine
 10
149.1833137550217
 20
120.7785480728479
 30
0.0
 11
148.1029312179228
 21
122.0660978428116
 31
0.0
  0
POINT
  5
2A6B
330
18
100
AcDbEntity
  8
DEFPOINTS
  6
ByBlock
 62
     0
100
AcDbPoint
 10
146.1931224864723
 20
126.3723229578296
 30
0.0
  0
HATCH
  5
2A6C
330
18
100
AcDbEntity
  8
寸法線
100
AcDbHatch
 10
0.0
 20
0.0
 30
0.0
210
0.0
220
0.0
230
1.0
  2
SOLID
 70
     1
 71
     1
 91
        1
 92
        7
 72
     1
 73
     1
 93
        2
 10
149.185334685093
 20
125.6257184546839
 42
1.0
 10
148.7399588886957
 20
125.6257184546839
 42
1.0
 97
        1
330
2A6D
 75
     0
 76
     1
 47
0.0431140550968677
 98
        1
 10
149.0798969014796
 20
125.5163832839204
450
        0
451
        0
460
0.0
461
0.0
452
        0
462
0.0
453
        0
470

  0
CIRCLE
  5
2A6D
102
{ACAD_REACTORS
330
2A6C
102
}
330
18
100
AcDbEntity
  8
寸法線
100
AcDbCircle
 10
148.9626467868943
 20
125.6257184546839
 30
0.0
 40
0.222687898198611
  0
CIRCLE
  5
2A6E
330
18
100
AcDbEntity
  8
外形線
100
AcDbCircle
 10
159.5431224864722
 20
121.4223229578297
 30
0.0
 40
1.5
  0
LINE
  5
2A6F
330
18
100
AcDbEntity
  8
中心線
 48
0.5
100
AcDbLine
 10
156.5586411803553
 20
121.4223229578297
 30
0.0
 11
162.39741261477
 21
121.4223229578298
 31
0.0
  0
LINE
  5
2A70
330
18
100
AcDbEntity
  8
外形線
100
AcDbLine
 10
158.8993476014903
 20
120.8821316892803
 30
0.0
 11
160.1868973714541
 21
121.9625142263792
 31
0.0
  0
LINE
  5
2A71
330
18
100
AcDbEntity
  8
外形線
100
AcDbLine
 10
160.0833137550217
 20
120.778548072848
 30
0.0
 11
159.0029312179227
 21
122.0660978428116
 31
0.0
  0
LINE
  5
2A72
330
18
100
AcDbEntity
  8
中心線
 48
0.5
100
AcDbLine
 10
159.5431224864723
 20
124.1015461137792
 30
0.0
 11
159.5431224864722
 21
118.8214271007336
 31
0.0
  0
POINT
  5
2A73
330
18
100
AcDbEntity
  8
DEFPOINTS
  6
ByBlock
 62
     0
100
AcDbPoint
 10
162.0431224864724
 20
124.7223229578297
 30
0.0
  0
POINT
  5
2A74
330
18
100
AcDbEntity
  8
DEFPOINTS
  6
ByBlock
 62
     0
100
AcDbPoint
 10
161.6931224864723
 20
126.3723229578297
 30
0.0
  0
POINT
  5
2A75
330
18
100
AcDbEntity
  8
DEFPOINTS
  6
ByBlock
 62
     0
100
AcDbPoint
 10
162.0431224864724
 20
124.7223229578297
 30
0.0
  0
LINE
  5
2A76
330
18
100
AcDbEntity
  8
外形線
100
AcDbLine
 10
161.6931224864723
 20
124.7223229578297
 30
0.0
 11
161.6931224864723
 21
126.3723229578297
 31
0.0
  0
ARC
  5
2A77
330
18
100
AcDbEntity
  8
外形線
100
AcDbCircle
 10
154.1931224864723
 20
136.3723229578297
 30
0.0
 40
6.0
100
AcDbArc
 50
60.0
 51
120.0
  0
LINE
  5
2A78
330
18
100
AcDbEntity
  8
外形線
100
AcDbLine
 10
151.1931224864723
 20
141.5684753805363
 30
0.0
 11
157.1931224864723
 21
141.5684753805363
 31
0.0
  0
POINT
  5
2A79
330
18
100
AcDbEntity
  8
DEFPOINTS
  6
ByBlock
 62
     0
100
AcDbPoint
 10
154.1931224864723
 20
142.3723229578297
 30
0.0
  0
LINE
  5
2A7A
330
18
100
AcDbEntity
  8
0
  6
ByBlock
 62
     2
100
AcDbLine
 10
140.1931224864723
 20
157.4250903089814
 30
0.0
 11
161.1931224864723
 21
157.4250903089814
 31
0.0
  0
INSERT
  5
2A7B
330
18
100
AcDbEntity
  8
0
  6
ByBlock
 62
     2
100
AcDbBlockReference
  2
_OPEN
 10
137.6931224864723
 20
157.4250903089814
 30
0.0
 41
2.5
 42
2.5
 43
2.5
 50
180.0
  0
MTEXT
  5
2A7C
330
18
100
AcDbEntity
  8
0
  6
ByBlock
 62
     6
100
AcDbMText
 10
150.6931224864723
 20
159.3000903089814
 30
0.0
 40
2.5
 41
0.0
 71
     5
 72
     1
  1
\A1;26
  7
STYLE3
 73
     1
 44
1.0
  0
MTEXT
  5
2A7D
330
18
100
AcDbEntity
  8
0
  6
ByBlock
 62
     6
100
AcDbMText
 10
154.1181224864724
 20
153.9004114960929
 30
0.0
 40
2.5
 41
0.0
 71
     5
 72
     1
  1
\A1;15.85
  7
STYLE3
 73
     1
 44
1.0
  0
LINE
  5
2A7E
330
18
100
AcDbEntity
  8
0
  6
ByBlock
 62
     2
100
AcDbLine
 10
148.6931224864723
 20
152.0254114960929
 30
0.0
 11
159.5431224864724
 21
152.0254114960929
 31
0.0
  0
INSERT
  5
2A7F
330
18
100
AcDbEntity
  8
0
  6
ByBlock
 62
     2
100
AcDbBlockReference
  2
_OPEN
 10
146.1931224864723
 20
152.0254114960929
 30
0.0
 41
2.5
 42
2.5
 43
2.5
 50
180.0
  0
LINE
  5
2A80
330
18
100
AcDbEntity
  8
0
  6
ByBlock
 62
     2
100
AcDbLine
 10
159.5431224864724
 20
152.0254114960929
 30
0.0
 11
157.0431224864724
 21
152.0254114960929
 31
0.0
  0
POINT
  5
2A81
330
18
100
AcDbEntity
  8
DEFPOINTS
  6
ByBlock
 62
     0
100
AcDbPoint
 10
162.0431224864724
 20
152.0254114960929
 30
0.0
  0
INSERT
  5
2A82
330
18
100
AcDbEntity
  8
0
  6
ByBlock
 62
     2
100
AcDbBlockReference
  2
_OPEN
 10
162.0431224864724
 20
152.0254114960929
 30
0.0
 41
2.5
 42
2.5
 43
2.5
  0
INSERT
  5
2A83
330
18
100
AcDbEntity
  8
0
  6
ByBlock
 62
     2
100
AcDbBlockReference
  2
_OPEN
 10
162.0431224864724
 20
152.0254114960929
 30
0.0
 41
2.5
 42
2.5
 43
2.5
  0
LINE
  5
2A84
330
18
100
AcDbEntity
  8
外形線
100
AcDbLine
 10
163.6931224864723
 20
124.3723229578296
 30
0.0
 11
163.6931224864723
 21
86.82232295782966
 31
0.0
  0
LINE
  5
2A85
330
18
100
AcDbEntity
  8
寸法線
 62
     2
100
AcDbLine
 10
169.9618303011792
 20
106.694653642942
 30
0.0
 11
174.9915922059411
 21
106.694653642942
 31
0.0
1001
ACAD
1000
DSTYLE
1002
{
1070
   271
1070
     2
1002
}
  0
TEXT
  5
2A86
330
18
100
AcDbEntity
  8
寸法線
 62
     6
100
AcDbText
 10
171.3946844908801
 20
107.319653642942
 30
0.0
 40
2.5
  1
A
  7
STYLE3
100
AcDbText
  0
LINE
  5
2A87
330
18
100
AcDbEntity
  8
0
  6
ByBlock
 62
     2
100
AcDbLine
 10
163.6931224864723
 20
124.3723229578296
 30
0.0
 11
163.6931224864723
 21
153.2754114960929
 31
0.0
  0
LINE
  5
2A88
330
18
100
AcDbEntity
  8
0
  6
ByBlock
 62
     2
100
AcDbLine
 10
174.7494158879703
 20
139.8723229578296
 30
0.0
 11
174.7494158879703
 21
128.8723229578297
 31
0.0
  0
POINT
  5
2A89
330
18
100
AcDbEntity
  8
DEFPOINTS
  6
ByBlock
 62
     0
100
AcDbPoint
 10
163.6931224864723
 20
124.3723229578296
 30
0.0
  0
POINT
  5
2A8A
330
18
100
AcDbEntity
  8
DEFPOINTS
  6
ByBlock
 62
     0
100
AcDbPoint
 10
174.7494158879703
 20
126.3723229578297
 30
0.0
  0
INSERT
  5
2A8B
330
18
100
AcDbEntity
  8
0
  6
ByBlock
 62
     2
100
AcDbBlockReference
  2
_OPEN
 10
174.7494158879703
 20
126.3723229578297
 30
0.0
 41
2.5
 42
2.5
 43
2.5
 50
270.0
  0
MTEXT
  5
2A8C
330
18
100
AcDbEntity
  8
0
  6
ByBlock
 62
     6
100
AcDbMText
 10
172.8744158879703
 20
134.3723229578297
 30
0.0
 40
2.5
 41
0.0
 71
     5
 72
     1
  1
\A1;16
  7
STYLE3
 11
0.0000000000000001
 21
1.0
 31
0.0
 73
     1
 44
1.0
  0
INSERT
  5
2A8D
330
18
100
AcDbEntity
  8
0
  6
ByBlock
 62
     2
100
AcDbBlockReference
  2
_OPEN
 10
174.7494158879703
 20
142.3723229578297
 30
0.0
 41
2.5
 42
2.5
 43
2.5
 50
90.0
  0
MTEXT
  5
2A8E
330
18
100
AcDbEntity
  8
0
  6
ByBlock
 62
     6
100
AcDbMText
 10
170.5962833638129
 20
154.2592471903517
 30
0.0
 40
2.5
 41
0.0
 71
     5
 72
     1
  1
\A1;1.65
  7
STYLE3
 73
     1
 44
1.0
  0
LINE
  5
2A8F
330
18
100
AcDbEntity
  8
0
  6
ByBlock
 62
     2
100
AcDbLine
 10
166.1931224864723
 20
152.0254114960929
 30
0.0
 11
175.0297484178455
 21
152.0254114960929
 31
0.0
  0
LINE
  5
2A90
330
18
100
AcDbEntity
  8
0
  6
ByBlock
 62
     2
100
AcDbLine
 10
163.6931224864723
 20
153.2754114960929
 30
0.0
 11
163.6931224864723
 21
158.6750903089814
 31
0.0
  0
POINT
  5
2A91
330
18
100
AcDbEntity
  8
DEFPOINTS
  6
ByBlock
 62
     0
100
AcDbPoint
 10
163.6931224864723
 20
153.2754114960929
 30
0.0
  0
POINT
  5
2A92
330
18
100
AcDbEntity
  8
DEFPOINTS
  6
ByBlock
 62
     0
100
AcDbPoint
 10
163.6931224864723
 20
152.0254114960929
 30
0.0
  0
INSERT
  5
2A93
330
18
100
AcDbEntity
  8
0
  6
ByBlock
 62
     2
100
AcDbBlockReference
  2
_OPEN
 10
163.6931224864723
 20
152.0254114960929
 30
0.0
 41
2.5
 42
2.5
 43
2.5
 50
180.0
  0
POINT
  5
2A94
330
18
100
AcDbEntity
  8
DEFPOINTS
  6
ByBlock
 62
     0
100
AcDbPoint
 10
163.6931224864723
 20
157.4250903089814
 30
0.0
  0
CIRCLE
  5
2A95
330
18
100
AcDbEntity
  8
外形線
100
AcDbCircle
 10
72.57322584488321
 20
109.5723229578296
 30
0.0
 40
17.5
  0
LINE
  5
2A96
330
18
100
AcDbEntity
  8
中心線
 48
0.5
100
AcDbLine
 10
51.14659496525485
 20
109.5723229578296
 30
0.0
 11
93.52568073459696
 21
109.5723229578296
 31
0.0
  0
LINE
  5
2B06
330
18
100
AcDbEntity
  8
外形線
100
AcDbLine
 10
77.03971347349386
 20
104.4418048179311
 30
0.0
 11
77.16912299604508
 21
104.9247677310756
 31
0.0
  0
LINE
  5
2B08
330
18
100
AcDbEntity
  8
中心線
 48
0.1
100
AcDbLine
 10
64.57322584488327
 20
111.109171521412
 30
0.0
 11
64.57322584488332
 21
107.9588803697143
 31
0.0
  0
CIRCLE
  5
2B0B
330
18
100
AcDbEntity
  8
外形線
100
AcDbCircle
 10
64.57322584488332
 20
109.5723229578296
 30
0.0
 40
0.6
  0
LINE
  5
2B0D
330
18
100
AcDbEntity
  8
外形線
100
AcDbLine
 10
64.99748991359519
 20
109.9965870265416
 30
0.0
 11
64.14896177617134
 21
109.1480588891176
 31
0.0
  0
LINE
  5
2B0E
330
18
100
AcDbEntity
  8
外形線
100
AcDbLine
 10
80.14896177617123
 20
109.9965870265416
 30
0.0
 11
80.99748991359508
 21
109.1480588891176
 31
0.0
  0
LINE
  5
2B0F
330
18
100
AcDbEntity
  8
中心線
 48
0.1
100
AcDbLine
 10
80.57322584488316
 20
111.109171521412
 30
0.0
 11
80.57322584488309
 21
107.9588803697143
 31
0.0
  0
CIRCLE
  5
2B10
330
18
100
AcDbEntity
  8
外形線
100
AcDbCircle
 10
80.57322584488309
 20
109.5723229578296
 30
0.0
 40
0.6
  0
LINE
  5
2DE6
102
{ACAD_REACTORS
330
2E3B
102
}
330
18
100
AcDbEntity
  8
針
100
AcDbLine
 10
68.11861056861848
 20
123.0556942996145
 30
0.0
 11
68.25175848089973
 21
123.098956678827
 31
0.0
  0
HATCH
  5
2DE7
102
{ACAD_REACTORS
330
2E3B
102
}
330
18
100
AcDbEntity
  8
針
100
AcDbHatch
 10
0.0
 20
0.0
 30
0.0
210
0.0
220
0.0
230
1.0
  2
SOLID
 70
     1
 71
     0
 91
        1
 92
        7
 72
     1
 73
     1
 93
        6
 10
71.69616191557842
 20
111.4154068066954
 42
-0.1640812035095831
 10
71.6788535006894
 20
110.7765231529554
 42
-0.1637712156695709
 10
72.58897715513246
 20
111.0722402542914
 42
-0.1640812035096
 10
72.19944796374242
 20
111.5789343565831
 42
0.0
 10
68.25175848089978
 20
123.0989566788271
 42
0.0
 10
68.11861056861842
 20
123.0556942996145
 42
0.0
 97
        0
 75
     0
 76
     1
 47
0.025221982651283
 98
        1
 10
71.11651097615129
 20
113.9440666513573
450
        0
451
        0
460
0.0
461
0.0
452
        1
462
1.0
453
        2
463
0.0
 63
     5
421
      255
463
1.0
 63
    51
421
 16777113
470
LINEAR
  0
LINE
  5
2DE8
102
{ACAD_REACTORS
330
2E3B
102
}
330
18
100
AcDbEntity
  8
針
100
AcDbLine
 10
68.25175848089978
 20
123.098956678827
 30
0.0
 11
68.11861056861842
 21
123.0556942996145
 31
0.0
  0
HATCH
  5
2DE9
102
{ACAD_REACTORS
330
2E3B
102
}
330
18
100
AcDbEntity
  8
針
100
AcDbHatch
 10
0.0
 20
0.0
 30
0.0
210
0.0
220
0.0
230
1.0
  2
SOLID
 70
     1
 71
     0
 91
        1
 92
        7
 72
     1
 73
     1
 93
        8
 10
74.3868628942566
 20
103.1615314295052
 42
-0.2863987309425337
 10
74.34517653887727
 20
102.9539249541872
 42
3.911320250911082
 10
75.02988436059067
 20
103.1764000116266
 42
-0.2863987309426852
 10
74.87413136618281
 20
103.3198545533873
 42
0.0
 10
73.53085713520219
 20
108.1997622224675
 42
-0.1053331282509125
 10
73.51862927232669
 20
108.4077576486355
 42
-0.1859706772386703
 10
72.49289271961697
 20
108.074475639514
 42
-0.10533312825095
 10
72.60525681479167
 20
107.8990164475266
 42
0.0
 97
        0
 75
     0
 76
     1
 47
0.0292545011116796
 98
        1
 10
73.17257065795577
 20
106.8561372199175
450
        0
451
        0
460
0.0
461
0.0
452
        1
462
1.0
453
        2
463
0.0
 63
     5
421
      255
463
1.0
 63
    51
421
 16777113
470
LINEAR
  0
ARC
  5
2DEA
102
{ACAD_REACTORS
330
2E3B
102
}
330
18
100
AcDbEntity
  8
針
100
AcDbCircle
 10
72.1372564171311
 20
107.7230175049459
 30
0.0
 40
0.5
100
AcDbArc
 50
20.60956348104642
 51
44.66144748262496
  0
ARC
  5
2DEB
102
{ACAD_REACTORS
330
2E3B
102
}
330
18
100
AcDbEntity
  8
針
100
AcDbCircle
 10
74.01292699315189
 20
108.3324598187396
 30
0.0
 40
0.5
100
AcDbArc
 50
171.3385525173757
 51
195.390436518946
  0
ARC
  5
2DEC
102
{ACAD_REACTORS
330
2E3B
102
}
330
18
100
AcDbEntity
  8
針
100
AcDbCircle
 10
73.14544510185827
 20
111.9031093319846
 30
0.0
 40
1.0
100
AcDbArc
 50
198.9155986228594
 51
236.1881170613587
  0
ARC
  5
2DED
102
{ACAD_REACTORS
330
2E3B
102
}
330
18
100
AcDbEntity
  8
針
100
AcDbCircle
 10
70.74028888450934
 20
111.121626704451
 30
0.0
 40
1.0
100
AcDbArc
 50
339.8118829386387
 51
17.08440137713948
  0
LINE
  5
2DEE
102
{ACAD_REACTORS
330
2E3B
102
}
330
18
100
AcDbEntity
  8
針
100
AcDbLine
 10
68.25175848089978
 20
123.098956678827
 30
0.0
 11
72.19944796374242
 21
111.5789343565831
 31
0.0
  0
LINE
  5
2DEF
102
{ACAD_REACTORS
330
2E3B
102
}
330
18
100
AcDbEntity
  8
針
100
AcDbLine
 10
71.69616191557842
 20
111.4154068066954
 30
0.0
 11
68.11861056861842
 21
123.0556942996145
 31
0.0
  0
LINE
  5
2DF0
102
{ACAD_REACTORS
330
2E3B
102
}
330
18
100
AcDbEntity
  8
針
100
AcDbLine
 10
73.53085713520219
 20
108.1997622224675
 30
0.0
 11
74.87413136618281
 21
103.3198545533873
 31
0.0
  0
LINE
  5
2DF1
102
{ACAD_REACTORS
330
2E3B
102
}
330
18
100
AcDbEntity
  8
針
100
AcDbLine
 10
72.60525681479163
 20
107.8990164475267
 30
0.0
 11
74.3868628942566
 21
103.1615314295052
 31
0.0
  0
ARC
  5
2DF2
102
{ACAD_REACTORS
330
2E3B
102
}
330
18
100
AcDbEntity
  8
針
100
AcDbCircle
 10
74.8908533026954
 20
102.4393990856159
 30
0.0
 40
0.75
100
AcDbArc
 50
136.6829815593737
 51
79.3170184406233
  0
ARC
  5
2DF3
102
{ACAD_REACTORS
330
2E3B
102
}
330
18
100
AcDbEntity
  8
針
100
AcDbCircle
 10
75.06695930936273
 20
103.372933591896
 30
0.0
 40
0.2
100
AcDbArc
 50
195.390436518946
 51
259.3170184406233
  0
ARC
  5
2DF4
102
{ACAD_REACTORS
330
2E3B
102
}
330
18
100
AcDbEntity
  8
針
100
AcDbCircle
 10
74.19966273519247
 20
103.0911318524729
 30
0.0
 40
0.2
100
AcDbArc
 50
316.6829815593737
 51
20.60956348105367
  0
HATCH
  5
2DF5
102
{ACAD_REACTORS
330
2E3B
102
}
330
18
100
AcDbEntity
  8
針
100
AcDbHatch
 10
0.0
 20
0.0
 30
0.0
210
0.0
220
0.0
230
1.0
  2
SOLID
 70
     1
 71
     0
 91
        1
 92
        7
 72
     1
 73
     1
 93
        6
 10
71.69616191557842
 20
111.4154068066954
 42
-0.1640812035095831
 10
71.6788535006894
 20
110.7765231529554
 42
-0.1637712156695709
 10
72.58897715513246
 20
111.0722402542914
 42
-0.1640812035096
 10
72.19944796374242
 20
111.5789343565831
 42
0.0
 10
68.25175848089978
 20
123.0989566788271
 42
0.0
 10
68.11861056861842
 20
123.0556942996145
 42
0.0
 97
        0
 75
     0
 76
     1
 47
0.025221982651283
 98
        1
 10
71.11651097615129
 20
113.9440666513573
450
        0
451
        0
460
0.0
461
0.0
452
        1
462
1.0
453
        2
463
0.0
 63
     5
421
      255
463
1.0
 63
    51
421
 16777113
470
LINEAR
  0
LINE
  5
2DF6
102
{ACAD_REACTORS
330
2E3B
102
}
330
18
100
AcDbEntity
  8
針
100
AcDbLine
 10
68.25175848089978
 20
123.098956678827
 30
0.0
 11
68.11861056861842
 21
123.0556942996145
 31
0.0
  0
HATCH
  5
2DF7
102
{ACAD_REACTORS
330
2E3B
102
}
330
18
100
AcDbEntity
  8
針
100
AcDbHatch
 10
0.0
 20
0.0
 30
0.0
210
0.0
220
0.0
230
1.0
  2
SOLID
 70
     1
 71
     0
 91
        1
 92
        7
 72
     1
 73
     1
 93
        8
 10
74.3868628942566
 20
103.1615314295052
 42
-0.2863987309425337
 10
74.34517653887727
 20
102.9539249541872
 42
3.911320250911082
 10
75.02988436059067
 20
103.1764000116266
 42
-0.2863987309426852
 10
74.87413136618281
 20
103.3198545533873
 42
0.0
 10
73.53085713520219
 20
108.1997622224675
 42
-0.1053331282509125
 10
73.51862927232669
 20
108.4077576486355
 42
-0.1859706772386703
 10
72.49289271961697
 20
108.074475639514
 42
-0.10533312825095
 10
72.60525681479167
 20
107.8990164475266
 42
0.0
 97
        0
 75
     0
 76
     1
 47
0.0292545011116796
 98
        1
 10
73.17257065795577
 20
106.8561372199175
450
        0
451
        0
460
0.0
461
0.0
452
        1
462
1.0
453
        2
463
0.0
 63
     5
421
      255
463
1.0
 63
    51
421
 16777113
470
LINEAR
  0
ARC
  5
2DF8
102
{ACAD_REACTORS
330
2E3B
102
}
330
18
100
AcDbEntity
  8
針
100
AcDbCircle
 10
72.1372564171311
 20
107.7230175049459
 30
0.0
 40
0.5
100
AcDbArc
 50
20.60956348104642
 51
44.66144748262496
  0
ARC
  5
2DF9
102
{ACAD_REACTORS
330
2E3B
102
}
330
18
100
AcDbEntity
  8
針
100
AcDbCircle
 10
74.01292699315189
 20
108.3324598187396
 30
0.0
 40
0.5
100
AcDbArc
 50
171.3385525173757
 51
195.390436518946
  0
ARC
  5
2DFA
102
{ACAD_REACTORS
330
2E3B
102
}
330
18
100
AcDbEntity
  8
針
100
AcDbCircle
 10
73.14544510185827
 20
111.9031093319846
 30
0.0
 40
1.0
100
AcDbArc
 50
198.9155986228594
 51
236.1881170613587
  0
ARC
  5
2DFB
102
{ACAD_REACTORS
330
2E3B
102
}
330
18
100
AcDbEntity
  8
針
100
AcDbCircle
 10
70.74028888450934
 20
111.121626704451
 30
0.0
 40
1.0
100
AcDbArc
 50
339.8118829386387
 51
17.08440137713948
  0
LINE
  5
2DFC
102
{ACAD_REACTORS
330
2E3B
102
}
330
18
100
AcDbEntity
  8
針
100
AcDbLine
 10
68.25175848089978
 20
123.098956678827
 30
0.0
 11
72.19944796374242
 21
111.5789343565831
 31
0.0
  0
LINE
  5
2DFD
102
{ACAD_REACTORS
330
2E3B
102
}
330
18
100
AcDbEntity
  8
針
100
AcDbLine
 10
71.69616191557842
 20
111.4154068066954
 30
0.0
 11
68.11861056861842
 21
123.0556942996145
 31
0.0
  0
LINE
  5
2DFE
102
{ACAD_REACTORS
330
2E3B
102
}
330
18
100
AcDbEntity
  8
針
100
AcDbLine
 10
73.53085713520219
 20
108.1997622224675
 30
0.0
 11
74.87413136618281
 21
103.3198545533873
 31
0.0
  0
LINE
  5
2DFF
102
{ACAD_REACTORS
330
2E3B
102
}
330
18
100
AcDbEntity
  8
針
100
AcDbLine
 10
72.60525681479163
 20
107.8990164475267
 30
0.0
 11
74.3868628942566
 21
103.1615314295052
 31
0.0
  0
ARC
  5
2E00
102
{ACAD_REACTORS
330
2E3B
102
}
330
18
100
AcDbEntity
  8
針
100
AcDbCircle
 10
74.8908533026954
 20
102.4393990856159
 30
0.0
 40
0.75
100
AcDbArc
 50
136.6829815593737
 51
79.3170184406233
  0
ARC
  5
2E01
102
{ACAD_REACTORS
330
2E3B
102
}
330
18
100
AcDbEntity
  8
針
100
AcDbCircle
 10
75.06695930936273
 20
103.372933591896
 30
0.0
 40
0.2
100
AcDbArc
 50
195.390436518946
 51
259.3170184406233
  0
ARC
  5
2E02
102
{ACAD_REACTORS
330
2E3B
102
}
330
18
100
AcDbEntity
  8
針
100
AcDbCircle
 10
74.19966273519247
 20
103.0911318524729
 30
0.0
 40
0.2
100
AcDbArc
 50
316.6829815593737
 51
20.60956348105367
  0
HATCH
  5
2E03
102
{ACAD_REACTORS
330
2E3B
102
}
330
18
100
AcDbEntity
  8
針
100
AcDbHatch
 10
0.0
 20
0.0
 30
0.0
210
0.0
220
0.0
230
1.0
  2
SOLID
 70
     1
 71
     0
 91
        1
 92
        7
 72
     1
 73
     1
 93
        6
 10
71.69616191557842
 20
111.4154068066954
 42
-0.1640812035095831
 10
71.6788535006894
 20
110.7765231529554
 42
-0.1637712156695709
 10
72.58897715513246
 20
111.0722402542914
 42
-0.1640812035096
 10
72.19944796374242
 20
111.5789343565831
 42
0.0
 10
68.25175848089978
 20
123.0989566788271
 42
0.0
 10
68.11861056861842
 20
123.0556942996145
 42
0.0
 97
        0
 75
     0
 76
     1
 47
0.025221982651283
 98
        1
 10
71.11651097615129
 20
113.9440666513573
450
        0
451
        0
460
0.0
461
0.0
452
        1
462
1.0
453
        2
463
0.0
 63
     5
421
      255
463
1.0
 63
    51
421
 16777113
470
LINEAR
  0
LINE
  5
2E04
102
{ACAD_REACTORS
330
2E3B
102
}
330
18
100
AcDbEntity
  8
針
100
AcDbLine
 10
68.25175848089978
 20
123.098956678827
 30
0.0
 11
68.11861056861842
 21
123.0556942996145
 31
0.0
  0
HATCH
  5
2E05
102
{ACAD_REACTORS
330
2E3B
102
}
330
18
100
AcDbEntity
  8
針
100
AcDbHatch
 10
0.0
 20
0.0
 30
0.0
210
0.0
220
0.0
230
1.0
  2
SOLID
 70
     1
 71
     0
 91
        1
 92
        7
 72
     1
 73
     1
 93
        8
 10
74.3868628942566
 20
103.1615314295052
 42
-0.2863987309425337
 10
74.34517653887727
 20
102.9539249541872
 42
3.911320250911082
 10
75.02988436059067
 20
103.1764000116266
 42
-0.2863987309426852
 10
74.87413136618281
 20
103.3198545533873
 42
0.0
 10
73.53085713520219
 20
108.1997622224675
 42
-0.1053331282509125
 10
73.51862927232669
 20
108.4077576486355
 42
-0.1859706772386703
 10
72.49289271961697
 20
108.074475639514
 42
-0.10533312825095
 10
72.60525681479167
 20
107.8990164475266
 42
0.0
 97
        0
 75
     0
 76
     1
 47
0.0292545011116796
 98
        1
 10
73.17257065795577
 20
106.8561372199175
450
        0
451
        0
460
0.0
461
0.0
452
        1
462
1.0
453
        2
463
0.0
 63
     5
421
      255
463
1.0
 63
    51
421
 16777113
470
LINEAR
  0
ARC
  5
2E06
102
{ACAD_REACTORS
330
2E3B
102
}
330
18
100
AcDbEntity
  8
針
100
AcDbCircle
 10
72.1372564171311
 20
107.7230175049459
 30
0.0
 40
0.5
100
AcDbArc
 50
20.60956348104642
 51
44.66144748262496
  0
ARC
  5
2E07
102
{ACAD_REACTORS
330
2E3B
102
}
330
18
100
AcDbEntity
  8
針
100
AcDbCircle
 10
74.01292699315189
 20
108.3324598187396
 30
0.0
 40
0.5
100
AcDbArc
 50
171.3385525173757
 51
195.390436518946
  0
ARC
  5
2E08
102
{ACAD_REACTORS
330
2E3B
102
}
330
18
100
AcDbEntity
  8
針
100
AcDbCircle
 10
73.14544510185827
 20
111.9031093319846
 30
0.0
 40
1.0
100
AcDbArc
 50
198.9155986228594
 51
236.1881170613587
  0
ARC
  5
2E09
102
{ACAD_REACTORS
330
2E3B
102
}
330
18
100
AcDbEntity
  8
針
100
AcDbCircle
 10
70.74028888450934
 20
111.121626704451
 30
0.0
 40
1.0
100
AcDbArc
 50
339.8118829386387
 51
17.08440137713948
  0
LINE
  5
2E0A
102
{ACAD_REACTORS
330
2E3B
102
}
330
18
100
AcDbEntity
  8
針
100
AcDbLine
 10
68.25175848089978
 20
123.098956678827
 30
0.0
 11
72.19944796374242
 21
111.5789343565831
 31
0.0
  0
LINE
  5
2E0B
102
{ACAD_REACTORS
330
2E3B
102
}
330
18
100
AcDbEntity
  8
針
100
AcDbLine
 10
71.69616191557842
 20
111.4154068066954
 30
0.0
 11
68.11861056861842
 21
123.0556942996145
 31
0.0
  0
LINE
  5
2E0C
102
{ACAD_REACTORS
330
2E3B
102
}
330
18
100
AcDbEntity
  8
針
100
AcDbLine
 10
73.53085713520219
 20
108.1997622224675
 30
0.0
 11
74.87413136618281
 21
103.3198545533873
 31
0.0
  0
LINE
  5
2E0D
102
{ACAD_REACTORS
330
2E3B
102
}
330
18
100
AcDbEntity
  8
針
100
AcDbLine
 10
72.60525681479163
 20
107.8990164475267
 30
0.0
 11
74.3868628942566
 21
103.1615314295052
 31
0.0
  0
ARC
  5
2E0E
102
{ACAD_REACTORS
330
2E3B
102
}
330
18
100
AcDbEntity
  8
針
100
AcDbCircle
 10
74.8908533026954
 20
102.4393990856159
 30
0.0
 40
0.75
100
AcDbArc
 50
136.6829815593737
 51
79.3170184406233
  0
ARC
  5
2E0F
102
{ACAD_REACTORS
330
2E3B
102
}
330
18
100
AcDbEntity
  8
針
100
AcDbCircle
 10
75.06695930936273
 20
103.372933591896
 30
0.0
 40
0.2
100
AcDbArc
 50
195.390436518946
 51
259.3170184406233
  0
ARC
  5
2E10
102
{ACAD_REACTORS
330
2E3B
102
}
330
18
100
AcDbEntity
  8
針
100
AcDbCircle
 10
74.19966273519247
 20
103.0911318524729
 30
0.0
 40
0.2
100
AcDbArc
 50
316.6829815593737
 51
20.60956348105367
  0
HATCH
  5
2E11
102
{ACAD_REACTORS
330
2E3B
102
}
330
18
100
AcDbEntity
  8
針
100
AcDbHatch
 10
0.0
 20
0.0
 30
0.0
210
0.0
220
0.0
230
1.0
  2
SOLID
 70
     1
 71
     0
 91
        1
 92
        7
 72
     1
 73
     1
 93
        6
 10
71.69616191557842
 20
111.4154068066954
 42
-0.1640812035095831
 10
71.6788535006894
 20
110.7765231529554
 42
-0.1637712156695709
 10
72.58897715513246
 20
111.0722402542914
 42
-0.1640812035096
 10
72.19944796374242
 20
111.5789343565831
 42
0.0
 10
68.25175848089978
 20
123.0989566788271
 42
0.0
 10
68.11861056861842
 20
123.0556942996145
 42
0.0
 97
        0
 75
     0
 76
     1
 47
0.025221982651283
 98
        1
 10
71.11651097615129
 20
113.9440666513573
450
        0
451
        0
460
0.0
461
0.0
452
        1
462
1.0
453
        2
463
0.0
 63
     5
421
      255
463
1.0
 63
    51
421
 16777113
470
LINEAR
  0
LINE
  5
2E12
102
{ACAD_REACTORS
330
2E3B
102
}
330
18
100
AcDbEntity
  8
針
100
AcDbLine
 10
68.25175848089978
 20
123.098956678827
 30
0.0
 11
68.11861056861842
 21
123.0556942996145
 31
0.0
  0
HATCH
  5
2E13
102
{ACAD_REACTORS
330
2E3B
102
}
330
18
100
AcDbEntity
  8
針
100
AcDbHatch
 10
0.0
 20
0.0
 30
0.0
210
0.0
220
0.0
230
1.0
  2
SOLID
 70
     1
 71
     0
 91
        1
 92
        7
 72
     1
 73
     1
 93
        8
 10
74.3868628942566
 20
103.1615314295052
 42
-0.2863987309425337
 10
74.34517653887727
 20
102.9539249541872
 42
3.911320250911082
 10
75.02988436059067
 20
103.1764000116266
 42
-0.2863987309426852
 10
74.87413136618281
 20
103.3198545533873
 42
0.0
 10
73.53085713520219
 20
108.1997622224675
 42
-0.1053331282509125
 10
73.51862927232669
 20
108.4077576486355
 42
-0.1859706772386703
 10
72.49289271961697
 20
108.074475639514
 42
-0.10533312825095
 10
72.60525681479167
 20
107.8990164475266
 42
0.0
 97
        0
 75
     0
 76
     1
 47
0.0292545011116796
 98
        1
 10
73.17257065795577
 20
106.8561372199175
450
        0
451
        0
460
0.0
461
0.0
452
        1
462
1.0
453
        2
463
0.0
 63
     5
421
      255
463
1.0
 63
    51
421
 16777113
470
LINEAR
  0
ARC
  5
2E14
102
{ACAD_REACTORS
330
2E3B
102
}
330
18
100
AcDbEntity
  8
針
100
AcDbCircle
 10
72.1372564171311
 20
107.7230175049459
 30
0.0
 40
0.5
100
AcDbArc
 50
20.60956348104642
 51
44.66144748262496
  0
ARC
  5
2E15
102
{ACAD_REACTORS
330
2E3B
102
}
330
18
100
AcDbEntity
  8
針
100
AcDbCircle
 10
74.01292699315189
 20
108.3324598187396
 30
0.0
 40
0.5
100
AcDbArc
 50
171.3385525173757
 51
195.390436518946
  0
ARC
  5
2E16
102
{ACAD_REACTORS
330
2E3B
102
}
330
18
100
AcDbEntity
  8
針
100
AcDbCircle
 10
73.14544510185827
 20
111.9031093319846
 30
0.0
 40
1.0
100
AcDbArc
 50
198.9155986228594
 51
236.1881170613587
  0
ARC
  5
2E17
102
{ACAD_REACTORS
330
2E3B
102
}
330
18
100
AcDbEntity
  8
針
100
AcDbCircle
 10
70.74028888450934
 20
111.121626704451
 30
0.0
 40
1.0
100
AcDbArc
 50
339.8118829386387
 51
17.08440137713948
  0
LINE
  5
2E18
102
{ACAD_REACTORS
330
2E3B
102
}
330
18
100
AcDbEntity
  8
針
100
AcDbLine
 10
68.25175848089978
 20
123.098956678827
 30
0.0
 11
72.19944796374242
 21
111.5789343565831
 31
0.0
  0
LINE
  5
2E19
102
{ACAD_REACTORS
330
2E3B
102
}
330
18
100
AcDbEntity
  8
針
100
AcDbLine
 10
71.69616191557842
 20
111.4154068066954
 30
0.0
 11
68.11861056861842
 21
123.0556942996145
 31
0.0
  0
LINE
  5
2E1A
102
{ACAD_REACTORS
330
2E3B
102
}
330
18
100
AcDbEntity
  8
針
100
AcDbLine
 10
73.53085713520219
 20
108.1997622224675
 30
0.0
 11
74.87413136618281
 21
103.3198545533873
 31
0.0
  0
LINE
  5
2E1B
102
{ACAD_REACTORS
330
2E3B
102
}
330
18
100
AcDbEntity
  8
針
100
AcDbLine
 10
72.60525681479163
 20
107.8990164475267
 30
0.0
 11
74.3868628942566
 21
103.1615314295052
 31
0.0
  0
ARC
  5
2E1C
102
{ACAD_REACTORS
330
2E3B
102
}
330
18
100
AcDbEntity
  8
針
100
AcDbCircle
 10
74.8908533026954
 20
102.4393990856159
 30
0.0
 40
0.75
100
AcDbArc
 50
136.6829815593737
 51
79.3170184406233
  0
ARC
  5
2E1D
102
{ACAD_REACTORS
330
2E3B
102
}
330
18
100
AcDbEntity
  8
針
100
AcDbCircle
 10
75.06695930936273
 20
103.372933591896
 30
0.0
 40
0.2
100
AcDbArc
 50
195.390436518946
 51
259.3170184406233
  0
ARC
  5
2E1E
102
{ACAD_REACTORS
330
2E3B
102
}
330
18
100
AcDbEntity
  8
針
100
AcDbCircle
 10
74.19966273519247
 20
103.0911318524729
 30
0.0
 40
0.2
100
AcDbArc
 50
316.6829815593737
 51
20.60956348105367
  0
HATCH
  5
2E1F
102
{ACAD_REACTORS
330
2E3B
102
}
330
18
100
AcDbEntity
  8
針
100
AcDbHatch
 10
0.0
 20
0.0
 30
0.0
210
0.0
220
0.0
230
1.0
  2
SOLID
 70
     1
 71
     0
 91
        1
 92
        7
 72
     1
 73
     1
 93
        6
 10
71.69616191557842
 20
111.4154068066954
 42
-0.1640812035095831
 10
71.6788535006894
 20
110.7765231529554
 42
-0.1637712156695709
 10
72.58897715513246
 20
111.0722402542914
 42
-0.1640812035096
 10
72.19944796374242
 20
111.5789343565831
 42
0.0
 10
68.25175848089978
 20
123.0989566788271
 42
0.0
 10
68.11861056861842
 20
123.0556942996145
 42
0.0
 97
        0
 75
     0
 76
     1
 47
0.025221982651283
 98
        1
 10
71.11651097615129
 20
113.9440666513573
450
        0
451
        0
460
0.0
461
0.0
452
        1
462
1.0
453
        2
463
0.0
 63
     5
421
      255
463
1.0
 63
    51
421
 16777113
470
LINEAR
  0
LINE
  5
2E20
102
{ACAD_REACTORS
330
2E3B
102
}
330
18
100
AcDbEntity
  8
針
100
AcDbLine
 10
68.25175848089978
 20
123.098956678827
 30
0.0
 11
68.11861056861842
 21
123.0556942996145
 31
0.0
  0
HATCH
  5
2E21
102
{ACAD_REACTORS
330
2E3B
102
}
330
18
100
AcDbEntity
  8
針
100
AcDbHatch
 10
0.0
 20
0.0
 30
0.0
210
0.0
220
0.0
230
1.0
  2
SOLID
 70
     1
 71
     0
 91
        1
 92
        7
 72
     1
 73
     1
 93
        8
 10
74.3868628942566
 20
103.1615314295052
 42
-0.2863987309425337
 10
74.34517653887727
 20
102.9539249541872
 42
3.911320250911082
 10
75.02988436059067
 20
103.1764000116266
 42
-0.2863987309426852
 10
74.87413136618281
 20
103.3198545533873
 42
0.0
 10
73.53085713520219
 20
108.1997622224675
 42
-0.1053331282509125
 10
73.51862927232669
 20
108.4077576486355
 42
-0.1859706772386703
 10
72.49289271961697
 20
108.074475639514
 42
-0.10533312825095
 10
72.60525681479167
 20
107.8990164475266
 42
0.0
 97
        0
 75
     0
 76
     1
 47
0.0292545011116796
 98
        1
 10
73.17257065795577
 20
106.8561372199175
450
        0
451
        0
460
0.0
461
0.0
452
        1
462
1.0
453
        2
463
0.0
 63
     5
421
      255
463
1.0
 63
    51
421
 16777113
470
LINEAR
  0
ARC
  5
2E22
102
{ACAD_REACTORS
330
2E3B
102
}
330
18
100
AcDbEntity
  8
針
100
AcDbCircle
 10
72.1372564171311
 20
107.7230175049459
 30
0.0
 40
0.5
100
AcDbArc
 50
20.60956348104642
 51
44.66144748262496
  0
ARC
  5
2E23
102
{ACAD_REACTORS
330
2E3B
102
}
330
18
100
AcDbEntity
  8
針
100
AcDbCircle
 10
74.01292699315189
 20
108.3324598187396
 30
0.0
 40
0.5
100
AcDbArc
 50
171.3385525173757
 51
195.390436518946
  0
ARC
  5
2E24
102
{ACAD_REACTORS
330
2E3B
102
}
330
18
100
AcDbEntity
  8
針
100
AcDbCircle
 10
73.14544510185827
 20
111.9031093319846
 30
0.0
 40
1.0
100
AcDbArc
 50
198.9155986228594
 51
236.1881170613587
  0
ARC
  5
2E25
102
{ACAD_REACTORS
330
2E3B
102
}
330
18
100
AcDbEntity
  8
針
100
AcDbCircle
 10
70.74028888450934
 20
111.121626704451
 30
0.0
 40
1.0
100
AcDbArc
 50
339.8118829386387
 51
17.08440137713948
  0
LINE
  5
2E26
102
{ACAD_REACTORS
330
2E3B
102
}
330
18
100
AcDbEntity
  8
針
100
AcDbLine
 10
68.25175848089978
 20
123.098956678827
 30
0.0
 11
72.19944796374242
 21
111.5789343565831
 31
0.0
  0
LINE
  5
2E27
102
{ACAD_REACTORS
330
2E3B
102
}
330
18
100
AcDbEntity
  8
針
100
AcDbLine
 10
71.69616191557842
 20
111.4154068066954
 30
0.0
 11
68.11861056861842
 21
123.0556942996145
 31
0.0
  0
LINE
  5
2E28
102
{ACAD_REACTORS
330
2E3B
102
}
330
18
100
AcDbEntity
  8
針
100
AcDbLine
 10
73.53085713520219
 20
108.1997622224675
 30
0.0
 11
74.87413136618281
 21
103.3198545533873
 31
0.0
  0
LINE
  5
2E29
102
{ACAD_REACTORS
330
2E3B
102
}
330
18
100
AcDbEntity
  8
針
100
AcDbLine
 10
72.60525681479163
 20
107.8990164475267
 30
0.0
 11
74.3868628942566
 21
103.1615314295052
 31
0.0
  0
ARC
  5
2E2A
102
{ACAD_REACTORS
330
2E3B
102
}
330
18
100
AcDbEntity
  8
針
100
AcDbCircle
 10
74.8908533026954
 20
102.4393990856159
 30
0.0
 40
0.75
100
AcDbArc
 50
136.6829815593737
 51
79.3170184406233
  0
ARC
  5
2E2B
102
{ACAD_REACTORS
330
2E3B
102
}
330
18
100
AcDbEntity
  8
針
100
AcDbCircle
 10
75.06695930936273
 20
103.372933591896
 30
0.0
 40
0.2
100
AcDbArc
 50
195.390436518946
 51
259.3170184406233
  0
ARC
  5
2E2C
102
{ACAD_REACTORS
330
2E3B
102
}
330
18
100
AcDbEntity
  8
針
100
AcDbCircle
 10
74.19966273519247
 20
103.0911318524729
 30
0.0
 40
0.2
100
AcDbArc
 50
316.6829815593737
 51
20.60956348105367
  0
HATCH
  5
2E2D
102
{ACAD_REACTORS
330
2E3B
102
}
330
18
100
AcDbEntity
  8
針
100
AcDbHatch
 10
0.0
 20
0.0
 30
0.0
210
0.0
220
0.0
230
1.0
  2
SOLID
 70
     1
 71
     0
 91
        1
 92
        7
 72
     1
 73
     1
 93
        6
 10
71.69616191557842
 20
111.4154068066954
 42
-0.1640812035095831
 10
71.6788535006894
 20
110.7765231529554
 42
-0.1637712156695709
 10
72.58897715513246
 20
111.0722402542914
 42
-0.1640812035096
 10
72.19944796374242
 20
111.5789343565831
 42
0.0
 10
68.25175848089978
 20
123.0989566788271
 42
0.0
 10
68.11861056861842
 20
123.0556942996145
 42
0.0
 97
        0
 75
     0
 76
     1
 47
0.025221982651283
 98
        1
 10
71.11651097615129
 20
113.9440666513573
450
        0
451
        0
460
0.0
461
0.0
452
        1
462
1.0
453
        2
463
0.0
 63
     5
421
      255
463
1.0
 63
    51
421
 16777113
470
LINEAR
  0
LINE
  5
2E2E
102
{ACAD_REACTORS
330
2E3B
102
}
330
18
100
AcDbEntity
  8
針
100
AcDbLine
 10
68.25175848089978
 20
123.098956678827
 30
0.0
 11
68.11861056861842
 21
123.0556942996145
 31
0.0
  0
HATCH
  5
2E2F
102
{ACAD_REACTORS
330
2E3B
102
}
330
18
100
AcDbEntity
  8
針
100
AcDbHatch
 10
0.0
 20
0.0
 30
0.0
210
0.0
220
0.0
230
1.0
  2
SOLID
 70
     1
 71
     0
 91
        1
 92
        7
 72
     1
 73
     1
 93
        8
 10
74.3868628942566
 20
103.1615314295052
 42
-0.2863987309425337
 10
74.34517653887727
 20
102.9539249541872
 42
3.911320250911082
 10
75.02988436059067
 20
103.1764000116266
 42
-0.2863987309426852
 10
74.87413136618281
 20
103.3198545533873
 42
0.0
 10
73.53085713520219
 20
108.1997622224675
 42
-0.1053331282509125
 10
73.51862927232669
 20
108.4077576486355
 42
-0.1859706772386703
 10
72.49289271961697
 20
108.074475639514
 42
-0.10533312825095
 10
72.60525681479167
 20
107.8990164475266
 42
0.0
 97
        0
 75
     0
 76
     1
 47
0.0292545011116796
 98
        1
 10
73.17257065795577
 20
106.8561372199175
450
        0
451
        0
460
0.0
461
0.0
452
        1
462
1.0
453
        2
463
0.0
 63
     5
421
      255
463
1.0
 63
    51
421
 16777113
470
LINEAR
  0
ARC
  5
2E30
102
{ACAD_REACTORS
330
2E3B
102
}
330
18
100
AcDbEntity
  8
針
100
AcDbCircle
 10
72.1372564171311
 20
107.7230175049459
 30
0.0
 40
0.5
100
AcDbArc
 50
20.60956348104642
 51
44.66144748262496
  0
ARC
  5
2E31
102
{ACAD_REACTORS
330
2E3B
102
}
330
18
100
AcDbEntity
  8
針
100
AcDbCircle
 10
74.01292699315189
 20
108.3324598187396
 30
0.0
 40
0.5
100
AcDbArc
 50
171.3385525173757
 51
195.390436518946
  0
ARC
  5
2E32
102
{ACAD_REACTORS
330
2E3B
102
}
330
18
100
AcDbEntity
  8
針
100
AcDbCircle
 10
73.14544510185827
 20
111.9031093319846
 30
0.0
 40
1.0
100
AcDbArc
 50
198.9155986228594
 51
236.1881170613587
  0
ARC
  5
2E33
102
{ACAD_REACTORS
330
2E3B
102
}
330
18
100
AcDbEntity
  8
針
100
AcDbCircle
 10
70.74028888450934
 20
111.121626704451
 30
0.0
 40
1.0
100
AcDbArc
 50
339.8118829386387
 51
17.08440137713948
  0
LINE
  5
2E34
102
{ACAD_REACTORS
330
2E3B
102
}
330
18
100
AcDbEntity
  8
針
100
AcDbLine
 10
68.25175848089978
 20
123.098956678827
 30
0.0
 11
72.19944796374242
 21
111.5789343565831
 31
0.0
  0
LINE
  5
2E35
102
{ACAD_REACTORS
330
2E3B
102
}
330
18
100
AcDbEntity
  8
針
100
AcDbLine
 10
71.69616191557842
 20
111.4154068066954
 30
0.0
 11
68.11861056861842
 21
123.0556942996145
 31
0.0
  0
LINE
  5
2E36
102
{ACAD_REACTORS
330
2E3B
102
}
330
18
100
AcDbEntity
  8
針
100
AcDbLine
 10
73.53085713520219
 20
108.1997622224675
 30
0.0
 11
74.87413136618281
 21
103.3198545533873
 31
0.0
  0
LINE
  5
2E37
102
{ACAD_REACTORS
330
2E3B
102
}
330
18
100
AcDbEntity
  8
針
100
AcDbLine
 10
72.60525681479163
 20
107.8990164475267
 30
0.0
 11
74.3868628942566
 21
103.1615314295052
 31
0.0
  0
ARC
  5
2E38
102
{ACAD_REACTORS
330
2E3B
102
}
330
18
100
AcDbEntity
  8
針
100
AcDbCircle
 10
74.8908533026954
 20
102.4393990856159
 30
0.0
 40
0.75
100
AcDbArc
 50
136.6829815593737
 51
79.3170184406233
  0
ARC
  5
2E39
102
{ACAD_REACTORS
330
2E3B
102
}
330
18
100
AcDbEntity
  8
針
100
AcDbCircle
 10
75.06695930936273
 20
103.372933591896
 30
0.0
 40
0.2
100
AcDbArc
 50
195.390436518946
 51
259.3170184406233
  0
ARC
  5
2E3A
102
{ACAD_REACTORS
330
2E3B
102
}
330
18
100
AcDbEntity
  8
針
100
AcDbCircle
 10
74.19966273519247
 20
103.0911318524729
 30
0.0
 40
0.2
100
AcDbArc
 50
316.6829815593737
 51
20.60956348105367
  0
TEXT
  5
2EAC
330
18
100
AcDbEntity
  8
文字
100
AcDbText
 10
74.26591316947983
 20
185.4049937958457
 30
0.0
 40
4.0
  1
Model No.PCN-7C New Pic Test Indicator
  7
STYLE3
100
AcDbText
  0
LINE
  5
2EAD
330
18
100
AcDbEntity
  8
外形線
100
AcDbLine
 10
73.57738516947984
 20
182.9868507958457
 30
0.0
 11
196.5773851694798
 21
182.9868507958457
 31
0.0
  0
LINE
  5
2EAE
330
18
100
AcDbEntity
  8
外形線
100
AcDbLine
 10
73.57738516947984
 20
183.9868507958457
 30
0.0
 11
196.5773851694798
 21
183.9868507958457
 31
0.0
  0
LINE
  5
2EE3
330
18
100
AcDbEntity
  8
外形線
100
AcDbLine
 10
113.4874111694798
 20
21.06958179584575
 30
0.0
 11
254.2788291694798
 21
21.06958179584575
 31
0.0
  0
LINE
  5
2EE4
330
18
100
AcDbEntity
  8
外形線
100
AcDbLine
 10
113.4874111694798
 20
10.28937579584574
 30
0.0
 11
254.2788291694798
 21
10.28937579584574
 31
0.0
  0
TEXT
  5
2EE5
330
18
100
AcDbEntity
  8
0
  6
Continuous
100
AcDbText
 10
114.9448781694798
 20
12.18736579584575
 30
0.0
 40
2.1
  1
Design and specifications are subject to change without notice for future improvement.
  7
STYLE3
100
AcDbText
  0
TEXT
  5
2EE6
330
18
100
AcDbEntity
  8
0
  6
Continuous
100
AcDbText
 10
115.2363721694798
 20
16.11651379584575
 30
0.0
 40
3.5
  1
仕様及び外観は予告なく変更される場合がございますのでご了承下さい。
  7
STYLE3
100
AcDbText
  0
TEXT
  5
2EE7
330
18
100
AcDbEntity
  8
0
  6
Continuous
100
AcDbText
 10
114.6533871694798
 20
2.422737795845749
 30
0.0
 40
2.1
  1
3RD Angle Projection
  7
STYLE3
100
AcDbText
  0
TEXT
  5
2EE8
330
18
100
AcDbEntity
  8
0
  6
Continuous
100
AcDbText
 10
117.2768301694798
 20
5.919020795845749
 30
0.0
 40
3.0
  1
三　　角　　法
  7
STYLE3
100
AcDbText
  0
LINE
  5
2EE9
330
18
100
AcDbEntity
  8
外形線
100
AcDbLine
 10
113.4874111694798
 20
0.6745977958457493
 30
0.0
 11
113.4874111694798
 21
21.06958179584575
 31
0.0
  0
LINE
  5
2EEA
330
18
100
AcDbEntity
  8
外形線
100
AcDbLine
 10
215.5101781694798
 20
10.28937579584574
 30
0.0
 11
215.5101781694798
 21
0.6745977958457493
 31
0.0
  0
LINE
  5
2EEB
330
18
100
AcDbEntity
  8
外形線
100
AcDbLine
 10
185.7778281694798
 20
10.28937579584574
 30
0.0
 11
185.7778281694798
 21
0.6745977958457493
 31
0.0
  0
LINE
  5
2EEC
330
18
100
AcDbEntity
  8
外形線
100
AcDbLine
 10
166.2477561694798
 20
10.28937579584574
 30
0.0
 11
166.2477561694798
 21
0.6745977958457493
 31
0.0
  0
LINE
  5
2EED
330
18
100
AcDbEntity
  8
外形線
100
AcDbLine
 10
148.7581391694798
 20
10.28937579584574
 30
0.0
 11
148.7581391694798
 21
0.6745977958457493
 31
0.0
  0
TEXT
  5
2EEE
330
18
100
AcDbEntity
  8
0
  6
Continuous
100
AcDbText
 10
150.2156081694798
 20
5.924975795845749
 30
0.0
 40
3.0
  1
単位
  7
STYLE3
100
AcDbText
  0
TEXT
  5
2EEF
330
18
100
AcDbEntity
  8
0
  6
Continuous
100
AcDbText
 10
150.3873291694798
 20
2.422738795845749
 30
0.0
 40
2.1
  1
Unit
  7
STYLE3
100
AcDbText
  0
TEXT
  5
2EF0
330
18
100
AcDbEntity
  8
0
  6
Continuous
100
AcDbText
 10
167.5335041694798
 20
5.633617795845749
 30
0.0
 40
3.0
  1
尺 度
  7
STYLE3
100
AcDbText
  0
TEXT
  5
2EF1
330
18
100
AcDbEntity
  8
0
  6
Continuous
100
AcDbText
 10
158.2576561694798
 20
4.170881795845748
 30
0.0
 40
2.399999999999999
  1
mm
  7
STYLE3
100
AcDbText
  0
TEXT
  5
2EF2
330
18
100
AcDbEntity
  8
0
  6
Continuous
100
AcDbText
 10
167.9967191694798
 20
2.714095795845749
 30
0.0
 40
2.1
  1
Scale
  7
STYLE3
100
AcDbText
  0
TEXT
  5
2EF3
330
18
100
AcDbEntity
  8
0
  6
Continuous
100
AcDbText
 10
177.6160081694798
 20
4.462238795845749
 30
0.0
 40
2.399999999999999
  1
1/1
  7
STYLE3
100
AcDbText
  0
TEXT
  5
2EF4
330
18
100
AcDbEntity
  8
0
  6
Continuous
100
AcDbText
 10
187.7097791694798
 20
2.422739795845749
 30
0.0
 40
2.1
  1
Date
  7
STYLE3
100
AcDbText
  0
TEXT
  5
2EF5
330
18
100
AcDbEntity
  8
0
  6
Continuous
100
AcDbText
 10
187.3264181694798
 20
5.755822795845749
 30
0.0
 40
3.0
  1
日 付
  7
STYLE3
100
AcDbText
  0
TEXT
  5
2EF6
330
18
100
AcDbEntity
  8
0
  6
Continuous
100
AcDbText
 10
196.4545871694798
 20
4.170880795845749
 30
0.0
 40
2.1
  1
2010.06.22
  7
STYLE3
100
AcDbText
  0
TEXT
  5
2EF7
330
18
100
AcDbEntity
  8
0
  6
Continuous
100
AcDbText
 10
216.8591411694798
 20
6.210377795845749
 30
0.0
 40
3.0
  1
株式会社　尾崎製作所
  7
STYLE3
100
AcDbText
  0
TEXT
  5
2EF8
330
18
100
AcDbEntity
  8
0
  6
Continuous
100
AcDbText
 10
217.7336201694798
 20
2.422738795845749
 30
0.0
 40
2.1
  1
OZAKI MFG. CO., LTD.
  7
STYLE3
100
AcDbText
  0
ENDSEC
  0
SECTION
  2
OBJECTS
  0
DICTIONARY
  5
C
330
0
100
AcDbDictionary
281
     1
  3
ACAD_COLOR
350
2B8D
  3
ACAD_GROUP
350
D
  3
ACAD_IMAGE_DICT
350
B2C
  3
ACAD_LAYOUT
350
2B90
  3
ACAD_MATERIAL
350
2B8C
  3
ACAD_MLINESTYLE
350
1B
  3
ACAD_PLOTSETTINGS
350
2B91
  3
ACAD_PLOTSTYLENAME
350
2B8A
  3
ACAD_TABLESTYLE
350
2B8E
  3
ACDBVARIABLEDICTIONARY
350
1297
  3
AVE_ACITABLE
350
1835
  0
DICTIONARY
  5
2E44
330
2
100
AcDbDictionary
280
     1
281
     1
  3
ACAD_LAYERSTATES
360
2E45
  0
DICTIONARY
  5
2B8D
102
{ACAD_REACTORS
330
C
102
}
330
C
100
AcDbDictionary
281
     1
  0
DICTIONARY
  5
D
102
{ACAD_REACTORS
330
C
102
}
330
C
100
AcDbDictionary
281
     1
  3
*A1
350
2DE5
  3
*A2
350
2E3B
  0
DICTIONARY
  5
B2C
102
{ACAD_REACTORS
330
C
102
}
330
C
100
AcDbDictionary
281
     1
  3
ROGO01
350
B2D
  0
DICTIONARY
  5
2B90
102
{ACAD_REACTORS
330
C
102
}
330
C
100
AcDbDictionary
281
     1
  3
Model
350
2B92
  3
レイアウト1
350
2B93
  0
DICTIONARY
  5
2B8C
102
{ACAD_REACTORS
330
C
102
}
330
C
100
AcDbDictionary
281
     1
  0
DICTIONARY
  5
1B
102
{ACAD_REACTORS
330
C
102
}
330
C
100
AcDbDictionary
281
     1
  3
STANDARD
350
1C
  0
DICTIONARY
  5
2B91
102
{ACAD_REACTORS
330
C
102
}
330
C
100
AcDbDictionary
281
     1
  0
ACDBDICTIONARYWDFLT
  5
2B8A
102
{ACAD_REACTORS
330
C
102
}
330
C
100
AcDbDictionary
281
     1
  3
Normal
350
2B8B
100
AcDbDictionaryWithDefault
340
2B8B
  0
DICTIONARY
  5
2B8E
102
{ACAD_REACTORS
330
C
102
}
330
C
100
AcDbDictionary
281
     1
  3
Standard
350
2B8F
  0
DICTIONARY
  5
1297
102
{ACAD_REACTORS
330
C
102
}
330
C
100
AcDbDictionary
281
     1
  3
CTABLESTYLE
350
2E4A
  3
SORTENTS
350
1298
  0
DICTIONARY
  5
1835
102
{ACAD_REACTORS
330
C
102
}
330
C
100
AcDbDictionary
281
     1
  0
DICTIONARY
  5
2E45
102
{ACAD_REACTORS
330
2E44
102
}
330
2E44
100
AcDbDictionary
281
     1
  0
GROUP
  5
2DE5
102
{ACAD_REACTORS
330
D
102
}
330
D
100
AcDbGroup
300

 70
     1
 71
     1
  0
GROUP
  5
2E3B
102
{ACAD_REACTORS
330
D
102
}
330
D
100
AcDbGroup
300

 70
     1
 71
     1
340
2E35
340
2E34
340
2E2D
340
2E27
340
2E26
340
2E1F
340
2E19
340
2E18
340
2E11
340
2E0B
340
2E0A
340
2E03
340
2DFD
340
2DFC
340
2DF5
340
2DEF
340
2DEE
340
2DE7
340
2E2E
340
2E20
340
2E12
340
2E04
340
2DF6
340
2DE8
340
2DE6
340
2E32
340
2E24
340
2E16
340
2E08
340
2DFA
340
2DEC
340
2E33
340
2E25
340
2E17
340
2E09
340
2DFB
340
2DED
340
2E37
340
2E36
340
2E2F
340
2E29
340
2E28
340
2E21
340
2E1B
340
2E1A
340
2E13
340
2E0D
340
2E0C
340
2E05
340
2DFF
340
2DFE
340
2DF7
340
2DF1
340
2DF0
340
2DE9
340
2E31
340
2E30
340
2E23
340
2E22
340
2E15
340
2E14
340
2E07
340
2E06
340
2DF9
340
2DF8
340
2DEB
340
2DEA
340
2E38
340
2E2A
340
2E1C
340
2E0E
340
2E00
340
2DF2
340
2E3A
340
2E39
340
2E2C
340
2E2B
340
2E1E
340
2E1D
340
2E10
340
2E0F
340
2E02
340
2E01
340
2DF4
340
2DF3
  0
IMAGEDEF
  5
B2D
102
{ACAD_REACTORS
330
B2C
102
}
330
B2C
100
AcDbRasterImageDef
 90
        0
  1
D:\ﾃｽﾄ\rogo01.TIF
 10
3388.0
 20
4668.0
 11
0.0635
 21
0.0635
280
     1
281
     5
  0
LAYOUT
  5
2B92
102
{ACAD_REACTORS
330
2B90
102
}
330
2B90
100
AcDbPlotSettings
  1

  2
A4 EPSON LP-6100.pc3
  4
A4
  6

 40
5.873749732971191
 41
5.873747825622558
 42
5.873748779296875
 43
5.873748779296875
 44
209.9733276367187
 45
297.0106506347656
 46
0.8
 47
25.0
 48
0.0
 49
0.0
140
0.0
141
0.0
142
1.0
143
1.0
 70
 28336
 72
     1
 73
     1
 74
     1
  7
AutoCad LT 98.ctb
 75
    16
147
1.0
 76
     1
 77
     2
 78
   300
148
0.2256454072593215
149
0.2181385412601458
100
AcDbLayout
  1
Model
 70
     1
 71
     0
 10
0.0
 20
0.0
 11
12.0
 21
9.0
 12
0.0
 22
0.0
 32
0.0
 14
0.0
 24
0.0
 34
0.0
 15
0.0
 25
0.0
 35
0.0
146
0.0
 13
0.0
 23
0.0
 33
0.0
 16
1.0
 26
0.0
 36
0.0
 17
0.0
 27
1.0
 37
0.0
 76
     0
330
18
1001
ACAD_PSEXT
1000
A4 EPSON LP-6100.pc3
1000
EPSON LP-6100
1000
\\SATO-MATE2
1000

1070
     0
  0
LAYOUT
  5
2B93
102
{ACAD_REACTORS
330
2B90
102
}
330
2B90
100
AcDbPlotSettings
  1

  2
WIDR Printer
  4

  6

 40
0.0
 41
0.0
 42
0.0
 43
0.0
 44
0.0
 45
0.0
 46
0.0
 47
0.0
 48
0.0
 49
0.0
140
0.0
141
0.0
142
1.0
143
1.0
 70
   688
 72
     0
 73
     0
 74
     5
  7
AutoCad LT 98.ctb
 75
    16
147
1.0
 76
     0
 77
     2
 78
   300
148
0.0
149
0.0
100
AcDbLayout
  1
レイアウト1
 70
     1
 71
     1
 10
0.0
 20
0.0
 11
420.0
 21
297.0
 12
0.0
 22
0.0
 32
0.0
 14
1.000000000000000E+20
 24
1.000000000000000E+20
 34
1.000000000000000E+20
 15
-1.000000000000000E+20
 25
-1.000000000000000E+20
 35
-1.000000000000000E+20
146
0.0
 13
0.0
 23
0.0
 33
0.0
 16
1.0
 26
0.0
 36
0.0
 17
0.0
 27
1.0
 37
0.0
 76
     0
330
15
  0
MLINESTYLE
  5
1C
102
{ACAD_REACTORS
330
1B
102
}
330
1B
100
AcDbMlineStyle
  2
STANDARD
 70
     0
  3

 62
   256
 51
90.0
 52
90.0
 71
     2
 49
0.5
 62
   256
  6
BYLAYER
 49
-0.5
 62
   256
  6
BYLAYER
  0
ACDBPLACEHOLDER
  5
2B8B
102
{ACAD_REACTORS
330
2B8A
102
}
330
2B8A
  0
ACAD_PROXY_OBJECT
  5
2B8F
102
{ACAD_REACTORS
330
2B8E
102
}
330
2B8E
100
AcDbProxyObject
 90
      499
 91
      505
 95
  2555929
 70
     0
 93
     1849
310
4214DD185B99185C992420000000000000F83F0000000000003E0FC00000000000004901028000000C1008070000C3001FDFF8000000C1003FBFF000000182007F7FE00000030400FEFFC00000060801FDFF8000000C1003FBFF000000182000000000000000C2020B0000001820100E000186003FBFF000000182007F7FE0
310
0000030400FEFFC00000060801FDFF8000000C1003FBFF000000182007F7FE0000003040000000000000012404160000003040201C00030C007F7FE00000030400FEFFC00000060801FDFF8000000C1003FBFF000000182007F7FE00000030400FEFFC000000608023
340
F
340
F
340
F
 94
        0
  0
DICTIONARYVAR
  5
2E4A
102
{ACAD_REACTORS
330
1297
102
}
330
1297
100
DictionaryVariables
280
     0
  1
STANDARD
  0
DICTIONARYVAR
  5
1298
102
{ACAD_REACTORS
330
1297
102
}
330
1297
100
DictionaryVariables
280
     0
  1
96
  0
ENDSEC
  0
EOF
