  0
SECTION
  2
HEADER
  9
$ACADVER
  1
AC1018
  9
$ACADMAINTVER
 70
     0
  9
$DWGCODEPAGE
  3
ANSI_932
  9
$INSBASE
 10
0.0
 20
0.0
 30
0.0
  9
$EXTMIN
 10
-116.8757553749892
 20
242.6991202425682
 30
-0.0000000000000129
  9
$EXTMAX
 10
261.5827589041935
 20
525.1426262051079
 30
0.0000000000000023
  9
$LIMMIN
 10
0.0
 20
0.0
  9
$LIMMAX
 10
420.0
 20
297.0
  9
$ORTHOMODE
 70
     1
  9
$REGENMODE
 70
     1
  9
$FILLMODE
 70
     1
  9
$QTEXTMODE
 70
     0
  9
$MIRRTEXT
 70
     1
  9
$LTSCALE
 40
1.0
  9
$ATTMODE
 70
     1
  9
$TEXTSIZE
 40
2.5
  9
$TRACEWID
 40
1.0
  9
$TEXTSTYLE
  7
STYLE3
  9
$CLAYER
  8
外形線
  9
$CELTYPE
  6
BYLAYER
  9
$CECOLOR
 62
   256
  9
$CELTSCALE
 40
1.0
  9
$DISPSILH
 70
     0
  9
$DIMSCALE
 40
1.0
  9
$DIMASZ
 40
2.5
  9
$DIMEXO
 40
0.0
  9
$DIMDLI
 40
3.75
  9
$DIMRND
 40
0.0
  9
$DIMDLE
 40
0.0
  9
$DIMEXE
 40
1.25
  9
$DIMTP
 40
0.0
  9
$DIMTM
 40
0.000000001
  9
$DIMTXT
 40
2.5
  9
$DIMCEN
 40
2.5
  9
$DIMTSZ
 40
0.0
  9
$DIMTOL
 70
     0
  9
$DIMLIM
 70
     0
  9
$DIMTIH
 70
     0
  9
$DIMTOH
 70
     0
  9
$DIMSE1
 70
     0
  9
$DIMSE2
 70
     0
  9
$DIMTAD
 70
     1
  9
$DIMZIN
 70
     8
  9
$DIMBLK
  1

  9
$DIMASO
 70
     1
  9
$DIMSHO
 70
     1
  9
$DIMPOST
  1

  9
$DIMAPOST
  1

  9
$DIMALT
 70
     0
  9
$DIMALTD
 70
     4
  9
$DIMALTF
 40
0.0394
  9
$DIMLFAC
 40
1.0
  9
$DIMTOFL
 70
     1
  9
$DIMTVP
 40
0.0
  9
$DIMTIX
 70
     0
  9
$DIMSOXD
 70
     0
  9
$DIMSAH
 70
     1
  9
$DIMBLK1
  1
OPEN
  9
$DIMBLK2
  1
OPEN
  9
$DIMSTYLE
  2
STYLE3
  9
$DIMCLRD
 70
     2
  9
$DIMCLRE
 70
     2
  9
$DIMCLRT
 70
     6
  9
$DIMTFAC
 40
0.6
  9
$DIMGAP
 40
0.625
  9
$DIMJUST
 70
     0
  9
$DIMSD1
 70
     0
  9
$DIMSD2
 70
     0
  9
$DIMTOLJ
 70
     0
  9
$DIMTZIN
 70
     8
  9
$DIMALTZ
 70
     0
  9
$DIMALTTZ
 70
     0
  9
$DIMUPT
 70
     0
  9
$DIMDEC
 70
     2
  9
$DIMTDEC
 70
     2
  9
$DIMALTU
 70
     8
  9
$DIMALTTD
 70
     4
  9
$DIMTXSTY
  7
STYLE3
  9
$DIMAUNIT
 70
     0
  9
$DIMADEC
 70
     2
  9
$DIMALTRND
 40
0.0
  9
$DIMAZIN
 70
     2
  9
$DIMDSEP
 70
    46
  9
$DIMATFIT
 70
     0
  9
$DIMFRAC
 70
     0
  9
$DIMLDRBLK
  1
OPEN
  9
$DIMLUNIT
 70
     2
  9
$DIMLWD
 70
    -2
  9
$DIMLWE
 70
    -2
  9
$DIMTMOVE
 70
     0
  9
$LUNITS
 70
     2
  9
$LUPREC
 70
     4
  9
$SKETCHINC
 40
1.0
  9
$FILLETRAD
 40
0.3
  9
$AUNITS
 70
     0
  9
$AUPREC
 70
     0
  9
$MENU
  1
.
  9
$ELEVATION
 40
0.0
  9
$PELEVATION
 40
0.0
  9
$THICKNESS
 40
0.0
  9
$LIMCHECK
 70
     0
  9
$CHAMFERA
 40
0.2
  9
$CHAMFERB
 40
0.2
  9
$CHAMFERC
 40
20.0
  9
$CHAMFERD
 40
0.0
  9
$SKPOLY
 70
     0
  9
$TDCREATE
 40
2451523.653544676
  9
$TDUCREATE
 40
2451523.278544676
  9
$TDUPDATE
 40
2455973.389480070
  9
$TDUUPDATE
 40
2455973.014480069
  9
$TDINDWG
 40
6.3229241667
  9
$TDUSRTIMER
 40
6.3229241667
  9
$USRTIMER
 70
     1
  9
$ANGBASE
 50
0.0
  9
$ANGDIR
 70
     0
  9
$PDMODE
 70
     0
  9
$PDSIZE
 40
0.0
  9
$PLINEWID
 40
0.0
  9
$SPLFRAME
 70
     0
  9
$SPLINETYPE
 70
     6
  9
$SPLINESEGS
 70
     8
  9
$HANDSEED
  5
11029
  9
$SURFTAB1
 70
     6
  9
$SURFTAB2
 70
     6
  9
$SURFTYPE
 70
     6
  9
$SURFU
 70
     6
  9
$SURFV
 70
     6
  9
$UCSBASE
  2

  9
$UCSNAME
  2

  9
$UCSORG
 10
0.0
 20
0.0
 30
0.0
  9
$UCSXDIR
 10
1.0
 20
0.0
 30
0.0
  9
$UCSYDIR
 10
0.0
 20
1.0
 30
0.0
  9
$UCSORTHOREF
  2

  9
$UCSORTHOVIEW
 70
     0
  9
$UCSORGTOP
 10
0.0
 20
0.0
 30
0.0
  9
$UCSORGBOTTOM
 10
0.0
 20
0.0
 30
0.0
  9
$UCSORGLEFT
 10
0.0
 20
0.0
 30
0.0
  9
$UCSORGRIGHT
 10
0.0
 20
0.0
 30
0.0
  9
$UCSORGFRONT
 10
0.0
 20
0.0
 30
0.0
  9
$UCSORGBACK
 10
0.0
 20
0.0
 30
0.0
  9
$PUCSBASE
  2

  9
$PUCSNAME
  2

  9
$PUCSORG
 10
0.0
 20
0.0
 30
0.0
  9
$PUCSXDIR
 10
1.0
 20
0.0
 30
0.0
  9
$PUCSYDIR
 10
0.0
 20
1.0
 30
0.0
  9
$PUCSORTHOREF
  2

  9
$PUCSORTHOVIEW
 70
     0
  9
$PUCSORGTOP
 10
0.0
 20
0.0
 30
0.0
  9
$PUCSORGBOTTOM
 10
0.0
 20
0.0
 30
0.0
  9
$PUCSORGLEFT
 10
0.0
 20
0.0
 30
0.0
  9
$PUCSORGRIGHT
 10
0.0
 20
0.0
 30
0.0
  9
$PUCSORGFRONT
 10
0.0
 20
0.0
 30
0.0
  9
$PUCSORGBACK
 10
0.0
 20
0.0
 30
0.0
  9
$USERI1
 70
     0
  9
$USERI2
 70
     0
  9
$USERI3
 70
     0
  9
$USERI4
 70
     0
  9
$USERI5
 70
     0
  9
$USERR1
 40
0.0
  9
$USERR2
 40
0.0
  9
$USERR3
 40
0.0
  9
$USERR4
 40
0.0
  9
$USERR5
 40
0.0
  9
$WORLDVIEW
 70
     1
  9
$SHADEDGE
 70
     3
  9
$SHADEDIF
 70
    70
  9
$TILEMODE
 70
     1
  9
$MAXACTVP
 70
    48
  9
$PINSBASE
 10
0.0
 20
0.0
 30
0.0
  9
$PLIMCHECK
 70
     0
  9
$PEXTMIN
 10
40.81991586685183
 20
28.52631521224976
 30
0.0
  9
$PEXTMAX
 10
367.3792428016662
 20
256.7368369102478
 30
0.0
  9
$PLIMMIN
 10
-5.873748779296875
 20
-5.873749732971191
  9
$PLIMMAX
 10
414.0729064941406
 20
291.1369009017944
  9
$UNITMODE
 70
     0
  9
$VISRETAIN
 70
     1
  9
$PLINEGEN
 70
     0
  9
$PSLTSCALE
 70
     1
  9
$TREEDEPTH
 70
  3020
  9
$CMLSTYLE
  2
STANDARD
  9
$CMLJUST
 70
     0
  9
$CMLSCALE
 40
20.0
  9
$PROXYGRAPHICS
 70
     1
  9
$MEASUREMENT
 70
     1
  9
$CELWEIGHT
370
    -1
  9
$ENDCAPS
280
     0
  9
$JOINSTYLE
280
     0
  9
$LWDISPLAY
290
     0
  9
$INSUNITS
 70
     0
  9
$HYPERLINKBASE
  1

  9
$STYLESHEET
  1
AutoCad LT 98.ctb
  9
$XEDIT
290
     1
  9
$CEPSNTYPE
380
     0
  9
$PSTYLEMODE
290
     1
  9
$FINGERPRINTGUID
  2
{43ADB1CD-BDA8-45C6-BF05-98464A7AD6FA}
  9
$VERSIONGUID
  2
{C1D208DA-1CEA-4EE2-B0E5-841F35FB06E3}
  9
$EXTNAMES
290
     1
  9
$PSVPSCALE
 40
0.0
  9
$OLESTARTUP
290
     0
  9
$SORTENTS
280
    96
  9
$INDEXCTL
280
     0
  9
$HIDETEXT
280
     0
  9
$XCLIPFRAME
290
     0
  9
$HALOGAP
280
     0
  9
$OBSCOLOR
 70
   257
  9
$OBSLTYPE
280
     0
  9
$INTERSECTIONDISPLAY
280
     0
  9
$INTERSECTIONCOLOR
 70
   257
  9
$DIMASSOC
280
     1
  9
$PROJECTNAME
  1

  0
ENDSEC
  0
SECTION
  2
CLASSES
  0
CLASS
  1
DICTIONARYVAR
  2
AcDbDictionaryVar
  3
ObjectDBX Classes
 90
        0
 91
        2
280
     0
281
     0
  0
CLASS
  1
HATCH
  2
AcDbHatch
  3
ObjectDBX Classes
 90
        0
 91
       13
280
     0
281
     1
  0
CLASS
  1
LWPOLYLINE
  2
AcDbPolyline
  3
ObjectDBX Classes
 90
        0
 91
       53
280
     0
281
     1
  0
CLASS
  1
ACDBDICTIONARYWDFLT
  2
AcDbDictionaryWithDefault
  3
ObjectDBX Classes
 90
        0
 91
        1
280
     0
281
     0
  0
CLASS
  1
TABLESTYLE
  2
AcDbTableStyle
  3
ObjectDBX Classes
 90
     2047
 91
        1
280
     0
281
     0
  0
CLASS
  1
SORTENTSTABLE
  2
AcDbSortentsTable
  3
ObjectDBX Classes
 90
        0
 91
        8
280
     0
281
     0
  0
ENDSEC
  0
SECTION
  2
TABLES
  0
TABLE
  2
VPORT
  5
8
330
0
100
AcDbSymbolTable
 70
     7
  0
VPORT
  5
D38C
330
8
100
AcDbSymbolTableRecord
100
AcDbViewportTableRecord
  2
v4_2
 70
     0
 10
0.75
 20
0.0
 11
1.0
 21
0.3333333333333333
 12
139.3490770633051
 22
340.8639465968961
 13
0.0
 23
0.0
 14
10.0
 24
10.0
 15
10.0
 25
10.0
 16
0.0
 26
0.0
 36
1.0
 17
0.0
 27
0.0
 37
0.0
 40
251.8840448434876
 41
1.154947512096377
 42
50.0
 43
0.0
 44
0.0
 50
0.0
 51
0.0
 71
     0
 72
   100
 73
     1
 74
     1
 75
     0
 76
     0
 77
     0
 78
     0
281
     0
 65
     1
110
0.0
120
0.0
130
0.0
111
1.0
121
0.0
131
0.0
112
0.0
122
1.0
132
0.0
 79
     0
146
0.0
  0
VPORT
  5
D38D
330
8
100
AcDbSymbolTableRecord
100
AcDbViewportTableRecord
  2
v4_2
 70
     0
 10
0.75
 20
0.3333333333333333
 11
1.0
 21
0.6666666666666668
 12
188.5903271769605
 22
322.6609530959235
 13
0.0
 23
0.0
 14
10.0
 24
10.0
 15
10.0
 25
10.0
 16
0.0
 26
0.0
 36
1.0
 17
0.0
 27
0.0
 37
0.0
 40
71.88607318200839
 41
1.150505406280621
 42
50.0
 43
0.0
 44
0.0
 50
0.0
 51
0.0
 71
     0
 72
   100
 73
     1
 74
     1
 75
     0
 76
     0
 77
     0
 78
     0
281
     0
 65
     1
110
0.0
120
0.0
130
0.0
111
1.0
121
0.0
131
0.0
112
0.0
122
1.0
132
0.0
 79
     0
146
0.0
  0
VPORT
  5
D38E
330
8
100
AcDbSymbolTableRecord
100
AcDbViewportTableRecord
  2
v4_2
 70
     0
 10
0.75
 20
0.6666666666666668
 11
1.0
 21
1.0
 12
187.0837058666867
 22
395.6453499167457
 13
0.0
 23
0.0
 14
10.0
 24
10.0
 15
10.0
 25
10.0
 16
0.0
 26
0.0
 36
1.0
 17
0.0
 27
0.0
 37
0.0
 40
44.30744363238572
 41
1.150505406280621
 42
50.0
 43
0.0
 44
0.0
 50
0.0
 51
0.0
 71
     0
 72
   100
 73
     1
 74
     1
 75
     0
 76
     0
 77
     0
 78
     0
281
     0
 65
     1
110
0.0
120
0.0
130
0.0
111
1.0
121
0.0
131
0.0
112
0.0
122
1.0
132
0.0
 79
     0
146
0.0
  0
VPORT
  5
D38F
330
8
100
AcDbSymbolTableRecord
100
AcDbViewportTableRecord
  2
v4_2
 70
     0
 10
0.0
 20
0.0
 11
0.75
 21
1.0
 12
90.16954697567285
 22
386.7788089930371
 13
0.0
 23
0.0
 14
10.0
 24
10.0
 15
10.0
 25
10.0
 16
0.0
 26
0.0
 36
1.0
 17
0.0
 27
0.0
 37
0.0
 40
116.3120565304616
 41
1.148275127176782
 42
50.0
 43
0.0
 44
0.0
 50
0.0
 51
0.0
 71
     0
 72
   100
 73
     1
 74
     1
 75
     0
 76
     0
 77
     0
 78
     0
281
     0
 65
     1
110
0.0
120
0.0
130
0.0
111
1.0
121
0.0
131
0.0
112
0.0
122
1.0
132
0.0
 79
     0
146
0.0
  0
VPORT
  5
11028
330
8
100
AcDbSymbolTableRecord
100
AcDbViewportTableRecord
  2
*Active
 70
     0
 10
0.0
 20
0.0
 11
1.0
 21
1.0
 12
72.35350176460213
 22
383.920873223838
 13
0.0
 23
0.0
 14
10.0
 24
10.0
 15
10.0
 25
10.0
 16
0.0
 26
0.0
 36
1.0
 17
0.0
 27
0.0
 37
0.0
 40
284.5913653234716
 41
1.530456852791878
 42
50.0
 43
0.0
 44
0.0
 50
0.0
 51
0.0
 71
     0
 72
   100
 73
     1
 74
     1
 75
     0
 76
     0
 77
     0
 78
     0
281
     0
 65
     1
110
0.0
120
0.0
130
0.0
111
1.0
121
0.0
131
0.0
112
0.0
122
1.0
132
0.0
 79
     0
146
0.0
  0
ENDTAB
  0
TABLE
  2
LTYPE
  5
5
330
0
100
AcDbSymbolTable
 70
    12
  0
LTYPE
  5
12
330
5
100
AcDbSymbolTableRecord
100
AcDbLinetypeTableRecord
  2
BYBLOCK
 70
     0
  3

 72
    65
 73
     0
 40
0.0
  0
LTYPE
  5
13
330
5
100
AcDbSymbolTableRecord
100
AcDbLinetypeTableRecord
  2
BYLAYER
 70
     0
  3

 72
    65
 73
     0
 40
0.0
  0
LTYPE
  5
14
330
5
100
AcDbSymbolTableRecord
100
AcDbLinetypeTableRecord
  2
CONTINUOUS
 70
     0
  3
Solid line
 72
    65
 73
     0
 40
0.0
  0
LTYPE
  5
22
330
5
100
AcDbSymbolTableRecord
100
AcDbLinetypeTableRecord
  2
CENTER2
 70
     0
  3
Center (.5x) ___ _ ___ _ ___ _ ___ _ ___ _ ___
 72
    65
 73
     4
 40
28.575
 49
19.05
 74
     0
 49
-3.174999999999999
 74
     0
 49
3.174999999999999
 74
     0
 49
-3.174999999999999
 74
     0
  0
LTYPE
  5
24
330
5
100
AcDbSymbolTableRecord
100
AcDbLinetypeTableRecord
  2
PHANTOM2
 70
     0
  3
Phantom (.5x) ___ _ _ ___ _ _ ___ _ _ ___ _ _
 72
    65
 73
     6
 40
31.75
 49
15.875
 74
     0
 49
-3.174999999999999
 74
     0
 49
3.174999999999999
 74
     0
 49
-3.174999999999999
 74
     0
 49
3.174999999999999
 74
     0
 49
-3.174999999999999
 74
     0
  0
ENDTAB
  0
TABLE
  2
LAYER
  5
2
102
{ACAD_XDICTIONARY
360
C7D2
102
}
330
0
100
AcDbSymbolTable
 70
    17
  0
LAYER
  5
E
330
2
100
AcDbSymbolTableRecord
100
AcDbLayerTableRecord
  2
0
 70
     0
 62
     7
  6
CONTINUOUS
370
    -3
390
249A
  0
LAYER
  5
25
330
2
100
AcDbSymbolTableRecord
100
AcDbLayerTableRecord
  2
外形線
 70
     0
 62
     7
  6
CONTINUOUS
370
    -3
390
249A
  0
LAYER
  5
26
330
2
100
AcDbSymbolTableRecord
100
AcDbLayerTableRecord
  2
寸法線
 70
     0
 62
     2
  6
CONTINUOUS
370
    -3
390
249A
  0
LAYER
  5
27
330
2
100
AcDbSymbolTableRecord
100
AcDbLayerTableRecord
  2
中心線
 70
     0
 62
     4
  6
CENTER2
370
    -3
390
249A
  0
LAYER
  5
29
330
2
100
AcDbSymbolTableRecord
100
AcDbLayerTableRecord
  2
想像線
 70
     0
 62
     1
  6
PHANTOM2
370
    -3
390
249A
  0
LAYER
  5
2B
330
2
100
AcDbSymbolTableRecord
100
AcDbLayerTableRecord
  2
文字
 70
     0
 62
     6
  6
CONTINUOUS
370
    -3
390
249A
  0
LAYER
  5
53
330
2
100
AcDbSymbolTableRecord
100
AcDbLayerTableRecord
  2
DEFPOINTS
 70
     0
 62
     7
  6
CONTINUOUS
290
     0
370
    -3
390
249A
  0
LAYER
  5
8B57
330
2
100
AcDbSymbolTableRecord
100
AcDbLayerTableRecord
  2
ROGO
 70
     0
 62
     6
  6
CONTINUOUS
370
    -3
390
249A
  0
ENDTAB
  0
TABLE
  2
STYLE
  5
3
330
0
100
AcDbSymbolTable
 70
     9
  0
STYLE
  5
F
330
3
100
AcDbSymbolTableRecord
100
AcDbTextStyleTableRecord
  2
STANDARD
 70
     0
 40
0.0
 41
1.0
 50
0.0
 71
     0
 42
2.5
  3
txt
  4

  0
STYLE
  5
3F
330
3
100
AcDbSymbolTableRecord
100
AcDbTextStyleTableRecord
  2
STYLE3
 70
     0
 40
0.0
 41
1.0
 50
0.0
 71
     0
 42
2.5
  3
romans.shx
  4
bigfont.shx
  0
ENDTAB
  0
TABLE
  2
VIEW
  5
6
330
0
100
AcDbSymbolTable
 70
     1
  0
VIEW
  5
68B5
330
6
100
AcDbSymbolTableRecord
100
AcDbViewTableRecord
  2
OLE1
 70
     0
 40
196.9594340610434
 10
11.80942821190831
 20
320.3345286897214
 41
303.1731602824438
 11
0.0
 21
0.0
 31
1.0
 12
0.0
 22
0.0
 32
0.0
 42
50.0
 43
0.0
 44
0.0
 50
0.0
 71
     0
281
     0
 72
     0
  0
ENDTAB
  0
TABLE
  2
UCS
  5
7
330
0
100
AcDbSymbolTable
 70
     0
  0
ENDTAB
  0
TABLE
  2
APPID
  5
9
330
0
100
AcDbSymbolTable
 70
     5
  0
APPID
  5
10
330
9
100
AcDbSymbolTableRecord
100
AcDbRegAppTableRecord
  2
ACAD
 70
     0
  0
APPID
  5
7A7
330
9
100
AcDbSymbolTableRecord
100
AcDbRegAppTableRecord
  2
DRAWINGVARIABLESXDATA
 70
     0
  0
APPID
  5
2700
330
9
100
AcDbSymbolTableRecord
100
AcDbRegAppTableRecord
  2
ACAD_DSTYLE_DIMTEXT_FILL
 70
     0
  0
APPID
  5
2850
330
9
100
AcDbSymbolTableRecord
100
AcDbRegAppTableRecord
  2
ACAD_PSEXT
 70
     0
  0
APPID
  5
10D24
330
9
100
AcDbSymbolTableRecord
100
AcDbRegAppTableRecord
  2
AcAecLayerStandard
 70
     0
  0
ENDTAB
  0
TABLE
  2
DIMSTYLE
  5
A
330
0
100
AcDbSymbolTable
 70
    12
100
AcDbDimStyleTable
 71
     1
340
8F
  0
DIMSTYLE
105
8F
102
{ACAD_REACTORS
330
8E3
330
902
330
903
330
909
330
933
330
94D
330
9B2
330
E00
330
E01
330
E02
330
E03
330
E04
330
EFF
330
F0D
330
15FA
330
15FE
330
1604
330
1605
330
165B
330
187B
330
18AD
330
18AE
330
18AF
330
18B5
330
1B8B
330
1B8C
330
1BB7
330
1BB8
330
1BFC
330
1C0D
330
2020
330
2023
330
2024
330
20A7
330
20DA
330
20DF
330
185C
330
1C46
330
FAD9
330
FAE6
330
FBBC
330
FBE3
330
FBF0
330
FBFD
330
FC1F
330
1044C
330
10486
330
10493
330
104A0
330
104B1
330
104BE
330
106A2
330
106D5
330
106E4
102
}
330
A
100
AcDbSymbolTableRecord
100
AcDbDimStyleTableRecord
  2
STYLE3
 70
     0
 41
2.5
 42
0.0
 43
3.75
 44
1.25
 48
0.000000001
 73
     0
 74
     0
 77
     1
 78
     8
 79
     2
140
2.5
141
2.5
143
0.0394
146
0.6
147
0.625
171
     4
172
     1
173
     1
176
     2
177
     2
178
     6
179
     2
271
     2
272
     2
273
     8
274
     4
283
     0
284
     8
289
     0
340
3F
341
45
343
45
344
45
  0
ENDTAB
  0
TABLE
  2
BLOCK_RECORD
  5
1
330
0
100
AcDbSymbolTable
 70
    84
  0
BLOCK_RECORD
  5
18
102
{ACAD_XDICTIONARY
360
26F5
102
}
330
1
100
AcDbSymbolTableRecord
100
AcDbBlockTableRecord
  2
*MODEL_SPACE
340
24A1
  0
BLOCK_RECORD
  5
15
330
1
100
AcDbSymbolTableRecord
100
AcDbBlockTableRecord
  2
*PAPER_SPACE
340
24A2
  0
BLOCK_RECORD
  5
45
330
1
100
AcDbSymbolTableRecord
100
AcDbBlockTableRecord
  2
_OPEN
340
0
102
{BLKREFS
331
860
331
861
331
86C
331
86D
331
879
331
87A
331
88F
331
890
331
89A
331
89B
331
8A5
331
8A6
331
8B1
331
8B2
331
8DA
331
8DB
331
911
331
913
331
914
331
91B
331
924
331
92B
331
937
331
93B
331
950
331
9B7
331
DA3
331
DA4
331
DAE
331
DAF
331
DB9
331
DBA
331
DC5
331
DC6
331
DD3
331
DD4
331
DDF
331
DE0
331
DEB
331
DEC
331
E30
331
E36
331
E37
331
E4A
331
E50
331
E51
331
E88
331
E91
331
E99
331
EBC
331
EBD
331
EC7
331
ECA
331
F80
331
F83
331
1572
331
1573
331
157E
331
157F
331
158A
331
158B
331
1597
331
1598
331
15A5
331
15A6
331
161C
331
1620
331
1622
331
162D
331
1643
331
1644
331
1649
331
164B
331
166F
331
1672
331
1678
331
1810
331
1811
331
1820
331
1821
331
182C
331
182D
331
1839
331
183A
331
1845
331
1846
331
187C
331
187E
331
1892
331
18C0
331
18D1
331
18DB
331
18E5
331
18EA
331
1909
331
190B
331
1913
331
1915
331
1B0A
331
1B0B
331
1B16
331
1B17
331
1B22
331
1B23
331
1B2E
331
1B2F
331
1B3A
331
1B3B
331
1B47
331
1B48
331
1BD3
331
1BD4
331
1BD5
331
1BF3
331
1BF4
331
1BF6
331
1BFB
331
1C00
331
1C11
331
1C23
331
1C25
331
1C29
331
1C2A
331
1C41
331
1FD8
331
1FD9
331
1FE4
331
1FE5
331
1FF0
331
1FF1
331
1FFB
331
1FFC
331
2009
331
200A
331
2015
331
2016
331
20EF
331
20F0
331
211A
331
211C
331
212D
331
212F
331
10F55
331
10F56
331
10F5E
331
10F5F
331
10F67
331
10F68
331
10F70
331
10F71
331
10F79
331
10F7A
331
10F82
331
10F83
331
10F8B
331
10F8C
331
10F94
331
10F95
331
10F9D
331
10F9E
331
10FA6
331
10FA7
331
10FAF
331
10FB0
331
10FBA
331
10FBB
331
10FC5
331
10FC6
331
10FCE
331
10FCF
331
10FD9
331
10FDA
331
10FE2
331
10FE3
102
}
  0
BLOCK_RECORD
  5
FADA
330
1
100
AcDbSymbolTableRecord
100
AcDbBlockTableRecord
  2
*D65
340
0
  0
BLOCK_RECORD
  5
FAE7
330
1
100
AcDbSymbolTableRecord
100
AcDbBlockTableRecord
  2
*D66
340
0
  0
BLOCK_RECORD
  5
FBBD
330
1
100
AcDbSymbolTableRecord
100
AcDbBlockTableRecord
  2
*D67
340
0
  0
BLOCK_RECORD
  5
FBE4
330
1
100
AcDbSymbolTableRecord
100
AcDbBlockTableRecord
  2
*D68
340
0
  0
BLOCK_RECORD
  5
FBF1
330
1
100
AcDbSymbolTableRecord
100
AcDbBlockTableRecord
  2
*D69
340
0
  0
BLOCK_RECORD
  5
FBFE
330
1
100
AcDbSymbolTableRecord
100
AcDbBlockTableRecord
  2
*D70
340
0
  0
BLOCK_RECORD
  5
FC20
330
1
100
AcDbSymbolTableRecord
100
AcDbBlockTableRecord
  2
*D71
340
0
  0
BLOCK_RECORD
  5
1044D
330
1
100
AcDbSymbolTableRecord
100
AcDbBlockTableRecord
  2
*D72
340
0
  0
BLOCK_RECORD
  5
10487
330
1
100
AcDbSymbolTableRecord
100
AcDbBlockTableRecord
  2
*D73
340
0
  0
BLOCK_RECORD
  5
10494
330
1
100
AcDbSymbolTableRecord
100
AcDbBlockTableRecord
  2
*D74
340
0
  0
BLOCK_RECORD
  5
104A1
330
1
100
AcDbSymbolTableRecord
100
AcDbBlockTableRecord
  2
*D75
340
0
  0
BLOCK_RECORD
  5
104B2
330
1
100
AcDbSymbolTableRecord
100
AcDbBlockTableRecord
  2
*D76
340
0
  0
BLOCK_RECORD
  5
104BF
330
1
100
AcDbSymbolTableRecord
100
AcDbBlockTableRecord
  2
*D77
340
0
  0
BLOCK_RECORD
  5
106A3
330
1
100
AcDbSymbolTableRecord
100
AcDbBlockTableRecord
  2
*D78
340
0
  0
BLOCK_RECORD
  5
106D6
330
1
100
AcDbSymbolTableRecord
100
AcDbBlockTableRecord
  2
*D79
340
0
  0
BLOCK_RECORD
  5
106E5
330
1
100
AcDbSymbolTableRecord
100
AcDbBlockTableRecord
  2
*D80
340
0
  0
ENDTAB
  0
ENDSEC
  0
SECTION
  2
BLOCKS
  0
BLOCK
  5
19
330
18
100
AcDbEntity
  8
0
100
AcDbBlockBegin
  2
*MODEL_SPACE
 70
     0
 10
0.0
 20
0.0
 30
0.0
  3
*MODEL_SPACE
  1

  0
ENDBLK
  5
1A
330
18
100
AcDbEntity
  8
0
100
AcDbBlockEnd
  0
BLOCK
  5
16
330
15
100
AcDbEntity
 67
     1
  8
0
100
AcDbBlockBegin
  2
*PAPER_SPACE
 70
     0
 10
0.0
 20
0.0
 30
0.0
  3
*PAPER_SPACE
  1

  0
ENDBLK
  5
17
330
15
100
AcDbEntity
 67
     1
  8
0
100
AcDbBlockEnd
  0
BLOCK
  5
46
330
45
100
AcDbEntity
  8
0
100
AcDbBlockBegin
  2
_OPEN
 70
     0
 10
0.0
 20
0.0
 30
0.0
  3
_OPEN
  1

  0
LINE
  5
47
330
45
100
AcDbEntity
  8
0
  6
ByBlock
 62
     0
100
AcDbLine
 10
-1.0
 20
0.1666666666666666
 30
0.0
 11
0.0
 21
0.0
 31
0.0
  0
LINE
  5
48
330
45
100
AcDbEntity
  8
0
  6
ByBlock
 62
     0
100
AcDbLine
 10
0.0
 20
0.0
 30
0.0
 11
-1.0
 21
-0.1666666666666666
 31
0.0
  0
LINE
  5
49
330
45
100
AcDbEntity
  8
0
  6
ByBlock
 62
     0
100
AcDbLine
 10
0.0
 20
0.0
 30
0.0
 11
-1.0
 21
0.0
 31
0.0
  0
ENDBLK
  5
4A
330
45
100
AcDbEntity
  8
0
100
AcDbBlockEnd
  0
BLOCK
  5
FAE4
330
FADA
100
AcDbEntity
  8
0
100
AcDbBlockBegin
  2
*D65
 70
     1
 10
0.0
 20
0.0
 30
0.0
  3
*D65
  1

  0
LINE
  5
10F7F
330
FADA
100
AcDbEntity
  8
外形線
 62
     2
370
    -2
100
AcDbLine
 10
128.9919573985968
 20
368.2962807614408
 30
0.0
 11
98.41808775897094
 21
368.2962807614409
 31
0.0
  0
LINE
  5
10F80
330
FADA
100
AcDbEntity
  8
外形線
 62
     2
370
    -2
100
AcDbLine
 10
128.9919573985968
 20
430.7962807614408
 30
0.0
 11
98.41808775897096
 21
430.7962807614408
 31
0.0
  0
LINE
  5
10F81
330
FADA
100
AcDbEntity
  8
外形線
 62
     2
370
    -2
100
AcDbLine
 10
99.66808775897094
 20
370.7962807614409
 30
0.0
 11
99.66808775897096
 21
428.2962807614409
 31
0.0
  0
INSERT
  5
10F82
330
FADA
100
AcDbEntity
  8
外形線
 62
     2
370
    -2
100
AcDbBlockReference
  2
_OPEN
 10
99.66808775897094
 20
368.2962807614409
 30
0.0
 41
2.5
 42
2.5
 43
2.5
 50
270.0
  0
INSERT
  5
10F83
330
FADA
100
AcDbEntity
  8
外形線
 62
     2
370
    -2
100
AcDbBlockReference
  2
_OPEN
 10
99.66808775897096
 20
430.7962807614408
 30
0.0
 41
2.5
 42
2.5
 43
2.5
 50
90.0
  0
MTEXT
  5
10F84
330
FADA
100
AcDbEntity
  8
外形線
 62
     6
100
AcDbMText
 10
97.79308775897089
 20
399.5462807614409
 30
0.0
 40
2.5
 41
0.0
 71
     5
 72
     1
  1
φ62.5
  7
STYLE3
 11
0.0000000000000001
 21
1.0
 31
0.0
 73
     1
 44
1.0
  0
POINT
  5
10F85
330
FADA
100
AcDbEntity
  8
DEFPOINTS
 62
     0
100
AcDbPoint
 10
128.9919573985968
 20
368.2962807614408
 30
0.0
  0
POINT
  5
10F86
330
FADA
100
AcDbEntity
  8
DEFPOINTS
 62
     0
100
AcDbPoint
 10
128.9919573985968
 20
430.7962807614408
 30
0.0
  0
POINT
  5
10F87
330
FADA
100
AcDbEntity
  8
DEFPOINTS
 62
     0
100
AcDbPoint
 10
99.66808775897096
 20
430.7962807614408
 30
0.0
  0
ENDBLK
  5
FAE5
330
FADA
100
AcDbEntity
  8
0
100
AcDbBlockEnd
  0
BLOCK
  5
FAF0
330
FAE7
100
AcDbEntity
  8
0
100
AcDbBlockBegin
  2
*D66
 70
     1
 10
0.0
 20
0.0
 30
0.0
  3
*D66
  1

  0
LINE
  5
10FDF
330
FAE7
100
AcDbEntity
  8
外形線
 62
     2
370
    -2
100
AcDbLine
 10
151.2536258208641
 20
395.8906395309455
 30
0.0
 11
149.3239164392411
 21
394.3012303002952
 31
0.0
  0
LINE
  5
10FE0
330
FAE7
100
AcDbEntity
  8
外形線
 62
     2
370
    -2
100
AcDbLine
 10
160.1302889763294
 20
403.2019219919366
 30
0.0
 11
169.7245548970361
 21
411.1042594946229
 31
0.0
  0
LINE
  5
10FE1
330
FAE7
100
AcDbEntity
  8
外形線
 62
     2
370
    -2
100
AcDbLine
 10
153.1833352024871
 20
397.4800487615958
 30
0.0
 11
158.2005795947065
 21
401.6125127612863
 31
0.0
  0
INSERT
  5
10FE2
330
FAE7
100
AcDbEntity
  8
外形線
 62
     2
370
    -2
100
AcDbBlockReference
  2
_OPEN
 10
153.1833352024871
 20
397.4800487615958
 30
0.0
 41
2.5
 42
2.5
 43
2.5
 50
39.47664913459881
  0
INSERT
  5
10FE3
330
FAE7
100
AcDbEntity
  8
外形線
 62
     2
370
    -2
100
AcDbBlockReference
  2
_OPEN
 10
158.2005795947065
 20
401.6125127612863
 30
0.0
 41
2.5
 42
2.5
 43
2.5
 50
219.4766491345988
  0
MTEXT
  5
10FE4
330
FAE7
100
AcDbEntity
  8
外形線
 62
     6
100
AcDbMText
 10
165.1555065562081
 20
409.7700753772021
 30
0.0
 40
2.5
 41
0.0
 71
     5
 72
     1
  1
\U+22056.5
  7
STYLE3
 11
0.7718837526491801
 21
0.6357636922601192
 31
0.0
 73
     1
 44
1.0
  0
POINT
  5
10FE5
330
FAE7
100
AcDbEntity
  8
DEFPOINTS
 62
     0
100
AcDbPoint
 10
158.2005795947065
 20
401.6125127612863
 30
0.0
  0
POINT
  5
10FE6
330
FAE7
100
AcDbEntity
  8
DEFPOINTS
 62
     0
100
AcDbPoint
 10
153.1833352024871
 20
397.4800487615958
 30
0.0
  0
ENDBLK
  5
FAF1
330
FAE7
100
AcDbEntity
  8
0
100
AcDbBlockEnd
  0
BLOCK
  5
FBC7
330
FBBD
100
AcDbEntity
  8
0
100
AcDbBlockBegin
  2
*D67
 70
     1
 10
0.0
 20
0.0
 30
0.0
  3
*D67
  1

  0
LINE
  5
10F5B
330
FBBD
100
AcDbEntity
  8
外形線
 62
     2
370
    -2
100
AcDbLine
 10
135.4919573985968
 20
351.7953887336857
 30
0.0
 11
135.4919573985968
 21
350.0120715570295
 31
0.0
  0
LINE
  5
10F5C
330
FBBD
100
AcDbEntity
  8
外形線
 62
     2
370
    -2
100
AcDbLine
 10
155.6919573985968
 20
387.9579492935281
 30
0.0
 11
155.6919573985968
 21
350.0120715570295
 31
0.0
  0
LINE
  5
10F5D
330
FBBD
100
AcDbEntity
  8
外形線
 62
     2
370
    -2
100
AcDbLine
 10
137.9919573985968
 20
351.2620715570295
 30
0.0
 11
153.1919573985968
 21
351.2620715570295
 31
0.0
  0
INSERT
  5
10F5E
330
FBBD
100
AcDbEntity
  8
外形線
 62
     2
370
    -2
100
AcDbBlockReference
  2
_OPEN
 10
135.4919573985968
 20
351.2620715570295
 30
0.0
 41
2.5
 42
2.5
 43
2.5
 50
180.0
  0
INSERT
  5
10F5F
330
FBBD
100
AcDbEntity
  8
外形線
 62
     2
370
    -2
100
AcDbBlockReference
  2
_OPEN
 10
155.6919573985968
 20
351.2620715570295
 30
0.0
 41
2.5
 42
2.5
 43
2.5
  0
MTEXT
  5
10F60
330
FBBD
100
AcDbEntity
  8
外形線
 62
     6
100
AcDbMText
 10
145.5919573985968
 20
353.1370715570295
 30
0.0
 40
2.5
 41
0.0
 71
     5
 72
     1
  1
20.2
  7
STYLE3
 73
     1
 44
1.0
  0
POINT
  5
10F61
330
FBBD
100
AcDbEntity
  8
DEFPOINTS
 62
     0
100
AcDbPoint
 10
135.4919573985968
 20
351.7953887336857
 30
0.0
  0
POINT
  5
10F62
330
FBBD
100
AcDbEntity
  8
DEFPOINTS
 62
     0
100
AcDbPoint
 10
155.6919573985968
 20
387.9579492935281
 30
0.0
  0
POINT
  5
10F63
330
FBBD
100
AcDbEntity
  8
DEFPOINTS
 62
     0
100
AcDbPoint
 10
155.6919573985968
 20
351.2620715570295
 30
0.0
  0
ENDBLK
  5
FBC8
330
FBBD
100
AcDbEntity
  8
0
100
AcDbBlockEnd
  0
BLOCK
  5
FBEE
330
FBE4
100
AcDbEntity
  8
0
100
AcDbBlockBegin
  2
*D68
 70
     1
 10
0.0
 20
0.0
 30
0.0
  3
*D68
  1

  0
LINE
  5
10FCB
330
FBE4
100
AcDbEntity
  8
外形線
 62
     2
370
    -2
100
AcDbLine
 10
135.4919573985968
 20
351.2620715570295
 30
0.0
 11
135.4919573985968
 21
352.5120715570295
 31
0.0
  0
LINE
  5
10FCC
330
FBE4
100
AcDbEntity
  8
外形線
 62
     2
370
    -2
100
AcDbLine
 10
110.9919573985967
 20
399.5462807614432
 30
0.0
 11
110.9919573985967
 21
350.0120715570295
 31
0.0
  0
LINE
  5
10FCD
330
FBE4
100
AcDbEntity
  8
外形線
 62
     2
370
    -2
100
AcDbLine
 10
132.9919573985968
 20
351.2620715570295
 30
0.0
 11
113.4919573985967
 21
351.2620715570295
 31
0.0
  0
INSERT
  5
10FCE
330
FBE4
100
AcDbEntity
  8
外形線
 62
     2
370
    -2
100
AcDbBlockReference
  2
_OPEN
 10
135.4919573985968
 20
351.2620715570295
 30
0.0
 41
2.5
 42
2.5
 43
2.5
  0
INSERT
  5
10FCF
330
FBE4
100
AcDbEntity
  8
外形線
 62
     2
370
    -2
100
AcDbBlockReference
  2
_OPEN
 10
110.9919573985967
 20
351.2620715570295
 30
0.0
 41
2.5
 42
2.5
 43
2.5
 50
180.0
  0
MTEXT
  5
10FD0
330
FBE4
100
AcDbEntity
  8
外形線
 62
     6
100
AcDbMText
 10
123.2419573985967
 20
353.1370715570295
 30
0.0
 40
2.5
 41
0.0
 71
     5
 72
     1
  1
24.5
  7
STYLE3
 73
     1
 44
1.0
  0
POINT
  5
10FD1
330
FBE4
100
AcDbEntity
  8
DEFPOINTS
 62
     0
100
AcDbPoint
 10
135.4919573985968
 20
351.2620715570295
 30
0.0
  0
POINT
  5
10FD2
330
FBE4
100
AcDbEntity
  8
DEFPOINTS
 62
     0
100
AcDbPoint
 10
110.9919573985967
 20
399.5462807614432
 30
0.0
  0
POINT
  5
10FD3
330
FBE4
100
AcDbEntity
  8
DEFPOINTS
 62
     0
100
AcDbPoint
 10
110.9919573985967
 20
351.2620715570295
 30
0.0
  0
ENDBLK
  5
FBEF
330
FBE4
100
AcDbEntity
  8
0
100
AcDbBlockEnd
  0
BLOCK
  5
FBFB
330
FBF1
100
AcDbEntity
  8
0
100
AcDbBlockBegin
  2
*D69
 70
     1
 10
0.0
 20
0.0
 30
0.0
  3
*D69
  1

  0
LINE
  5
10F76
330
FBF1
100
AcDbEntity
  8
外形線
 62
     2
370
    -2
100
AcDbLine
 10
110.9919573985967
 20
399.5462807614432
 30
0.0
 11
110.9919573985967
 21
448.5931690100064
 31
0.0
  0
LINE
  5
10F77
330
FBF1
100
AcDbEntity
  8
外形線
 62
     2
370
    -2
100
AcDbLine
 10
128.9919573985968
 20
430.7962807614408
 30
0.0
 11
128.9919573985968
 21
448.5931690100064
 31
0.0
  0
LINE
  5
10F78
330
FBF1
100
AcDbEntity
  8
外形線
 62
     2
370
    -2
100
AcDbLine
 10
113.4919573985967
 20
447.3431690100063
 30
0.0
 11
126.4919573985968
 21
447.3431690100063
 31
0.0
  0
INSERT
  5
10F79
330
FBF1
100
AcDbEntity
  8
外形線
 62
     2
370
    -2
100
AcDbBlockReference
  2
_OPEN
 10
110.9919573985967
 20
447.3431690100063
 30
0.0
 41
2.5
 42
2.5
 43
2.5
 50
180.0
  0
INSERT
  5
10F7A
330
FBF1
100
AcDbEntity
  8
外形線
 62
     2
370
    -2
100
AcDbBlockReference
  2
_OPEN
 10
128.9919573985968
 20
447.3431690100063
 30
0.0
 41
2.5
 42
2.5
 43
2.5
  0
MTEXT
  5
10F7B
330
FBF1
100
AcDbEntity
  8
外形線
 62
     6
100
AcDbMText
 10
119.9919573985967
 20
449.2181690100064
 30
0.0
 40
2.5
 41
0.0
 71
     5
 72
     1
  1
18
  7
STYLE3
 73
     1
 44
1.0
  0
POINT
  5
10F7C
330
FBF1
100
AcDbEntity
  8
DEFPOINTS
 62
     0
100
AcDbPoint
 10
110.9919573985967
 20
399.5462807614432
 30
0.0
  0
POINT
  5
10F7D
330
FBF1
100
AcDbEntity
  8
DEFPOINTS
 62
     0
100
AcDbPoint
 10
128.9919573985968
 20
430.7962807614408
 30
0.0
  0
POINT
  5
10F7E
330
FBF1
100
AcDbEntity
  8
DEFPOINTS
 62
     0
100
AcDbPoint
 10
128.9919573985968
 20
447.3431690100063
 30
0.0
  0
ENDBLK
  5
FBFC
330
FBF1
100
AcDbEntity
  8
0
100
AcDbBlockEnd
  0
BLOCK
  5
FC08
330
FBFE
100
AcDbEntity
  8
0
100
AcDbBlockBegin
  2
*D70
 70
     1
 10
0.0
 20
0.0
 30
0.0
  3
*D70
  1

  0
LINE
  5
10F50
330
FBFE
100
AcDbEntity
  8
外形線
 62
     2
370
    -2
100
AcDbLine
 10
128.9919573985968
 20
430.5962807614407
 30
0.0
 11
128.9919573985968
 21
448.5931690100064
 31
0.0
  0
LINE
  5
10F51
330
FBFE
100
AcDbEntity
  8
外形線
 62
     2
370
    -2
100
AcDbLine
 10
142.9919573985968
 20
430.5187988218109
 30
0.0
 11
142.9919573985968
 21
448.5931690100064
 31
0.0
  0
LINE
  5
10F52
330
FBFE
100
AcDbEntity
  8
外形線
 62
     2
370
    -2
100
AcDbLine
 10
126.4919573985968
 20
447.3431690100063
 30
0.0
 11
123.9919573985968
 21
447.3431690100063
 31
0.0
  0
LINE
  5
10F53
330
FBFE
100
AcDbEntity
  8
外形線
 62
     2
370
    -2
100
AcDbLine
 10
145.4919573985968
 20
447.3431690100063
 30
0.0
 11
153.0514812081206
 21
447.3431690100063
 31
0.0
  0
LINE
  5
10F54
330
FBFE
100
AcDbEntity
  8
外形線
 62
     2
370
    -2
100
AcDbLine
 10
128.9919573985968
 20
447.3431690100063
 30
0.0
 11
142.9919573985968
 21
447.3431690100063
 31
0.0
  0
INSERT
  5
10F55
330
FBFE
100
AcDbEntity
  8
外形線
 62
     2
370
    -2
100
AcDbBlockReference
  2
_OPEN
 10
128.9919573985968
 20
447.3431690100063
 30
0.0
 41
2.5
 42
2.5
 43
2.5
  0
INSERT
  5
10F56
330
FBFE
100
AcDbEntity
  8
外形線
 62
     2
370
    -2
100
AcDbBlockReference
  2
_OPEN
 10
142.9919573985968
 20
447.3431690100063
 30
0.0
 41
2.5
 42
2.5
 43
2.5
 50
180.0
  0
MTEXT
  5
10F57
330
FBFE
100
AcDbEntity
  8
外形線
 62
     6
100
AcDbMText
 10
150.5217193033587
 20
449.2181690100064
 30
0.0
 40
2.5
 41
0.0
 71
     5
 72
     1
  1
14
  7
STYLE3
 73
     1
 44
1.0
  0
POINT
  5
10F58
330
FBFE
100
AcDbEntity
  8
DEFPOINTS
 62
     0
100
AcDbPoint
 10
128.9919573985968
 20
430.5962807614407
 30
0.0
  0
POINT
  5
10F59
330
FBFE
100
AcDbEntity
  8
DEFPOINTS
 62
     0
100
AcDbPoint
 10
142.9919573985968
 20
430.5187988218109
 30
0.0
  0
POINT
  5
10F5A
330
FBFE
100
AcDbEntity
  8
DEFPOINTS
 62
     0
100
AcDbPoint
 10
142.9919573985968
 20
447.3431690100063
 30
0.0
  0
ENDBLK
  5
FC09
330
FBFE
100
AcDbEntity
  8
0
100
AcDbBlockEnd
  0
BLOCK
  5
FC2A
330
FC20
100
AcDbEntity
  8
0
100
AcDbBlockBegin
  2
*D71
 70
     1
 10
0.0
 20
0.0
 30
0.0
  3
*D71
  1

  0
LINE
  5
10FC0
330
FC20
100
AcDbEntity
  8
外形線
 62
     2
370
    -2
100
AcDbLine
 10
9.706988234326981
 20
357.3975430988373
 30
0.0
 11
9.706988234326981
 21
358.931414133015
 31
0.0
  0
LINE
  5
10FC1
330
FC20
100
AcDbEntity
  8
外形線
 62
     2
370
    -2
100
AcDbLine
 10
17.70698823432698
 20
357.3975430988373
 30
0.0
 11
17.70698823432698
 21
358.931414133015
 31
0.0
  0
LINE
  5
10FC2
330
FC20
100
AcDbEntity
  8
外形線
 62
     2
370
    -2
100
AcDbLine
 10
7.206988234326981
 20
357.681414133015
 30
0.0
 11
4.706988234326981
 21
357.681414133015
 31
0.0
  0
LINE
  5
10FC3
330
FC20
100
AcDbEntity
  8
外形線
 62
     2
370
    -2
100
AcDbLine
 10
20.20698823432698
 20
357.681414133015
 30
0.0
 11
35.19508347242221
 21
357.681414133015
 31
0.0
  0
LINE
  5
10FC4
330
FC20
100
AcDbEntity
  8
外形線
 62
     2
370
    -2
100
AcDbLine
 10
9.706988234326981
 20
357.681414133015
 30
0.0
 11
17.70698823432698
 21
357.681414133015
 31
0.0
  0
INSERT
  5
10FC5
330
FC20
100
AcDbEntity
  8
外形線
 62
     2
370
    -2
100
AcDbBlockReference
  2
_OPEN
 10
9.706988234326981
 20
357.681414133015
 30
0.0
 41
2.5
 42
2.5
 43
2.5
  0
INSERT
  5
10FC6
330
FC20
100
AcDbEntity
  8
外形線
 62
     2
370
    -2
100
AcDbBlockReference
  2
_OPEN
 10
17.70698823432698
 20
357.681414133015
 30
0.0
 41
2.5
 42
2.5
 43
2.5
 50
180.0
  0
MTEXT
  5
10FC7
330
FC20
100
AcDbEntity
  8
外形線
 62
     6
100
AcDbMText
 10
28.9510358533746
 20
360.056414133015
 30
0.0
 40
2.5
 41
0.0
 71
     5
 72
     1
  1
φ8{\H1.500000;\S 0^ -0.03;}
  7
STYLE3
 73
     1
 44
1.0
  0
POINT
  5
10FC8
330
FC20
100
AcDbEntity
  8
DEFPOINTS
 62
     0
100
AcDbPoint
 10
9.706988234326981
 20
357.3975430988373
 30
0.0
  0
POINT
  5
10FC9
330
FC20
100
AcDbEntity
  8
DEFPOINTS
 62
     0
100
AcDbPoint
 10
17.70698823432698
 20
357.3975430988373
 30
0.0
  0
POINT
  5
10FCA
330
FC20
100
AcDbEntity
  8
DEFPOINTS
 62
     0
100
AcDbPoint
 10
17.70698823432698
 20
357.681414133015
 30
0.0
  0
ENDBLK
  5
FC2B
330
FC20
100
AcDbEntity
  8
0
100
AcDbBlockEnd
  0
BLOCK
  5
10457
330
1044D
100
AcDbEntity
  8
0
100
AcDbBlockBegin
  2
*D72
 70
     1
 10
0.0
 20
0.0
 30
0.0
  3
*D72
  1

  0
LINE
  5
10FAC
330
1044D
100
AcDbEntity
  8
外形線
 62
     2
370
    -2
100
AcDbLine
 10
17.156988234327
 20
341.2462807614409
 30
0.0
 11
44.26602809868774
 21
341.2462807614409
 31
0.0
  0
LINE
  5
10FAD
330
1044D
100
AcDbEntity
  8
外形線
 62
     2
370
    -2
100
AcDbLine
 10
13.70698823432704
 20
368.2962807614408
 30
0.0
 11
44.26602809868774
 21
368.2962807614408
 31
0.0
  0
LINE
  5
10FAE
330
1044D
100
AcDbEntity
  8
外形線
 62
     2
370
    -2
100
AcDbLine
 10
43.01602809868774
 20
343.7462807614409
 30
0.0
 11
43.01602809868774
 21
365.7962807614408
 31
0.0
  0
INSERT
  5
10FAF
330
1044D
100
AcDbEntity
  8
外形線
 62
     2
370
    -2
100
AcDbBlockReference
  2
_OPEN
 10
43.01602809868774
 20
341.2462807614409
 30
0.0
 41
2.5
 42
2.5
 43
2.5
 50
270.0
  0
INSERT
  5
10FB0
330
1044D
100
AcDbEntity
  8
外形線
 62
     2
370
    -2
100
AcDbBlockReference
  2
_OPEN
 10
43.01602809868774
 20
368.2962807614408
 30
0.0
 41
2.5
 42
2.5
 43
2.5
 50
90.0
  0
MTEXT
  5
10FB1
330
1044D
100
AcDbEntity
  8
外形線
 62
     6
100
AcDbMText
 10
41.14102809868768
 20
354.7712807614408
 30
0.0
 40
2.5
 41
0.0
 71
     5
 72
     1
  1
27.05
  7
STYLE3
 11
0.0000000000000001
 21
1.0
 31
0.0
 73
     1
 44
1.0
  0
POINT
  5
10FB2
330
1044D
100
AcDbEntity
  8
DEFPOINTS
 62
     0
100
AcDbPoint
 10
17.156988234327
 20
341.2462807614409
 30
0.0
  0
POINT
  5
10FB3
330
1044D
100
AcDbEntity
  8
DEFPOINTS
 62
     0
100
AcDbPoint
 10
13.70698823432704
 20
368.2962807614408
 30
0.0
  0
POINT
  5
10FB4
330
1044D
100
AcDbEntity
  8
DEFPOINTS
 62
     0
100
AcDbPoint
 10
43.01602809868774
 20
368.2962807614408
 30
0.0
  0
ENDBLK
  5
10458
330
1044D
100
AcDbEntity
  8
0
100
AcDbBlockEnd
  0
BLOCK
  5
10491
330
10487
100
AcDbEntity
  8
0
100
AcDbBlockBegin
  2
*D73
 70
     1
 10
0.0
 20
0.0
 30
0.0
  3
*D73
  1

  0
LINE
  5
10FA3
330
10487
100
AcDbEntity
  8
外形線
 62
     2
370
    -2
100
AcDbLine
 10
17.156988234327
 20
341.2462807614409
 30
0.0
 11
56.36327705200391
 21
341.2462807614409
 31
0.0
  0
LINE
  5
10FA4
330
10487
100
AcDbEntity
  8
外形線
 62
     2
370
    -2
100
AcDbLine
 10
52.07829193782868
 20
399.5462807614408
 30
0.0
 11
56.36327705200392
 21
399.5462807614408
 31
0.0
  0
LINE
  5
10FA5
330
10487
100
AcDbEntity
  8
外形線
 62
     2
370
    -2
100
AcDbLine
 10
55.11327705200391
 20
343.7462807614409
 30
0.0
 11
55.11327705200392
 21
397.0462807614408
 31
0.0
  0
INSERT
  5
10FA6
330
10487
100
AcDbEntity
  8
外形線
 62
     2
370
    -2
100
AcDbBlockReference
  2
_OPEN
 10
55.11327705200391
 20
341.2462807614409
 30
0.0
 41
2.5
 42
2.5
 43
2.5
 50
270.0
  0
INSERT
  5
10FA7
330
10487
100
AcDbEntity
  8
外形線
 62
     2
370
    -2
100
AcDbBlockReference
  2
_OPEN
 10
55.11327705200392
 20
399.5462807614408
 30
0.0
 41
2.5
 42
2.5
 43
2.5
 50
90.0
  0
MTEXT
  5
10FA8
330
10487
100
AcDbEntity
  8
外形線
 62
     6
100
AcDbMText
 10
53.23827705200386
 20
370.3962807614408
 30
0.0
 40
2.5
 41
0.0
 71
     5
 72
     1
  1
58.3
  7
STYLE3
 11
0.0000000000000001
 21
1.0
 31
0.0
 73
     1
 44
1.0
  0
POINT
  5
10FA9
330
10487
100
AcDbEntity
  8
DEFPOINTS
 62
     0
100
AcDbPoint
 10
17.156988234327
 20
341.2462807614409
 30
0.0
  0
POINT
  5
10FAA
330
10487
100
AcDbEntity
  8
DEFPOINTS
 62
     0
100
AcDbPoint
 10
52.07829193782868
 20
399.5462807614408
 30
0.0
  0
POINT
  5
10FAB
330
10487
100
AcDbEntity
  8
DEFPOINTS
 62
     0
100
AcDbPoint
 10
55.11327705200392
 20
399.5462807614408
 30
0.0
  0
ENDBLK
  5
10492
330
10487
100
AcDbEntity
  8
0
100
AcDbBlockEnd
  0
BLOCK
  5
1049E
330
10494
100
AcDbEntity
  8
0
100
AcDbBlockBegin
  2
*D74
 70
     1
 10
0.0
 20
0.0
 30
0.0
  3
*D74
  1

  0
LINE
  5
10F9A
330
10494
100
AcDbEntity
  8
外形線
 62
     2
370
    -2
100
AcDbLine
 10
17.156988234327
 20
341.2462807614409
 30
0.0
 11
56.3632770520039
 21
341.2462807614409
 31
0.0
  0
LINE
  5
10F9B
330
10494
100
AcDbEntity
  8
外形線
 62
     2
370
    -2
100
AcDbLine
 10
15.95698823432714
 20
318.5462807614408
 30
0.0
 11
56.36327705200389
 21
318.5462807614408
 31
0.0
  0
LINE
  5
10F9C
330
10494
100
AcDbEntity
  8
外形線
 62
     2
370
    -2
100
AcDbLine
 10
55.1132770520039
 20
338.7462807614408
 30
0.0
 11
55.11327705200389
 21
321.0462807614407
 31
0.0
  0
INSERT
  5
10F9D
330
10494
100
AcDbEntity
  8
外形線
 62
     2
370
    -2
100
AcDbBlockReference
  2
_OPEN
 10
55.1132770520039
 20
341.2462807614409
 30
0.0
 41
2.5
 42
2.5
 43
2.5
 50
90.0
  0
INSERT
  5
10F9E
330
10494
100
AcDbEntity
  8
外形線
 62
     2
370
    -2
100
AcDbBlockReference
  2
_OPEN
 10
55.11327705200389
 20
318.5462807614408
 30
0.0
 41
2.5
 42
2.5
 43
2.5
 50
270.0
  0
MTEXT
  5
10F9F
330
10494
100
AcDbEntity
  8
外形線
 62
     6
100
AcDbMText
 10
53.23827705200383
 20
329.8962807614409
 30
0.0
 40
2.5
 41
0.0
 71
     5
 72
     1
  1
22.7
  7
STYLE3
 11
0.0000000000000001
 21
1.0
 31
0.0
 73
     1
 44
1.0
  0
POINT
  5
10FA0
330
10494
100
AcDbEntity
  8
DEFPOINTS
 62
     0
100
AcDbPoint
 10
17.156988234327
 20
341.2462807614409
 30
0.0
  0
POINT
  5
10FA1
330
10494
100
AcDbEntity
  8
DEFPOINTS
 62
     0
100
AcDbPoint
 10
15.95698823432714
 20
318.5462807614408
 30
0.0
  0
POINT
  5
10FA2
330
10494
100
AcDbEntity
  8
DEFPOINTS
 62
     0
100
AcDbPoint
 10
55.11327705200389
 20
318.5462807614408
 30
0.0
  0
ENDBLK
  5
1049F
330
10494
100
AcDbEntity
  8
0
100
AcDbBlockEnd
  0
BLOCK
  5
104AB
330
104A1
100
AcDbEntity
  8
0
100
AcDbBlockBegin
  2
*D75
 70
     1
 10
0.0
 20
0.0
 30
0.0
  3
*D75
  1

  0
LINE
  5
10F91
330
104A1
100
AcDbEntity
  8
外形線
 62
     2
370
    -2
100
AcDbLine
 10
15.95698823432714
 20
318.5462807614408
 30
0.0
 11
56.36327705200388
 21
318.5462807614408
 31
0.0
  0
LINE
  5
10F92
330
104A1
100
AcDbEntity
  8
外形線
 62
     2
370
    -2
100
AcDbLine
 10
13.70698823432697
 20
309.5462807614409
 30
0.0
 11
56.36327705200388
 21
309.5462807614409
 31
0.0
  0
LINE
  5
10F93
330
104A1
100
AcDbEntity
  8
外形線
 62
     2
370
    -2
100
AcDbLine
 10
55.11327705200388
 20
316.0462807614408
 30
0.0
 11
55.11327705200388
 21
312.0462807614409
 31
0.0
  0
INSERT
  5
10F94
330
104A1
100
AcDbEntity
  8
外形線
 62
     2
370
    -2
100
AcDbBlockReference
  2
_OPEN
 10
55.11327705200388
 20
318.5462807614408
 30
0.0
 41
2.5
 42
2.5
 43
2.5
 50
90.0
  0
INSERT
  5
10F95
330
104A1
100
AcDbEntity
  8
外形線
 62
     2
370
    -2
100
AcDbBlockReference
  2
_OPEN
 10
55.11327705200388
 20
309.5462807614409
 30
0.0
 41
2.5
 42
2.5
 43
2.5
 50
270.0
  0
MTEXT
  5
10F96
330
104A1
100
AcDbEntity
  8
外形線
 62
     6
100
AcDbMText
 10
53.23827705200383
 20
314.0462807614408
 30
0.0
 40
2.5
 41
0.0
 71
     5
 72
     1
  1
9
  7
STYLE3
 11
0.0000000000000001
 21
1.0
 31
0.0
 73
     1
 44
1.0
  0
POINT
  5
10F97
330
104A1
100
AcDbEntity
  8
DEFPOINTS
 62
     0
100
AcDbPoint
 10
15.95698823432714
 20
318.5462807614408
 30
0.0
  0
POINT
  5
10F98
330
104A1
100
AcDbEntity
  8
DEFPOINTS
 62
     0
100
AcDbPoint
 10
13.70698823432697
 20
309.5462807614409
 30
0.0
  0
POINT
  5
10F99
330
104A1
100
AcDbEntity
  8
DEFPOINTS
 62
     0
100
AcDbPoint
 10
55.11327705200388
 20
309.5462807614409
 30
0.0
  0
ENDBLK
  5
104AC
330
104A1
100
AcDbEntity
  8
0
100
AcDbBlockEnd
  0
BLOCK
  5
104BC
330
104B2
100
AcDbEntity
  8
0
100
AcDbBlockBegin
  2
*D76
 70
     1
 10
0.0
 20
0.0
 30
0.0
  3
*D76
  1

  0
LINE
  5
10F6D
330
104B2
100
AcDbEntity
  8
外形線
 62
     2
370
    -2
100
AcDbLine
 10
52.07829193782868
 20
399.5462807614408
 30
0.0
 11
63.85879246103314
 21
399.5462807614408
 31
0.0
  0
LINE
  5
10F6E
330
104B2
100
AcDbEntity
  8
外形線
 62
     2
370
    -2
100
AcDbLine
 10
17.20698823432712
 20
461.5462807614408
 30
0.0
 11
63.85879246103316
 21
461.5462807614408
 31
0.0
  0
LINE
  5
10F6F
330
104B2
100
AcDbEntity
  8
外形線
 62
     2
370
    -2
100
AcDbLine
 10
62.60879246103315
 20
402.0462807614408
 30
0.0
 11
62.60879246103316
 21
459.0462807614407
 31
0.0
  0
INSERT
  5
10F70
330
104B2
100
AcDbEntity
  8
外形線
 62
     2
370
    -2
100
AcDbBlockReference
  2
_OPEN
 10
62.60879246103314
 20
399.5462807614408
 30
0.0
 41
2.5
 42
2.5
 43
2.5
 50
270.0
  0
INSERT
  5
10F71
330
104B2
100
AcDbEntity
  8
外形線
 62
     2
370
    -2
100
AcDbBlockReference
  2
_OPEN
 10
62.60879246103316
 20
461.5462807614408
 30
0.0
 41
2.5
 42
2.5
 43
2.5
 50
90.0
  0
MTEXT
  5
10F72
330
104B2
100
AcDbEntity
  8
外形線
 62
     6
100
AcDbMText
 10
60.73379246103309
 20
426.4885678751253
 30
0.0
 40
2.5
 41
0.0
 71
     5
 72
     1
  1
62
  7
STYLE3
 11
0.0000000000000001
 21
1.0
 31
0.0
 73
     1
 44
1.0
  0
POINT
  5
10F73
330
104B2
100
AcDbEntity
  8
DEFPOINTS
 62
     0
100
AcDbPoint
 10
52.07829193782868
 20
399.5462807614408
 30
0.0
  0
POINT
  5
10F74
330
104B2
100
AcDbEntity
  8
DEFPOINTS
 62
     0
100
AcDbPoint
 10
17.20698823432712
 20
461.5462807614408
 30
0.0
  0
POINT
  5
10F75
330
104B2
100
AcDbEntity
  8
DEFPOINTS
 62
     0
100
AcDbPoint
 10
62.60879246103316
 20
461.5462807614408
 30
0.0
  0
ENDBLK
  5
104BD
330
104B2
100
AcDbEntity
  8
0
100
AcDbBlockEnd
  0
BLOCK
  5
104C9
330
104BF
100
AcDbEntity
  8
0
100
AcDbBlockBegin
  2
*D77
 70
     1
 10
0.0
 20
0.0
 30
0.0
  3
*D77
  1

  0
LINE
  5
10F64
330
104BF
100
AcDbEntity
  8
外形線
 62
     2
370
    -2
100
AcDbLine
 10
13.70698823432711
 20
309.5462807614409
 30
0.0
 11
72.69844735563518
 21
309.5462807614409
 31
0.0
  0
LINE
  5
10F65
330
104BF
100
AcDbEntity
  8
外形線
 62
     2
370
    -2
100
AcDbLine
 10
17.20698823432712
 20
461.5462807614408
 30
0.0
 11
72.69844735563521
 21
461.5462807614408
 31
0.0
  0
LINE
  5
10F66
330
104BF
100
AcDbEntity
  8
外形線
 62
     2
370
    -2
100
AcDbLine
 10
71.44844735563518
 20
312.0462807614409
 30
0.0
 11
71.44844735563521
 21
459.0462807614407
 31
0.0
  0
INSERT
  5
10F67
330
104BF
100
AcDbEntity
  8
外形線
 62
     2
370
    -2
100
AcDbBlockReference
  2
_OPEN
 10
71.44844735563518
 20
309.5462807614409
 30
0.0
 41
2.5
 42
2.5
 43
2.5
 50
270.0
  0
INSERT
  5
10F68
330
104BF
100
AcDbEntity
  8
外形線
 62
     2
370
    -2
100
AcDbBlockReference
  2
_OPEN
 10
71.44844735563521
 20
461.5462807614408
 30
0.0
 41
2.5
 42
2.5
 43
2.5
 50
90.0
  0
MTEXT
  5
10F69
330
104BF
100
AcDbEntity
  8
外形線
 62
     6
100
AcDbMText
 10
69.57344735563514
 20
385.5462807614409
 30
0.0
 40
2.5
 41
0.0
 71
     5
 72
     1
  1
152
  7
STYLE3
 11
0.0000000000000001
 21
1.0
 31
0.0
 73
     1
 44
1.0
  0
POINT
  5
10F6A
330
104BF
100
AcDbEntity
  8
DEFPOINTS
 62
     0
100
AcDbPoint
 10
13.70698823432711
 20
309.5462807614409
 30
0.0
  0
POINT
  5
10F6B
330
104BF
100
AcDbEntity
  8
DEFPOINTS
 62
     0
100
AcDbPoint
 10
17.20698823432712
 20
461.5462807614408
 30
0.0
  0
POINT
  5
10F6C
330
104BF
100
AcDbEntity
  8
DEFPOINTS
 62
     0
100
AcDbPoint
 10
71.44844735563521
 20
461.5462807614408
 30
0.0
  0
ENDBLK
  5
104CA
330
104BF
100
AcDbEntity
  8
0
100
AcDbBlockEnd
  0
BLOCK
  5
106AD
330
106A3
100
AcDbEntity
  8
0
100
AcDbBlockBegin
  2
*D78
 70
     1
 10
0.0
 20
0.0
 30
0.0
  3
*D78
  1

  0
LINE
  5
10F88
330
106A3
100
AcDbEntity
  8
外形線
 62
     2
370
    -2
100
AcDbLine
 10
52.07829193782868
 20
399.5462807614408
 30
0.0
 11
63.85879246103313
 21
399.5462807614408
 31
0.0
  0
LINE
  5
10F89
330
106A3
100
AcDbEntity
  8
外形線
 62
     2
370
    -2
100
AcDbLine
 10
13.70698823432711
 20
309.5462807614409
 30
0.0
 11
63.85879246103312
 21
309.5462807614409
 31
0.0
  0
LINE
  5
10F8A
330
106A3
100
AcDbEntity
  8
外形線
 62
     2
370
    -2
100
AcDbLine
 10
62.60879246103313
 20
397.0462807614408
 30
0.0
 11
62.60879246103312
 21
312.0462807614409
 31
0.0
  0
INSERT
  5
10F8B
330
106A3
100
AcDbEntity
  8
外形線
 62
     2
370
    -2
100
AcDbBlockReference
  2
_OPEN
 10
62.60879246103313
 20
399.5462807614408
 30
0.0
 41
2.5
 42
2.5
 43
2.5
 50
90.0
  0
INSERT
  5
10F8C
330
106A3
100
AcDbEntity
  8
外形線
 62
     2
370
    -2
100
AcDbBlockReference
  2
_OPEN
 10
62.60879246103312
 20
309.5462807614409
 30
0.0
 41
2.5
 42
2.5
 43
2.5
 50
270.0
  0
MTEXT
  5
10F8D
330
106A3
100
AcDbEntity
  8
外形線
 62
     6
100
AcDbMText
 10
60.73379246103307
 20
354.5462807614409
 30
0.0
 40
2.5
 41
0.0
 71
     5
 72
     1
  1
90
  7
STYLE3
 11
0.0000000000000001
 21
1.0
 31
0.0
 73
     1
 44
1.0
  0
POINT
  5
10F8E
330
106A3
100
AcDbEntity
  8
DEFPOINTS
 62
     0
100
AcDbPoint
 10
52.07829193782868
 20
399.5462807614408
 30
0.0
  0
POINT
  5
10F8F
330
106A3
100
AcDbEntity
  8
DEFPOINTS
 62
     0
100
AcDbPoint
 10
13.70698823432711
 20
309.5462807614409
 30
0.0
  0
POINT
  5
10F90
330
106A3
100
AcDbEntity
  8
DEFPOINTS
 62
     0
100
AcDbPoint
 10
62.60879246103312
 20
309.5462807614409
 30
0.0
  0
ENDBLK
  5
106AE
330
106A3
100
AcDbEntity
  8
0
100
AcDbBlockEnd
  0
BLOCK
  5
106E2
330
106D6
100
AcDbEntity
  8
0
100
AcDbBlockBegin
  2
*D79
 70
     1
 10
0.0
 20
0.0
 30
0.0
  3
*D79
  1

  0
LINE
  5
10FD4
330
106D6
100
AcDbEntity
  8
外形線
 62
     2
370
    -2
100
AcDbLine
 10
146.4411574458277
 20
409.0156538419109
 30
0.0
 11
146.4411574458277
 21
418.1371672691623
 31
0.0
  0
LINE
  5
10FD5
330
106D6
100
AcDbEntity
  8
外形線
 62
     2
370
    -2
100
AcDbLine
 10
151.4411574458277
 20
408.1240378010961
 30
0.0
 11
151.4411574458277
 21
418.1371672691623
 31
0.0
  0
LINE
  5
10FD6
330
106D6
100
AcDbEntity
  8
外形線
 62
     2
370
    -2
100
AcDbLine
 10
143.9411574458277
 20
416.8871672691623
 30
0.0
 11
141.4411574458276
 21
416.8871672691623
 31
0.0
  0
LINE
  5
10FD7
330
106D6
100
AcDbEntity
  8
外形線
 62
     2
370
    -2
100
AcDbLine
 10
153.9411574458276
 20
416.8871672691623
 30
0.0
 11
159.3578241124943
 21
416.8871672691623
 31
0.0
  0
LINE
  5
10FD8
330
106D6
100
AcDbEntity
  8
外形線
 62
     2
370
    -2
100
AcDbLine
 10
146.4411574458277
 20
416.8871672691623
 30
0.0
 11
151.4411574458277
 21
416.8871672691623
 31
0.0
  0
INSERT
  5
10FD9
330
106D6
100
AcDbEntity
  8
外形線
 62
     2
370
    -2
100
AcDbBlockReference
  2
_OPEN
 10
146.4411574458277
 20
416.8871672691623
 30
0.0
 41
2.5
 42
2.5
 43
2.5
  0
INSERT
  5
10FDA
330
106D6
100
AcDbEntity
  8
外形線
 62
     2
370
    -2
100
AcDbBlockReference
  2
_OPEN
 10
151.4411574458277
 20
416.8871672691623
 30
0.0
 41
2.5
 42
2.5
 43
2.5
 50
180.0
  0
MTEXT
  5
10FDB
330
106D6
100
AcDbEntity
  8
外形線
 62
     6
100
AcDbMText
 10
157.899490779161
 20
418.7621672691624
 30
0.0
 40
2.5
 41
0.0
 71
     5
 72
     1
  1
5
  7
STYLE3
 73
     1
 44
1.0
  0
POINT
  5
10FDC
330
106D6
100
AcDbEntity
  8
DEFPOINTS
 62
     0
100
AcDbPoint
 10
146.4411574458277
 20
409.0156538419109
 30
0.0
  0
POINT
  5
10FDD
330
106D6
100
AcDbEntity
  8
DEFPOINTS
 62
     0
100
AcDbPoint
 10
151.4411574458277
 20
408.1240378010961
 30
0.0
  0
POINT
  5
10FDE
330
106D6
100
AcDbEntity
  8
DEFPOINTS
 62
     0
100
AcDbPoint
 10
151.4411574458277
 20
416.8871672691623
 30
0.0
  0
ENDBLK
  5
106E3
330
106D6
100
AcDbEntity
  8
0
100
AcDbBlockEnd
  0
BLOCK
  5
106F1
330
106E5
100
AcDbEntity
  8
0
100
AcDbBlockBegin
  2
*D80
 70
     1
 10
0.0
 20
0.0
 30
0.0
  3
*D80
  1

  0
LINE
  5
10FB5
330
106E5
100
AcDbEntity
  8
外形線
 62
     2
370
    -2
100
AcDbLine
 10
11.20698823432698
 20
325.8776659167126
 30
0.0
 11
11.20698823432698
 21
327.3015342908422
 31
0.0
  0
LINE
  5
10FB6
330
106E5
100
AcDbEntity
  8
外形線
 62
     2
370
    -2
100
AcDbLine
 10
16.20698823432698
 20
325.8776659167125
 30
0.0
 11
16.20698823432698
 21
327.3015342908422
 31
0.0
  0
LINE
  5
10FB7
330
106E5
100
AcDbEntity
  8
外形線
 62
     2
370
    -2
100
AcDbLine
 10
8.706988234326985
 20
326.0515342908422
 30
0.0
 11
6.206988234326985
 21
326.0515342908422
 31
0.0
  0
LINE
  5
10FB8
330
106E5
100
AcDbEntity
  8
外形線
 62
     2
370
    -2
100
AcDbLine
 10
18.70698823432698
 20
326.0515342908422
 30
0.0
 11
26.98079775813651
 21
326.0515342908422
 31
0.0
  0
LINE
  5
10FB9
330
106E5
100
AcDbEntity
  8
外形線
 62
     2
370
    -2
100
AcDbLine
 10
11.20698823432698
 20
326.0515342908422
 30
0.0
 11
16.20698823432698
 21
326.0515342908422
 31
0.0
  0
INSERT
  5
10FBA
330
106E5
100
AcDbEntity
  8
外形線
 62
     2
370
    -2
100
AcDbBlockReference
  2
_OPEN
 10
11.20698823432698
 20
326.0515342908422
 30
0.0
 41
2.5
 42
2.5
 43
2.5
  0
INSERT
  5
10FBB
330
106E5
100
AcDbEntity
  8
外形線
 62
     2
370
    -2
100
AcDbBlockReference
  2
_OPEN
 10
16.20698823432698
 20
326.0515342908422
 30
0.0
 41
2.5
 42
2.5
 43
2.5
 50
180.0
  0
MTEXT
  5
10FBC
330
106E5
100
AcDbEntity
  8
外形線
 62
     6
100
AcDbMText
 10
24.09389299623175
 20
327.9265342908422
 30
0.0
 40
2.5
 41
0.0
 71
     5
 72
     1
  1
φ5
  7
STYLE3
 73
     1
 44
1.0
  0
POINT
  5
10FBD
330
106E5
100
AcDbEntity
  8
DEFPOINTS
 62
     0
100
AcDbPoint
 10
11.20698823432698
 20
325.8776659167126
 30
0.0
  0
POINT
  5
10FBE
330
106E5
100
AcDbEntity
  8
DEFPOINTS
 62
     0
100
AcDbPoint
 10
16.20698823432698
 20
325.8776659167125
 30
0.0
  0
POINT
  5
10FBF
330
106E5
100
AcDbEntity
  8
DEFPOINTS
 62
     0
100
AcDbPoint
 10
16.20698823432698
 20
326.0515342908422
 30
0.0
  0
ENDBLK
  5
106F2
330
106E5
100
AcDbEntity
  8
0
100
AcDbBlockEnd
  0
ENDSEC
  0
SECTION
  2
ENTITIES
  0
TEXT
  5
9C20
330
18
100
AcDbEntity
  8
文字
100
AcDbText
 10
74.09305716758581
 20
255.9674804902871
 30
0.0
 40
3.0
  1

  7
STYLE3
100
AcDbText
  0
MTEXT
  5
C17A
330
18
100
AcDbEntity
  8
寸法線
 62
     6
100
AcDbMText
 10
64.12043077539419
 20
409.863683698069
 30
0.0
 40
2.5
 41
0.0
 71
     7
 72
     1
  1
\A1;
  7
STYLE3
 73
     1
 44
1.0
  0
LWPOLYLINE
  5
F5A1
330
18
100
AcDbEntity
  8
外形線
100
AcDbPolyline
 90
        4
 70
     1
 43
0.4
 10
261.3468420062388
 20
242.9382862785077
 10
-116.6531579937611
 20
242.9382862785077
 10
-116.6531579937611
 20
524.9382862785076
 10
261.3468420062388
 20
524.9382862785076
  0
LINE
  5
F8DC
330
18
100
AcDbEntity
  8
中心線
100
AcDbLine
 10
135.4919573985968
 20
466.4286105967264
 30
0.0
 11
135.4919573985968
 21
306.0815078925077
 31
0.0
  0
LINE
  5
F913
330
18
100
AcDbEntity
  8
外形線
100
AcDbLine
 10
17.70698823432698
 20
368.5579114200142
 30
0.0
 11
17.70698823432698
 21
346.2462807614409
 31
0.0
  0
LINE
  5
F914
330
18
100
AcDbEntity
  8
外形線
100
AcDbLine
 10
9.706988234326985
 20
368.5488054362337
 30
0.0
 11
9.706988234326985
 21
346.2462807614409
 31
0.0
  0
LINE
  5
F915
330
18
100
AcDbEntity
  8
外形線
100
AcDbLine
 10
10.256988234327
 20
341.2462807614409
 30
0.0
 11
17.156988234327
 21
341.2462807614409
 31
0.0
  0
LINE
  5
F916
330
18
100
AcDbEntity
  8
外形線
100
AcDbLine
 10
9.706988234326985
 20
346.2462807614409
 30
0.0
 11
17.70698823432698
 21
346.2462807614409
 31
0.0
  0
LINE
  5
F917
330
18
100
AcDbEntity
  8
外形線
100
AcDbLine
 10
17.45698823432701
 20
346.2462807614409
 30
0.0
 11
17.45698823432701
 21
341.5462807614409
 31
0.0
  0
LINE
  5
F918
330
18
100
AcDbEntity
  8
外形線
100
AcDbLine
 10
9.956988234326985
 20
346.2462807614409
 30
0.0
 11
9.956988234326985
 21
341.5462807614409
 31
0.0
  0
LINE
  5
F919
330
18
100
AcDbEntity
  8
外形線
100
AcDbLine
 10
9.956988234326985
 20
341.5462807614409
 30
0.0
 11
10.256988234327
 21
341.2462807614409
 31
0.0
  0
LINE
  5
F91A
330
18
100
AcDbEntity
  8
外形線
100
AcDbLine
 10
17.156988234327
 20
341.2462807614409
 30
0.0
 11
17.45698823432701
 21
341.5462807614409
 31
0.0
  0
LINE
  5
F91B
330
18
100
AcDbEntity
  8
外形線
100
AcDbLine
 10
16.20698823432698
 20
341.2462807614409
 30
0.0
 11
16.20698823432697
 21
318.8462807614409
 31
0.0
  0
LINE
  5
F91C
330
18
100
AcDbEntity
  8
外形線
100
AcDbLine
 10
11.20698823432698
 20
341.2462807614409
 30
0.0
 11
11.20698823432697
 21
318.8462807614409
 31
0.0
  0
POINT
  5
F91D
330
18
100
AcDbEntity
  8
DEFPOINTS
  6
ByBlock
 62
     0
100
AcDbPoint
 10
13.70698823432697
 20
309.5462807614409
 30
0.0
  0
POINT
  5
F91E
330
18
100
AcDbEntity
  8
DEFPOINTS
  6
ByBlock
 62
     0
100
AcDbPoint
 10
13.70698823432697
 20
309.5462807614409
 30
0.0
  0
LINE
  5
F921
330
18
100
AcDbEntity
  8
外形線
100
AcDbLine
 10
11.45698823432711
 20
318.546280761441
 30
0.0
 11
15.95698823432714
 21
318.5462807614408
 31
0.0
  0
LINE
  5
F922
330
18
100
AcDbEntity
  8
外形線
100
AcDbLine
 10
12.4069882343271
 20
310.5462807614409
 30
0.0
 11
15.00698823432712
 21
310.5462807614409
 31
0.0
  0
POINT
  5
F928
330
18
100
AcDbEntity
  8
DEFPOINTS
  6
ByBlock
 62
     0
100
AcDbPoint
 10
13.70698823432697
 20
309.546280761441
 30
0.0
  0
LINE
  5
F92B
330
18
100
AcDbEntity
  8
外形線
 48
0.5
100
AcDbLine
 10
11.20698823432714
 20
318.046280761441
 30
0.0
 11
11.20698823432714
 21
317.146280761441
 31
0.0
  0
LINE
  5
F93A
330
18
100
AcDbEntity
  8
外形線
 48
0.5
100
AcDbLine
 10
16.20698823432708
 20
318.0462807614409
 30
0.0
 11
16.20698823432708
 21
317.146280761441
 31
0.0
  0
LINE
  5
F962
330
18
100
AcDbEntity
  8
外形線
100
AcDbLine
 10
10.20698823432713
 20
461.5462807614408
 30
0.0
 11
17.20698823432712
 21
461.5462807614408
 31
0.0
  0
LINE
  5
F963
330
18
100
AcDbEntity
  8
外形線
100
AcDbLine
 10
18.20698823432713
 20
460.5462807614408
 30
0.0
 11
18.20698823432713
 21
439.0462807614408
 31
0.0
  0
LINE
  5
F964
330
18
100
AcDbEntity
  8
外形線
100
AcDbLine
 10
9.206988234327127
 20
460.5462807614408
 30
0.0
 11
9.206988234327127
 21
439.0462807614408
 31
0.0
  0
LINE
  5
F965
330
18
100
AcDbEntity
  8
外形線
100
AcDbLine
 10
9.206988234327127
 20
460.5462807614408
 30
0.0
 11
10.20698823432713
 21
461.5462807614408
 31
0.0
  0
LINE
  5
F966
330
18
100
AcDbEntity
  8
外形線
100
AcDbLine
 10
17.20698823432712
 20
461.5462807614408
 30
0.0
 11
18.20698823432713
 21
460.5462807614408
 31
0.0
  0
LINE
  5
F967
330
18
100
AcDbEntity
  8
外形線
100
AcDbLine
 10
9.206988234327127
 20
460.5462807614408
 30
0.0
 11
18.20698823432713
 21
460.5462807614408
 31
0.0
  0
LINE
  5
F968
330
18
100
AcDbEntity
  8
外形線
100
AcDbLine
 10
9.206988234327127
 20
433.5462807614407
 30
0.0
 11
18.20698823432713
 21
433.5462807614407
 31
0.0
  0
LINE
  5
F969
330
18
100
AcDbEntity
  8
外形線
100
AcDbLine
 10
9.206988234327127
 20
439.0462807614408
 30
0.0
 11
18.20698823432713
 21
439.0462807614408
 31
0.0
  0
LINE
  5
F96A
330
18
100
AcDbEntity
  8
外形線
100
AcDbLine
 10
18.70698823432713
 20
438.5462807614408
 30
0.0
 11
18.70698823432713
 21
434.0462807614407
 31
0.0
  0
LINE
  5
F96B
330
18
100
AcDbEntity
  8
外形線
100
AcDbLine
 10
8.706988234327127
 20
438.5462807614408
 30
0.0
 11
8.706988234327127
 21
434.0462807614407
 31
0.0
  0
LINE
  5
F96C
330
18
100
AcDbEntity
  8
外形線
100
AcDbLine
 10
8.706988234327127
 20
438.5462807614408
 30
0.0
 11
9.206988234327127
 21
439.0462807614408
 31
0.0
  0
LINE
  5
F96D
330
18
100
AcDbEntity
  8
外形線
100
AcDbLine
 10
18.20698823432713
 20
439.0462807614408
 30
0.0
 11
18.70698823432713
 21
438.5462807614408
 31
0.0
  0
LINE
  5
F96E
330
18
100
AcDbEntity
  8
外形線
100
AcDbLine
 10
18.70698823432713
 20
434.0462807614407
 30
0.0
 11
18.20698823432713
 21
433.5462807614407
 31
0.0
  0
LINE
  5
F96F
330
18
100
AcDbEntity
  8
外形線
100
AcDbLine
 10
9.206988234327127
 20
433.5462807614407
 30
0.0
 11
8.706988234327127
 21
434.0462807614407
 31
0.0
  0
LINE
  5
F970
330
18
100
AcDbEntity
  8
外形線
100
AcDbLine
 10
18.20698823432713
 20
433.5462807614408
 30
0.0
 11
18.20698823432713
 21
430.4705835021656
 31
0.0
  0
LINE
  5
F971
330
18
100
AcDbEntity
  8
外形線
100
AcDbLine
 10
9.206988234327127
 20
433.5462807614408
 30
0.0
 11
9.206988234327127
 21
430.4705835021656
 31
0.0
  0
LINE
  5
F972
330
18
100
AcDbEntity
  8
外形線
100
AcDbLine
 10
8.706988234327127
 20
438.5462807614408
 30
0.0
 11
18.70698823432713
 21
438.5462807614408
 31
0.0
  0
LINE
  5
F973
330
18
100
AcDbEntity
  8
外形線
100
AcDbLine
 10
8.706988234327127
 20
434.0462807614407
 30
0.0
 11
18.70698823432713
 21
434.0462807614407
 31
0.0
  0
LINE
  5
F974
330
18
100
AcDbEntity
  8
寸法線
100
AcDbLine
 10
18.10698823432713
 20
438.5462807614408
 30
0.0
 11
18.10698823432713
 21
434.0462807614407
 31
0.0
  0
LINE
  5
F975
330
18
100
AcDbEntity
  8
寸法線
100
AcDbLine
 10
17.40698823432714
 20
438.5462807614408
 30
0.0
 11
17.40698823432714
 21
434.0462807614407
 31
0.0
  0
LINE
  5
F976
330
18
100
AcDbEntity
  8
寸法線
100
AcDbLine
 10
16.60698823432713
 20
438.5462807614408
 30
0.0
 11
16.60698823432713
 21
434.0462807614407
 31
0.0
  0
LINE
  5
F977
330
18
100
AcDbEntity
  8
寸法線
100
AcDbLine
 10
15.70698823432713
 20
438.5462807614408
 30
0.0
 11
15.70698823432713
 21
434.0462807614407
 31
0.0
  0
LINE
  5
F978
330
18
100
AcDbEntity
  8
寸法線
100
AcDbLine
 10
14.70698823432712
 20
438.5462807614408
 30
0.0
 11
14.70698823432712
 21
434.0462807614407
 31
0.0
  0
POINT
  5
F979
330
18
100
AcDbEntity
  8
DEFPOINTS
  6
ByBlock
 62
     0
100
AcDbPoint
 10
17.20698823432712
 20
461.5462807614408
 30
0.0
  0
LINE
  5
F9AE
330
18
100
AcDbEntity
  8
外形線
100
AcDbLine
 10
131.9919573985968
 20
461.5462807614408
 30
0.0
 11
138.9919573985968
 21
461.5462807614408
 31
0.0
  0
LINE
  5
F9AF
330
18
100
AcDbEntity
  8
外形線
100
AcDbLine
 10
139.9919573985968
 20
460.5462807614408
 30
0.0
 11
139.9919573985968
 21
439.0462807614408
 31
0.0
  0
LINE
  5
F9B0
330
18
100
AcDbEntity
  8
外形線
100
AcDbLine
 10
130.9919573985968
 20
460.5462807614408
 30
0.0
 11
130.9919573985968
 21
439.0462807614408
 31
0.0
  0
LINE
  5
F9B1
330
18
100
AcDbEntity
  8
外形線
100
AcDbLine
 10
130.9919573985968
 20
460.5462807614408
 30
0.0
 11
131.9919573985968
 21
461.5462807614408
 31
0.0
  0
LINE
  5
F9B2
330
18
100
AcDbEntity
  8
外形線
100
AcDbLine
 10
138.9919573985968
 20
461.5462807614408
 30
0.0
 11
139.9919573985968
 21
460.5462807614408
 31
0.0
  0
LINE
  5
F9B3
330
18
100
AcDbEntity
  8
外形線
100
AcDbLine
 10
130.9919573985968
 20
460.5462807614408
 30
0.0
 11
139.9919573985968
 21
460.5462807614408
 31
0.0
  0
LINE
  5
F9B4
330
18
100
AcDbEntity
  8
外形線
100
AcDbLine
 10
130.9919573985968
 20
433.5462807614407
 30
0.0
 11
139.9919573985968
 21
433.5462807614407
 31
0.0
  0
LINE
  5
F9B5
330
18
100
AcDbEntity
  8
外形線
100
AcDbLine
 10
130.9919573985968
 20
439.0462807614408
 30
0.0
 11
139.9919573985968
 21
439.0462807614408
 31
0.0
  0
LINE
  5
F9B6
330
18
100
AcDbEntity
  8
外形線
100
AcDbLine
 10
140.4919573985968
 20
438.5462807614408
 30
0.0
 11
140.4919573985968
 21
434.0462807614407
 31
0.0
  0
LINE
  5
F9B7
330
18
100
AcDbEntity
  8
外形線
100
AcDbLine
 10
130.4919573985968
 20
438.5462807614408
 30
0.0
 11
130.4919573985968
 21
434.0462807614407
 31
0.0
  0
LINE
  5
F9B8
330
18
100
AcDbEntity
  8
外形線
100
AcDbLine
 10
130.4919573985968
 20
438.5462807614408
 30
0.0
 11
130.9919573985968
 21
439.0462807614408
 31
0.0
  0
LINE
  5
F9B9
330
18
100
AcDbEntity
  8
外形線
100
AcDbLine
 10
139.9919573985968
 20
439.0462807614408
 30
0.0
 11
140.4919573985968
 21
438.5462807614408
 31
0.0
  0
LINE
  5
F9BA
330
18
100
AcDbEntity
  8
外形線
100
AcDbLine
 10
140.4919573985968
 20
434.0462807614407
 30
0.0
 11
139.9919573985968
 21
433.5462807614407
 31
0.0
  0
LINE
  5
F9BB
330
18
100
AcDbEntity
  8
外形線
100
AcDbLine
 10
130.9919573985968
 20
433.5462807614407
 30
0.0
 11
130.4919573985968
 21
434.0462807614407
 31
0.0
  0
LINE
  5
F9BC
330
18
100
AcDbEntity
  8
外形線
100
AcDbLine
 10
139.9919573985968
 20
433.5462807614408
 30
0.0
 11
139.9919573985968
 21
431.0462807614414
 31
0.0
  0
LINE
  5
F9BD
330
18
100
AcDbEntity
  8
外形線
100
AcDbLine
 10
130.9919573985968
 20
433.5462807614408
 30
0.0
 11
130.9919573985968
 21
431.0462807614406
 31
0.0
  0
LINE
  5
F9BE
330
18
100
AcDbEntity
  8
外形線
100
AcDbLine
 10
130.4919573985968
 20
438.5462807614408
 30
0.0
 11
140.4919573985968
 21
438.5462807614408
 31
0.0
  0
LINE
  5
F9BF
330
18
100
AcDbEntity
  8
外形線
100
AcDbLine
 10
130.4919573985968
 20
434.0462807614407
 30
0.0
 11
140.4919573985968
 21
434.0462807614407
 31
0.0
  0
LINE
  5
F9C0
330
18
100
AcDbEntity
  8
寸法線
100
AcDbLine
 10
139.8919573985968
 20
438.5462807614408
 30
0.0
 11
139.8919573985968
 21
434.0462807614407
 31
0.0
  0
LINE
  5
F9C1
330
18
100
AcDbEntity
  8
寸法線
100
AcDbLine
 10
139.1919573985968
 20
438.5462807614408
 30
0.0
 11
139.1919573985968
 21
434.0462807614407
 31
0.0
  0
LINE
  5
F9C2
330
18
100
AcDbEntity
  8
寸法線
100
AcDbLine
 10
138.3919573985968
 20
438.5462807614408
 30
0.0
 11
138.3919573985968
 21
434.0462807614407
 31
0.0
  0
LINE
  5
F9C3
330
18
100
AcDbEntity
  8
寸法線
100
AcDbLine
 10
137.4919573985968
 20
438.5462807614408
 30
0.0
 11
137.4919573985968
 21
434.0462807614407
 31
0.0
  0
LINE
  5
F9C4
330
18
100
AcDbEntity
  8
寸法線
100
AcDbLine
 10
136.4919573985968
 20
438.5462807614408
 30
0.0
 11
136.4919573985968
 21
434.0462807614407
 31
0.0
  0
POINT
  5
F9C5
330
18
100
AcDbEntity
  8
DEFPOINTS
  6
ByBlock
 62
     0
100
AcDbPoint
 10
138.9919573985968
 20
461.5462807614408
 30
0.0
  0
LINE
  5
F9C6
330
18
100
AcDbEntity
  8
中心線
100
AcDbLine
 10
106.3965998234342
 20
399.5462807614408
 30
0.0
 11
167.0802888665094
 21
399.5462807614408
 31
0.0
  0
CIRCLE
  5
F9E5
330
18
100
AcDbEntity
  8
外形線
100
AcDbCircle
 10
155.6919573985968
 20
399.5462807614408
 30
0.0
 40
3.25
  0
LINE
  5
F9EA
330
18
100
AcDbEntity
  8
外形線
100
AcDbLine
 10
128.9919573985968
 20
430.5962807614407
 30
0.0
 11
128.9919573985968
 21
368.496280761441
 31
0.0
  0
LINE
  5
F9EB
330
18
100
AcDbEntity
  8
外形線
100
AcDbLine
 10
142.9919573985968
 20
430.7962807614408
 30
0.0
 11
142.9919573985968
 21
368.2962807614407
 31
0.0
  0
LINE
  5
FA17
330
18
100
AcDbEntity
  8
中心線
 48
0.5
100
AcDbLine
 10
155.6919573985968
 20
411.1346122293534
 30
0.0
 11
155.6919573985968
 21
387.9579492935281
 31
0.0
  0
LINE
  5
FAD0
330
18
100
AcDbEntity
  8
外形線
100
AcDbLine
 10
130.9919573985968
 20
431.0462807614406
 30
0.0
 11
139.9919573985968
 21
431.0462807614414
 31
0.0
  0
LINE
  5
FAD1
330
18
100
AcDbEntity
  8
外形線
100
AcDbLine
 10
131.5919573985968
 20
431.0462807614408
 30
0.0
 11
131.5919585617056
 21
430.7962807614408
 31
0.0
  0
LINE
  5
FAD3
330
18
100
AcDbEntity
  8
外形線
100
AcDbLine
 10
139.3919573985968
 20
431.0462807614408
 30
0.0
 11
139.3919573985968
 21
430.7962807614408
 31
0.0
  0
DIMENSION
  5
FAD9
330
18
100
AcDbEntity
  8
外形線
100
AcDbDimension
  2
*D65
 10
99.66808775897096
 20
430.7962807614408
 30
0.0
 11
97.79308775897089
 21
399.5462807614409
 31
0.0
 70
    32
  1
φ<>
 71
     5
 42
62.50000000000006
  3
STYLE3
100
AcDbAlignedDimension
 13
128.9919573985968
 23
368.2962807614408
 33
0.0
 14
128.9919573985968
 24
430.7962807614408
 34
0.0
 50
90.0
100
AcDbRotatedDimension
  0
DIMENSION
  5
FAE6
330
18
100
AcDbEntity
  8
外形線
100
AcDbDimension
  2
*D66
 10
153.1833352024871
 20
397.4800487615958
 30
0.0
 11
166.3475634791958
 21
408.3227933409849
 31
0.0
 70
   163
 71
     5
 42
6.499999999999715
  3
STYLE3
100
AcDbDiametricDimension
 15
158.2005795947065
 25
401.6125127612863
 35
0.0
 40
0.0
  0
DIMENSION
  5
FBBC
330
18
100
AcDbEntity
  8
外形線
100
AcDbDimension
  2
*D67
 10
155.6919573985968
 20
351.2620715570295
 30
0.0
 11
145.5919573985968
 21
353.1370715570295
 31
0.0
 70
    32
 71
     5
 42
20.19999999999999
  3
STYLE3
100
AcDbAlignedDimension
 13
135.4919573985968
 23
351.7953887336857
 33
0.0
 14
155.6919573985968
 24
387.9579492935281
 34
0.0
100
AcDbRotatedDimension
  0
DIMENSION
  5
FBE3
330
18
100
AcDbEntity
  8
外形線
100
AcDbDimension
  2
*D68
 10
110.9919573985967
 20
351.2620715570295
 30
0.0
 11
123.2419573985967
 21
353.1370715570295
 31
0.0
 70
    32
 71
     5
 42
24.50000000000012
  3
STYLE3
100
AcDbAlignedDimension
 13
135.4919573985968
 23
351.2620715570295
 33
0.0
 14
110.9919573985967
 24
399.5462807614432
 34
0.0
100
AcDbRotatedDimension
  0
DIMENSION
  5
FBF0
330
18
100
AcDbEntity
  8
外形線
100
AcDbDimension
  2
*D69
 10
128.9919573985968
 20
447.3431690100063
 30
0.0
 11
119.9919573985967
 21
449.2181690100064
 31
0.0
 70
    32
 71
     5
 42
18.00000000000011
  3
STYLE3
100
AcDbAlignedDimension
 13
110.9919573985967
 23
399.5462807614432
 33
0.0
 14
128.9919573985968
 24
430.7962807614408
 34
0.0
100
AcDbRotatedDimension
  0
DIMENSION
  5
FBFD
330
18
100
AcDbEntity
  8
外形線
100
AcDbDimension
  2
*D70
 10
142.9919573985968
 20
447.3431690100063
 30
0.0
 11
150.5217193033587
 21
447.3431690100063
 31
0.0
 70
   160
 71
     5
 42
14.0
  3
STYLE3
100
AcDbAlignedDimension
 13
128.9919573985968
 23
430.5962807614407
 33
0.0
 14
142.9919573985968
 24
430.5187988218109
 34
0.0
100
AcDbRotatedDimension
  0
DIMENSION
  5
FC1F
330
18
100
AcDbEntity
  8
外形線
100
AcDbDimension
  2
*D71
 10
17.70698823432698
 20
357.681414133015
 30
0.0
 11
28.9510358533746
 21
357.681414133015
 31
0.0
 70
   160
  1
φ<>
 71
     5
 42
7.999999999999996
  3
STYLE3
100
AcDbAlignedDimension
 13
9.706988234326981
 23
357.3975430988373
 33
0.0
 14
17.70698823432698
 24
357.3975430988373
 34
0.0
100
AcDbRotatedDimension
1001
ACAD
1000
DSTYLE
1002
{
1070
    48
1040
0.03
1070
   147
1040
0.625
1070
    72
1070
     0
1070
    71
1070
     1
1002
}
  0
LINE
  5
FDBD
330
18
100
AcDbEntity
  8
中心線
100
AcDbLine
 10
-24.66431546917443
 20
399.5462807614408
 30
0.0
 11
52.07829193782868
 21
399.5462807614408
 31
0.0
  0
LINE
  5
FE58
330
18
100
AcDbEntity
  8
外形線
100
AcDbLine
 10
143.0062750249056
 20
369.7962807614409
 30
0.0
 11
142.9919573985968
 21
369.7962807614409
 31
0.0
  0
LINE
  5
FE59
330
18
100
AcDbEntity
  8
外形線
100
AcDbLine
 10
143.0062750249011
 20
429.2962807614408
 30
0.0
 11
142.9919573985968
 21
429.2962807614408
 31
0.0
  0
ARC
  5
FE5D
330
18
100
AcDbEntity
  8
外形線
100
AcDbCircle
 10
155.6919573985984
 20
399.5462807614418
 30
0.0
 40
8.0
100
AcDbArc
 50
276.9540169868919
 51
83.04598301311498
  0
ARC
  5
FE5E
330
18
100
AcDbEntity
  8
外形線
100
AcDbCircle
 10
148.1919573985993
 20
387.0462807614413
 30
0.0
 40
3.5
100
AcDbArc
 50
96.95401698689188
 51
180.0000000000032
  0
ARC
  5
FE5F
330
18
100
AcDbEntity
  8
外形線
100
AcDbCircle
 10
148.1919573985974
 20
412.0462807614412
 30
0.0
 40
3.5
100
AcDbArc
 50
180.0000000000032
 51
263.045983013115
  0
LINE
  5
FE60
330
18
100
AcDbEntity
  8
外形線
100
AcDbLine
 10
156.6605392496975
 20
391.6051316507828
 30
0.0
 11
147.7682028387434
 21
390.5205334973546
 31
0.0
  0
LINE
  5
FE61
330
18
100
AcDbEntity
  8
外形線
100
AcDbLine
 10
156.6605392496964
 20
407.487429872101
 30
0.0
 11
147.768202838742
 21
408.5720280255278
 31
0.0
  0
CIRCLE
  5
FE62
330
18
100
AcDbEntity
  8
外形線
100
AcDbCircle
 10
144.6919573985974
 20
412.0462807614409
 30
0.0
 40
0.00000001
  0
LINE
  5
FE63
330
18
100
AcDbEntity
  8
外形線
100
AcDbLine
 10
144.6919573985974
 20
412.0462807714409
 30
0.0
 11
144.0935074385851
 21
412.3917960169506
 31
0.0
  0
LINE
  5
FE64
330
18
100
AcDbEntity
  8
外形線
100
AcDbLine
 10
144.6919573985993
 20
387.046280761441
 30
0.0
 11
144.0935074389145
 21
386.7007655161205
 31
0.0
  0
ARC
  5
FE65
330
18
100
AcDbEntity
  8
外形線
100
AcDbCircle
 10
-255.7001802777382
 20
399.5462807613672
 30
0.0
 40
400.0
100
AcDbArc
 50
355.7612915484839
 51
4.238708451538902
  0
ARC
  5
FE66
330
18
100
AcDbEntity
  8
外形線
100
AcDbCircle
 10
143.0062750249011
 20
429.0962807614408
 30
0.0
 40
0.2
100
AcDbArc
 50
4.238708451551954
 51
90.00000000000651
  0
ARC
  5
FE67
330
18
100
AcDbEntity
  8
外形線
100
AcDbCircle
 10
143.0062750249056
 20
369.9962807614409
 30
0.0
 40
0.2
100
AcDbArc
 50
270.0000000000065
 51
355.7612915484905
  0
LINE
  5
FE68
330
18
100
AcDbEntity
  8
外形線
100
AcDbLine
 10
145.1919573985975
 20
410.243505123709
 30
0.0
 11
145.1919573985991
 21
388.8490563991731
 31
0.0
  0
CIRCLE
  5
FE69
330
18
100
AcDbEntity
  8
寸法線
100
AcDbCircle
 10
155.6919573985984
 20
399.5462807614418
 30
0.0
 40
3.550000000000039
  0
LINE
  5
FE6A
330
18
100
AcDbEntity
  8
外形線
100
AcDbLine
 10
143.1919573985945
 20
429.1705912997216
 30
0.0
 11
143.1919573985991
 21
369.9219702231602
 31
0.0
  0
LINE
  5
FEB9
330
18
100
AcDbEntity
  8
外形線
100
AcDbLine
 10
11.50698823432695
 20
318.5462807614409
 30
0.0
 11
11.20698823432697
 21
318.8462807614409
 31
0.0
  0
LINE
  5
FEBA
330
18
100
AcDbEntity
  8
外形線
100
AcDbLine
 10
15.90698823432696
 20
318.5462807614409
 30
0.0
 11
16.20698823432697
 21
318.8462807614409
 31
0.0
  0
LINE
  5
FEBD
330
18
100
AcDbEntity
  8
外形線
100
AcDbLine
 10
11.20698823432714
 20
317.146280761441
 30
0.0
 11
16.20698823432708
 21
317.1462807614409
 31
0.0
  0
LINE
  5
FEBE
330
18
100
AcDbEntity
  8
外形線
100
AcDbLine
 10
11.20698823432714
 20
315.946280761441
 30
0.0
 11
16.20698823432708
 21
315.9462807614409
 31
0.0
  0
LINE
  5
FEBF
330
18
100
AcDbEntity
  8
外形線
100
AcDbLine
 10
11.20698823432714
 20
318.046280761441
 30
0.0
 11
16.20698823432708
 21
318.0462807614409
 31
0.0
  0
LINE
  5
FEC0
330
18
100
AcDbEntity
  8
外形線
100
AcDbLine
 10
11.20698823432714
 20
315.0462807614409
 30
0.0
 11
16.20698823432708
 21
315.0462807614409
 31
0.0
  0
LINE
  5
FEC1
330
18
100
AcDbEntity
  8
外形線
100
AcDbLine
 10
11.20698823432714
 20
315.0462807614409
 30
0.0
 11
11.2069882343272
 21
315.946280761441
 31
0.0
  0
LINE
  5
FEC2
330
18
100
AcDbEntity
  8
外形線
100
AcDbLine
 10
16.206988234327
 20
315.0462807614409
 30
0.0
 11
16.20698823432703
 21
315.9462807614407
 31
0.0
  0
ARC
  5
FEC5
330
18
100
AcDbEntity
  8
外形線
100
AcDbCircle
 10
16.56754336187775
 20
316.5462807614383
 30
0.0
 40
0.7
100
AcDbArc
 50
121.0027191342841
 51
238.997280865716
  0
ARC
  5
FEC7
330
18
100
AcDbEntity
  8
外形線
100
AcDbCircle
 10
13.70698823432711
 20
310.7369057614409
 30
0.0
 40
1.190625
100
AcDbArc
 50
189.2129900853061
 51
350.787009914694
  0
LINE
  5
FEDF
330
18
100
AcDbEntity
  8
外形線
100
AcDbLine
 10
11.45698823432711
 20
318.5462807614409
 30
0.0
 11
11.45698823432711
 21
318.046280761441
 31
0.0
  0
LINE
  5
FEE0
330
18
100
AcDbEntity
  8
外形線
100
AcDbLine
 10
15.95698823432714
 20
318.5462807614408
 30
0.0
 11
15.95698823432711
 21
318.0462807614409
 31
0.0
  0
ARC
  5
FEE1
330
18
100
AcDbEntity
  8
外形線
100
AcDbCircle
 10
10.84643310677647
 20
316.5462807614384
 30
0.0
 40
0.7
100
AcDbArc
 50
301.0027191342814
 51
58.99728086571319
  0
LINE
  5
FEE2
330
18
100
AcDbEntity
  8
外形線
100
AcDbLine
 10
11.20698823432714
 20
315.0462807614409
 30
0.0
 11
12.4069882343271
 21
310.5462807614409
 31
0.0
  0
LINE
  5
FEE4
330
18
100
AcDbEntity
  8
外形線
100
AcDbLine
 10
16.20698823432708
 20
315.0462807614409
 30
0.0
 11
15.00698823432712
 21
310.5462807614409
 31
0.0
  0
LINE
  5
FEFD
330
18
100
AcDbEntity
  8
寸法線
100
AcDbLine
 10
13.44718061319217
 20
317.146280761441
 30
0.0
 11
13.96679585546273
 21
318.0462807614409
 31
0.0
  0
LINE
  5
FEFE
330
18
100
AcDbEntity
  8
寸法線
100
AcDbLine
 10
12.7139457713214
 20
317.146280761441
 30
0.0
 11
13.23356101359197
 21
318.0462807614409
 31
0.0
  0
LINE
  5
FEFF
330
18
100
AcDbEntity
  8
寸法線
100
AcDbLine
 10
11.98071092945058
 20
317.146280761441
 30
0.0
 11
12.50032617172114
 21
318.0462807614409
 31
0.0
  0
LINE
  5
FF00
330
18
100
AcDbEntity
  8
寸法線
100
AcDbLine
 10
11.24747608757975
 20
317.146280761441
 30
0.0
 11
11.76709132985037
 21
318.046280761441
 31
0.0
  0
LINE
  5
FF03
330
18
100
AcDbEntity
  8
寸法線
100
AcDbLine
 10
11.76709132985017
 20
317.1462807614411
 30
0.0
 11
11.24747608757955
 21
318.0462807614409
 31
0.0
  0
LINE
  5
FF04
330
18
100
AcDbEntity
  8
寸法線
100
AcDbLine
 10
12.50032617172108
 20
317.146280761441
 30
0.0
 11
11.98071092945046
 21
318.046280761441
 31
0.0
  0
LINE
  5
FF05
330
18
100
AcDbEntity
  8
寸法線
100
AcDbLine
 10
13.23356101359185
 20
317.146280761441
 30
0.0
 11
12.71394577132126
 21
318.0462807614409
 31
0.0
  0
LINE
  5
FF06
330
18
100
AcDbEntity
  8
寸法線
100
AcDbLine
 10
13.9667958554631
 20
317.146280761441
 30
0.0
 11
13.44718061319234
 21
318.0462807614409
 31
0.0
  0
LINE
  5
FF10
330
18
100
AcDbEntity
  8
寸法線
100
AcDbLine
 10
14.70003069733282
 20
317.146280761441
 30
0.0
 11
14.18041545506226
 21
318.0462807614409
 31
0.0
  0
LINE
  5
FF11
330
18
100
AcDbEntity
  8
寸法線
100
AcDbLine
 10
15.43326553920364
 20
317.146280761441
 30
0.0
 11
14.91365029693308
 21
318.0462807614409
 31
0.0
  0
LINE
  5
FF12
330
18
100
AcDbEntity
  8
寸法線
100
AcDbLine
 10
16.16650038107447
 20
317.146280761441
 30
0.0
 11
15.64688513880385
 21
318.046280761441
 31
0.0
  0
LINE
  5
FF13
330
18
100
AcDbEntity
  8
寸法線
100
AcDbLine
 10
15.64688513880405
 20
317.1462807614411
 30
0.0
 11
16.16650038107467
 21
318.0462807614409
 31
0.0
  0
LINE
  5
FF14
330
18
100
AcDbEntity
  8
寸法線
100
AcDbLine
 10
14.91365029693314
 20
317.146280761441
 30
0.0
 11
15.43326553920376
 21
318.046280761441
 31
0.0
  0
LINE
  5
FF15
330
18
100
AcDbEntity
  8
寸法線
100
AcDbLine
 10
14.18041545506237
 20
317.146280761441
 30
0.0
 11
14.70003069733296
 21
318.0462807614409
 31
0.0
  0
LINE
  5
FF16
330
18
100
AcDbEntity
  8
寸法線
100
AcDbLine
 10
13.44718061319217
 20
315.046280761441
 30
0.0
 11
13.96679585546273
 21
315.9462807614409
 31
0.0
  0
LINE
  5
FF17
330
18
100
AcDbEntity
  8
寸法線
100
AcDbLine
 10
12.7139457713214
 20
315.046280761441
 30
0.0
 11
13.23356101359197
 21
315.9462807614409
 31
0.0
  0
LINE
  5
FF18
330
18
100
AcDbEntity
  8
寸法線
100
AcDbLine
 10
11.98071092945058
 20
315.046280761441
 30
0.0
 11
12.50032617172114
 21
315.9462807614409
 31
0.0
  0
LINE
  5
FF19
330
18
100
AcDbEntity
  8
寸法線
100
AcDbLine
 10
11.24747608757973
 20
315.0462807614409
 30
0.0
 11
11.76709132985037
 21
315.946280761441
 31
0.0
  0
LINE
  5
FF1A
330
18
100
AcDbEntity
  8
寸法線
100
AcDbLine
 10
11.76709132985017
 20
315.046280761441
 30
0.0
 11
11.24747608757955
 21
315.9462807614409
 31
0.0
  0
LINE
  5
FF1B
330
18
100
AcDbEntity
  8
寸法線
100
AcDbLine
 10
12.50032617172105
 20
315.0462807614409
 30
0.0
 11
11.98071092945046
 21
315.946280761441
 31
0.0
  0
LINE
  5
FF1C
330
18
100
AcDbEntity
  8
寸法線
100
AcDbLine
 10
13.23356101359185
 20
315.046280761441
 30
0.0
 11
12.71394577132126
 21
315.9462807614409
 31
0.0
  0
LINE
  5
FF1D
330
18
100
AcDbEntity
  8
寸法線
100
AcDbLine
 10
13.9667958554631
 20
315.0462807614409
 30
0.0
 11
13.44718061319234
 21
315.9462807614409
 31
0.0
  0
LINE
  5
FF1E
330
18
100
AcDbEntity
  8
寸法線
100
AcDbLine
 10
14.70003069733282
 20
315.046280761441
 30
0.0
 11
14.18041545506226
 21
315.9462807614409
 31
0.0
  0
LINE
  5
FF1F
330
18
100
AcDbEntity
  8
寸法線
100
AcDbLine
 10
15.43326553920364
 20
315.046280761441
 30
0.0
 11
14.91365029693308
 21
315.9462807614409
 31
0.0
  0
LINE
  5
FF20
330
18
100
AcDbEntity
  8
寸法線
100
AcDbLine
 10
16.16650038107447
 20
315.0462807614409
 30
0.0
 11
15.64688513880385
 21
315.946280761441
 31
0.0
  0
LINE
  5
FF21
330
18
100
AcDbEntity
  8
寸法線
100
AcDbLine
 10
15.64688513880405
 20
315.046280761441
 30
0.0
 11
16.16650038107467
 21
315.9462807614409
 31
0.0
  0
LINE
  5
FF22
330
18
100
AcDbEntity
  8
寸法線
100
AcDbLine
 10
14.91365029693314
 20
315.0462807614409
 30
0.0
 11
15.43326553920376
 21
315.946280761441
 31
0.0
  0
LINE
  5
FF23
330
18
100
AcDbEntity
  8
寸法線
100
AcDbLine
 10
14.18041545506237
 20
315.046280761441
 30
0.0
 11
14.70003069733293
 21
315.9462807614409
 31
0.0
  0
LINE
  5
FF67
330
18
100
AcDbEntity
  8
外形線
100
AcDbLine
 10
139.4919573985967
 20
368.2962807614408
 30
0.0
 11
139.4919573985966
 21
346.2462807614409
 31
0.0
  0
LINE
  5
FF68
330
18
100
AcDbEntity
  8
外形線
100
AcDbLine
 10
131.4919573985967
 20
368.2962807614409
 30
0.0
 11
131.4919573985966
 21
346.2462807614409
 31
0.0
  0
LINE
  5
FF69
330
18
100
AcDbEntity
  8
外形線
100
AcDbLine
 10
132.0419573985966
 20
341.2462807614409
 30
0.0
 11
138.9419573985967
 21
341.2462807614409
 31
0.0
  0
LINE
  5
FF6A
330
18
100
AcDbEntity
  8
外形線
100
AcDbLine
 10
131.4919573985966
 20
346.2462807614409
 30
0.0
 11
139.4919573985966
 21
346.2462807614409
 31
0.0
  0
LINE
  5
FF6B
330
18
100
AcDbEntity
  8
外形線
100
AcDbLine
 10
139.2419573985967
 20
346.2462807614409
 30
0.0
 11
139.2419573985967
 21
341.5462807614409
 31
0.0
  0
LINE
  5
FF6C
330
18
100
AcDbEntity
  8
外形線
100
AcDbLine
 10
131.7419573985966
 20
346.2462807614409
 30
0.0
 11
131.7419573985966
 21
341.5462807614409
 31
0.0
  0
LINE
  5
FF6D
330
18
100
AcDbEntity
  8
外形線
100
AcDbLine
 10
131.7419573985966
 20
341.5462807614409
 30
0.0
 11
132.0419573985966
 21
341.2462807614409
 31
0.0
  0
LINE
  5
FF6E
330
18
100
AcDbEntity
  8
外形線
100
AcDbLine
 10
138.9419573985967
 20
341.2462807614409
 30
0.0
 11
139.2419573985967
 21
341.5462807614409
 31
0.0
  0
LINE
  5
FF6F
330
18
100
AcDbEntity
  8
外形線
100
AcDbLine
 10
137.9919573985966
 20
341.2462807614409
 30
0.0
 11
137.9919573985966
 21
318.8468219806444
 31
0.0
  0
LINE
  5
FF70
330
18
100
AcDbEntity
  8
外形線
100
AcDbLine
 10
132.9919573985966
 20
341.2462807614409
 30
0.0
 11
132.9919573985966
 21
318.8468219806444
 31
0.0
  0
POINT
  5
FF71
330
18
100
AcDbEntity
  8
DEFPOINTS
  6
ByBlock
 62
     0
100
AcDbPoint
 10
135.4919573985966
 20
309.5468219806444
 30
0.0
  0
POINT
  5
FF72
330
18
100
AcDbEntity
  8
DEFPOINTS
  6
ByBlock
 62
     0
100
AcDbPoint
 10
135.4919573985966
 20
309.5468219806444
 30
0.0
  0
LINE
  5
FF73
330
18
100
AcDbEntity
  8
外形線
100
AcDbLine
 10
133.2419573985968
 20
318.5468219806445
 30
0.0
 11
137.7419573985968
 21
318.5468219806443
 31
0.0
  0
LINE
  5
FF74
330
18
100
AcDbEntity
  8
外形線
100
AcDbLine
 10
134.1919573985968
 20
310.5468219806444
 30
0.0
 11
136.7919573985968
 21
310.5468219806444
 31
0.0
  0
POINT
  5
FF75
330
18
100
AcDbEntity
  8
DEFPOINTS
  6
ByBlock
 62
     0
100
AcDbPoint
 10
135.4919573985966
 20
309.5468219806445
 30
0.0
  0
LINE
  5
FF76
330
18
100
AcDbEntity
  8
外形線
 48
0.5
100
AcDbLine
 10
132.9919573985968
 20
318.0468219806445
 30
0.0
 11
132.9919573985968
 21
317.1468219806444
 31
0.0
  0
LINE
  5
FF77
330
18
100
AcDbEntity
  8
外形線
 48
0.5
100
AcDbLine
 10
137.9919573985967
 20
318.0468219806444
 30
0.0
 11
137.9919573985967
 21
317.1468219806444
 31
0.0
  0
LINE
  5
FF78
330
18
100
AcDbEntity
  8
外形線
100
AcDbLine
 10
133.2919573985966
 20
318.5468219806444
 30
0.0
 11
132.9919573985966
 21
318.8468219806444
 31
0.0
  0
LINE
  5
FF79
330
18
100
AcDbEntity
  8
外形線
100
AcDbLine
 10
137.6919573985967
 20
318.5468219806444
 30
0.0
 11
137.9919573985966
 21
318.8468219806444
 31
0.0
  0
LINE
  5
FF7A
330
18
100
AcDbEntity
  8
外形線
100
AcDbLine
 10
132.9919573985968
 20
317.1468219806445
 30
0.0
 11
137.9919573985967
 21
317.1468219806444
 31
0.0
  0
LINE
  5
FF7B
330
18
100
AcDbEntity
  8
外形線
100
AcDbLine
 10
132.9919573985968
 20
315.9468219806445
 30
0.0
 11
137.9919573985967
 21
315.9468219806444
 31
0.0
  0
LINE
  5
FF7C
330
18
100
AcDbEntity
  8
外形線
100
AcDbLine
 10
132.9919573985968
 20
318.0468219806445
 30
0.0
 11
137.9919573985967
 21
318.0468219806444
 31
0.0
  0
LINE
  5
FF7D
330
18
100
AcDbEntity
  8
外形線
100
AcDbLine
 10
132.9919573985968
 20
315.0468219806445
 30
0.0
 11
137.9919573985967
 21
315.0468219806445
 31
0.0
  0
LINE
  5
FF7E
330
18
100
AcDbEntity
  8
外形線
100
AcDbLine
 10
132.9919573985968
 20
315.0468219806445
 30
0.0
 11
132.9919573985968
 21
315.9468219806445
 31
0.0
  0
LINE
  5
FF7F
330
18
100
AcDbEntity
  8
外形線
100
AcDbLine
 10
137.9919573985967
 20
315.0468219806445
 30
0.0
 11
137.9919573985967
 21
315.9468219806442
 31
0.0
  0
ARC
  5
FF80
330
18
100
AcDbEntity
  8
外形線
100
AcDbCircle
 10
138.3525125261474
 20
316.5468219806418
 30
0.0
 40
0.7
100
AcDbArc
 50
121.0027191342827
 51
238.9972808657173
  0
ARC
  5
FF81
330
18
100
AcDbEntity
  8
外形線
100
AcDbCircle
 10
135.4919573985968
 20
310.7374469806444
 30
0.0
 40
1.190625
100
AcDbArc
 50
189.2129900853066
 51
350.7870099146933
  0
LINE
  5
FF82
330
18
100
AcDbEntity
  8
外形線
100
AcDbLine
 10
133.2419573985968
 20
318.5468219806444
 30
0.0
 11
133.2419573985968
 21
318.0468219806445
 31
0.0
  0
LINE
  5
FF83
330
18
100
AcDbEntity
  8
外形線
100
AcDbLine
 10
137.7419573985968
 20
318.5468219806443
 30
0.0
 11
137.7419573985968
 21
318.0468219806444
 31
0.0
  0
ARC
  5
FF84
330
18
100
AcDbEntity
  8
外形線
100
AcDbCircle
 10
132.6314022710461
 20
316.5468219806419
 30
0.0
 40
0.7
100
AcDbArc
 50
301.0027191342813
 51
58.99728086571283
  0
LINE
  5
FF85
330
18
100
AcDbEntity
  8
外形線
100
AcDbLine
 10
132.9919573985968
 20
315.0468219806445
 30
0.0
 11
134.1919573985968
 21
310.5468219806444
 31
0.0
  0
LINE
  5
FF86
330
18
100
AcDbEntity
  8
外形線
100
AcDbLine
 10
137.9919573985967
 20
315.0468219806445
 30
0.0
 11
136.7919573985968
 21
310.5468219806444
 31
0.0
  0
LINE
  5
FF87
330
18
100
AcDbEntity
  8
寸法線
100
AcDbLine
 10
135.2321497774618
 20
317.1468219806445
 30
0.0
 11
135.7517650197324
 21
318.0468219806444
 31
0.0
  0
LINE
  5
FF88
330
18
100
AcDbEntity
  8
寸法線
100
AcDbLine
 10
134.4989149355911
 20
317.1468219806445
 30
0.0
 11
135.0185301778616
 21
318.0468219806444
 31
0.0
  0
LINE
  5
FF89
330
18
100
AcDbEntity
  8
寸法線
100
AcDbLine
 10
133.7656800937202
 20
317.1468219806445
 30
0.0
 11
134.2852953359908
 21
318.0468219806444
 31
0.0
  0
LINE
  5
FF8A
330
18
100
AcDbEntity
  8
寸法線
100
AcDbLine
 10
133.0324452518494
 20
317.1468219806444
 30
0.0
 11
133.55206049412
 21
318.0468219806446
 31
0.0
  0
LINE
  5
FF8B
330
18
100
AcDbEntity
  8
寸法線
100
AcDbLine
 10
133.5520604941198
 20
317.1468219806446
 30
0.0
 11
133.0324452518492
 21
318.0468219806444
 31
0.0
  0
LINE
  5
FF8C
330
18
100
AcDbEntity
  8
寸法線
100
AcDbLine
 10
134.2852953359908
 20
317.1468219806444
 30
0.0
 11
133.7656800937201
 21
318.0468219806445
 31
0.0
  0
LINE
  5
FF8D
330
18
100
AcDbEntity
  8
寸法線
100
AcDbLine
 10
135.0185301778615
 20
317.1468219806445
 30
0.0
 11
134.4989149355909
 21
318.0468219806444
 31
0.0
  0
LINE
  5
FF8E
330
18
100
AcDbEntity
  8
寸法線
100
AcDbLine
 10
135.7517650197328
 20
317.1468219806444
 30
0.0
 11
135.232149777462
 21
318.0468219806444
 31
0.0
  0
LINE
  5
FF8F
330
18
100
AcDbEntity
  8
寸法線
100
AcDbLine
 10
136.4849998616025
 20
317.1468219806445
 30
0.0
 11
135.9653846193319
 21
318.0468219806444
 31
0.0
  0
LINE
  5
FF90
330
18
100
AcDbEntity
  8
寸法線
100
AcDbLine
 10
137.2182347034733
 20
317.1468219806445
 30
0.0
 11
136.6986194612028
 21
318.0468219806444
 31
0.0
  0
LINE
  5
FF91
330
18
100
AcDbEntity
  8
寸法線
100
AcDbLine
 10
137.9514695453442
 20
317.1468219806444
 30
0.0
 11
137.4318543030735
 21
318.0468219806446
 31
0.0
  0
LINE
  5
FF92
330
18
100
AcDbEntity
  8
寸法線
100
AcDbLine
 10
137.4318543030737
 20
317.1468219806446
 30
0.0
 11
137.9514695453443
 21
318.0468219806444
 31
0.0
  0
LINE
  5
FF93
330
18
100
AcDbEntity
  8
寸法線
100
AcDbLine
 10
136.6986194612028
 20
317.1468219806444
 30
0.0
 11
137.2182347034734
 21
318.0468219806445
 31
0.0
  0
LINE
  5
FF94
330
18
100
AcDbEntity
  8
寸法線
100
AcDbLine
 10
135.965384619332
 20
317.1468219806445
 30
0.0
 11
136.4849998616026
 21
318.0468219806444
 31
0.0
  0
LINE
  5
FF95
330
18
100
AcDbEntity
  8
寸法線
100
AcDbLine
 10
135.2321497774618
 20
315.0468219806445
 30
0.0
 11
135.7517650197324
 21
315.9468219806444
 31
0.0
  0
LINE
  5
FF96
330
18
100
AcDbEntity
  8
寸法線
100
AcDbLine
 10
134.498914935591
 20
315.0468219806445
 30
0.0
 11
135.0185301778616
 21
315.9468219806444
 31
0.0
  0
LINE
  5
FF97
330
18
100
AcDbEntity
  8
寸法線
100
AcDbLine
 10
133.7656800937202
 20
315.0468219806445
 30
0.0
 11
134.2852953359908
 21
315.9468219806444
 31
0.0
  0
LINE
  5
FF98
330
18
100
AcDbEntity
  8
寸法線
100
AcDbLine
 10
133.0324452518494
 20
315.0468219806445
 30
0.0
 11
133.55206049412
 21
315.9468219806445
 31
0.0
  0
LINE
  5
FF99
330
18
100
AcDbEntity
  8
寸法線
100
AcDbLine
 10
133.5520604941198
 20
315.0468219806445
 30
0.0
 11
133.0324452518492
 21
315.9468219806444
 31
0.0
  0
LINE
  5
FF9A
330
18
100
AcDbEntity
  8
寸法線
100
AcDbLine
 10
134.2852953359908
 20
315.0468219806445
 30
0.0
 11
133.7656800937201
 21
315.9468219806445
 31
0.0
  0
LINE
  5
FF9B
330
18
100
AcDbEntity
  8
寸法線
100
AcDbLine
 10
135.0185301778615
 20
315.0468219806445
 30
0.0
 11
134.4989149355909
 21
315.9468219806444
 31
0.0
  0
LINE
  5
FF9C
330
18
100
AcDbEntity
  8
寸法線
100
AcDbLine
 10
135.7517650197328
 20
315.0468219806445
 30
0.0
 11
135.232149777462
 21
315.9468219806444
 31
0.0
  0
LINE
  5
FF9D
330
18
100
AcDbEntity
  8
寸法線
100
AcDbLine
 10
136.4849998616025
 20
315.0468219806445
 30
0.0
 11
135.9653846193319
 21
315.9468219806444
 31
0.0
  0
LINE
  5
FF9E
330
18
100
AcDbEntity
  8
寸法線
100
AcDbLine
 10
137.2182347034733
 20
315.0468219806445
 30
0.0
 11
136.6986194612028
 21
315.9468219806444
 31
0.0
  0
LINE
  5
FF9F
330
18
100
AcDbEntity
  8
寸法線
100
AcDbLine
 10
137.9514695453442
 20
315.0468219806445
 30
0.0
 11
137.4318543030735
 21
315.9468219806445
 31
0.0
  0
LINE
  5
FFA0
330
18
100
AcDbEntity
  8
寸法線
100
AcDbLine
 10
137.4318543030737
 20
315.0468219806445
 30
0.0
 11
137.9514695453443
 21
315.9468219806444
 31
0.0
  0
LINE
  5
FFA1
330
18
100
AcDbEntity
  8
寸法線
100
AcDbLine
 10
136.6986194612028
 20
315.0468219806445
 30
0.0
 11
137.2182347034734
 21
315.9468219806445
 31
0.0
  0
LINE
  5
FFA2
330
18
100
AcDbEntity
  8
寸法線
100
AcDbLine
 10
135.965384619332
 20
315.0468219806445
 30
0.0
 11
136.4849998616026
 21
315.9468219806444
 31
0.0
  0
LINE
  5
FFF9
330
18
100
AcDbEntity
  8
寸法線
100
AcDbLine
 10
11.20698823432697
 20
318.8462807614409
 30
0.0
 11
16.20698823432697
 21
318.8462807614409
 31
0.0
  0
LINE
  5
10001
330
18
100
AcDbEntity
  8
寸法線
100
AcDbLine
 10
132.9919573985966
 20
318.8468219806444
 30
0.0
 11
137.9919573985966
 21
318.8468219806444
 31
0.0
  0
LINE
  5
10017
330
18
100
AcDbEntity
  8
外形線
100
AcDbLine
 10
128.9919573985968
 20
430.5962807614407
 30
0.0
 11
129.1919573985968
 21
430.7962807614408
 31
0.0
  0
LINE
  5
10018
330
18
100
AcDbEntity
  8
外形線
100
AcDbLine
 10
129.1919573985968
 20
368.296280761441
 30
0.0
 11
128.9919573985968
 21
368.496280761441
 31
0.0
  0
LINE
  5
10024
330
18
100
AcDbEntity
  8
外形線
100
AcDbLine
 10
129.1919573985968
 20
430.7962807614408
 30
0.0
 11
131.4919573985965
 21
430.7962807614408
 31
0.0
  0
LINE
  5
10025
330
18
100
AcDbEntity
  8
外形線
100
AcDbLine
 10
139.4919573985968
 20
430.7962807614408
 30
0.0
 11
142.9919573985968
 21
430.7962807614408
 31
0.0
  0
LINE
  5
10026
330
18
100
AcDbEntity
  8
外形線
100
AcDbLine
 10
131.5919573985968
 20
431.0462807614408
 30
0.0
 11
131.5919573985968
 21
430.7835385439239
 31
0.0
  0
LINE
  5
10027
330
18
100
AcDbEntity
  8
外形線
100
AcDbLine
 10
139.3919573985968
 20
431.0462807614408
 30
0.0
 11
139.3919573985968
 21
430.7835385439239
 31
0.0
  0
ARC
  5
10028
330
18
100
AcDbEntity
  8
外形線
100
AcDbCircle
 10
135.4919573985968
 20
461.789223506522
 30
0.0
 40
31.24999999999819
100
AcDbArc
 50
262.6459647896004
 51
277.3540352103996
  0
LINE
  5
1003D
330
18
100
AcDbEntity
  8
外形線
100
AcDbLine
 10
129.1919573985971
 20
368.2962807614408
 30
0.0
 11
131.4919573985966
 21
368.2962807614408
 31
0.0
  0
LINE
  5
1003E
330
18
100
AcDbEntity
  8
外形線
100
AcDbLine
 10
139.4919573985966
 20
368.2962807614408
 30
0.0
 11
142.9919573985968
 21
368.2962807614407
 31
0.0
  0
ARC
  5
1003F
330
18
100
AcDbEntity
  8
外形線
100
AcDbCircle
 10
135.4919573985964
 20
337.8496399025977
 30
0.0
 40
30.70827151741645
100
AcDbArc
 50
82.51549489681677
 51
97.48450510318161
  0
ARC
  5
10056
330
18
100
AcDbEntity
  8
外形線
100
AcDbCircle
 10
128.6893359133713
 20
368.606939855578
 30
0.0
 40
0.3
100
AcDbArc
 50
268.0000000000005
 51
0.0
  0
ARC
  5
10063
330
18
100
AcDbEntity
  8
外形線
100
AcDbCircle
 10
128.6893359133715
 20
430.4856216673036
 30
0.0
 40
0.3
100
AcDbArc
 50
359.9999999999996
 51
91.99999999999919
  0
LINE
  5
100B9
330
18
100
AcDbEntity
  8
中心線
 48
0.15
100
AcDbLine
 10
138.7919573985968
 20
386.8032992919991
 30
0.0
 11
138.7919573985968
 21
378.8888372470711
 31
0.0
  0
LINE
  5
100BA
330
18
100
AcDbEntity
  8
中心線
 48
0.15
100
AcDbLine
 10
135.7919573985968
 20
381.2923686113717
 30
0.0
 11
141.7919573985968
 21
381.2923686113718
 31
0.0
  0
ELLIPSE
  5
100BB
330
18
100
AcDbEntity
  8
寸法線
100
AcDbEllipse
 10
138.7919573985968
 20
381.2923686113718
 30
0.0
 11
-1.799999999999997
 21
0.0
 31
0.0
210
0.0
220
0.0
230
1.0
 40
0.7660444431189413
 41
0.0
 42
6.283185307179586
  0
ELLIPSE
  5
100BC
330
18
100
AcDbEntity
  8
外形線
100
AcDbEllipse
 10
138.7919573985968
 20
381.420926133309
 30
0.0
 11
-2.0
 21
0.0
 31
0.0
210
0.0
220
0.0
230
1.0
 40
0.7660444431189717
 41
0.0
 42
6.283185307179586
  0
LINE
  5
100BD
330
18
100
AcDbEntity
  8
外形線
100
AcDbLine
 10
140.7919573985968
 20
381.420926133309
 30
0.0
 11
140.7919573985968
 21
383.5421252452747
 31
0.0
  0
ELLIPSE
  5
100BE
330
18
100
AcDbEntity
  8
外形線
100
AcDbEllipse
 10
138.7919573985968
 20
383.5421252452747
 30
0.0
 11
-2.0
 21
0.0
 31
0.0
210
0.0
220
0.0
230
1.0
 40
0.7660444431189717
 41
3.141592653589793
 42
6.283185307179586
  0
LINE
  5
100BF
330
18
100
AcDbEntity
  8
寸法線
 48
0.15
100
AcDbLine
 10
139.3919573985968
 20
385.0036448939123
 30
0.0
 11
139.3919573985968
 21
382.8824457819466
 31
0.0
  0
LINE
  5
100C0
330
18
100
AcDbEntity
  8
寸法線
 48
0.15
100
AcDbLine
 10
139.8919573985968
 20
384.8216717304973
 30
0.0
 11
139.8919573985968
 21
382.7004726185316
 31
0.0
  0
LINE
  5
100C1
330
18
100
AcDbEntity
  8
寸法線
 48
0.15
100
AcDbLine
 10
140.2919573985968
 20
384.5555067901326
 30
0.0
 11
140.2919573985968
 21
382.4343076781669
 31
0.0
  0
LINE
  5
100C2
330
18
100
AcDbEntity
  8
寸法線
 48
0.15
100
AcDbLine
 10
140.5919573985968
 20
384.209947308038
 30
0.0
 11
140.5919573985968
 21
382.0887481960724
 31
0.0
  0
ELLIPSE
  5
100C3
330
18
100
AcDbEntity
  8
外形線
100
AcDbEllipse
 10
138.7919573985968
 20
383.863519050118
 30
0.0
 11
-2.25
 21
0.0
 31
0.0
210
0.0
220
0.0
230
1.0
 40
0.8180345668703365
 41
2.665710403929383
 42
6.759067556840004
  0
ELLIPSE
  5
100C4
330
18
100
AcDbEntity
  8
外形線
100
AcDbEllipse
 10
138.7919573985968
 20
384.1849128549614
 30
0.0
 11
-2.224999999999994
 21
0.0
 31
0.0
210
0.0
220
0.0
230
1.0
 40
0.8238231046638514
 41
3.141592653589793
 42
6.283185307179586
  0
LINE
  5
100C5
330
18
100
AcDbEntity
  8
外形線
100
AcDbLine
 10
136.7919573985968
 20
381.420926133309
 30
0.0
 11
136.7919573985968
 21
383.5421252452747
 31
0.0
  0
CIRCLE
  5
10100
330
18
100
AcDbEntity
  8
外形線
100
AcDbCircle
 10
13.70698823432704
 20
399.546280761441
 30
0.0
 40
31.25
  0
CIRCLE
  5
10104
330
18
100
AcDbEntity
  8
外形線
100
AcDbCircle
 10
13.70698823432713
 20
399.5462807614408
 30
0.0
 40
30.67234022528874
  0
LINE
  5
101B4
330
18
100
AcDbEntity
  8
中心線
100
AcDbLine
 10
-5.025506580235088
 20
391.5462807614408
 30
0.0
 11
32.43948304888929
 21
391.5462807614409
 31
0.0
  0
LINE
  5
101B5
330
18
100
AcDbEntity
  8
中心線
 48
0.35
100
AcDbLine
 10
1.706988234327155
 20
396.8533979267932
 30
0.0
 11
1.706988234327155
 21
386.2391635960884
 31
0.0
  0
LINE
  5
101B6
330
18
100
AcDbEntity
  8
中心線
 48
0.35
100
AcDbLine
 10
25.70698823432707
 20
396.8533979267933
 30
0.0
 11
25.70698823432707
 21
386.2391635960885
 31
0.0
  0
CIRCLE
  5
101B8
330
18
100
AcDbEntity
  8
外形線
100
AcDbCircle
 10
1.706988234327155
 20
391.5462807614408
 30
0.0
 40
3.0
  0
CIRCLE
  5
101B9
330
18
100
AcDbEntity
  8
外形線
100
AcDbCircle
 10
13.7069882343271
 20
391.5462807614409
 30
0.0
 40
3.0
  0
CIRCLE
  5
101BA
330
18
100
AcDbEntity
  8
外形線
100
AcDbCircle
 10
25.70698823432707
 20
391.5462807614409
 30
0.0
 40
3.0
  0
CIRCLE
  5
101BB
330
18
100
AcDbEntity
  8
寸法線
100
AcDbCircle
 10
1.706988234327155
 20
391.5462807614408
 30
0.0
 40
2.7
  0
CIRCLE
  5
101BC
330
18
100
AcDbEntity
  8
寸法線
100
AcDbCircle
 10
13.70698823432713
 20
391.5462807614409
 30
0.0
 40
2.7
  0
CIRCLE
  5
101BD
330
18
100
AcDbEntity
  8
寸法線
100
AcDbCircle
 10
25.70698823432707
 20
391.5462807614409
 30
0.0
 40
2.7
  0
LINE
  5
101BE
330
18
100
AcDbEntity
  8
外形線
100
AcDbLine
 10
-8.793011765672872
 20
411.5462807614408
 30
0.0
 11
-8.793011765672872
 21
399.5462807614408
 31
0.0
  0
LINE
  5
101BF
330
18
100
AcDbEntity
  8
外形線
100
AcDbLine
 10
36.20698823432716
 20
411.5462807614408
 30
0.0
 11
36.20698823432713
 21
399.5462807614408
 31
0.0
  0
LINE
  5
101C0
330
18
100
AcDbEntity
  8
外形線
100
AcDbLine
 10
-8.793011765672872
 20
411.5462807614408
 30
0.0
 11
36.20698823432715
 21
411.5462807614408
 31
0.0
  0
TEXT
  5
101C4
330
18
100
AcDbEntity
  8
文字
100
AcDbText
 10
29.6611549009938
 20
397.1629474281075
 30
0.0
 40
1.25
  1
MADE IN JAPAN
 41
0.85
  7
STYLE3
 72
     2
 11
41.20698823432713
 21
396.9962807614408
 31
0.0
100
AcDbText
 73
     1
  0
LINE
  5
101C5
102
{ACAD_REACTORS
330
1020D
102
}
330
18
100
AcDbEntity
  8
ROGO
 62
     4
100
AcDbLine
 10
4.983175303010568
 20
415.3359038979937
 30
0.0
 11
3.706988234327127
 21
412.7566576248877
 31
0.0
  0
LINE
  5
101C6
102
{ACAD_REACTORS
330
1020D
102
}
330
18
100
AcDbEntity
  8
ROGO
 62
     4
100
AcDbLine
 10
3.706988234327127
 20
412.7566576248877
 30
0.0
 11
21.1659185405448
 21
412.7566576248877
 31
0.0
  0
HATCH
  5
101C7
330
18
100
AcDbEntity
  8
ROGO
 62
     4
100
AcDbHatch
 10
0.0
 20
0.0
 30
0.0
210
0.0
220
0.0
230
1.0
  2
SOLID
 70
     1
 71
     0
 91
        1
 92
        5
 93
        8
 72
     1
 10
15.53113055505551
 20
414.7217568090757
 11
15.83736412869456
 21
415.3359038979939
 72
     1
 10
15.83736412869456
 20
415.3359038979939
 11
14.18434124580002
 21
415.3359038979939
 72
     4
 94
        3
 73
     0
 74
     0
 95
       26
 96
       22
 40
0.0
 40
0.0
 40
0.0
 40
0.0
 40
0.2382195346592458
 40
0.397689067266165
 40
0.5126795869787965
 40
0.5985392873136027
 40
0.7099038249250464
 40
0.7911890807494677
 40
0.9379713068544191
 40
1.057449928673119
 40
1.138714535893347
 40
1.218398644003548
 40
1.360938021870459
 40
1.461730374800308
 40
1.516014844108111
 40
1.593124329220557
 40
1.648806818593686
 40
1.729472362005573
 40
1.775122082164434
 40
1.87446099376513
 40
1.919820003751299
 40
1.919820003751299
 40
1.919820003751299
 40
1.919820003751299
 10
14.18434124579957
 20
415.3359038979937
 10
14.08270465458918
 20
415.3298400846737
 10
13.91303023550171
 20
415.3197170178699
 10
13.72672875552129
 20
415.2065408695116
 10
13.59023338460122
 20
415.1407452303701
 10
13.49288505159654
 20
415.0513016643769
 10
13.42152832888305
 20
414.9589129944346
 10
13.33156978409318
 20
414.8488325716096
 10
13.25821116138468
 20
414.7206483737552
 10
13.22085407459755
 20
414.5793670409644
 10
13.18776352167828
 20
414.4667649989901
 10
13.16322301366674
 20
414.3412847180756
 10
13.16946681363768
 20
414.2057218730337
 10
13.17840822095186
 20
414.0798180426548
 10
13.21832943034678
 20
413.9899415581529
 10
13.26379261658277
 20
413.9259556945027
 10
13.31946166551375
 20
413.8554823594708
 10
13.38037577886555
 20
413.8088080978806
 10
13.43075672276336
 20
413.7242545365752
 10
13.51894686548789
 20
413.7134648923482
 10
13.57500402871503
 20
413.6919902800589
 10
13.59257648171732
 20
413.685258551347
 72
     1
 10
13.59257648171714
 20
413.685258551347
 11
15.01429904797445
 21
413.685258551347
 72
     1
 10
15.0142990479745
 20
413.685258551347
 11
15.32052937868377
 21
414.2993991366154
 72
     1
 10
15.32052937868377
 20
414.2993991366154
 11
14.26503615968175
 21
414.2993991366155
 72
     4
 94
        3
 73
     0
 74
     0
 95
       16
 96
       12
 40
0.0
 40
0.0
 40
0.0
 40
0.0
 40
0.0719416665230381
 40
0.1446253590757905
 40
0.1879779149910379
 40
0.2295440936103807
 40
0.2751936323956738
 40
0.307071865605181
 40
0.3373215422371223
 40
0.3986635435211884
 40
0.5242542460841744
 40
0.5242542460841744
 40
0.5242542460841744
 40
0.5242542460841744
 10
14.26503615968175
 20
414.2993991366154
 10
14.23319876458043
 20
414.3087661650743
 10
14.16919559477483
 20
414.327596836086
 10
14.16383904629927
 20
414.4188810113207
 10
14.17113656863901
 20
414.4839284559337
 10
14.20169860849714
 20
414.5312867941385
 10
14.23877566376015
 20
414.5657462162965
 10
14.25258109584769
 20
414.6106242257159
 10
14.29316090566246
 20
414.6445127375564
 10
14.3651197816024
 20
414.7014745920492
 10
14.44469384157179
 20
414.7136061943261
 10
14.498155659069
 20
414.7217568090757
 72
     1
 10
14.498155659069
 20
414.7217568090757
 11
15.53113055505548
 21
414.7217568090757
 97
        0
 75
     0
 76
     1
 47
0.0514683685270805
 98
        1
 10
14.762464550054
 20
414.9684508923006
450
        0
451
        0
460
0.0
461
0.0
452
        0
462
0.0
453
        0
470

  0
LINE
  5
101C8
102
{ACAD_REACTORS
330
1020D
102
}
330
18
100
AcDbEntity
  8
ROGO
 62
     4
100
AcDbLine
 10
5.022898860757607
 20
413.0151885463867
 30
0.0
 11
20.34442037899831
 21
413.0151885463867
 31
0.0
  0
LINE
  5
101C9
330
18
100
AcDbEntity
  8
ROGO
 62
     4
100
AcDbLine
 10
14.1843412458
 20
415.3359038979939
 30
0.0
 11
15.83736412869456
 21
415.3359038979939
 31
0.0
  0
LINE
  5
101CA
330
18
100
AcDbEntity
  8
ROGO
 62
     4
100
AcDbLine
 10
15.32052937868377
 20
414.2993991366153
 30
0.0
 11
15.0142990479745
 21
413.6852585513469
 31
0.0
  0
LINE
  5
101CB
330
18
100
AcDbEntity
  8
ROGO
 62
     4
100
AcDbLine
 10
14.26503615968175
 20
414.2993991366153
 30
0.0
 11
15.32052937868377
 21
414.2993991366153
 31
0.0
  0
LINE
  5
101CC
330
18
100
AcDbEntity
  8
ROGO
 62
     4
100
AcDbLine
 10
14.498155659069
 20
414.7217568090757
 30
0.0
 11
15.53113055505551
 21
414.7217568090757
 31
0.0
  0
HATCH
  5
101CD
330
18
100
AcDbEntity
  8
ROGO
 62
     4
100
AcDbHatch
 10
0.0
 20
0.0
 30
0.0
210
0.0
220
0.0
230
1.0
  2
SOLID
 70
     1
 71
     0
 91
        2
 92
        7
 72
     0
 73
     1
 93
        8
 10
12.4072467374724
 20
415.3359038979939
 10
11.08687182637828
 20
415.3359038979939
 10
9.896559386993033
 20
413.685258551347
 10
10.81072145999204
 20
413.6852585513471
 10
11.03734958375247
 20
413.9995312124794
 10
12.08051896890529
 20
413.9995312124794
 10
12.2201313377621
 20
413.685258551347
 10
13.14052880584396
 20
413.685258551347
 97
        0
 92
       22
 72
     0
 73
     1
 93
        3
 10
11.93326559348392
 20
414.3310040650162
 10
11.27638109981652
 20
414.3310040650162
 10
11.68285854654388
 20
414.8946796881189
 97
        0
 75
     0
 76
     1
 47
0.0128389261915577
 98
        2
 10
12.30385094895152
 20
414.9398908899256
 10
12.30385094895152
 20
414.9398908899256
450
        0
451
        0
460
0.0
461
0.0
452
        0
462
0.0
453
        0
470

  0
HATCH
  5
101CE
330
18
100
AcDbEntity
  8
ROGO
 62
     4
100
AcDbHatch
 10
0.0
 20
0.0
 30
0.0
210
0.0
220
0.0
230
1.0
  2
SOLID
 70
     1
 71
     1
 91
        1
 92
        1
 93
       12
 72
     1
 10
8.207577347114096
 20
415.3359038979937
 11
10.44014384916678
 21
415.3359038979939
 72
     1
 10
10.44014384916678
 20
415.3359038979937
 11
10.2530567524615
 21
414.957790290072
 72
     1
 10
10.2530567524615
 20
414.957790290072
 11
9.079676214686315
 21
414.957790290072
 72
     1
 10
9.079676214686315
 20
414.957790290072
 11
8.933397353574861
 21
414.6621524352354
 72
     1
 10
8.933397353574861
 20
414.6621524352354
 11
10.10677789135025
 21
414.6621524352354
 72
     1
 10
10.10677789135025
 20
414.6621524352354
 11
9.956782622684585
 21
414.3590035104558
 72
     1
 10
9.956782622684585
 20
414.3590035104558
 11
8.783402084909255
 21
414.3590035104558
 72
     1
 10
8.783402084909255
 20
414.3590035104558
 11
8.637117031054003
 21
414.0633531397336
 72
     1
 10
8.637117031054174
 20
414.0633531397336
 11
9.810497568829504
 21
414.0633531397336
 72
     1
 10
9.810497568829504
 20
414.0633531397336
 11
9.623419882813522
 21
413.6852585513469
 72
     1
 10
9.623419882813522
 20
413.6852585513469
 11
7.39085338076083
 21
413.6852585513469
 72
     1
 10
7.39085338076083
 20
413.6852585513469
 11
8.207577347114096
 21
415.3359038979937
 97
       12
330
101CF
330
101F0
330
101D4
330
101D9
330
101D3
330
101D2
330
101D7
330
101D5
330
101D8
330
101D6
330
101DA
330
101DB
 75
     0
 76
     1
 98
        1
 10
-83.11486128202403
 20
301.2011642827856
450
        0
451
        0
460
0.0
461
0.0
452
        0
462
0.0
453
        0
470

  0
LINE
  5
101CF
102
{ACAD_REACTORS
330
101CE
102
}
330
18
100
AcDbEntity
  8
ROGO
 62
     4
100
AcDbLine
 10
8.207577347114096
 20
415.3359038979937
 30
0.0
 11
10.44014384916678
 21
415.3359038979939
 31
0.0
  0
LINE
  5
101D0
330
18
100
AcDbEntity
  8
ROGO
 62
     4
100
AcDbLine
 10
9.896559386993033
 20
413.6852585513469
 30
0.0
 11
10.81072145999189
 21
413.6852585513469
 31
0.0
  0
LINE
  5
101D1
330
18
100
AcDbEntity
  8
ROGO
 62
     4
100
AcDbLine
 10
11.08687182637828
 20
415.3359038979937
 30
0.0
 11
9.896559386993033
 21
413.6852585513469
 31
0.0
  0
LINE
  5
101D2
102
{ACAD_REACTORS
330
101CE
102
}
330
18
100
AcDbEntity
  8
ROGO
 62
     4
100
AcDbLine
 10
10.10677789135025
 20
414.6621524352354
 30
0.0
 11
9.956782622684585
 21
414.3590035104558
 31
0.0
  0
LINE
  5
101D3
102
{ACAD_REACTORS
330
101CE
102
}
330
18
100
AcDbEntity
  8
ROGO
 62
     4
100
AcDbLine
 10
8.933397353574861
 20
414.6621524352354
 30
0.0
 11
10.10677789135025
 21
414.6621524352354
 31
0.0
  0
LINE
  5
101D4
102
{ACAD_REACTORS
330
101CE
102
}
330
18
100
AcDbEntity
  8
ROGO
 62
     4
100
AcDbLine
 10
9.079676214686315
 20
414.957790290072
 30
0.0
 11
10.2530567524615
 21
414.957790290072
 31
0.0
  0
LINE
  5
101D5
102
{ACAD_REACTORS
330
101CE
102
}
330
18
100
AcDbEntity
  8
ROGO
 62
     4
100
AcDbLine
 10
8.783402084909255
 20
414.3590035104558
 30
0.0
 11
8.637117031054003
 21
414.0633531397336
 31
0.0
  0
LINE
  5
101D6
102
{ACAD_REACTORS
330
101CE
102
}
330
18
100
AcDbEntity
  8
ROGO
 62
     4
100
AcDbLine
 10
9.810497568829504
 20
414.0633531397336
 30
0.0
 11
9.623419882813522
 21
413.6852585513469
 31
0.0
  0
LINE
  5
101D7
102
{ACAD_REACTORS
330
101CE
102
}
330
18
100
AcDbEntity
  8
ROGO
 62
     4
100
AcDbLine
 10
8.783402084909255
 20
414.3590035104558
 30
0.0
 11
9.956782622684585
 21
414.3590035104558
 31
0.0
  0
LINE
  5
101D8
102
{ACAD_REACTORS
330
101CE
102
}
330
18
100
AcDbEntity
  8
ROGO
 62
     4
100
AcDbLine
 10
8.637117031054174
 20
414.0633531397336
 30
0.0
 11
9.810497568829504
 21
414.0633531397336
 31
0.0
  0
LINE
  5
101D9
102
{ACAD_REACTORS
330
101CE
102
}
330
18
100
AcDbEntity
  8
ROGO
 62
     4
100
AcDbLine
 10
9.079676214686315
 20
414.957790290072
 30
0.0
 11
8.933397353574861
 21
414.6621524352354
 31
0.0
  0
LINE
  5
101DA
102
{ACAD_REACTORS
330
101CE
102
}
330
18
100
AcDbEntity
  8
ROGO
 62
     4
100
AcDbLine
 10
7.39085338076083
 20
413.6852585513469
 30
0.0
 11
9.623419882813522
 21
413.6852585513469
 31
0.0
  0
LINE
  5
101DB
102
{ACAD_REACTORS
330
101CE
102
}
330
18
100
AcDbEntity
  8
ROGO
 62
     4
100
AcDbLine
 10
8.207577347114096
 20
415.3359038979937
 30
0.0
 11
7.39085338076083
 21
413.6852585513469
 31
0.0
  0
LINE
  5
101DC
102
{ACAD_REACTORS
330
1020D
102
}
330
18
100
AcDbEntity
  8
ROGO
 62
     4
100
AcDbLine
 10
5.326057538385811
 20
413.6852585513469
 30
0.0
 11
5.022898860757607
 21
413.0151885463867
 31
0.0
  0
LINE
  5
101DD
102
{ACAD_REACTORS
330
1020D
102
}
330
18
100
AcDbEntity
  8
ROGO
 62
     4
100
AcDbLine
 10
6.204738411110298
 20
414.2586170542334
 30
0.0
 11
5.585461189131621
 21
414.2586170542334
 31
0.0
  0
LINE
  5
101DE
102
{ACAD_REACTORS
330
1020D
102
}
330
18
100
AcDbEntity
  8
ROGO
 62
     4
100
AcDbLine
 10
6.294399598391549
 20
414.6975946078074
 30
0.0
 11
5.784067086522526
 21
414.6975946078074
 31
0.0
  0
SPLINE
  5
101DF
102
{ACAD_REACTORS
330
1020D
102
}
330
18
100
AcDbEntity
  8
ROGO
 62
     4
100
AcDbSpline
210
0.0
220
0.0
230
1.0
 70
     8
 71
     3
 72
    15
 73
    11
 74
     9
 42
0.0000000001
 43
0.0000000001
 44
0.0000000001
 40
0.0
 40
0.0
 40
0.0
 40
0.0
 40
0.1935435215471364
 40
0.2817887217100884
 40
0.3819528985556854
 40
0.4501893929234009
 40
0.5581061164785321
 40
0.6227452859309585
 40
0.7336449190927701
 40
0.7706114870736141
 40
0.7706114870736141
 40
0.7706114870736141
 40
0.7706114870736141
 10
6.294399598391407
 20
414.6975946078075
 30
0.0
 10
6.367090791837479
 20
414.6979275722749
 30
0.0
 10
6.472925171190552
 20
414.6984123502252
 30
0.0
 10
6.53079917921578
 20
414.5674949169034
 30
0.0
 10
6.504857289376509
 20
414.483204512715
 30
0.0
 10
6.472246219550686
 20
414.3966645390333
 30
0.0
 10
6.414615073248606
 20
414.3378593217084
 30
0.0
 10
6.337265633508666
 20
414.281219984234
 30
0.0
 10
6.264166716585028
 20
414.2743635388136
 30
0.0
 10
6.216624076756682
 20
414.2617663523556
 30
0.0
 10
6.204738411110156
 20
414.2586170542337
 30
0.0
 11
6.294399598391407
 21
414.6975946078075
 31
0.0
 11
6.482688246353347
 21
414.6528008606821
 31
0.0
 11
6.518552824379725
 21
414.5721724079201
 31
0.0
 11
6.500620793151284
 21
414.4736264563078
 31
0.0
 11
6.473722488523947
 21
414.4109152103326
 31
0.0
 11
6.40199333247088
 21
414.3302867575706
 31
0.0
 11
6.348196723216034
 21
414.2944517598703
 31
0.0
 11
6.240602989136704
 21
414.2675758036586
 31
0.0
 11
6.204738411110156
 21
414.2586170542337
 31
0.0
  0
LINE
  5
101E0
102
{ACAD_REACTORS
330
1020D
102
}
330
18
100
AcDbEntity
  8
ROGO
 62
     4
100
AcDbLine
 10
5.784067086522526
 20
414.6975946078074
 30
0.0
 11
5.585461189131621
 21
414.2586170542334
 31
0.0
  0
LINE
  5
101E1
102
{ACAD_REACTORS
330
1020D
102
}
330
18
100
AcDbEntity
  8
ROGO
 62
     4
100
AcDbLine
 10
6.44682418428502
 20
413.6852585513469
 30
0.0
 11
5.326057538385811
 21
413.6852585513469
 31
0.0
  0
SPLINE
  5
101E2
102
{ACAD_REACTORS
330
1020D
102
}
330
18
100
AcDbEntity
  8
ROGO
 62
     4
100
AcDbSpline
210
0.0
220
0.0
230
1.0
 70
     8
 71
     3
 72
    18
 73
    14
 74
     0
 42
0.0000000001
 43
0.0000000001
 40
0.1087402787915014
 40
0.1087402787915014
 40
0.1087402787915014
 40
0.1087402787915014
 40
0.5992371417938475
 40
1.083176791562496
 40
1.448211145705696
 40
1.714037220764907
 40
2.164002567013297
 40
2.740236056362883
 40
3.395137510199602
 40
4.071816045172726
 40
4.784906178399433
 40
5.506895915094292
 40
6.060470601257719
 40
6.060470601257719
 40
6.060470601257719
 40
6.060470601257719
 10
7.010112905149327
 20
415.3359038979939
 30
0.0
 10
7.075049816090825
 20
415.3121056083282
 30
0.0
 10
7.202747581579387
 20
415.2617923872151
 30
0.0
 10
7.358599115820993
 20
415.146960991568
 30
0.0
 10
7.443593813102694
 20
415.0143975282727
 30
0.0
 10
7.525349196254126
 20
414.8837799709436
 30
0.0
 10
7.536790712887352
 20
414.6963869937336
 30
0.0
 10
7.518048735669623
 20
414.4594768515065
 30
0.0
 10
7.3970522239388
 20
414.2122855657488
 30
0.0
 10
7.202845706229396
 20
413.9960823943217
 30
0.0
 10
6.961724761684934
 20
413.8230361955412
 30
0.0
 10
6.707454408634788
 20
413.6871993857146
 30
0.0
 10
6.525701888797499
 20
413.6858459297322
 30
0.0
 10
6.446824183896495
 20
413.6852585513471
 30
0.0
  0
LINE
  5
101E3
102
{ACAD_REACTORS
330
1020D
102
}
330
18
100
AcDbEntity
  8
ROGO
 62
     4
100
AcDbLine
 10
4.983175303010568
 20
415.3359038979937
 30
0.0
 11
7.010112905149327
 21
415.3359038979937
 31
0.0
  0
LINE
  5
101E4
330
18
100
AcDbEntity
  8
ROGO
 62
     4
100
AcDbLine
 10
12.08051896890529
 20
413.9995312124794
 30
0.0
 11
12.2201313377621
 21
413.6852585513469
 31
0.0
  0
LINE
  5
101E5
330
18
100
AcDbEntity
  8
ROGO
 62
     4
100
AcDbLine
 10
11.68285854654388
 20
414.8946796881188
 30
0.0
 11
11.93326559348392
 21
414.3310040650161
 31
0.0
  0
LINE
  5
101E6
330
18
100
AcDbEntity
  8
ROGO
 62
     4
100
AcDbLine
 10
12.4072467374724
 20
415.3359038979937
 30
0.0
 11
13.14052880584396
 21
413.6852585513469
 31
0.0
  0
SPLINE
  5
101E7
330
18
100
AcDbEntity
  8
ROGO
 62
     4
100
AcDbSpline
210
0.0
220
0.0
230
1.0
 70
     8
 71
     3
 72
    16
 73
    12
 74
    10
 42
0.0000000001
 43
0.0000000001
 44
0.0000000001
 40
0.0
 40
0.0
 40
0.0
 40
0.0
 40
0.157869633384448
 40
0.2349775645939461
 40
0.2730019188049895
 40
0.3130733961281108
 40
0.3704556370513399
 40
0.4227050253095824
 40
0.4771999199867281
 40
0.5685645485952641
 40
0.6589964379571267
 40
0.6589964379571267
 40
0.6589964379571267
 40
0.6589964379571267
 10
14.498155659069
 20
414.7217568090759
 30
0.0
 10
14.4446938415717
 20
414.7136061943261
 30
0.0
 10
14.3651197816023
 20
414.7014745920491
 30
0.0
 10
14.29316090566267
 20
414.6445127375562
 30
0.0
 10
14.25258109584764
 20
414.6106242257161
 30
0.0
 10
14.23877566376018
 20
414.5657462162965
 30
0.0
 10
14.2016986084971
 20
414.5312867941386
 30
0.0
 10
14.17113656863907
 20
414.4839284559339
 30
0.0
 10
14.16383904629931
 20
414.4188810113207
 30
0.0
 10
14.16919559477473
 20
414.327596836086
 30
0.0
 10
14.23319876458039
 20
414.3087661650742
 30
0.0
 10
14.26503615968175
 20
414.2993991366154
 30
0.0
 11
14.498155659069
 21
414.7217568090759
 31
0.0
 11
14.34573158913375
 21
414.6806505559103
 31
0.0
 11
14.28296870647989
 21
414.6358571008484
 31
0.0
 11
14.25607040185252
 21
414.6089808525734
 31
0.0
 11
14.23813785505425
 21
414.573145854873
 31
0.0
 11
14.20227327702787
 21
414.5283523998113
 31
0.0
 11
14.17537497240036
 21
414.483558652686
 31
0.0
 11
14.16640869900135
 21
414.4298064481991
 31
0.0
 11
14.18434124579957
 21
414.3402189539484
 31
0.0
 11
14.26503615968175
 21
414.2993991366154
 31
0.0
  0
SPLINE
  5
101E8
330
18
100
AcDbEntity
  8
ROGO
 62
     4
100
AcDbSpline
210
0.0
220
0.0
230
1.0
 70
     8
 71
     3
 72
    26
 73
    22
 74
    20
 42
0.0000000001
 43
0.0000000001
 44
0.0000000001
 40
0.0
 40
0.0
 40
0.0
 40
0.0
 40
0.2994459767656547
 40
0.4999018714686718
 40
0.6444468960544493
 40
0.7523739888863734
 40
0.8923610927559938
 40
0.9945380316111716
 40
1.179045767850007
 40
1.329232412552702
 40
1.431383395763853
 40
1.531547664911286
 40
1.71072206928575
 40
1.837419758527428
 40
1.905656252895416
 40
2.002584177468901
 40
2.072578006660686
 40
2.17397595655103
 40
2.231358425464139
 40
2.356229114417756
 40
2.41324615573573
 40
2.41324615573573
 40
2.41324615573573
 40
2.41324615573573
 10
14.18434124579957
 20
415.3359038979939
 30
0.0
 10
14.08270465458915
 20
415.3298400846739
 30
0.0
 10
13.91303023550169
 20
415.31971701787
 30
0.0
 10
13.72672875552132
 20
415.2065408695116
 30
0.0
 10
13.5902333846013
 20
415.14074523037
 30
0.0
 10
13.49288505159648
 20
415.051301664377
 30
0.0
 10
13.42152832888308
 20
414.9589129944348
 30
0.0
 10
13.33156978409314
 20
414.8488325716098
 30
0.0
 10
13.25821116138474
 20
414.7206483737554
 30
0.0
 10
13.22085407459761
 20
414.5793670409647
 30
0.0
 10
13.18776352167834
 20
414.4667649989902
 30
0.0
 10
13.16322301366667
 20
414.3412847180756
 30
0.0
 10
13.1694668136376
 20
414.2057218730338
 30
0.0
 10
13.17840822095204
 20
414.0798180426548
 30
0.0
 10
13.21832943034671
 20
413.9899415581529
 30
0.0
 10
13.26379261658287
 20
413.9259556945029
 30
0.0
 10
13.31946166551366
 20
413.8554823594708
 30
0.0
 10
13.38037577886571
 20
413.8088080978808
 30
0.0
 10
13.4307567227633
 20
413.7242545365752
 30
0.0
 10
13.51894686548784
 20
413.7134648923479
 30
0.0
 10
13.57500402871501
 20
413.6919902800589
 30
0.0
 10
13.59257648171732
 20
413.6852585513471
 30
0.0
 11
14.18434124579957
 21
415.3359038979939
 31
0.0
 11
13.8884588637583
 21
415.289844056497
 31
0.0
 11
13.70913597362587
 21
415.2002568543097
 31
0.0
 11
13.58361020831813
 21
415.1285871509728
 31
0.0
 11
13.50291529443581
 21
415.0569171555725
 31
0.0
 11
13.41325410715458
 21
414.9494124545352
 31
0.0
 11
13.3504912245007
 21
414.8687840017732
 31
0.0
 11
13.2608295216495
 21
414.7075268041856
 31
0.0
 11
13.21599918579375
 21
414.5641871054483
 31
0.0
 11
13.18910088116638
 21
414.465641153836
 31
0.0
 11
13.1711683343681
 21
414.3670952022237
 31
0.0
 11
13.1711683343681
 21
414.1879207978492
 31
0.0
 11
13.18910088116638
 21
414.0624985979622
 31
0.0
 11
13.21599918579375
 21
413.9997873519866
 31
0.0
 11
13.26979579504856
 21
413.9191588992245
 31
0.0
 11
13.31462664647415
 21
413.8654064026742
 31
0.0
 11
13.38635528695727
 21
413.7937366993373
 31
0.0
 11
13.42221986498396
 21
413.7489429522119
 31
0.0
 11
13.53877987246235
 21
413.70414949715
 31
0.0
 11
13.59257648171732
 21
413.6852585513471
 31
0.0
  0
LINE
  5
101E9
330
18
100
AcDbEntity
  8
ROGO
 62
     4
100
AcDbLine
 10
13.59257648171714
 20
413.6852585513469
 30
0.0
 11
15.0142990479745
 21
413.6852585513469
 31
0.0
  0
LINE
  5
101EA
330
18
100
AcDbEntity
  8
ROGO
 62
     4
100
AcDbLine
 10
13.14052880584396
 20
413.6852585513469
 30
0.0
 11
12.2201313377621
 21
413.6852585513469
 31
0.0
  0
LINE
  5
101EB
330
18
100
AcDbEntity
  8
ROGO
 62
     4
100
AcDbLine
 10
11.08687182637828
 20
415.3359038979937
 30
0.0
 11
12.4072467374724
 21
415.3359038979939
 31
0.0
  0
LINE
  5
101EC
330
18
100
AcDbEntity
  8
ROGO
 62
     4
100
AcDbLine
 10
11.03734958375247
 20
413.9995312124794
 30
0.0
 11
10.81072145999204
 21
413.6852585513469
 31
0.0
  0
LINE
  5
101ED
330
18
100
AcDbEntity
  8
ROGO
 62
     4
100
AcDbLine
 10
11.27638109981649
 20
414.3310040650161
 30
0.0
 11
11.93326559348392
 21
414.3310040650161
 31
0.0
  0
LINE
  5
101EE
330
18
100
AcDbEntity
  8
ROGO
 62
     4
100
AcDbLine
 10
11.03734958375247
 20
413.9995312124794
 30
0.0
 11
12.08051896890529
 21
413.9995312124794
 31
0.0
  0
LINE
  5
101EF
330
18
100
AcDbEntity
  8
ROGO
 62
     4
100
AcDbLine
 10
11.68285854654374
 20
414.8946796881188
 30
0.0
 11
11.27638109981649
 21
414.3310040650161
 31
0.0
  0
LINE
  5
101F0
102
{ACAD_REACTORS
330
101CE
102
}
330
18
100
AcDbEntity
  8
ROGO
 62
     4
100
AcDbLine
 10
10.44014384916678
 20
415.3359038979937
 30
0.0
 11
10.2530567524615
 21
414.957790290072
 31
0.0
  0
HATCH
  5
101F1
330
18
100
AcDbEntity
  8
ROGO
 62
     4
100
AcDbHatch
 10
0.0
 20
0.0
 30
0.0
210
0.0
220
0.0
230
1.0
  2
SOLID
 70
     1
 71
     0
 91
        1
 92
        5
 93
        8
 72
     4
 94
        3
 73
     0
 74
     0
 95
       26
 96
       22
 40
0.0
 40
0.0
 40
0.0
 40
0.0
 40
0.2382195346592458
 40
0.3976890672660633
 40
0.5126795869786948
 40
0.5985392873135009
 40
0.7099038249249448
 40
0.7911890807494359
 40
0.9379713068544312
 40
1.057449928673131
 40
1.13871453589328
 40
1.21839864400346
 40
1.360938021870371
 40
1.461730374800204
 40
1.516014844108052
 40
1.593124329220434
 40
1.648806818593724
 40
1.729472362005531
 40
1.77512208216432
 40
1.874460993765123
 40
1.919820003751184
 40
1.919820003751184
 40
1.919820003751184
 40
1.919820003751184
 10
19.50286737813982
 20
415.3359038979937
 10
19.40123078692946
 20
415.3298400846737
 10
19.23155636784199
 20
415.31971701787
 10
19.04525488786172
 20
415.2065408695113
 10
18.90875951694164
 20
415.1407452303701
 10
18.81141118393694
 20
415.0513016643767
 10
18.74005446122348
 20
414.9589129944346
 10
18.65009591643343
 20
414.8488325716097
 10
18.57673729372521
 20
414.7206483737551
 10
18.53938020693809
 20
414.5793670409644
 10
18.50628965401853
 20
414.4667649989899
 10
18.48174914600713
 20
414.3412847180756
 10
18.48799294597822
 20
414.2057218730338
 10
18.49693435329212
 20
414.0798180426547
 10
18.53685556268718
 20
413.9899415581528
 10
18.58231874892317
 20
413.9259556945027
 10
18.63798779785401
 20
413.8554823594707
 10
18.69890191120609
 20
413.8088080978806
 10
18.74928285510361
 20
413.7242545365751
 10
18.83747299782817
 20
413.7134648923482
 10
18.89353016105528
 20
413.6919902800588
 10
18.91110261405757
 20
413.685258551347
 72
     1
 10
18.91110261405742
 20
413.685258551347
 11
20.33282518031487
 21
413.685258551347
 72
     1
 10
20.3328251803149
 20
413.685258551347
 11
20.63905551102417
 21
414.2993991366154
 72
     1
 10
20.63905551102417
 20
414.2993991366154
 11
19.58356229202215
 21
414.2993991366154
 72
     4
 94
        3
 73
     0
 74
     0
 95
       16
 96
       12
 40
0.0
 40
0.0
 40
0.0
 40
0.0
 40
0.0719416665231909
 40
0.144625359075921
 40
0.1879779149910563
 40
0.229544093610399
 40
0.2751936323957808
 40
0.3070718656052371
 40
0.3373215422372589
 40
0.3986635435213249
 40
0.524254246084311
 40
0.524254246084311
 40
0.524254246084311
 40
0.524254246084311
 10
19.58356229202215
 20
414.2993991366153
 10
19.55172489692069
 20
414.3087661650741
 10
19.48772172711509
 20
414.327596836086
 10
19.4823651786397
 20
414.4188810113207
 10
19.48966270097955
 20
414.4839284559337
 10
19.5202247408375
 20
414.5312867941384
 10
19.55730179610057
 20
414.5657462162964
 10
19.57110722818797
 20
414.610624225716
 10
19.611687038003
 20
414.6445127375562
 10
19.68364591394265
 20
414.7014745920492
 10
19.76321997391207
 20
414.7136061943261
 10
19.81668179140939
 20
414.7217568090757
 72
     1
 10
19.81668179140925
 20
414.7217568090757
 11
20.84965668739588
 21
414.7217568090757
 72
     1
 10
20.84965668739588
 20
414.7217568090757
 11
21.15589026103496
 21
415.3359038979938
 72
     1
 10
21.15589026103496
 20
415.3359038979937
 11
19.50286737813971
 21
415.3359038979937
 97
        0
 75
     0
 76
     1
 47
0.0514683685270805
 98
        1
 10
19.78810641814701
 20
415.0336651206901
450
        0
451
        0
460
0.0
461
0.0
452
        0
462
0.0
453
        0
470

  0
LINE
  5
101F2
102
{ACAD_REACTORS
330
1020D
102
}
330
18
100
AcDbEntity
  8
ROGO
 62
     4
100
AcDbLine
 10
21.50160400543828
 20
415.3359038979937
 30
0.0
 11
20.34442037899831
 21
413.0151885463867
 31
0.0
  0
LINE
  5
101F3
330
18
100
AcDbEntity
  8
ROGO
 62
     4
100
AcDbLine
 10
19.81668179140925
 20
414.7217568090757
 30
0.0
 11
20.84965668739588
 21
414.7217568090757
 31
0.0
  0
LINE
  5
101F4
330
18
100
AcDbEntity
  8
ROGO
 62
     4
100
AcDbLine
 10
19.58356229202215
 20
414.2993991366153
 30
0.0
 11
20.63905551102417
 21
414.2993991366153
 31
0.0
  0
LINE
  5
101F5
330
18
100
AcDbEntity
  8
ROGO
 62
     4
100
AcDbLine
 10
19.50286737814028
 20
415.3359038979937
 30
0.0
 11
21.15589026103496
 21
415.3359038979937
 31
0.0
  0
LINE
  5
101F6
330
18
100
AcDbEntity
  8
ROGO
 62
     4
100
AcDbLine
 10
18.91110261405742
 20
413.6852585513469
 30
0.0
 11
20.3328251803149
 21
413.6852585513469
 31
0.0
  0
ELLIPSE
  5
101F7
330
18
100
AcDbEntity
  8
ROGO
 62
     4
100
AcDbEllipse
 10
16.97079578055431
 20
414.49091355166
 30
0.0
 11
0.2241068891575711
 21
0.1970739656705475
 31
0.0
210
0.0
220
0.0
230
1.0
 40
0.678808341743879
 41
0.0
 42
6.283185307179586
  0
SPLINE
  5
101F8
330
18
100
AcDbEntity
  8
ROGO
 62
     4
100
AcDbSpline
210
0.0
220
0.0
230
1.0
 70
     8
 71
     3
 72
     9
 73
     5
 74
     3
 42
0.0000000001
 43
0.0000000001
 44
0.0000000001
 40
0.0
 40
0.0
 40
0.0
 40
0.0
 40
0.1427711407674359
 40
0.3347358515551994
 40
0.3347358515551994
 40
0.3347358515551994
 40
0.3347358515551994
 10
17.52857053124543
 20
413.7220595393656
 30
0.0
 10
17.57443275237215
 20
413.7360907888438
 30
0.0
 10
17.68195959260431
 20
413.7689879291009
 30
0.0
 10
17.77080139421773
 20
413.8385164463439
 30
0.0
 10
17.82175049534731
 20
413.8783897423832
 30
0.0
 11
17.52857053124543
 21
413.7220595393656
 31
0.0
 11
17.66275804407667
 21
413.7708172058007
 31
0.0
 11
17.82175049534731
 21
413.8783897423832
 31
0.0
  0
SPLINE
  5
101F9
330
18
100
AcDbEntity
  8
ROGO
 62
     4
100
AcDbSpline
210
0.0
220
0.0
230
1.0
 70
     8
 71
     3
 72
    11
 73
     7
 74
     0
 42
0.0000000001
 43
0.0000000001
 40
0.1647869275458134
 40
0.1647869275458134
 40
0.1647869275458134
 40
0.1647869275458134
 40
0.2895635144633836
 40
0.5387013147903714
 40
0.7953622617455423
 40
0.8850764140209602
 40
0.8850764140209602
 40
0.8850764140209602
 40
0.8850764140209602
 10
17.52857053124543
 20
413.7220595393656
 30
0.0
 10
17.51099926695457
 20
413.717168571253
 30
0.0
 10
17.45651888388479
 20
413.7084604739406
 30
0.0
 10
17.36513530626811
 20
413.696503233622
 30
0.0
 10
17.27827978634295
 20
413.6840254170943
 30
0.0
 10
17.2274577203795
 20
413.6850048656767
 30
0.0
 10
17.21429436488728
 20
413.6852585513471
 30
0.0
  0
LINE
  5
101FA
330
18
100
AcDbEntity
  8
ROGO
 62
     4
100
AcDbLine
 10
16.2709612397399
 20
413.6852585513469
 30
0.0
 11
17.21429436488728
 21
413.6852585513469
 31
0.0
  0
LINE
  5
101FB
330
18
100
AcDbEntity
  8
ROGO
 62
     4
100
AcDbLine
 10
16.75401266700532
 20
415.3427888549615
 30
0.0
 11
17.6973457921527
 21
415.3427888549615
 31
0.0
  0
SPLINE
  5
101FC
330
18
100
AcDbEntity
  8
ROGO
 62
     4
100
AcDbSpline
210
0.0
220
0.0
230
1.0
 70
     8
 71
     3
 72
    25
 73
    21
 74
     0
 42
0.0000000001
 43
0.0000000001
 40
0.0
 40
0.0
 40
0.0
 40
0.0
 40
0.4087168505087288
 40
0.6887487002771746
 40
0.9415836120477687
 40
1.17452070575514
 40
1.41154617586699
 40
1.599156012919487
 40
1.80099909059943
 40
2.178735911501585
 40
2.521686161369157
 40
2.762704659361267
 40
3.06256558063785
 40
3.222432137207705
 40
3.399493810628493
 40
3.567459719866414
 40
3.743172740007509
 40
3.995988754699505
 40
4.17170091132118
 40
4.337226830236035
 40
4.337226830236035
 40
4.337226830236035
 40
4.337226830236035
 10
17.69734579215273
 20
415.3427888549616
 30
0.0
 10
17.75921622648641
 20
415.3408010217177
 30
0.0
 10
17.86347711316088
 20
415.3374512269603
 30
0.0
 10
17.97541403741275
 20
415.2499594713603
 30
0.0
 10
18.06106493123852
 20
415.1774221025197
 30
0.0
 10
18.12186099881785
 20
415.0897278201828
 30
0.0
 10
18.1751504554436
 20
415.009097598959
 30
0.0
 10
18.21026416712411
 20
414.9239706374289
 30
0.0
 10
18.25802575252149
 20
414.8218260796902
 30
0.0
 10
18.27779668931711
 20
414.6851718368941
 30
0.0
 10
18.26443907064384
 20
414.5439270682329
 30
0.0
 10
18.22958192273572
 20
414.4187265731167
 30
0.0
 10
18.19301957712048
 20
414.3226756943223
 30
0.0
 10
18.1499265005813
 20
414.2390574455284
 30
0.0
 10
18.09855404666407
 20
414.1849146229475
 30
0.0
 10
18.06291390288774
 20
414.1160725518476
 30
0.0
 10
17.99445374573435
 20
414.059763433668
 30
0.0
 10
17.93895624950022
 20
413.9902858850915
 30
0.0
 10
17.87597814921898
 20
413.9306525663266
 30
0.0
 10
17.84047081711381
 20
413.8938595272892
 30
0.0
 10
17.82175049534731
 20
413.8783897423832
 30
0.0
  0
SPLINE
  5
101FD
330
18
100
AcDbEntity
  8
ROGO
 62
     4
100
AcDbSpline
210
0.0
220
0.0
230
1.0
 70
     8
 71
     3
 72
    38
 73
    34
 74
    32
 42
0.0000000001
 43
0.0000000001
 44
0.0000000001
 40
0.0
 40
0.0
 40
0.0
 40
0.0
 40
0.2272284464207051
 40
0.2985908990105579
 40
0.3902867985810321
 40
0.4667001977947087
 40
0.5311735441730722
 40
0.6168088617673213
 40
0.660565133949084
 40
0.7098461819144923
 40
0.7824771729471544
 40
0.8647523253421883
 40
0.9181234109414681
 40
0.9761023146355407
 40
1.040552471400292
 40
1.13835885010292
 40
1.231285109466835
 40
1.274486063684347
 40
1.323750972801236
 40
1.382113620985356
 40
1.423660326686126
 40
1.45848843118414
 40
1.508215096402811
 40
1.562856183350452
 40
1.617496966065293
 40
1.665307726999064
 40
1.774802868026882
 40
1.818003822244394
 40
1.904405781995215
 40
1.980781270790369
 40
2.126996418180008
 40
2.307410770550279
 40
2.567955349092683
 40
2.567955349092683
 40
2.567955349092683
 40
2.567955349092683
 10
16.75401266700532
 20
415.3427888549616
 30
0.0
 10
16.67827061493881
 20
415.3374382128903
 30
0.0
 10
16.57874131842822
 20
415.3304071696757
 30
0.0
 10
16.45236238405569
 20
415.2957831095188
 30
0.0
 10
16.38347188249202
 20
415.2545347045746
 30
0.0
 10
16.31177754584779
 20
415.2242151497806
 30
0.0
 10
16.25065144656993
 20
415.1793179016331
 30
0.0
 10
16.18882368761936
 20
415.1561827822149
 30
0.0
 10
16.14552999815168
 20
415.1144660267148
 30
0.0
 10
16.09542108399253
 20
415.0889836319285
 30
0.0
 10
16.05551846598884
 20
415.0319466241188
 30
0.0
 10
16.01091865659213
 20
414.9786190886605
 30
0.0
 10
15.95917726683348
 20
414.9396923660937
 30
0.0
 10
15.91671241384249
 20
414.898807918441
 30
0.0
 10
15.87775681590479
 20
414.8357109313328
 30
0.0
 10
15.85470114953463
 20
414.7518737193802
 30
0.0
 10
15.78971109597529
 20
414.698941927245
 30
0.0
 10
15.7799256287266
 20
414.6353021194038
 30
0.0
 10
15.74397764823253
 20
414.5977557036782
 30
0.0
 10
15.72834620905686
 20
414.5492886749882
 30
0.0
 10
15.72239300460102
 20
414.504884315641
 30
0.0
 10
15.71524773971257
 20
414.4634137179161
 30
0.0
 10
15.69655707997575
 20
414.4197884809913
 30
0.0
 10
15.70265777580076
 20
414.3658998166205
 30
0.0
 10
15.70091987071585
 20
414.3137176342579
 30
0.0
 10
15.70194262989837
 20
414.2432700631537
 30
0.0
 10
15.69825135036482
 20
414.1746806894387
 30
0.0
 10
15.7276878581083
 20
414.1000391826247
 30
0.0
 10
15.74510740649759
 20
414.0335066056152
 30
0.0
 10
15.79281367343425
 20
413.9413841847582
 30
0.0
 10
15.87510598415049
 20
413.8350948298405
 30
0.0
 10
16.03159169657035
 20
413.706079691248
 30
0.0
 10
16.18205728430646
 20
413.6929917059888
 30
0.0
 10
16.2709612397399
 20
413.6852585513471
 30
0.0
 11
16.75401266700532
 21
415.3427888549616
 31
0.0
 11
16.52843264471778
 21
415.3154681593717
 31
0.0
 11
16.46007507848074
 21
415.294978094028
 31
0.0
 11
16.37804632122731
 21
415.2539973548754
 31
0.0
 11
16.30968875499025
 21
415.2198469417369
 31
0.0
 11
16.25500291682124
 21
415.1856962243654
 31
0.0
 11
16.17980975507592
 21
415.1447157894457
 31
0.0
 11
16.14563070343149
 21
415.1173953980881
 31
0.0
 11
16.10461605627898
 21
415.0900747024981
 31
0.0
 11
16.0567658136182
 21
415.0354339197833
 31
0.0
 11
16.00207997544927
 21
414.9739631152873
 31
0.0
 11
15.96106532829648
 21
414.9398123979159
 31
0.0
 11
15.92005121819574
 21
414.8988319629962
 31
0.0
 11
15.88587216655134
 21
414.8441911802813
 31
0.0
 11
15.84485805645059
 21
414.7553996801951
 31
0.0
 11
15.79017168122976
 21
414.680268527904
 31
0.0
 11
15.77650049021338
 21
414.6392877887514
 31
0.0
 11
15.74915757112887
 21
414.5983073538314
 31
0.0
 11
15.72865024755259
 21
414.5436662668839
 31
0.0
 11
15.72181411499272
 21
414.5026858319642
 31
0.0
 11
15.71497851948459
 21
414.4685351145929
 31
0.0
 11
15.70130732846812
 21
414.4207246578919
 31
0.0
 11
15.70130732846812
 21
414.3660835709442
 31
0.0
 11
15.70130732846812
 21
414.3114427882294
 31
0.0
 11
15.70130732846812
 21
414.2636320272957
 31
0.0
 11
15.70814292397634
 21
414.154350461866
 31
0.0
 11
15.72181411499272
 21
414.1133697227133
 31
0.0
 11
15.74915757112887
 21
414.031408548641
 31
0.0
 11
15.78333608572165
 21
413.9631074181312
 31
0.0
 11
15.87220097553498
 21
413.8469958309202
 31
0.0
 11
16.01575170351731
 21
413.7377139612578
 31
0.0
 11
16.2709612397399
 21
413.6852585513471
 31
0.0
  0
SPLINE
  5
101FE
330
18
100
AcDbEntity
  8
ROGO
 62
     4
100
AcDbSpline
210
0.0
220
0.0
230
1.0
 70
     8
 71
     3
 72
    26
 73
    22
 74
    20
 42
0.0000000001
 43
0.0000000001
 44
0.0000000001
 40
0.0
 40
0.0
 40
0.0
 40
0.0
 40
0.2994459767656828
 40
0.4999018714685473
 40
0.6444468960543495
 40
0.7523739888862737
 40
0.8923610927558756
 40
0.9945380316111583
 40
1.179045767850159
 40
1.329232412552871
 40
1.43138339576377
 40
1.531547664911178
 40
1.710722069285643
 40
1.8374197585273
 40
1.905656252895322
 40
2.00258417746876
 40
2.072578006660617
 40
2.173975956550981
 40
2.231358425463984
 40
2.356229114417734
 40
2.413246155735573
 40
2.413246155735573
 40
2.413246155735573
 40
2.413246155735573
 10
19.50286737813985
 20
415.3359038979939
 30
0.0
 10
19.40123078692941
 20
415.3298400846739
 30
0.0
 10
19.23155636784198
 20
415.31971701787
 30
0.0
 10
19.0452548878617
 20
415.2065408695115
 30
0.0
 10
18.9087595169417
 20
415.1407452303701
 30
0.0
 10
18.81141118393686
 20
415.051301664377
 30
0.0
 10
18.74005446122354
 20
414.9589129944346
 30
0.0
 10
18.65009591643326
 20
414.8488325716099
 30
0.0
 10
18.57673729372526
 20
414.7206483737551
 30
0.0
 10
18.53938020693808
 20
414.5793670409646
 30
0.0
 10
18.50628965401851
 20
414.4667649989899
 30
0.0
 10
18.4817491460072
 20
414.3412847180758
 30
0.0
 10
18.4879929459781
 20
414.2057218730338
 30
0.0
 10
18.49693435329224
 20
414.0798180426547
 30
0.0
 10
18.53685556268714
 20
413.9899415581531
 30
0.0
 10
18.58231874892312
 20
413.9259556945027
 30
0.0
 10
18.63798779785406
 20
413.8554823594709
 30
0.0
 10
18.69890191120617
 20
413.8088080978807
 30
0.0
 10
18.74928285510353
 20
413.724254536575
 30
0.0
 10
18.83747299782816
 20
413.7134648923482
 30
0.0
 10
18.89353016105532
 20
413.6919902800589
 30
0.0
 10
18.91110261405757
 20
413.6852585513471
 30
0.0
 11
19.50286737813985
 21
415.3359038979939
 31
0.0
 11
19.20698499609855
 21
415.289844056497
 31
0.0
 11
19.0276621059663
 21
415.2002568543097
 31
0.0
 11
18.90213634065853
 21
415.1285871509728
 31
0.0
 11
18.8214414267762
 21
415.0569171555725
 31
0.0
 11
18.73178023949501
 21
414.9494124545352
 31
0.0
 11
18.66901735684095
 21
414.8687840017732
 31
0.0
 11
18.57935565398992
 21
414.7075268041853
 31
0.0
 11
18.53452531813411
 21
414.564187105448
 31
0.0
 11
18.50762701350666
 21
414.465641153836
 31
0.0
 11
18.48969446670853
 21
414.3670952022237
 31
0.0
 11
18.48969446670853
 21
414.1879207978492
 31
0.0
 11
18.50762701350666
 21
414.0624985979622
 31
0.0
 11
18.53452531813411
 21
413.9997873519866
 31
0.0
 11
18.58832192738885
 21
413.9191588992245
 31
0.0
 11
18.63315277881454
 21
413.8654064026742
 31
0.0
 11
18.70488141929769
 21
413.7937366993373
 31
0.0
 11
18.74074599732421
 21
413.7489429522119
 31
0.0
 11
18.85730600480275
 21
413.70414949715
 31
0.0
 11
18.91110261405757
 21
413.6852585513471
 31
0.0
  0
SPLINE
  5
101FF
330
18
100
AcDbEntity
  8
ROGO
 62
     4
100
AcDbSpline
210
0.0
220
0.0
230
1.0
 70
     8
 71
     3
 72
    16
 73
    12
 74
    10
 42
0.0000000001
 43
0.0000000001
 44
0.0000000001
 40
0.0
 40
0.0
 40
0.0
 40
0.0
 40
0.157869633384448
 40
0.2349775645939692
 40
0.273001918805073
 40
0.3130733961281307
 40
0.3704556370515993
 40
0.4227050253095835
 40
0.4771999199867292
 40
0.5685645485952372
 40
0.6589964379572527
 40
0.6589964379572527
 40
0.6589964379572527
 40
0.6589964379572527
 10
19.81668179140939
 20
414.7217568090759
 30
0.0
 10
19.76321997391208
 20
414.7136061943262
 30
0.0
 10
19.68364591394267
 20
414.7014745920493
 30
0.0
 10
19.61168703800307
 20
414.6445127375561
 30
0.0
 10
19.57110722818791
 20
414.6106242257162
 30
0.0
 10
19.55730179610057
 20
414.5657462162963
 30
0.0
 10
19.52022474083767
 20
414.5312867941384
 30
0.0
 10
19.48966270097943
 20
414.4839284559339
 30
0.0
 10
19.48236517863978
 20
414.4188810113206
 30
0.0
 10
19.48772172711499
 20
414.3275968360862
 30
0.0
 10
19.55172489692073
 20
414.3087661650741
 30
0.0
 10
19.58356229202215
 20
414.2993991366153
 30
0.0
 11
19.81668179140939
 21
414.7217568090759
 31
0.0
 11
19.66425772147414
 21
414.6806505559103
 31
0.0
 11
19.60149483882026
 21
414.6358571008484
 31
0.0
 11
19.57459653419281
 21
414.6089808525734
 31
0.0
 11
19.55666398739467
 21
414.573145854873
 31
0.0
 11
19.52079940936826
 21
414.528352399811
 31
0.0
 11
19.49390110474078
 21
414.483558652686
 31
0.0
 11
19.48493483134177
 21
414.4298064481991
 31
0.0
 11
19.50286737813985
 21
414.3402189539484
 31
0.0
 11
19.58356229202215
 21
414.2993991366153
 31
0.0
  0
LINE
  5
10200
330
18
100
AcDbEntity
  8
ROGO
 62
     4
100
AcDbLine
 10
15.83736412869456
 20
415.3359038979937
 30
0.0
 11
15.53113055505551
 21
414.7217568090757
 31
0.0
  0
LINE
  5
10201
102
{ACAD_REACTORS
330
1020D
102
}
330
18
100
AcDbEntity
  8
ROGO
 62
     4
100
AcDbLine
 10
21.83728947033177
 20
412.7566576248877
 30
0.0
 11
22.78767870490193
 21
412.7566576248877
 31
0.0
  0
LINE
  5
10202
102
{ACAD_REACTORS
330
1020D
102
}
330
18
100
AcDbEntity
  8
ROGO
 62
     4
100
AcDbLine
 10
22.75659899956389
 20
415.3359038979937
 30
0.0
 11
23.70698823413406
 21
415.3359038979937
 31
0.0
  0
LINE
  5
10203
102
{ACAD_REACTORS
330
1020D
102
}
330
18
100
AcDbEntity
  8
ROGO
 62
     4
100
AcDbLine
 10
22.14463095806658
 20
414.0462807614408
 30
0.0
 11
23.70698823413406
 21
415.3359038979937
 31
0.0
  0
LINE
  5
10204
102
{ACAD_REACTORS
330
1020D
102
}
330
18
100
AcDbEntity
  8
ROGO
 62
     4
100
AcDbLine
 10
21.50160400543828
 20
413.4298700640288
 30
0.0
 11
21.1659185405448
 21
412.7566576248877
 31
0.0
  0
LINE
  5
10205
102
{ACAD_REACTORS
330
1020D
102
}
330
18
100
AcDbEntity
  8
ROGO
 62
     4
100
AcDbLine
 10
22.14463095806658
 20
414.0462807614408
 30
0.0
 11
22.78767870490193
 21
412.7566576248877
 31
0.0
  0
LINE
  5
10206
102
{ACAD_REACTORS
330
1020D
102
}
330
18
100
AcDbEntity
  8
ROGO
 62
     4
100
AcDbLine
 10
21.50160400543828
 20
413.4298700640288
 30
0.0
 11
21.83728947033177
 21
412.7566576248877
 31
0.0
  0
LINE
  5
10207
102
{ACAD_REACTORS
330
1020D
102
}
330
18
100
AcDbEntity
  8
ROGO
 62
     4
100
AcDbLine
 10
22.31159857757078
 20
415.0543026910695
 30
0.0
 11
22.75659899956389
 21
415.3359038979937
 31
0.0
  0
LINE
  5
10208
102
{ACAD_REACTORS
330
1020D
102
}
330
18
100
AcDbEntity
  8
ROGO
 62
     4
100
AcDbLine
 10
22.45201403421555
 20
415.3359038979937
 30
0.0
 11
22.31159857757078
 21
415.0543026910695
 31
0.0
  0
LINE
  5
10209
102
{ACAD_REACTORS
330
1020D
102
}
330
18
100
AcDbEntity
  8
ROGO
 62
     4
100
AcDbLine
 10
21.50160400543828
 20
415.3359038979937
 30
0.0
 11
22.45201403421555
 21
415.3359038979937
 31
0.0
  0
LINE
  5
1020A
330
18
100
AcDbEntity
  8
ROGO
 62
     4
100
AcDbLine
 10
21.15589026103496
 20
415.3359038979937
 30
0.0
 11
20.84965668739588
 21
414.7217568090757
 31
0.0
  0
LINE
  5
1020B
330
18
100
AcDbEntity
  8
ROGO
 62
     4
100
AcDbLine
 10
20.63905551102417
 20
414.2993991366153
 30
0.0
 11
20.3328251803149
 21
413.6852585513469
 31
0.0
  0
HATCH
  5
1020C
330
18
100
AcDbEntity
  8
外形線
 62
     4
100
AcDbHatch
 10
0.0
 20
0.0
 30
0.0
210
0.0
220
0.0
230
1.0
  2
SOLID
 70
     1
 71
     0
 91
        2
 92
        5
 93
        6
 72
     4
 94
        3
 73
     0
 74
     0
 95
       25
 96
       21
 40
0.0
 40
0.0
 40
0.0
 40
0.0
 40
0.165525918914855
 40
0.3412380755365305
 40
0.5940540902285263
 40
0.7697671103696209
 40
0.9377330196075423
 40
1.11479469302833
 40
1.274661249598185
 40
1.574522170874768
 40
1.815540668866877
 40
2.15849091873445
 40
2.536227739636605
 40
2.738070817316548
 40
2.925680654369045
 40
3.162706124480894
 40
3.395643218188267
 40
3.648478129958861
 40
3.928509979727306
 40
4.337226830236035
 40
4.337226830236035
 40
4.337226830236035
 40
4.337226830236035
 10
17.82175049534731
 20
413.8783897423832
 10
17.84047081711381
 20
413.8938595272892
 10
17.87597814921898
 20
413.9306525663266
 10
17.93895624950022
 20
413.9902858850915
 10
17.99445374573435
 20
414.059763433668
 10
18.06291390288774
 20
414.1160725518476
 10
18.09855404666407
 20
414.1849146229475
 10
18.1499265005813
 20
414.2390574455284
 10
18.19301957712048
 20
414.3226756943223
 10
18.22958192273572
 20
414.4187265731167
 10
18.26443907064384
 20
414.5439270682329
 10
18.27779668931711
 20
414.6851718368941
 10
18.25802575252149
 20
414.8218260796902
 10
18.21026416712411
 20
414.9239706374289
 10
18.1751504554436
 20
415.009097598959
 10
18.12186099881785
 20
415.0897278201828
 10
18.06106493123852
 20
415.1774221025197
 10
17.97541403741275
 20
415.2499594713603
 10
17.86347711316088
 20
415.3374512269603
 10
17.75921622648641
 20
415.3408010217177
 10
17.69734579215273
 20
415.3427888549616
 72
     1
 10
17.6973457921531
 20
415.3427888549615
 11
16.75401266700476
 21
415.3427888549615
 72
     4
 94
        3
 73
     0
 74
     0
 95
       38
 96
       34
 40
0.0
 40
0.0
 40
0.0
 40
0.0
 40
0.2272284464207051
 40
0.2985908990105579
 40
0.3902867985810321
 40
0.4667001977947087
 40
0.5311735441730722
 40
0.6168088617673213
 40
0.660565133949084
 40
0.7098461819144923
 40
0.7824771729471544
 40
0.8647523253421883
 40
0.9181234109414681
 40
0.9761023146355407
 40
1.040552471400292
 40
1.13835885010292
 40
1.231285109466835
 40
1.274486063684347
 40
1.323750972801236
 40
1.382113620985356
 40
1.423660326686126
 40
1.45848843118414
 40
1.508215096402811
 40
1.562856183350452
 40
1.617496966065293
 40
1.665307726999064
 40
1.774802868026882
 40
1.818003822244394
 40
1.904405781995215
 40
1.980781270790369
 40
2.126996418180008
 40
2.307410770550279
 40
2.567955349092683
 40
2.567955349092683
 40
2.567955349092683
 40
2.567955349092683
 10
16.75401266700532
 20
415.3427888549616
 10
16.67827061493878
 20
415.3374382128903
 10
16.57874131842823
 20
415.3304071696757
 10
16.4523623840557
 20
415.2957831095188
 10
16.38347188249202
 20
415.2545347045747
 10
16.31177754584775
 20
415.2242151497805
 10
16.25065144656997
 20
415.1793179016332
 10
16.18882368761933
 20
415.1561827822148
 10
16.14552999815174
 20
415.1144660267148
 10
16.09542108399253
 20
415.0889836319285
 10
16.05551846598882
 20
415.0319466241188
 10
16.01091865659217
 20
414.9786190886605
 10
15.95917726683342
 20
414.9396923660937
 10
15.91671241384253
 20
414.898807918441
 10
15.87775681590477
 20
414.8357109313328
 10
15.85470114953466
 20
414.7518737193801
 10
15.78971109597532
 20
414.6989419272451
 10
15.77992562872657
 20
414.6353021194038
 10
15.74397764823251
 20
414.5977557036781
 10
15.72834620905686
 20
414.5492886749883
 10
15.72239300460103
 20
414.5048843156411
 10
15.71524773971257
 20
414.4634137179161
 10
15.69655707997569
 20
414.4197884809914
 10
15.70265777580081
 20
414.3658998166205
 10
15.70091987071586
 20
414.3137176342579
 10
15.70194262989838
 20
414.2432700631538
 10
15.6982513503649
 20
414.1746806894387
 10
15.72768785810828
 20
414.1000391826247
 10
15.74510740649756
 20
414.0335066056152
 10
15.79281367343426
 20
413.9413841847582
 10
15.87510598415045
 20
413.8350948298406
 10
16.03159169657039
 20
413.7060796912479
 10
16.18205728430647
 20
413.6929917059888
 10
16.2709612397399
 20
413.6852585513471
 72
     1
 10
16.27096123974149
 20
413.6852585513469
 11
17.21429436488435
 21
413.6852585513469
 72
     4
 94
        3
 73
     0
 74
     0
 95
       11
 96
        7
 40
0.1647869275458135
 40
0.1647869275458135
 40
0.1647869275458135
 40
0.1647869275458135
 40
0.2545010798212315
 40
0.5111620267764023
 40
0.7602998271033902
 40
0.8850764140209603
 40
0.8850764140209603
 40
0.8850764140209603
 40
0.8850764140209603
 10
17.21429436488728
 20
413.6852585513471
 10
17.2274577203795
 20
413.6850048656767
 10
17.27827978634295
 20
413.6840254170943
 10
17.36513530626811
 20
413.696503233622
 10
17.45651888388479
 20
413.7084604739406
 10
17.51099926695457
 20
413.717168571253
 10
17.52857053124543
 20
413.7220595393656
 72
     4
 94
        3
 73
     0
 74
     0
 95
        9
 96
        5
 40
0.0
 40
0.0
 40
0.0
 40
0.0
 40
0.1427711407674359
 40
0.3347358515551994
 40
0.3347358515551994
 40
0.3347358515551994
 40
0.3347358515551994
 10
17.52857053124543
 20
413.7220595393656
 10
17.57443275237216
 20
413.7360907888439
 10
17.6819595926043
 20
413.7689879291009
 10
17.77080139421778
 20
413.8385164463438
 10
17.82175049534731
 20
413.8783897423832
 97
        0
 92
       20
 93
        1
 72
     3
 10
16.97079578055431
 20
414.49091355166
 11
0.2241068891575711
 21
0.1970739656705475
 40
0.6788083417438791
 50
0.0
 51
360.0
 73
     1
 97
        0
 75
     0
 76
     1
 47
0.0202417926184023
 98
        2
 10
16.6536094507353
 20
414.9028166943069
 10
16.6536094507353
 20
414.9028166943069
450
        0
451
        0
460
0.0
461
0.0
452
        1
462
1.0
453
        2
463
0.0
 63
     5
421
      255
463
1.0
 63
    51
421
 16777113
470
LINEAR
  0
HATCH
  5
1020D
330
18
100
AcDbEntity
  8
外形線
 62
     4
100
AcDbHatch
 10
0.0
 20
0.0
 30
0.0
210
0.0
220
0.0
230
1.0
  2
SOLID
 70
     1
 71
     1
 91
        2
 92
        5
 93
       17
 72
     1
 10
20.34442037899831
 20
413.0151885463867
 11
5.02289886075761
 21
413.0151885463868
 72
     1
 10
5.022898860757611
 20
413.0151885463868
 11
5.326057538385785
 21
413.6852585513469
 72
     1
 10
5.326057538385785
 20
413.6852585513469
 11
6.446824183895856
 21
413.6852585513469
 72
     4
 94
        3
 73
     0
 74
     0
 95
       18
 96
       14
 40
0.108740278791501
 40
0.108740278791501
 40
0.108740278791501
 40
0.108740278791501
 40
0.6623149649549278
 40
1.384304701649787
 40
2.097394834876493
 40
2.774073369849618
 40
3.428974823686337
 40
4.005208313035923
 40
4.455173659284313
 40
4.720999734343524
 40
5.086034088486724
 40
5.569973738255373
 40
6.060470601257719
 40
6.060470601257719
 40
6.060470601257719
 40
6.060470601257719
 10
6.446824183896495
 20
413.6852585513471
 10
6.525701888797499
 20
413.6858459297322
 10
6.707454408634788
 20
413.6871993857146
 10
6.961724761684934
 20
413.8230361955412
 10
7.202845706229396
 20
413.9960823943217
 10
7.3970522239388
 20
414.2122855657488
 10
7.518048735669623
 20
414.4594768515065
 10
7.536790712887352
 20
414.6963869937336
 10
7.525349196254126
 20
414.8837799709436
 10
7.443593813102694
 20
415.0143975282727
 10
7.358599115820993
 20
415.146960991568
 10
7.202747581579387
 20
415.2617923872151
 10
7.075049816090825
 20
415.3121056083282
 10
7.010112905149327
 20
415.3359038979939
 72
     1
 10
7.01011290514963
 20
415.3359038979937
 11
4.983175303010561
 21
415.3359038979937
 72
     1
 10
4.983175303010561
 20
415.3359038979937
 11
3.706988234327119
 21
412.7566576248878
 72
     1
 10
3.706988234327119
 20
412.7566576248878
 11
21.1659185405448
 21
412.7566576248878
 72
     1
 10
21.1659185405448
 20
412.7566576248878
 11
21.50160400543828
 21
413.4298700640287
 72
     1
 10
21.50160400543828
 20
413.4298700640287
 11
21.83728947033179
 21
412.7566576248877
 72
     1
 10
21.83728947033179
 20
412.7566576248877
 11
22.78767870490195
 21
412.7566576248877
 72
     1
 10
22.78767870490195
 20
412.7566576248877
 11
22.14463095806658
 21
414.0462807614406
 72
     1
 10
22.14463095806658
 20
414.0462807614406
 11
23.70698823413406
 21
415.3359038979938
 72
     1
 10
23.70698823413406
 20
415.3359038979938
 11
22.75659899956379
 21
415.3359038979938
 72
     1
 10
22.75659899956379
 20
415.3359038979938
 11
22.31159857757076
 21
415.0543026910696
 72
     1
 10
22.31159857757076
 20
415.0543026910696
 11
22.45201403421551
 21
415.3359038979937
 72
     1
 10
22.45201403421551
 20
415.3359038979937
 11
21.50160400543826
 21
415.3359038979937
 72
     1
 10
21.50160400543826
 20
415.3359038979937
 11
20.34442037899831
 21
413.0151885463867
 97
       17
330
10202
330
10207
330
10208
330
10209
330
101F2
330
101C8
330
101DC
330
101E1
330
101E2
330
101E3
330
101C5
330
101C6
330
10204
330
10206
330
10201
330
10205
330
10203
 92
       20
 93
        4
 72
     4
 94
        3
 73
     0
 74
     0
 95
       15
 96
       11
 40
0.0
 40
0.0
 40
0.0
 40
0.0
 40
0.1935435215471364
 40
0.2817887217100884
 40
0.3819528985556854
 40
0.4501893929234009
 40
0.5581061164785321
 40
0.6227452859309585
 40
0.7336449190927701
 40
0.7706114870736141
 40
0.7706114870736141
 40
0.7706114870736141
 40
0.7706114870736141
 10
6.294399598391407
 20
414.6975946078075
 10
6.367090791837479
 20
414.6979275722749
 10
6.472925171190552
 20
414.6984123502252
 10
6.53079917921578
 20
414.5674949169034
 10
6.504857289376509
 20
414.483204512715
 10
6.472246219550686
 20
414.3966645390333
 10
6.414615073248606
 20
414.3378593217084
 10
6.337265633508666
 20
414.281219984234
 10
6.264166716585028
 20
414.2743635388136
 10
6.216624076756682
 20
414.2617663523556
 10
6.204738411110156
 20
414.2586170542337
 72
     1
 10
6.204738411109865
 20
414.2586170542335
 11
5.585461189131638
 21
414.2586170542335
 72
     1
 10
5.585461189131638
 20
414.2586170542335
 11
5.784067086522514
 21
414.6975946078074
 72
     1
 10
5.784067086522514
 20
414.6975946078074
 11
6.294399598391469
 21
414.6975946078075
 97
        4
330
101DF
330
101DD
330
101E0
330
101DE
 75
     0
 76
     1
 47
0.0258098041991834
 98
        2
 10
21.82405807022383
 20
414.672025765043
 10
21.82405807022383
 20
414.672025765043
450
        0
451
        0
460
0.0
461
0.0
452
        1
462
1.0
453
        2
463
0.0
 63
     5
421
      255
463
1.0
 63
    51
421
 16777113
470
LINEAR
  0
TEXT
  5
1020E
330
18
100
AcDbEntity
  8
文字
100
AcDbText
 10
9.21532156766046
 20
385.9796140947742
 30
0.0
 40
1.75
  1
RESET
 41
1.1
  7
STYLE3
 72
     1
 11
13.70698823432713
 21
385.7462807614408
 31
0.0
100
AcDbText
 73
     1
  0
TEXT
  5
1020F
330
18
100
AcDbEntity
  8
文字
100
AcDbText
 10
20.7569882343271
 20
385.9796140947742
 30
0.0
 40
1.75
  1
POWER
 41
1.1
  7
STYLE3
 72
     1
 11
25.7069882343271
 21
385.7462807614409
 31
0.0
100
AcDbText
 73
     1
  0
TEXT
  5
10210
330
18
100
AcDbEntity
  8
文字
100
AcDbText
 10
-2.326345099006149
 20
385.9796140947742
 30
0.0
 40
1.75
  1
MODE
 41
1.1
  7
STYLE3
 72
     1
 11
1.706988234327184
 21
385.7462807614408
 31
0.0
100
AcDbText
 73
     1
  0
TEXT
  5
10211
330
18
100
AcDbEntity
  8
文字
100
AcDbText
 10
-13.79301176567287
 20
396.9962807614408
 30
0.0
 40
1.75
  1
MODEL PDN-21
 41
1.1
  7
STYLE3
100
AcDbText
  0
LINE
  5
10212
330
18
100
AcDbEntity
  8
外形線
100
AcDbLine
 10
-8.793011765672872
 20
399.5462807614408
 30
0.0
 11
36.20698823432713
 21
399.5462807614408
 31
0.0
  0
DIMENSION
  5
1044C
330
18
100
AcDbEntity
  8
外形線
100
AcDbDimension
  2
*D72
 10
43.01602809868774
 20
368.2962807614408
 30
0.0
 11
41.14102809868768
 21
354.7712807614408
 31
0.0
 70
    32
 71
     5
 42
27.04999999999996
  3
STYLE3
100
AcDbAlignedDimension
 13
17.156988234327
 23
341.2462807614409
 33
0.0
 14
13.70698823432704
 24
368.2962807614408
 34
0.0
 50
90.0
100
AcDbRotatedDimension
  0
DIMENSION
  5
10486
330
18
100
AcDbEntity
  8
外形線
100
AcDbDimension
  2
*D73
 10
55.11327705200392
 20
399.5462807614408
 30
0.0
 11
53.23827705200386
 21
370.3962807614408
 31
0.0
 70
    32
 71
     5
 42
58.29999999999995
  3
STYLE3
100
AcDbAlignedDimension
 13
17.156988234327
 23
341.2462807614409
 33
0.0
 14
52.07829193782868
 24
399.5462807614408
 34
0.0
 50
90.0
100
AcDbRotatedDimension
  0
DIMENSION
  5
10493
330
18
100
AcDbEntity
  8
外形線
100
AcDbDimension
  2
*D74
 10
55.11327705200389
 20
318.5462807614408
 30
0.0
 11
53.23827705200383
 21
329.8962807614409
 31
0.0
 70
    32
 71
     5
 42
22.7000000000001
  3
STYLE3
100
AcDbAlignedDimension
 13
17.156988234327
 23
341.2462807614409
 33
0.0
 14
15.95698823432714
 24
318.5462807614408
 34
0.0
 50
90.0
100
AcDbRotatedDimension
  0
DIMENSION
  5
104A0
330
18
100
AcDbEntity
  8
外形線
100
AcDbDimension
  2
*D75
 10
55.11327705200388
 20
309.5462807614409
 30
0.0
 11
53.23827705200383
 21
314.0462807614408
 31
0.0
 70
    32
 71
     5
 42
8.999999999999829
  3
STYLE3
100
AcDbAlignedDimension
 13
15.95698823432714
 23
318.5462807614408
 33
0.0
 14
13.70698823432697
 24
309.5462807614409
 34
0.0
 50
90.0
100
AcDbRotatedDimension
  0
DIMENSION
  5
104B1
330
18
100
AcDbEntity
  8
外形線
100
AcDbDimension
  2
*D76
 10
62.60879246103316
 20
461.5462807614408
 30
0.0
 11
62.60879246103309
 21
426.4885678751253
 31
0.0
 70
   160
 71
     5
 42
62.0
  3
STYLE3
100
AcDbAlignedDimension
 13
52.07829193782868
 23
399.5462807614408
 33
0.0
 14
17.20698823432712
 24
461.5462807614408
 34
0.0
 50
90.0
100
AcDbRotatedDimension
  0
DIMENSION
  5
104BE
330
18
100
AcDbEntity
  8
外形線
100
AcDbDimension
  2
*D77
 10
71.44844735563521
 20
461.5462807614408
 30
0.0
 11
69.57344735563514
 21
385.5462807614409
 31
0.0
 70
    32
 71
     5
 42
151.9999999999999
  3
STYLE3
100
AcDbAlignedDimension
 13
13.70698823432711
 23
309.5462807614409
 33
0.0
 14
17.20698823432712
 24
461.5462807614408
 34
0.0
 50
90.0
100
AcDbRotatedDimension
  0
DIMENSION
  5
106A2
330
18
100
AcDbEntity
  8
外形線
100
AcDbDimension
  2
*D78
 10
62.60879246103312
 20
309.5462807614409
 30
0.0
 11
60.73379246103307
 21
354.5462807614409
 31
0.0
 70
    32
 71
     5
 42
89.99999999999989
  3
STYLE3
100
AcDbAlignedDimension
 13
52.07829193782868
 23
399.5462807614408
 33
0.0
 14
13.70698823432711
 24
309.5462807614409
 34
0.0
 50
90.0
100
AcDbRotatedDimension
  0
LINE
  5
106D3
330
18
100
AcDbEntity
  8
想像線
 48
0.5
100
AcDbLine
 10
146.4411574458277
 20
409.0156538419109
 30
0.0
 11
146.4411574458277
 21
390.0769076809704
 31
0.0
  0
LINE
  5
106D4
330
18
100
AcDbEntity
  8
想像線
 48
0.5
100
AcDbLine
 10
151.4411574458277
 20
408.1240378010962
 30
0.0
 11
151.4411574458277
 21
390.9685237217868
 31
0.0
  0
DIMENSION
  5
106D5
330
18
100
AcDbEntity
  8
外形線
100
AcDbDimension
  2
*D79
 10
151.4411574458277
 20
416.8871672691623
 30
0.0
 11
157.899490779161
 21
418.7621672691624
 31
0.0
 70
    32
 71
     5
 42
5.0
  3
STYLE3
100
AcDbAlignedDimension
 13
146.4411574458277
 23
409.0156538419109
 33
0.0
 14
151.4411574458277
 24
408.1240378010961
 34
0.0
100
AcDbRotatedDimension
  0
DIMENSION
  5
106E4
330
18
100
AcDbEntity
  8
外形線
100
AcDbDimension
  2
*D80
 10
16.20698823432698
 20
326.0515342908422
 30
0.0
 11
24.09389299623175
 21
327.9265342908422
 31
0.0
 70
    32
  1
φ<>
 71
     5
 42
5.0
  3
STYLE3
100
AcDbAlignedDimension
 13
11.20698823432698
 23
325.8776659167126
 33
0.0
 14
16.20698823432698
 24
325.8776659167125
 34
0.0
100
AcDbRotatedDimension
  0
LINE
  5
10721
330
18
100
AcDbEntity
  8
外形線
 62
     5
 48
0.3
100
AcDbLine
 10
40.25070510659812
 20
382.6336224850141
 30
0.0
 11
42.8539949258286
 21
385.736102479646
 31
0.0
  0
LINE
  5
10722
330
18
100
AcDbEntity
  8
外形線
 62
     5
 48
0.3
100
AcDbLine
 10
39.96893869603701
 20
382.6089711183276
 30
0.0
 11
40.25070510659812
 21
382.6336224850141
 31
0.0
  0
LINE
  5
10723
330
18
100
AcDbEntity
  8
外形線
 62
     5
 48
0.3
100
AcDbLine
 10
42.8539949258286
 20
385.736102479646
 30
0.0
 11
42.82934355914213
 21
386.0178688902071
 31
0.0
  0
LINE
  5
10726
330
18
100
AcDbEntity
  8
外形線
 62
     5
 48
0.3
100
AcDbLine
 10
42.1453971406982
 20
386.5917680776683
 30
0.0
 11
42.82934355914211
 21
386.0178688902071
 31
0.0
  0
LINE
  5
10727
330
18
100
AcDbEntity
  8
中心線
 48
0.15
100
AcDbLine
 10
45.87264185382065
 20
380.5597071948153
 30
0.0
 11
40.15592252446269
 21
385.3566042756235
 31
0.0
  0
LINE
  5
10728
330
18
100
AcDbEntity
  8
外形線
100
AcDbLine
 10
42.67722833316468
 20
385.5254402577882
 30
0.0
 11
40.42747169926177
 21
382.8442847068718
 31
0.0
  0
LINE
  5
10729
330
18
100
AcDbEntity
  8
外形線
100
AcDbLine
 10
43.44327277628365
 20
384.8826526481016
 30
0.0
 11
41.19351614238079
 21
382.2014970971852
 31
0.0
  0
ARC
  5
1072A
330
18
100
AcDbEntity
  8
外形線
100
AcDbCircle
 10
43.06025055472416
 20
385.2040464529449
 30
0.0
 40
0.5
100
AcDbArc
 50
320.0000000000002
 51
140.0000000000001
  0
ARC
  5
1072B
330
18
100
AcDbEntity
  8
外形線
100
AcDbCircle
 10
40.81049392082128
 20
382.5228909020284
 30
0.0
 40
0.5
100
AcDbArc
 50
140.0000000000001
 51
320.0000000000002
  0
LINE
  5
1072C
330
18
100
AcDbEntity
  8
外形線
100
AcDbLine
 10
43.60396967870526
 20
385.0741637588813
 30
0.0
 11
46.13191634099781
 21
382.9529646469156
 31
0.0
  0
LINE
  5
1072D
330
18
100
AcDbEntity
  8
外形線
100
AcDbLine
 10
46.1565677076843
 20
382.6711982363546
 30
0.0
 11
43.84253231281287
 21
379.9134382411263
 31
0.0
  0
LINE
  5
1072E
330
18
100
AcDbEntity
  8
外形線
100
AcDbLine
 10
41.03281923995911
 20
382.0099859864054
 30
0.0
 11
43.56076590225172
 21
379.8887868744398
 31
0.0
  0
LINE
  5
1072F
330
18
100
AcDbEntity
  8
外形線
100
AcDbLine
 10
43.60396967870526
 20
385.0741637588813
 30
0.0
 11
41.03281923995911
 21
382.0099859864054
 31
0.0
  0
LINE
  5
10730
330
18
100
AcDbEntity
  8
外形線
100
AcDbLine
 10
46.13191634099781
 20
382.9529646469156
 30
0.0
 11
46.1565677076843
 21
382.6711982363546
 31
0.0
  0
LINE
  5
10731
330
18
100
AcDbEntity
  8
外形線
100
AcDbLine
 10
43.84253231281287
 20
379.9134382411263
 30
0.0
 11
43.56076590225172
 21
379.8887868744398
 31
0.0
  0
LINE
  5
10732
330
18
100
AcDbEntity
  8
寸法線
100
AcDbLine
 10
46.13191634099781
 20
382.9529646469156
 30
0.0
 11
43.56076590225172
 21
379.8887868744398
 31
0.0
  0
LINE
  5
10733
330
18
100
AcDbEntity
  8
寸法線
100
AcDbLine
 10
42.66228583051447
 20
383.951908649712
 30
0.0
 11
45.19023249280713
 21
381.8307095377464
 31
0.0
  0
LINE
  5
10734
330
18
100
AcDbEntity
  8
寸法線
100
AcDbLine
 10
42.98367963535777
 20
384.3349308712715
 30
0.0
 11
45.51162629765037
 21
382.2137317593059
 31
0.0
  0
LINE
  5
10735
330
18
100
AcDbEntity
  8
寸法線
100
AcDbLine
 10
43.24079467923236
 20
384.641348648519
 30
0.0
 11
45.76874134152496
 21
382.5201495365535
 31
0.0
  0
LINE
  5
10736
330
18
100
AcDbEntity
  8
寸法線
100
AcDbLine
 10
43.4336309621383
 20
384.8711619814547
 30
0.0
 11
45.96157762443096
 21
382.7499628694891
 31
0.0
  0
MTEXT
  5
1097A
330
18
100
AcDbEntity
  8
外形線
 62
     6
100
AcDbMText
 10
-17.60180511105591
 20
448.5000962063726
 30
0.0
 40
2.5
 41
1.0
 71
     7
 72
     1
  1

  7
STYLE3
 73
     1
 44
1.0
  0
MTEXT
  5
1097D
330
18
100
AcDbEntity
  8
外形線
 62
     6
100
AcDbMText
 10
-17.60180511105591
 20
448.5000962063726
 30
0.0
 40
2.5
 41
1.0
 71
     7
 72
     1
  1

  7
STYLE3
 73
     1
 44
1.0
  0
LINE
  5
10982
330
18
100
AcDbEntity
  8
中心線
100
AcDbLine
 10
13.70698823432713
 20
466.4286105967264
 30
0.0
 11
13.70698823432711
 21
306.0815078925077
 31
0.0
  0
LINE
  5
10B98
102
{ACAD_REACTORS
330
10C46
102
}
330
18
100
AcDbEntity
  8
寸法線
100
AcDbLine
 10
15.31995613861926
 20
409.9181179586786
 30
0.0
 11
18.86543309177205
 21
409.9181179586792
 31
0.0
  0
LINE
  5
10B99
102
{ACAD_REACTORS
330
10C46
102
}
330
18
100
AcDbEntity
  8
寸法線
100
AcDbLine
 10
15.2484980309859
 20
409.1181179586788
 30
0.0
 11
18.79544216095126
 21
409.1181179586787
 31
0.0
  0
LINE
  5
10B9A
102
{ACAD_REACTORS
330
10C46
102
}
330
18
100
AcDbEntity
  8
寸法線
100
AcDbLine
 10
14.53447483324999
 20
405.5462807614408
 30
0.0
 11
14.97099823367773
 21
405.9462807614408
 31
0.0
  0
LINE
  5
10B9B
102
{ACAD_REACTORS
330
10C46
102
}
330
18
100
AcDbEntity
  8
寸法線
100
AcDbLine
 10
14.53447483324999
 20
405.5462807614408
 30
0.0
 11
14.90100730285701
 21
405.1462807614408
 31
0.0
  0
LINE
  5
10B9C
102
{ACAD_REACTORS
330
10C46
102
}
330
18
100
AcDbEntity
  8
寸法線
100
AcDbLine
 10
18.88447483325007
 20
405.5462807614408
 30
0.0
 11
18.51794236364316
 21
405.9462807614409
 31
0.0
  0
LINE
  5
10B9D
102
{ACAD_REACTORS
330
10C46
102
}
330
18
100
AcDbEntity
  8
寸法線
100
AcDbLine
 10
18.88447483325007
 20
405.5462807614408
 30
0.0
 11
18.44795143282238
 21
405.1462807614407
 31
0.0
  0
LINE
  5
10B9E
102
{ACAD_REACTORS
330
10C46
102
}
330
18
100
AcDbEntity
  8
寸法線
100
AcDbLine
 10
14.88196556137888
 20
409.5181179586789
 30
0.0
 11
15.31995613861937
 21
409.9181179586786
 31
0.0
  0
LINE
  5
10B9F
102
{ACAD_REACTORS
330
10C46
102
}
330
18
100
AcDbEntity
  8
寸法線
100
AcDbLine
 10
19.23196556137901
 20
409.518117958679
 30
0.0
 11
18.86543309177205
 21
409.9181179586792
 31
0.0
  0
LINE
  5
10BA0
102
{ACAD_REACTORS
330
10C46
102
}
330
18
100
AcDbEntity
  8
寸法線
100
AcDbLine
 10
19.23196556137901
 20
409.518117958679
 30
0.0
 11
18.79544216095126
 21
409.1181179586787
 31
0.0
  0
LINE
  5
10BA1
102
{ACAD_REACTORS
330
10C46
102
}
330
18
100
AcDbEntity
  8
寸法線
100
AcDbLine
 10
14.18205625317154
 20
401.5181179586789
 30
0.0
 11
14.61857965359923
 21
401.9181179586787
 31
0.0
  0
LINE
  5
10BA2
102
{ACAD_REACTORS
330
10C46
102
}
330
18
100
AcDbEntity
  8
寸法線
100
AcDbLine
 10
14.18205625317154
 20
401.5181179586789
 30
0.0
 11
14.54612479680372
 21
401.1181179586786
 31
0.0
  0
LINE
  5
10BA3
102
{ACAD_REACTORS
330
10C46
102
}
330
18
100
AcDbEntity
  8
寸法線
100
AcDbLine
 10
14.61857965359923
 20
401.9181179586787
 30
0.0
 11
18.16552378356465
 21
401.9181179586788
 31
0.0
  0
LINE
  5
10BA4
102
{ACAD_REACTORS
330
10C46
102
}
330
18
100
AcDbEntity
  8
寸法線
100
AcDbLine
 10
14.54612479680372
 20
401.1181179586786
 30
0.0
 11
18.09306892676915
 21
401.1181179586789
 31
0.0
  0
LINE
  5
10BA5
102
{ACAD_REACTORS
330
10C46
102
}
330
18
100
AcDbEntity
  8
寸法線
100
AcDbLine
 10
18.53205625317162
 20
401.5181179586789
 30
0.0
 11
18.16550506727867
 21
401.9179040305512
 31
0.0
  0
LINE
  5
10BA6
102
{ACAD_REACTORS
330
10C46
102
}
330
18
100
AcDbEntity
  8
寸法線
100
AcDbLine
 10
18.53205625317162
 20
401.5181179586789
 30
0.0
 11
18.09306892676915
 21
401.1181179586789
 31
0.0
  0
LINE
  5
10BA7
102
{ACAD_REACTORS
330
10C46
102
}
330
18
100
AcDbEntity
  8
寸法線
100
AcDbLine
 10
14.88196556137893
 20
409.5181179586789
 30
0.0
 11
15.2484980309859
 21
409.1181179586788
 31
0.0
  0
LINE
  5
10BA8
102
{ACAD_REACTORS
330
10C46
102
}
330
18
100
AcDbEntity
  8
寸法線
100
AcDbLine
 10
13.81552378356451
 20
401.9181179586787
 30
0.0
 11
14.0979514328223
 21
405.1462807614408
 31
0.0
  0
LINE
  5
10BA9
102
{ACAD_REACTORS
330
10C46
102
}
330
18
100
AcDbEntity
  8
寸法線
100
AcDbLine
 10
14.61857965359923
 20
401.9181179586787
 30
0.0
 11
14.90100730285695
 21
405.1462807614408
 31
0.0
  0
LINE
  5
10BAA
102
{ACAD_REACTORS
330
10C46
102
}
330
18
100
AcDbEntity
  8
寸法線
100
AcDbLine
 10
14.97099823367773
 20
405.9462807614408
 30
0.0
 11
15.24849803098584
 21
409.1181179586788
 31
0.0
  0
LINE
  5
10BAB
102
{ACAD_REACTORS
330
10C46
102
}
330
18
100
AcDbEntity
  8
寸法線
100
AcDbLine
 10
14.53447483324999
 20
405.5462807614408
 30
0.0
 11
14.16547843766824
 21
405.9462807614408
 31
0.0
  0
LINE
  5
10BAC
102
{ACAD_REACTORS
330
10C46
102
}
330
18
100
AcDbEntity
  8
寸法線
100
AcDbLine
 10
14.53447483324999
 20
405.5462807614408
 30
0.0
 11
14.0979514328223
 21
405.1462807614408
 31
0.0
  0
LINE
  5
10BAD
102
{ACAD_REACTORS
330
10C46
102
}
330
18
100
AcDbEntity
  8
寸法線
100
AcDbLine
 10
14.16547843766824
 20
405.9462807614408
 30
0.0
 11
14.44544216095119
 21
409.1181179586788
 31
0.0
  0
LINE
  5
10BAE
102
{ACAD_REACTORS
330
10C46
102
}
330
18
100
AcDbEntity
  8
寸法線
100
AcDbLine
 10
14.18205625317154
 20
401.5181179586789
 30
0.0
 11
13.81552378356451
 21
401.9181179586787
 31
0.0
  0
LINE
  5
10BAF
102
{ACAD_REACTORS
330
10C46
102
}
330
18
100
AcDbEntity
  8
寸法線
100
AcDbLine
 10
18.16552378356465
 20
401.9181179586788
 30
0.0
 11
18.44795143282238
 21
405.1462807614407
 31
0.0
  0
LINE
  5
10BB0
102
{ACAD_REACTORS
330
10C46
102
}
330
18
100
AcDbEntity
  8
寸法線
100
AcDbLine
 10
18.9685796535993
 20
401.9181179586788
 30
0.0
 11
19.25100730285703
 21
405.1462807614408
 31
0.0
  0
LINE
  5
10BB1
102
{ACAD_REACTORS
330
10C46
102
}
330
18
100
AcDbEntity
  8
寸法線
100
AcDbLine
 10
19.23196556137895
 20
409.518117958679
 30
0.0
 11
19.59849803098592
 21
409.1181179586787
 31
0.0
  0
LINE
  5
10BB2
102
{ACAD_REACTORS
330
10C46
102
}
330
18
100
AcDbEntity
  8
寸法線
100
AcDbLine
 10
18.88447483325007
 20
405.5462807614408
 30
0.0
 11
19.32097951739178
 21
405.9460668333131
 31
0.0
  0
LINE
  5
10BB3
102
{ACAD_REACTORS
330
10C46
102
}
330
18
100
AcDbEntity
  8
寸法線
100
AcDbLine
 10
18.88447483325007
 20
405.5462807614408
 30
0.0
 11
19.25100730285703
 21
405.1462807614408
 31
0.0
  0
LINE
  5
10BB4
102
{ACAD_REACTORS
330
10C46
102
}
330
18
100
AcDbEntity
  8
寸法線
100
AcDbLine
 10
19.32099823367781
 20
405.9462807614409
 30
0.0
 11
19.59849803098592
 21
409.1181179586787
 31
0.0
  0
LINE
  5
10BB5
102
{ACAD_REACTORS
330
10C46
102
}
330
18
100
AcDbEntity
  8
寸法線
100
AcDbLine
 10
18.51794236364316
 20
405.9462807614409
 30
0.0
 11
18.79544216095126
 21
409.1181179586787
 31
0.0
  0
LINE
  5
10BB6
102
{ACAD_REACTORS
330
10C46
102
}
330
18
100
AcDbEntity
  8
寸法線
100
AcDbLine
 10
18.53205625317162
 20
401.5181179586789
 30
0.0
 11
18.9685796535993
 21
401.9181179586788
 31
0.0
  0
LINE
  5
10BB7
102
{ACAD_REACTORS
330
10C46
102
}
330
18
100
AcDbEntity
  8
寸法線
100
AcDbLine
 10
14.97099823367773
 20
405.9462807614408
 30
0.0
 11
18.51794236364316
 21
405.9462807614409
 31
0.0
  0
LINE
  5
10BB8
102
{ACAD_REACTORS
330
10C46
102
}
330
18
100
AcDbEntity
  8
寸法線
100
AcDbLine
 10
14.90100730285701
 20
405.1462807614408
 30
0.0
 11
18.44795143282238
 21
405.1462807614408
 31
0.0
  0
LINE
  5
10BB9
102
{ACAD_REACTORS
330
10C46
102
}
330
18
100
AcDbEntity
  8
寸法線
100
AcDbLine
 10
14.88196556137893
 20
409.5181179586789
 30
0.0
 11
14.44544216095119
 21
409.1181179586788
 31
0.0
  0
LINE
  5
10BBA
102
{ACAD_REACTORS
330
10C47
102
}
330
18
100
AcDbEntity
  8
寸法線
100
AcDbLine
 10
22.81995613861926
 20
409.9181179586786
 30
0.0
 11
26.36543309177205
 21
409.9181179586792
 31
0.0
  0
LINE
  5
10BBB
102
{ACAD_REACTORS
330
10C47
102
}
330
18
100
AcDbEntity
  8
寸法線
100
AcDbLine
 10
22.7484980309859
 20
409.1181179586788
 30
0.0
 11
26.29544216095127
 21
409.1181179586787
 31
0.0
  0
LINE
  5
10BBC
102
{ACAD_REACTORS
330
10C47
102
}
330
18
100
AcDbEntity
  8
寸法線
100
AcDbLine
 10
22.03447483324999
 20
405.5462807614408
 30
0.0
 11
22.47099823367773
 21
405.9462807614408
 31
0.0
  0
LINE
  5
10BBD
102
{ACAD_REACTORS
330
10C47
102
}
330
18
100
AcDbEntity
  8
寸法線
100
AcDbLine
 10
22.03447483324999
 20
405.5462807614408
 30
0.0
 11
22.40100730285701
 21
405.1462807614408
 31
0.0
  0
LINE
  5
10BBE
102
{ACAD_REACTORS
330
10C47
102
}
330
18
100
AcDbEntity
  8
寸法線
100
AcDbLine
 10
26.38447483325007
 20
405.5462807614408
 30
0.0
 11
26.01794236364316
 21
405.9462807614409
 31
0.0
  0
LINE
  5
10BBF
102
{ACAD_REACTORS
330
10C47
102
}
330
18
100
AcDbEntity
  8
寸法線
100
AcDbLine
 10
26.38447483325007
 20
405.5462807614408
 30
0.0
 11
25.94795143282238
 21
405.1462807614407
 31
0.0
  0
LINE
  5
10BC0
102
{ACAD_REACTORS
330
10C47
102
}
330
18
100
AcDbEntity
  8
寸法線
100
AcDbLine
 10
22.38196556137888
 20
409.5181179586789
 30
0.0
 11
22.81995613861937
 21
409.9181179586786
 31
0.0
  0
LINE
  5
10BC1
102
{ACAD_REACTORS
330
10C47
102
}
330
18
100
AcDbEntity
  8
寸法線
100
AcDbLine
 10
26.73196556137901
 20
409.518117958679
 30
0.0
 11
26.36543309177205
 21
409.9181179586792
 31
0.0
  0
LINE
  5
10BC2
102
{ACAD_REACTORS
330
10C47
102
}
330
18
100
AcDbEntity
  8
寸法線
100
AcDbLine
 10
26.73196556137901
 20
409.518117958679
 30
0.0
 11
26.29544216095127
 21
409.1181179586787
 31
0.0
  0
LINE
  5
10BC3
102
{ACAD_REACTORS
330
10C47
102
}
330
18
100
AcDbEntity
  8
寸法線
100
AcDbLine
 10
21.68205625317154
 20
401.5181179586789
 30
0.0
 11
22.11857965359923
 21
401.9181179586787
 31
0.0
  0
LINE
  5
10BC4
102
{ACAD_REACTORS
330
10C47
102
}
330
18
100
AcDbEntity
  8
寸法線
100
AcDbLine
 10
21.68205625317154
 20
401.5181179586789
 30
0.0
 11
22.04612479680372
 21
401.1181179586786
 31
0.0
  0
LINE
  5
10BC5
102
{ACAD_REACTORS
330
10C47
102
}
330
18
100
AcDbEntity
  8
寸法線
100
AcDbLine
 10
22.11857965359923
 20
401.9181179586787
 30
0.0
 11
25.66552378356465
 21
401.9181179586788
 31
0.0
  0
LINE
  5
10BC6
102
{ACAD_REACTORS
330
10C47
102
}
330
18
100
AcDbEntity
  8
寸法線
100
AcDbLine
 10
22.04612479680372
 20
401.1181179586786
 30
0.0
 11
25.59306892676915
 21
401.1181179586789
 31
0.0
  0
LINE
  5
10BC7
102
{ACAD_REACTORS
330
10C47
102
}
330
18
100
AcDbEntity
  8
寸法線
100
AcDbLine
 10
26.03205625317162
 20
401.5181179586789
 30
0.0
 11
25.66550506727867
 21
401.9179040305512
 31
0.0
  0
LINE
  5
10BC8
102
{ACAD_REACTORS
330
10C47
102
}
330
18
100
AcDbEntity
  8
寸法線
100
AcDbLine
 10
26.03205625317162
 20
401.5181179586789
 30
0.0
 11
25.59306892676915
 21
401.1181179586789
 31
0.0
  0
LINE
  5
10BC9
102
{ACAD_REACTORS
330
10C47
102
}
330
18
100
AcDbEntity
  8
寸法線
100
AcDbLine
 10
22.38196556137893
 20
409.5181179586789
 30
0.0
 11
22.7484980309859
 21
409.1181179586788
 31
0.0
  0
LINE
  5
10BCA
102
{ACAD_REACTORS
330
10C47
102
}
330
18
100
AcDbEntity
  8
寸法線
100
AcDbLine
 10
21.31552378356452
 20
401.9181179586787
 30
0.0
 11
21.5979514328223
 21
405.1462807614408
 31
0.0
  0
LINE
  5
10BCB
102
{ACAD_REACTORS
330
10C47
102
}
330
18
100
AcDbEntity
  8
寸法線
100
AcDbLine
 10
22.11857965359923
 20
401.9181179586787
 30
0.0
 11
22.40100730285695
 21
405.1462807614408
 31
0.0
  0
LINE
  5
10BCC
102
{ACAD_REACTORS
330
10C47
102
}
330
18
100
AcDbEntity
  8
寸法線
100
AcDbLine
 10
22.47099823367773
 20
405.9462807614408
 30
0.0
 11
22.74849803098584
 21
409.1181179586788
 31
0.0
  0
LINE
  5
10BCD
102
{ACAD_REACTORS
330
10C47
102
}
330
18
100
AcDbEntity
  8
寸法線
100
AcDbLine
 10
22.03447483324999
 20
405.5462807614408
 30
0.0
 11
21.66547843766824
 21
405.9462807614408
 31
0.0
  0
LINE
  5
10BCE
102
{ACAD_REACTORS
330
10C47
102
}
330
18
100
AcDbEntity
  8
寸法線
100
AcDbLine
 10
22.03447483324999
 20
405.5462807614408
 30
0.0
 11
21.5979514328223
 21
405.1462807614408
 31
0.0
  0
LINE
  5
10BCF
102
{ACAD_REACTORS
330
10C47
102
}
330
18
100
AcDbEntity
  8
寸法線
100
AcDbLine
 10
21.66547843766824
 20
405.9462807614408
 30
0.0
 11
21.94544216095119
 21
409.1181179586788
 31
0.0
  0
LINE
  5
10BD0
102
{ACAD_REACTORS
330
10C47
102
}
330
18
100
AcDbEntity
  8
寸法線
100
AcDbLine
 10
21.68205625317154
 20
401.5181179586789
 30
0.0
 11
21.31552378356452
 21
401.9181179586787
 31
0.0
  0
LINE
  5
10BD1
102
{ACAD_REACTORS
330
10C47
102
}
330
18
100
AcDbEntity
  8
寸法線
100
AcDbLine
 10
25.66552378356465
 20
401.9181179586788
 30
0.0
 11
25.94795143282238
 21
405.1462807614407
 31
0.0
  0
LINE
  5
10BD2
102
{ACAD_REACTORS
330
10C47
102
}
330
18
100
AcDbEntity
  8
寸法線
100
AcDbLine
 10
26.46857965359931
 20
401.9181179586788
 30
0.0
 11
26.75100730285703
 21
405.1462807614408
 31
0.0
  0
LINE
  5
10BD3
102
{ACAD_REACTORS
330
10C47
102
}
330
18
100
AcDbEntity
  8
寸法線
100
AcDbLine
 10
26.73196556137896
 20
409.518117958679
 30
0.0
 11
27.09849803098592
 21
409.1181179586787
 31
0.0
  0
LINE
  5
10BD4
102
{ACAD_REACTORS
330
10C47
102
}
330
18
100
AcDbEntity
  8
寸法線
100
AcDbLine
 10
26.38447483325007
 20
405.5462807614408
 30
0.0
 11
26.82097951739178
 21
405.9460668333131
 31
0.0
  0
LINE
  5
10BD5
102
{ACAD_REACTORS
330
10C47
102
}
330
18
100
AcDbEntity
  8
寸法線
100
AcDbLine
 10
26.38447483325007
 20
405.5462807614408
 30
0.0
 11
26.75100730285703
 21
405.1462807614408
 31
0.0
  0
LINE
  5
10BD6
102
{ACAD_REACTORS
330
10C47
102
}
330
18
100
AcDbEntity
  8
寸法線
100
AcDbLine
 10
26.82099823367781
 20
405.9462807614409
 30
0.0
 11
27.09849803098592
 21
409.1181179586787
 31
0.0
  0
LINE
  5
10BD7
102
{ACAD_REACTORS
330
10C47
102
}
330
18
100
AcDbEntity
  8
寸法線
100
AcDbLine
 10
26.01794236364316
 20
405.9462807614409
 30
0.0
 11
26.29544216095127
 21
409.1181179586787
 31
0.0
  0
LINE
  5
10BD8
102
{ACAD_REACTORS
330
10C47
102
}
330
18
100
AcDbEntity
  8
寸法線
100
AcDbLine
 10
26.03205625317162
 20
401.5181179586789
 30
0.0
 11
26.46857965359931
 21
401.9181179586788
 31
0.0
  0
LINE
  5
10BD9
102
{ACAD_REACTORS
330
10C47
102
}
330
18
100
AcDbEntity
  8
寸法線
100
AcDbLine
 10
22.47099823367773
 20
405.9462807614408
 30
0.0
 11
26.01794236364316
 21
405.9462807614409
 31
0.0
  0
LINE
  5
10BDA
102
{ACAD_REACTORS
330
10C47
102
}
330
18
100
AcDbEntity
  8
寸法線
100
AcDbLine
 10
22.40100730285701
 20
405.1462807614408
 30
0.0
 11
25.94795143282238
 21
405.1462807614408
 31
0.0
  0
LINE
  5
10BDB
102
{ACAD_REACTORS
330
10C47
102
}
330
18
100
AcDbEntity
  8
寸法線
100
AcDbLine
 10
22.38196556137893
 20
409.5181179586789
 30
0.0
 11
21.94544216095119
 21
409.1181179586788
 31
0.0
  0
LINE
  5
10BDC
102
{ACAD_REACTORS
330
10C48
102
}
330
18
100
AcDbEntity
  8
寸法線
100
AcDbLine
 10
30.31995613861926
 20
409.9181179586786
 30
0.0
 11
33.86543309177205
 21
409.9181179586792
 31
0.0
  0
LINE
  5
10BDD
102
{ACAD_REACTORS
330
10C48
102
}
330
18
100
AcDbEntity
  8
寸法線
100
AcDbLine
 10
30.2484980309859
 20
409.1181179586788
 30
0.0
 11
33.79544216095127
 21
409.1181179586787
 31
0.0
  0
LINE
  5
10BDE
102
{ACAD_REACTORS
330
10C48
102
}
330
18
100
AcDbEntity
  8
寸法線
100
AcDbLine
 10
29.53447483324999
 20
405.5462807614408
 30
0.0
 11
29.97099823367774
 21
405.9462807614408
 31
0.0
  0
LINE
  5
10BDF
102
{ACAD_REACTORS
330
10C48
102
}
330
18
100
AcDbEntity
  8
寸法線
100
AcDbLine
 10
29.53447483324999
 20
405.5462807614408
 30
0.0
 11
29.90100730285701
 21
405.1462807614408
 31
0.0
  0
LINE
  5
10BE0
102
{ACAD_REACTORS
330
10C48
102
}
330
18
100
AcDbEntity
  8
寸法線
100
AcDbLine
 10
33.88447483325007
 20
405.5462807614408
 30
0.0
 11
33.51794236364316
 21
405.9462807614409
 31
0.0
  0
LINE
  5
10BE1
102
{ACAD_REACTORS
330
10C48
102
}
330
18
100
AcDbEntity
  8
寸法線
100
AcDbLine
 10
33.88447483325007
 20
405.5462807614408
 30
0.0
 11
33.44795143282238
 21
405.1462807614407
 31
0.0
  0
LINE
  5
10BE2
102
{ACAD_REACTORS
330
10C48
102
}
330
18
100
AcDbEntity
  8
寸法線
100
AcDbLine
 10
29.88196556137888
 20
409.5181179586789
 30
0.0
 11
30.31995613861937
 21
409.9181179586786
 31
0.0
  0
LINE
  5
10BE3
102
{ACAD_REACTORS
330
10C48
102
}
330
18
100
AcDbEntity
  8
寸法線
100
AcDbLine
 10
34.23196556137901
 20
409.518117958679
 30
0.0
 11
33.86543309177205
 21
409.9181179586792
 31
0.0
  0
LINE
  5
10BE4
102
{ACAD_REACTORS
330
10C48
102
}
330
18
100
AcDbEntity
  8
寸法線
100
AcDbLine
 10
34.23196556137901
 20
409.518117958679
 30
0.0
 11
33.79544216095127
 21
409.1181179586787
 31
0.0
  0
LINE
  5
10BE5
102
{ACAD_REACTORS
330
10C48
102
}
330
18
100
AcDbEntity
  8
寸法線
100
AcDbLine
 10
29.18205625317154
 20
401.5181179586789
 30
0.0
 11
29.61857965359923
 21
401.9181179586787
 31
0.0
  0
LINE
  5
10BE6
102
{ACAD_REACTORS
330
10C48
102
}
330
18
100
AcDbEntity
  8
寸法線
100
AcDbLine
 10
29.18205625317154
 20
401.5181179586789
 30
0.0
 11
29.54612479680373
 21
401.1181179586786
 31
0.0
  0
LINE
  5
10BE7
102
{ACAD_REACTORS
330
10C48
102
}
330
18
100
AcDbEntity
  8
寸法線
100
AcDbLine
 10
29.61857965359923
 20
401.9181179586787
 30
0.0
 11
33.16552378356465
 21
401.9181179586788
 31
0.0
  0
LINE
  5
10BE8
102
{ACAD_REACTORS
330
10C48
102
}
330
18
100
AcDbEntity
  8
寸法線
100
AcDbLine
 10
29.54612479680373
 20
401.1181179586786
 30
0.0
 11
33.09306892676915
 21
401.1181179586789
 31
0.0
  0
LINE
  5
10BE9
102
{ACAD_REACTORS
330
10C48
102
}
330
18
100
AcDbEntity
  8
寸法線
100
AcDbLine
 10
33.53205625317162
 20
401.5181179586789
 30
0.0
 11
33.16550506727867
 21
401.9179040305512
 31
0.0
  0
LINE
  5
10BEA
102
{ACAD_REACTORS
330
10C48
102
}
330
18
100
AcDbEntity
  8
寸法線
100
AcDbLine
 10
33.53205625317162
 20
401.5181179586789
 30
0.0
 11
33.09306892676915
 21
401.1181179586789
 31
0.0
  0
LINE
  5
10BEB
102
{ACAD_REACTORS
330
10C48
102
}
330
18
100
AcDbEntity
  8
寸法線
100
AcDbLine
 10
29.88196556137893
 20
409.5181179586789
 30
0.0
 11
30.2484980309859
 21
409.1181179586788
 31
0.0
  0
LINE
  5
10BEC
102
{ACAD_REACTORS
330
10C48
102
}
330
18
100
AcDbEntity
  8
寸法線
100
AcDbLine
 10
28.81552378356452
 20
401.9181179586787
 30
0.0
 11
29.0979514328223
 21
405.1462807614408
 31
0.0
  0
LINE
  5
10BED
102
{ACAD_REACTORS
330
10C48
102
}
330
18
100
AcDbEntity
  8
寸法線
100
AcDbLine
 10
29.61857965359923
 20
401.9181179586787
 30
0.0
 11
29.90100730285695
 21
405.1462807614408
 31
0.0
  0
LINE
  5
10BEE
102
{ACAD_REACTORS
330
10C48
102
}
330
18
100
AcDbEntity
  8
寸法線
100
AcDbLine
 10
29.97099823367774
 20
405.9462807614408
 30
0.0
 11
30.24849803098585
 21
409.1181179586788
 31
0.0
  0
LINE
  5
10BEF
102
{ACAD_REACTORS
330
10C48
102
}
330
18
100
AcDbEntity
  8
寸法線
100
AcDbLine
 10
29.53447483324999
 20
405.5462807614408
 30
0.0
 11
29.16547843766824
 21
405.9462807614408
 31
0.0
  0
LINE
  5
10BF0
102
{ACAD_REACTORS
330
10C48
102
}
330
18
100
AcDbEntity
  8
寸法線
100
AcDbLine
 10
29.53447483324999
 20
405.5462807614408
 30
0.0
 11
29.0979514328223
 21
405.1462807614408
 31
0.0
  0
LINE
  5
10BF1
102
{ACAD_REACTORS
330
10C48
102
}
330
18
100
AcDbEntity
  8
寸法線
100
AcDbLine
 10
29.16547843766824
 20
405.9462807614408
 30
0.0
 11
29.44544216095119
 21
409.1181179586788
 31
0.0
  0
LINE
  5
10BF2
102
{ACAD_REACTORS
330
10C48
102
}
330
18
100
AcDbEntity
  8
寸法線
100
AcDbLine
 10
29.18205625317154
 20
401.5181179586789
 30
0.0
 11
28.81552378356452
 21
401.9181179586787
 31
0.0
  0
LINE
  5
10BF3
102
{ACAD_REACTORS
330
10C48
102
}
330
18
100
AcDbEntity
  8
寸法線
100
AcDbLine
 10
33.16552378356465
 20
401.9181179586788
 30
0.0
 11
33.44795143282238
 21
405.1462807614407
 31
0.0
  0
LINE
  5
10BF4
102
{ACAD_REACTORS
330
10C48
102
}
330
18
100
AcDbEntity
  8
寸法線
100
AcDbLine
 10
33.96857965359931
 20
401.9181179586788
 30
0.0
 11
34.25100730285703
 21
405.1462807614408
 31
0.0
  0
LINE
  5
10BF5
102
{ACAD_REACTORS
330
10C48
102
}
330
18
100
AcDbEntity
  8
寸法線
100
AcDbLine
 10
34.23196556137896
 20
409.518117958679
 30
0.0
 11
34.59849803098592
 21
409.1181179586787
 31
0.0
  0
LINE
  5
10BF6
102
{ACAD_REACTORS
330
10C48
102
}
330
18
100
AcDbEntity
  8
寸法線
100
AcDbLine
 10
33.88447483325007
 20
405.5462807614408
 30
0.0
 11
34.32097951739178
 21
405.9460668333131
 31
0.0
  0
LINE
  5
10BF7
102
{ACAD_REACTORS
330
10C48
102
}
330
18
100
AcDbEntity
  8
寸法線
100
AcDbLine
 10
33.88447483325007
 20
405.5462807614408
 30
0.0
 11
34.25100730285703
 21
405.1462807614408
 31
0.0
  0
LINE
  5
10BF8
102
{ACAD_REACTORS
330
10C48
102
}
330
18
100
AcDbEntity
  8
寸法線
100
AcDbLine
 10
34.32099823367781
 20
405.9462807614409
 30
0.0
 11
34.59849803098592
 21
409.1181179586787
 31
0.0
  0
LINE
  5
10BF9
102
{ACAD_REACTORS
330
10C48
102
}
330
18
100
AcDbEntity
  8
寸法線
100
AcDbLine
 10
33.51794236364316
 20
405.9462807614409
 30
0.0
 11
33.79544216095127
 21
409.1181179586787
 31
0.0
  0
LINE
  5
10BFA
102
{ACAD_REACTORS
330
10C48
102
}
330
18
100
AcDbEntity
  8
寸法線
100
AcDbLine
 10
33.53205625317162
 20
401.5181179586789
 30
0.0
 11
33.96857965359931
 21
401.9181179586788
 31
0.0
  0
LINE
  5
10BFB
102
{ACAD_REACTORS
330
10C48
102
}
330
18
100
AcDbEntity
  8
寸法線
100
AcDbLine
 10
29.97099823367774
 20
405.9462807614408
 30
0.0
 11
33.51794236364316
 21
405.9462807614409
 31
0.0
  0
LINE
  5
10BFC
102
{ACAD_REACTORS
330
10C48
102
}
330
18
100
AcDbEntity
  8
寸法線
100
AcDbLine
 10
29.90100730285701
 20
405.1462807614408
 30
0.0
 11
33.44795143282238
 21
405.1462807614408
 31
0.0
  0
LINE
  5
10BFD
102
{ACAD_REACTORS
330
10C48
102
}
330
18
100
AcDbEntity
  8
寸法線
100
AcDbLine
 10
29.88196556137893
 20
409.5181179586789
 30
0.0
 11
29.44544216095119
 21
409.1181179586788
 31
0.0
  0
LINE
  5
10BFE
102
{ACAD_REACTORS
330
10C45
102
}
330
18
100
AcDbEntity
  8
寸法線
100
AcDbLine
 10
7.819956138619318
 20
409.9181179586786
 30
0.0
 11
11.3654330917721
 21
409.9181179586792
 31
0.0
  0
LINE
  5
10BFF
102
{ACAD_REACTORS
330
10C45
102
}
330
18
100
AcDbEntity
  8
寸法線
100
AcDbLine
 10
7.748498030985956
 20
409.1181179586788
 30
0.0
 11
11.29544216095132
 21
409.1181179586787
 31
0.0
  0
LINE
  5
10C00
102
{ACAD_REACTORS
330
10C45
102
}
330
18
100
AcDbEntity
  8
寸法線
100
AcDbLine
 10
7.034474833250044
 20
405.5462807614408
 30
0.0
 11
7.470998233677789
 21
405.9462807614408
 31
0.0
  0
LINE
  5
10C01
102
{ACAD_REACTORS
330
10C45
102
}
330
18
100
AcDbEntity
  8
寸法線
100
AcDbLine
 10
7.034474833250044
 20
405.5462807614408
 30
0.0
 11
7.401007302857067
 21
405.1462807614408
 31
0.0
  0
LINE
  5
10C02
102
{ACAD_REACTORS
330
10C45
102
}
330
18
100
AcDbEntity
  8
寸法線
100
AcDbLine
 10
11.38447483325012
 20
405.5462807614408
 30
0.0
 11
11.01794236364321
 21
405.9462807614409
 31
0.0
  0
LINE
  5
10C03
102
{ACAD_REACTORS
330
10C45
102
}
330
18
100
AcDbEntity
  8
寸法線
100
AcDbLine
 10
11.38447483325012
 20
405.5462807614408
 30
0.0
 11
10.94795143282243
 21
405.1462807614407
 31
0.0
  0
LINE
  5
10C04
102
{ACAD_REACTORS
330
10C45
102
}
330
18
100
AcDbEntity
  8
寸法線
100
AcDbLine
 10
7.381965561378933
 20
409.5181179586789
 30
0.0
 11
7.819956138619431
 21
409.9181179586786
 31
0.0
  0
LINE
  5
10C05
102
{ACAD_REACTORS
330
10C45
102
}
330
18
100
AcDbEntity
  8
寸法線
100
AcDbLine
 10
11.73196556137907
 20
409.518117958679
 30
0.0
 11
11.3654330917721
 21
409.9181179586792
 31
0.0
  0
LINE
  5
10C06
102
{ACAD_REACTORS
330
10C45
102
}
330
18
100
AcDbEntity
  8
寸法線
100
AcDbLine
 10
11.73196556137907
 20
409.518117958679
 30
0.0
 11
11.29544216095132
 21
409.1181179586787
 31
0.0
  0
LINE
  5
10C07
102
{ACAD_REACTORS
330
10C45
102
}
330
18
100
AcDbEntity
  8
寸法線
100
AcDbLine
 10
6.682056253171595
 20
401.5181179586789
 30
0.0
 11
7.118579653599283
 21
401.9181179586787
 31
0.0
  0
LINE
  5
10C08
102
{ACAD_REACTORS
330
10C45
102
}
330
18
100
AcDbEntity
  8
寸法線
100
AcDbLine
 10
6.682056253171595
 20
401.5181179586789
 30
0.0
 11
7.046124796803781
 21
401.1181179586786
 31
0.0
  0
LINE
  5
10C09
102
{ACAD_REACTORS
330
10C45
102
}
330
18
100
AcDbEntity
  8
寸法線
100
AcDbLine
 10
7.118579653599283
 20
401.9181179586787
 30
0.0
 11
10.66552378356471
 21
401.9181179586788
 31
0.0
  0
LINE
  5
10C0A
102
{ACAD_REACTORS
330
10C45
102
}
330
18
100
AcDbEntity
  8
寸法線
100
AcDbLine
 10
7.046124796803781
 20
401.1181179586786
 30
0.0
 11
10.5930689267692
 21
401.1181179586789
 31
0.0
  0
LINE
  5
10C0B
102
{ACAD_REACTORS
330
10C45
102
}
330
18
100
AcDbEntity
  8
寸法線
100
AcDbLine
 10
11.03205625317167
 20
401.5181179586789
 30
0.0
 11
10.66550506727873
 21
401.9179040305512
 31
0.0
  0
LINE
  5
10C0C
102
{ACAD_REACTORS
330
10C45
102
}
330
18
100
AcDbEntity
  8
寸法線
100
AcDbLine
 10
11.03205625317167
 20
401.5181179586789
 30
0.0
 11
10.5930689267692
 21
401.1181179586789
 31
0.0
  0
LINE
  5
10C0D
102
{ACAD_REACTORS
330
10C45
102
}
330
18
100
AcDbEntity
  8
寸法線
100
AcDbLine
 10
7.38196556137899
 20
409.5181179586789
 30
0.0
 11
7.748498030985956
 21
409.1181179586788
 31
0.0
  0
LINE
  5
10C0E
102
{ACAD_REACTORS
330
10C45
102
}
330
18
100
AcDbEntity
  8
寸法線
100
AcDbLine
 10
6.315523783564572
 20
401.9181179586787
 30
0.0
 11
6.597951432822355
 21
405.1462807614408
 31
0.0
  0
LINE
  5
10C0F
102
{ACAD_REACTORS
330
10C45
102
}
330
18
100
AcDbEntity
  8
寸法線
100
AcDbLine
 10
7.118579653599283
 20
401.9181179586787
 30
0.0
 11
7.40100730285701
 21
405.1462807614408
 31
0.0
  0
LINE
  5
10C10
102
{ACAD_REACTORS
330
10C45
102
}
330
18
100
AcDbEntity
  8
寸法線
100
AcDbLine
 10
7.470998233677789
 20
405.9462807614408
 30
0.0
 11
7.748498030985899
 21
409.1181179586788
 31
0.0
  0
LINE
  5
10C11
102
{ACAD_REACTORS
330
10C45
102
}
330
18
100
AcDbEntity
  8
寸法線
100
AcDbLine
 10
7.034474833250044
 20
405.5462807614408
 30
0.0
 11
6.665478437668298
 21
405.9462807614408
 31
0.0
  0
LINE
  5
10C12
102
{ACAD_REACTORS
330
10C45
102
}
330
18
100
AcDbEntity
  8
寸法線
100
AcDbLine
 10
7.034474833250044
 20
405.5462807614408
 30
0.0
 11
6.597951432822355
 21
405.1462807614408
 31
0.0
  0
LINE
  5
10C13
102
{ACAD_REACTORS
330
10C45
102
}
330
18
100
AcDbEntity
  8
寸法線
100
AcDbLine
 10
6.665478437668298
 20
405.9462807614408
 30
0.0
 11
6.945442160951245
 21
409.1181179586788
 31
0.0
  0
LINE
  5
10C14
102
{ACAD_REACTORS
330
10C45
102
}
330
18
100
AcDbEntity
  8
寸法線
100
AcDbLine
 10
6.682056253171595
 20
401.5181179586789
 30
0.0
 11
6.315523783564572
 21
401.9181179586787
 31
0.0
  0
LINE
  5
10C15
102
{ACAD_REACTORS
330
10C45
102
}
330
18
100
AcDbEntity
  8
寸法線
100
AcDbLine
 10
10.66552378356471
 20
401.9181179586788
 30
0.0
 11
10.94795143282243
 21
405.1462807614407
 31
0.0
  0
LINE
  5
10C16
102
{ACAD_REACTORS
330
10C45
102
}
330
18
100
AcDbEntity
  8
寸法線
100
AcDbLine
 10
11.46857965359936
 20
401.9181179586788
 30
0.0
 11
11.75100730285709
 21
405.1462807614408
 31
0.0
  0
LINE
  5
10C17
102
{ACAD_REACTORS
330
10C45
102
}
330
18
100
AcDbEntity
  8
寸法線
100
AcDbLine
 10
11.73196556137901
 20
409.518117958679
 30
0.0
 11
12.09849803098598
 21
409.1181179586787
 31
0.0
  0
LINE
  5
10C18
102
{ACAD_REACTORS
330
10C45
102
}
330
18
100
AcDbEntity
  8
寸法線
100
AcDbLine
 10
11.38447483325012
 20
405.5462807614408
 30
0.0
 11
11.82097951739183
 21
405.9460668333131
 31
0.0
  0
LINE
  5
10C19
102
{ACAD_REACTORS
330
10C45
102
}
330
18
100
AcDbEntity
  8
寸法線
100
AcDbLine
 10
11.38447483325012
 20
405.5462807614408
 30
0.0
 11
11.75100730285709
 21
405.1462807614408
 31
0.0
  0
LINE
  5
10C1A
102
{ACAD_REACTORS
330
10C45
102
}
330
18
100
AcDbEntity
  8
寸法線
100
AcDbLine
 10
11.82099823367787
 20
405.9462807614409
 30
0.0
 11
12.09849803098598
 21
409.1181179586787
 31
0.0
  0
LINE
  5
10C1B
102
{ACAD_REACTORS
330
10C45
102
}
330
18
100
AcDbEntity
  8
寸法線
100
AcDbLine
 10
11.01794236364321
 20
405.9462807614409
 30
0.0
 11
11.29544216095132
 21
409.1181179586787
 31
0.0
  0
LINE
  5
10C1C
102
{ACAD_REACTORS
330
10C45
102
}
330
18
100
AcDbEntity
  8
寸法線
100
AcDbLine
 10
11.03205625317167
 20
401.5181179586789
 30
0.0
 11
11.46857965359936
 21
401.9181179586788
 31
0.0
  0
LINE
  5
10C1D
102
{ACAD_REACTORS
330
10C45
102
}
330
18
100
AcDbEntity
  8
寸法線
100
AcDbLine
 10
7.470998233677789
 20
405.9462807614408
 30
0.0
 11
11.01794236364321
 21
405.9462807614409
 31
0.0
  0
LINE
  5
10C1E
102
{ACAD_REACTORS
330
10C45
102
}
330
18
100
AcDbEntity
  8
寸法線
100
AcDbLine
 10
7.401007302857067
 20
405.1462807614408
 30
0.0
 11
10.94795143282243
 21
405.1462807614408
 31
0.0
  0
LINE
  5
10C1F
102
{ACAD_REACTORS
330
10C45
102
}
330
18
100
AcDbEntity
  8
寸法線
100
AcDbLine
 10
7.38196556137899
 20
409.5181179586789
 30
0.0
 11
6.945442160951245
 21
409.1181179586788
 31
0.0
  0
LINE
  5
10C20
102
{ACAD_REACTORS
330
10C44
102
}
330
18
100
AcDbEntity
  8
寸法線
100
AcDbLine
 10
0.3199561386193181
 20
409.9181179586786
 30
0.0
 11
3.865433091772104
 21
409.9181179586792
 31
0.0
  0
LINE
  5
10C21
102
{ACAD_REACTORS
330
10C44
102
}
330
18
100
AcDbEntity
  8
寸法線
100
AcDbLine
 10
0.2484980309859566
 20
409.1181179586788
 30
0.0
 11
3.795442160951324
 21
409.1181179586787
 31
0.0
  0
LINE
  5
10C22
102
{ACAD_REACTORS
330
10C44
102
}
330
18
100
AcDbEntity
  8
寸法線
100
AcDbLine
 10
-0.4655251667499556
 20
405.5462807614408
 30
0.0
 11
-0.0290017663222102
 21
405.9462807614408
 31
0.0
  0
LINE
  5
10C23
102
{ACAD_REACTORS
330
10C44
102
}
330
18
100
AcDbEntity
  8
寸法線
100
AcDbLine
 10
-0.4655251667499556
 20
405.5462807614408
 30
0.0
 11
-0.0989926971429327
 21
405.1462807614408
 31
0.0
  0
LINE
  5
10C24
102
{ACAD_REACTORS
330
10C44
102
}
330
18
100
AcDbEntity
  8
寸法線
100
AcDbLine
 10
3.884474833250123
 20
405.5462807614408
 30
0.0
 11
3.517942363643214
 21
405.9462807614409
 31
0.0
  0
LINE
  5
10C25
102
{ACAD_REACTORS
330
10C44
102
}
330
18
100
AcDbEntity
  8
寸法線
100
AcDbLine
 10
3.884474833250123
 20
405.5462807614408
 30
0.0
 11
3.447951432822435
 21
405.1462807614407
 31
0.0
  0
LINE
  5
10C26
102
{ACAD_REACTORS
330
10C44
102
}
330
18
100
AcDbEntity
  8
寸法線
100
AcDbLine
 10
-0.1180344386210663
 20
409.5181179586789
 30
0.0
 11
0.3199561386194318
 21
409.9181179586786
 31
0.0
  0
LINE
  5
10C27
102
{ACAD_REACTORS
330
10C44
102
}
330
18
100
AcDbEntity
  8
寸法線
100
AcDbLine
 10
4.23196556137907
 20
409.518117958679
 30
0.0
 11
3.865433091772104
 21
409.9181179586792
 31
0.0
  0
LINE
  5
10C28
102
{ACAD_REACTORS
330
10C44
102
}
330
18
100
AcDbEntity
  8
寸法線
100
AcDbLine
 10
4.23196556137907
 20
409.518117958679
 30
0.0
 11
3.795442160951324
 21
409.1181179586787
 31
0.0
  0
LINE
  5
10C29
102
{ACAD_REACTORS
330
10C44
102
}
330
18
100
AcDbEntity
  8
寸法線
100
AcDbLine
 10
-0.8179437468284049
 20
401.5181179586789
 30
0.0
 11
-0.3814203464007164
 21
401.9181179586787
 31
0.0
  0
LINE
  5
10C2A
102
{ACAD_REACTORS
330
10C44
102
}
330
18
100
AcDbEntity
  8
寸法線
100
AcDbLine
 10
-0.8179437468284049
 20
401.5181179586789
 30
0.0
 11
-0.453875203196219
 21
401.1181179586786
 31
0.0
  0
LINE
  5
10C2B
102
{ACAD_REACTORS
330
10C44
102
}
330
18
100
AcDbEntity
  8
寸法線
100
AcDbLine
 10
-0.3814203464007164
 20
401.9181179586787
 30
0.0
 11
3.165523783564708
 21
401.9181179586788
 31
0.0
  0
LINE
  5
10C2C
102
{ACAD_REACTORS
330
10C44
102
}
330
18
100
AcDbEntity
  8
寸法線
100
AcDbLine
 10
-0.453875203196219
 20
401.1181179586786
 30
0.0
 11
3.093068926769205
 21
401.1181179586789
 31
0.0
  0
LINE
  5
10C2D
102
{ACAD_REACTORS
330
10C44
102
}
330
18
100
AcDbEntity
  8
寸法線
100
AcDbLine
 10
3.532056253171674
 20
401.5181179586789
 30
0.0
 11
3.165505067278729
 21
401.9179040305512
 31
0.0
  0
LINE
  5
10C2E
102
{ACAD_REACTORS
330
10C44
102
}
330
18
100
AcDbEntity
  8
寸法線
100
AcDbLine
 10
3.532056253171674
 20
401.5181179586789
 30
0.0
 11
3.093068926769205
 21
401.1181179586789
 31
0.0
  0
LINE
  5
10C2F
102
{ACAD_REACTORS
330
10C44
102
}
330
18
100
AcDbEntity
  8
寸法線
100
AcDbLine
 10
-0.1180344386210095
 20
409.5181179586789
 30
0.0
 11
0.2484980309859566
 21
409.1181179586788
 31
0.0
  0
LINE
  5
10C30
102
{ACAD_REACTORS
330
10C44
102
}
330
18
100
AcDbEntity
  8
寸法線
100
AcDbLine
 10
-1.184476216435427
 20
401.9181179586787
 30
0.0
 11
-0.9020485671776441
 21
405.1462807614408
 31
0.0
  0
LINE
  5
10C31
102
{ACAD_REACTORS
330
10C44
102
}
330
18
100
AcDbEntity
  8
寸法線
100
AcDbLine
 10
-0.3814203464007164
 20
401.9181179586787
 30
0.0
 11
-0.0989926971429895
 21
405.1462807614408
 31
0.0
  0
LINE
  5
10C32
102
{ACAD_REACTORS
330
10C44
102
}
330
18
100
AcDbEntity
  8
寸法線
100
AcDbLine
 10
-0.0290017663222102
 20
405.9462807614408
 30
0.0
 11
0.2484980309858997
 21
409.1181179586788
 31
0.0
  0
LINE
  5
10C33
102
{ACAD_REACTORS
330
10C44
102
}
330
18
100
AcDbEntity
  8
寸法線
100
AcDbLine
 10
-0.4655251667499556
 20
405.5462807614408
 30
0.0
 11
-0.8345215623317017
 21
405.9462807614408
 31
0.0
  0
LINE
  5
10C34
102
{ACAD_REACTORS
330
10C44
102
}
330
18
100
AcDbEntity
  8
寸法線
100
AcDbLine
 10
-0.4655251667499556
 20
405.5462807614408
 30
0.0
 11
-0.9020485671776441
 21
405.1462807614408
 31
0.0
  0
LINE
  5
10C35
102
{ACAD_REACTORS
330
10C44
102
}
330
18
100
AcDbEntity
  8
寸法線
100
AcDbLine
 10
-0.8345215623317017
 20
405.9462807614408
 30
0.0
 11
-0.5545578390487549
 21
409.1181179586788
 31
0.0
  0
LINE
  5
10C36
102
{ACAD_REACTORS
330
10C44
102
}
330
18
100
AcDbEntity
  8
寸法線
100
AcDbLine
 10
-0.8179437468284049
 20
401.5181179586789
 30
0.0
 11
-1.184476216435427
 21
401.9181179586787
 31
0.0
  0
LINE
  5
10C37
102
{ACAD_REACTORS
330
10C44
102
}
330
18
100
AcDbEntity
  8
寸法線
100
AcDbLine
 10
3.165523783564708
 20
401.9181179586788
 30
0.0
 11
3.447951432822435
 21
405.1462807614407
 31
0.0
  0
LINE
  5
10C38
102
{ACAD_REACTORS
330
10C44
102
}
330
18
100
AcDbEntity
  8
寸法線
100
AcDbLine
 10
3.968579653599363
 20
401.9181179586788
 30
0.0
 11
4.25100730285709
 21
405.1462807614408
 31
0.0
  0
LINE
  5
10C39
102
{ACAD_REACTORS
330
10C44
102
}
330
18
100
AcDbEntity
  8
寸法線
100
AcDbLine
 10
4.231965561379013
 20
409.518117958679
 30
0.0
 11
4.598498030985979
 21
409.1181179586787
 31
0.0
  0
LINE
  5
10C3A
102
{ACAD_REACTORS
330
10C44
102
}
330
18
100
AcDbEntity
  8
寸法線
100
AcDbLine
 10
3.884474833250123
 20
405.5462807614408
 30
0.0
 11
4.320979517391833
 21
405.9460668333131
 31
0.0
  0
LINE
  5
10C3B
102
{ACAD_REACTORS
330
10C44
102
}
330
18
100
AcDbEntity
  8
寸法線
100
AcDbLine
 10
3.884474833250123
 20
405.5462807614408
 30
0.0
 11
4.25100730285709
 21
405.1462807614408
 31
0.0
  0
LINE
  5
10C3C
102
{ACAD_REACTORS
330
10C44
102
}
330
18
100
AcDbEntity
  8
寸法線
100
AcDbLine
 10
4.320998233677869
 20
405.9462807614409
 30
0.0
 11
4.598498030985979
 21
409.1181179586787
 31
0.0
  0
LINE
  5
10C3D
102
{ACAD_REACTORS
330
10C44
102
}
330
18
100
AcDbEntity
  8
寸法線
100
AcDbLine
 10
3.517942363643214
 20
405.9462807614409
 30
0.0
 11
3.795442160951324
 21
409.1181179586787
 31
0.0
  0
LINE
  5
10C3E
102
{ACAD_REACTORS
330
10C44
102
}
330
18
100
AcDbEntity
  8
寸法線
100
AcDbLine
 10
3.532056253171674
 20
401.5181179586789
 30
0.0
 11
3.968579653599363
 21
401.9181179586788
 31
0.0
  0
LINE
  5
10C3F
102
{ACAD_REACTORS
330
10C44
102
}
330
18
100
AcDbEntity
  8
寸法線
100
AcDbLine
 10
-0.0290017663222102
 20
405.9462807614408
 30
0.0
 11
3.517942363643214
 21
405.9462807614409
 31
0.0
  0
LINE
  5
10C40
102
{ACAD_REACTORS
330
10C44
102
}
330
18
100
AcDbEntity
  8
寸法線
100
AcDbLine
 10
-0.0989926971429327
 20
405.1462807614408
 30
0.0
 11
3.447951432822435
 21
405.1462807614408
 31
0.0
  0
LINE
  5
10C41
102
{ACAD_REACTORS
330
10C44
102
}
330
18
100
AcDbEntity
  8
寸法線
100
AcDbLine
 10
-0.1180344386210095
 20
409.5181179586789
 30
0.0
 11
-0.5545578390487549
 21
409.1181179586788
 31
0.0
  0
LINE
  5
10C56
102
{ACAD_REACTORS
330
10C5C
102
}
330
18
100
AcDbEntity
  8
寸法線
100
AcDbLine
 10
-5.967289807736904
 20
405.5462807614408
 30
0.0
 11
-5.530766407309158
 21
405.9462807614408
 31
0.0
  0
LINE
  5
10C57
102
{ACAD_REACTORS
330
10C5C
102
}
330
18
100
AcDbEntity
  8
寸法線
100
AcDbLine
 10
-5.967289807736904
 20
405.5462807614408
 30
0.0
 11
-5.600757338129881
 21
405.1462807614408
 31
0.0
  0
LINE
  5
10C58
102
{ACAD_REACTORS
330
10C5C
102
}
330
18
100
AcDbEntity
  8
寸法線
100
AcDbLine
 10
-1.617289807736824
 20
405.5462807614408
 30
0.0
 11
-1.983822277343733
 21
405.9462807614409
 31
0.0
  0
LINE
  5
10C59
102
{ACAD_REACTORS
330
10C5C
102
}
330
18
100
AcDbEntity
  8
寸法線
100
AcDbLine
 10
-1.617289807736824
 20
405.5462807614408
 30
0.0
 11
-2.053813208164513
 21
405.1462807614407
 31
0.0
  0
LINE
  5
10C5A
102
{ACAD_REACTORS
330
10C5C
102
}
330
18
100
AcDbEntity
  8
寸法線
100
AcDbLine
 10
-5.530766407309158
 20
405.9462807614408
 30
0.0
 11
-1.983822277343733
 21
405.9462807614409
 31
0.0
  0
LINE
  5
10C5B
102
{ACAD_REACTORS
330
10C5C
102
}
330
18
100
AcDbEntity
  8
寸法線
100
AcDbLine
 10
-5.600757338129881
 20
405.1462807614408
 30
0.0
 11
-2.053813208164513
 21
405.1462807614408
 31
0.0
  0
CIRCLE
  5
10C7F
102
{ACAD_REACTORS
330
10CFC
102
}
330
18
100
AcDbEntity
  8
外形線
100
AcDbCircle
 10
-10.79301176567287
 20
405.5462807614408
 30
0.0
 40
1.0
  0
LINE
  5
10C80
102
{ACAD_REACTORS
330
10CFC
102
}
330
18
100
AcDbEntity
  8
外形線
100
AcDbLine
 10
-10.79301176567281
 20
409.4123061652258
 30
0.0
 11
-11.79301176567281
 21
407.6802553576568
 31
0.0
  0
LINE
  5
10C86
102
{ACAD_REACTORS
330
10CFC
102
}
330
18
100
AcDbEntity
  8
外形線
100
AcDbLine
 10
-9.793011765672929
 20
407.6802553576568
 30
0.0
 11
-10.79301176567293
 21
409.4123061652258
 31
0.0
  0
LINE
  5
10C87
102
{ACAD_REACTORS
330
10CFC
102
}
330
18
100
AcDbEntity
  8
外形線
100
AcDbLine
 10
-11.79301176567347
 20
407.6802553576556
 30
0.0
 11
-9.793011765672304
 21
407.6802553576557
 31
0.0
  0
LINE
  5
10C8B
102
{ACAD_REACTORS
330
10CFC
102
}
330
18
100
AcDbEntity
  8
外形線
100
AcDbLine
 10
-10.79301176567281
 20
401.6802553576558
 30
0.0
 11
-11.79301176567281
 21
403.4123061652247
 31
0.0
  0
LINE
  5
10C8C
102
{ACAD_REACTORS
330
10CFC
102
}
330
18
100
AcDbEntity
  8
外形線
100
AcDbLine
 10
-9.793011765672929
 20
403.4123061652247
 30
0.0
 11
-10.79301176567293
 21
401.6802553576558
 31
0.0
  0
LINE
  5
10C8D
102
{ACAD_REACTORS
330
10CFC
102
}
330
18
100
AcDbEntity
  8
外形線
100
AcDbLine
 10
-11.79301176567347
 20
403.4123061652259
 30
0.0
 11
-9.793011765672304
 21
403.4123061652258
 31
0.0
  0
CIRCLE
  5
10C9B
330
18
100
AcDbEntity
  8
寸法線
100
AcDbCircle
 10
-7.293011765672872
 20
408.5462807614407
 30
0.0
 40
0.75
  0
CIRCLE
  5
10C9C
330
18
100
AcDbEntity
  8
寸法線
100
AcDbCircle
 10
-7.293011765672872
 20
405.5462807614408
 30
0.0
 40
0.75
  0
CIRCLE
  5
10C9D
330
18
100
AcDbEntity
  8
寸法線
100
AcDbCircle
 10
-7.293011765672872
 20
402.5462807614408
 30
0.0
 40
0.75
  0
CIRCLE
  5
10CAB
330
18
100
AcDbEntity
  8
寸法線
100
AcDbCircle
 10
12.60698823432713
 20
401.0462807614407
 30
0.0
 40
0.75
  0
LINE
  5
10CC9
330
18
100
AcDbEntity
  8
外形線
100
AcDbLine
 10
-9.167670233068733
 20
417.0462807614409
 30
0.0
 11
36.5816467017228
 21
417.046280761441
 31
0.0
  0
LINE
  5
10CCA
330
18
100
AcDbEntity
  8
外形線
100
AcDbLine
 10
-9.167670233068633
 20
382.0462807614409
 30
0.0
 11
36.58164670172288
 21
382.0462807614409
 31
0.0
  0
ARC
  5
10CCB
330
18
100
AcDbEntity
  8
外形線
100
AcDbCircle
 10
13.70698823432708
 20
399.546280761441
 30
0.0
 40
29.0
100
AcDbArc
 50
143.3809884686328
 51
216.6190115313672
  0
ARC
  5
10CCC
330
18
100
AcDbEntity
  8
外形線
100
AcDbCircle
 10
13.70698823432711
 20
399.546280761441
 30
0.0
 40
29.0
100
AcDbArc
 50
323.3809884686328
 51
36.61901153136725
  0
ARC
  5
10CCD
330
18
100
AcDbEntity
  8
外形線
100
AcDbCircle
 10
-9.167670233068633
 20
382.5462807614409
 30
0.0
 40
0.5
100
AcDbArc
 50
216.6190115313672
 51
270.0
  0
ARC
  5
10CCE
330
18
100
AcDbEntity
  8
外形線
100
AcDbCircle
 10
-9.167670233068733
 20
416.5462807614408
 30
0.0
 40
0.5
100
AcDbArc
 50
90.0
 51
143.3809884686327
  0
ARC
  5
10CCF
330
18
100
AcDbEntity
  8
外形線
100
AcDbCircle
 10
36.5816467017228
 20
416.546280761441
 30
0.0
 40
0.5
100
AcDbArc
 50
36.61901153136732
 51
90.0
  0
ARC
  5
10CD0
330
18
100
AcDbEntity
  8
外形線
100
AcDbCircle
 10
36.58164670172288
 20
382.546280761441
 30
0.0
 40
0.5
100
AcDbArc
 50
270.0
 51
323.3809884686327
  0
LINE
  5
10CDC
330
18
100
AcDbEntity
  8
外形線
100
AcDbLine
 10
112.4082722274048
 20
430.2171657142539
 30
0.0
 11
128.6814875495861
 21
430.7854389154093
 31
0.0
  0
LINE
  5
10CDD
330
18
100
AcDbEntity
  8
外形線
100
AcDbLine
 10
112.4082722274048
 20
368.8753958086277
 30
0.0
 11
128.681487549586
 21
368.3071226074723
 31
0.0
  0
ARC
  5
10CDE
330
18
100
AcDbEntity
  8
外形線
100
AcDbCircle
 10
112.4431717241073
 20
429.2177748872348
 30
0.0
 40
1.0
100
AcDbArc
 50
91.99999999999873
 51
178.2575408005796
  0
ARC
  5
10CDF
330
18
100
AcDbEntity
  8
外形線
100
AcDbCircle
 10
112.4431717241073
 20
369.8747866356468
 30
0.0
 40
1.0
100
AcDbArc
 50
181.7424591993975
 51
267.9999999999997
  0
ARC
  5
10CE0
330
18
100
AcDbEntity
  8
外形線
100
AcDbCircle
 10
1087.804457398749
 20
399.5462807614431
 30
0.0
 40
976.8125000001523
100
AcDbArc
 50
178.2575408005959
 51
181.742459199404
  0
HATCH
  5
10CFC
330
18
100
AcDbEntity
  8
外形線
 62
     2
100
AcDbHatch
 10
0.0
 20
0.0
 30
0.0
210
0.0
220
0.0
230
1.0
  2
SOLID
 70
     1
 71
     1
 91
        3
 92
        7
 72
     0
 73
     1
 93
        3
 10
-9.793011765672295
 20
407.6802553576556
 10
-10.79301176567286
 20
409.4123061652257
 10
-11.79301176567346
 20
407.6802553576556
 97
        3
330
10C80
330
10C87
330
10C86
 92
        7
 72
     1
 73
     1
 93
        2
 10
-9.793011765672872
 20
405.5462807614408
 42
1.0
 10
-11.79301176567287
 20
405.5462807614408
 42
1.0
 97
        1
330
10C7F
 92
        7
 72
     0
 73
     1
 93
        3
 10
-11.79301176567346
 20
403.4123061652259
 10
-10.79301176567287
 20
401.6802553576559
 10
-9.793011765672309
 20
403.4123061652258
 97
        3
330
10C8D
330
10C8B
330
10C8C
 75
     0
 76
     1
 47
0.0226478833328493
 98
        3
 10
-10.73433311832764
 20
408.164631810859
 10
-10.75699153834807
 20
405.7186604306959
 10
-10.80230837838871
 20
402.865026689202
450
        0
451
        0
460
0.0
461
0.0
452
        1
462
1.0
453
        2
463
0.0
 63
     5
421
      255
463
1.0
 63
    51
421
 16777113
470
LINEAR
  0
LINE
  5
10E78
330
18
100
AcDbEntity
  8
想像線
 48
0.5
100
AcDbLine
 10
116.6419573985968
 20
436.7141766631125
 30
0.0
 11
121.3419573985968
 21
436.7141766631125
 31
0.0
  0
LINE
  5
10E79
330
18
100
AcDbEntity
  8
想像線
 48
0.5
100
AcDbLine
 10
115.6419573985968
 20
435.7141766631126
 30
0.0
 11
115.6419573985968
 21
430.3300884887272
 31
0.0
  0
LINE
  5
10E7A
330
18
100
AcDbEntity
  8
想像線
 48
0.5
100
AcDbLine
 10
122.3419573985968
 20
435.7141766631126
 30
0.0
 11
122.3419573985968
 21
430.5640576443219
 31
0.0
  0
ARC
  5
10E7B
330
18
100
AcDbEntity
  8
想像線
 48
0.5
100
AcDbCircle
 10
116.6419573985968
 20
435.7141766631126
 30
0.0
 40
1.0
100
AcDbArc
 50
90.0
 51
180.0
  0
ARC
  5
10E7C
330
18
100
AcDbEntity
  8
想像線
 48
0.5
100
AcDbCircle
 10
121.3419573985968
 20
435.7141766631126
 30
0.0
 40
1.0
100
AcDbArc
 50
359.9999999999968
 51
90.00000000000161
  0
LINE
  5
10E7D
330
18
100
AcDbEntity
  8
想像線
 48
0.5
100
AcDbLine
 10
118.0919573985968
 20
438.0179568018438
 30
0.0
 11
118.0919573985968
 21
436.7141766631125
 31
0.0
  0
LINE
  5
10E7E
330
18
100
AcDbEntity
  8
想像線
 48
0.5
100
AcDbLine
 10
119.8919573985968
 20
438.0179568018438
 30
0.0
 11
119.8919573985968
 21
436.7141766631125
 31
0.0
  0
SPLINE
  5
10E7F
330
18
100
AcDbEntity
  8
寸法線
100
AcDbSpline
210
0.0
220
0.0
230
1.0
 70
     8
 71
     3
 72
    15
 73
    11
 74
     9
 42
0.0000000001
 43
0.0000000001
 44
0.0000000001
 40
0.0
 40
0.0
 40
0.0
 40
0.0
 40
0.293662184470876
 40
0.4980793457427686
 40
0.7326298956400937
 40
0.9291998277063909
 40
1.158908818980713
 40
1.418322365643203
 40
1.711900698486499
 40
1.883172559482189
 40
1.883172559482189
 40
1.883172559482189
 40
1.883172559482189
 10
118.0919573985968
 20
438.0179568018438
 30
0.0
 10
118.1836881779243
 20
438.0531121875145
 30
0.0
 10
118.3392724137162
 20
438.1127391072206
 30
0.0
 10
118.5863874175248
 20
438.1352908979646
 30
0.0
 10
118.7942529343929
 20
438.0863728512151
 30
0.0
 10
119.0061007691655
 20
438.0239782815278
 30
0.0
 10
119.1992938758693
 20
437.8900164071203
 30
0.0
 10
119.4662620682874
 20
437.8766175395099
 30
0.0
 10
119.7140658073359
 20
437.8980482787187
 30
0.0
 10
119.8440612068846
 20
437.985672186417
 30
0.0
 10
119.8919573985968
 20
438.0179568018438
 30
0.0
 11
118.0919573985968
 21
438.0179568018438
 31
0.0
 11
118.3714661486824
 21
438.1080253158416
 31
0.0
 11
118.5752498218801
 21
438.1241060608655
 31
0.0
 11
118.8058468855952
 21
438.0812230261883
 31
0.0
 11
118.9919573985968
 21
438.0179568018438
 31
0.0
 11
119.1973258801358
 21
437.9150490399275
 31
0.0
 11
119.4547379220876
 21
437.882886501933
 31
0.0
 11
119.7443250800293
 21
437.9311308328984
 31
0.0
 11
119.8919573985968
 21
438.0179568018438
 31
0.0
  0
LINE
  5
10ED2
330
18
100
AcDbEntity
  8
中心線
 48
0.5
100
AcDbLine
 10
-30.4775035691982
 20
443.730772564966
 30
0.0
 11
-5.897873133877169
 21
419.151142129645
 31
0.0
  0
LINE
  5
10ED7
330
18
100
AcDbEntity
  8
想像線
 48
0.35
100
AcDbLine
 10
-11.87606733875363
 20
417.4925830977066
 30
0.0
 11
-22.23100899181057
 21
427.8475247507635
 31
0.0
  0
LINE
  5
10ED8
330
18
100
AcDbEntity
  8
想像線
 48
0.35
100
AcDbLine
 10
-27.98567635260915
 20
437.9770793205448
 30
0.0
 11
-24.72381032477708
 21
441.2389453483767
 31
0.0
  0
LINE
  5
10ED9
330
18
100
AcDbEntity
  8
想像線
 48
0.35
100
AcDbLine
 10
-27.62753554482888
 20
438.335220128325
 30
0.0
 11
-30.53235645395938
 21
441.2400410374555
 31
0.0
  0
LINE
  5
10EDA
330
18
100
AcDbEntity
  8
想像線
 48
0.35
100
AcDbLine
 10
-25.08195113255729
 20
440.8808045405967
 30
0.0
 11
-27.98677204021257
 21
443.7856254482519
 31
0.0
  0
LINE
  5
10EDB
330
18
100
AcDbEntity
  8
想像線
 48
0.35
100
AcDbLine
 10
-22.2696765604326
 20
427.8974796453137
 30
0.0
 11
-23.83221086133946
 21
430.5519053854086
 31
0.0
  0
LINE
  5
10EDC
330
18
100
AcDbEntity
  8
想像線
 48
0.35
100
AcDbLine
 10
-26.3220813807998
 20
435.398033605235
 30
0.0
 11
-25.82441325280328
 21
435.8957017332313
 31
0.0
  0
LINE
  5
10EDD
330
18
100
AcDbEntity
  8
想像線
 48
0.35
100
AcDbLine
 10
-25.62760150642012
 20
433.971193136055
 30
0.0
 11
-24.76375308102345
 21
434.8350415614516
 31
0.0
  0
LINE
  5
10EDE
330
18
100
AcDbEntity
  8
想像線
 48
0.35
100
AcDbLine
 10
-24.48802316709717
 20
432.2823443506317
 30
0.0
 11
-23.34953951865035
 21
433.4208279990784
 31
0.0
  0
LINE
  5
10EDF
330
18
100
AcDbEntity
  8
想像線
 48
0.35
100
AcDbLine
 10
-23.79354329271749
 20
430.8555038814517
 30
0.0
 11
-22.28887934687052
 21
432.3601678272987
 31
0.0
  0
LINE
  5
10EE0
330
18
100
AcDbEntity
  8
想像線
 48
0.35
100
AcDbLine
 10
-24.88024412631242
 20
432.3322992451819
 30
0.0
 11
-25.6662690750421
 21
433.6675946400118
 31
0.0
  0
LINE
  5
10EE1
330
18
100
AcDbEntity
  8
想像線
 48
0.35
100
AcDbLine
 10
-26.714302340015
 20
435.4479884997852
 30
0.0
 11
-28.02434392123118
 21
437.6734808245016
 31
0.0
  0
ARC
  5
10EE2
330
18
100
AcDbEntity
  8
想像線
 48
0.35
100
AcDbCircle
 10
-23.61676659742085
 20
430.678727186155
 30
0.0
 40
0.25
100
AcDbArc
 50
134.9999999999996
 51
210.483300041147
  0
ARC
  5
10EE3
330
18
100
AcDbEntity
  8
想像線
 48
0.35
100
AcDbCircle
 10
-24.66479986239381
 20
432.4591210459281
 30
0.0
 40
0.25
100
AcDbArc
 50
210.483300041147
 51
314.9999999999997
  0
ARC
  5
10EE4
330
18
100
AcDbEntity
  8
想像線
 48
0.35
100
AcDbCircle
 10
-25.45082481112348
 20
433.7944164407582
 30
0.0
 40
0.25
100
AcDbArc
 50
134.9999999999996
 51
210.4833000411434
  0
ARC
  5
10EE5
330
18
100
AcDbEntity
  8
想像線
 48
0.35
100
AcDbCircle
 10
-26.49885807609638
 20
435.5748103005314
 30
0.0
 40
0.25
100
AcDbArc
 50
210.483300041147
 51
314.9999999999997
  0
ARC
  5
10EE6
330
18
100
AcDbEntity
  8
想像線
 48
0.35
100
AcDbCircle
 10
-22.8192094327604
 20
432.8904979131884
 30
0.0
 40
0.7500000000000028
100
AcDbArc
 50
314.9999999999997
 51
134.9999999999996
  0
ARC
  5
10EE7
330
18
100
AcDbEntity
  8
想像線
 48
0.35
100
AcDbCircle
 10
-25.29408316691334
 20
435.3653716473416
 30
0.0
 40
0.7500000000000119
100
AcDbArc
 50
314.9999999999997
 51
134.9999999999996
  0
ARC
  5
10EE8
330
18
100
AcDbEntity
  8
想像線
 48
0.35
100
AcDbCircle
 10
-22.05423229651393
 20
428.0243014460601
 30
0.0
 40
0.25
100
AcDbArc
 50
210.483300041147
 51
225.0000000000003
  0
ARC
  5
10EE9
330
18
100
AcDbEntity
  8
想像線
 48
0.35
100
AcDbCircle
 10
-27.80889965731254
 20
437.8003026252481
 30
0.0
 40
0.25
100
AcDbArc
 50
134.9999999999996
 51
210.4833000411434
  0
LINE
  5
10EEA
330
18
100
AcDbEntity
  8
想像線
 48
0.35
100
AcDbLine
 10
-4.239314101939001
 20
425.1293363345213
 30
0.0
 11
-14.59425575499588
 21
435.4842779875782
 31
0.0
  0
LINE
  5
10EEB
330
18
100
AcDbEntity
  8
想像線
 48
0.35
100
AcDbLine
 10
-14.64421064954612
 20
435.5229455562002
 30
0.0
 11
-17.29863638964102
 21
437.0854798571071
 31
0.0
  0
LINE
  5
10EEC
330
18
100
AcDbEntity
  8
想像線
 48
0.35
100
AcDbLine
 10
-22.14476460946727
 20
439.5753503765674
 30
0.0
 11
-22.64243273746379
 21
439.0776822485709
 31
0.0
  0
LINE
  5
10EED
330
18
100
AcDbEntity
  8
想像線
 48
0.35
100
AcDbLine
 10
-20.71792414028718
 20
438.8808705021879
 30
0.0
 11
-21.58177256568396
 21
438.0170220767911
 31
0.0
  0
LINE
  5
10EEE
330
18
100
AcDbEntity
  8
想像線
 48
0.35
100
AcDbLine
 10
-19.02907535486398
 20
437.7412921628649
 30
0.0
 11
-20.1675590033108
 21
436.602808514418
 31
0.0
  0
LINE
  5
10EEF
330
18
100
AcDbEntity
  8
想像線
 48
0.35
100
AcDbLine
 10
-17.60223488568394
 20
437.0468122884853
 30
0.0
 11
-19.10689883153097
 21
435.5421483426382
 31
0.0
  0
LINE
  5
10EF0
330
18
100
AcDbEntity
  8
想像線
 48
0.35
100
AcDbLine
 10
-19.07903024941422
 20
438.1335131220801
 30
0.0
 11
-20.41432564424415
 21
438.9195380708099
 31
0.0
  0
LINE
  5
10EF1
330
18
100
AcDbEntity
  8
想像線
 48
0.35
100
AcDbLine
 10
-22.19471950401746
 20
439.9675713357829
 30
0.0
 11
-24.42021182873404
 21
441.2776129169988
 31
0.0
  0
ARC
  5
10EF2
330
18
100
AcDbEntity
  8
想像線
 48
0.35
100
AcDbCircle
 10
-17.42545819038733
 20
436.8700355931885
 30
0.0
 40
0.25
100
AcDbArc
 50
59.51669995885346
 51
134.9999999999996
  0
ARC
  5
10EF3
330
18
100
AcDbEntity
  8
想像線
 48
0.35
100
AcDbCircle
 10
-19.20585205016061
 20
437.9180688581613
 30
0.0
 40
0.25
100
AcDbArc
 50
314.9999999999997
 51
59.51669995885346
  0
ARC
  5
10EF4
330
18
100
AcDbEntity
  8
想像線
 48
0.35
100
AcDbCircle
 10
-20.54114744499057
 20
438.7040938068913
 30
0.0
 40
0.25
100
AcDbArc
 50
59.5166999588539
 51
134.9999999999996
  0
ARC
  5
10EF5
330
18
100
AcDbEntity
  8
想像線
 48
0.35
100
AcDbCircle
 10
-22.32154130476386
 20
439.7521270718639
 30
0.0
 40
0.25
100
AcDbArc
 50
314.9999999999997
 51
59.51669995885346
  0
ARC
  5
10EF6
330
18
100
AcDbEntity
  8
想像線
 48
0.35
100
AcDbCircle
 10
-19.63722891742091
 20
436.072478428528
 30
0.0
 40
0.7500000000000028
100
AcDbArc
 50
134.9999999999996
 51
314.9999999999997
  0
ARC
  5
10EF7
330
18
100
AcDbEntity
  8
想像線
 48
0.35
100
AcDbCircle
 10
-22.11210265157388
 20
438.5473521626809
 30
0.0
 40
0.7500000000000119
100
AcDbArc
 50
134.9999999999996
 51
314.9999999999997
  0
ARC
  5
10EF8
330
18
100
AcDbEntity
  8
想像線
 48
0.35
100
AcDbCircle
 10
-14.77103245029246
 20
435.3075012922816
 30
0.0
 40
0.25
100
AcDbArc
 50
45.00000000000036
 51
59.51669995885303
  0
ARC
  5
10EF9
330
18
100
AcDbEntity
  8
想像線
 48
0.35
100
AcDbCircle
 10
-24.54703362948047
 20
441.0621686530801
 30
0.0
 40
0.25
100
AcDbArc
 50
59.5166999588539
 51
134.9999999999996
  0
SPLINE
  5
10EFA
330
18
100
AcDbEntity
  8
寸法線
 48
0.35
100
AcDbSpline
210
0.0
220
0.0
230
1.0
 70
     8
 71
     3
 72
    15
 73
    11
 74
     9
 42
0.0000000001
 43
0.0000000001
 44
0.0000000001
 40
0.0
 40
0.0
 40
0.0
 40
0.0
 40
0.4777429775026651
 40
1.030438592599992
 40
1.527311148405856
 40
1.903317194883125
 40
2.337699177278821
 40
2.926354246712016
 40
3.39496800538318
 40
3.803912808385991
 40
3.803912808385991
 40
3.803912808385991
 40
3.803912808385991
 10
-30.53235645511935
 20
441.2400410333457
 30
0.0
 10
-30.48897399143643
 20
441.3937456350573
 30
0.0
 10
-30.39540283094627
 20
441.7252694060437
 30
0.0
 10
-30.08104596593872
 20
442.1516401731628
 30
0.0
 10
-29.65111256215167
 20
442.3735956973054
 30
0.0
 10
-29.23953898867737
 20
442.5147313020564
 30
0.0
 10
-28.81227162672955
 20
442.7010958195902
 30
0.0
 10
-28.3757827104662
 20
442.9541382949745
 30
0.0
 10
-28.076406135711
 20
443.3630009245058
 30
0.0
 10
-28.0152643073394
 20
443.651284483935
 30
0.0
 10
-27.98677204021258
 20
443.7856254482519
 30
0.0
 11
-30.53235645511935
 21
441.2400410333457
 31
0.0
 11
-30.37673331033662
 21
441.6917265316308
 31
0.0
 11
-30.04168500775379
 21
442.1312889025
 31
0.0
 11
-29.61091315505738
 21
442.3789135128229
 31
0.0
 11
-29.25956424898375
 21
442.5128332394815
 31
0.0
 11
-28.861743403992
 21
442.6872645495152
 31
0.0
 11
-28.36964115995733
 21
443.0102973221335
 31
0.0
 11
-28.09788249337763
 21
443.3920643740837
 31
0.0
 11
-27.98677204021258
 21
443.7856254482519
 31
0.0
  0
LINE
  5
10EFB
330
18
100
AcDbEntity
  8
想像線
 48
0.35
100
AcDbLine
 10
-26.35474333869317
 20
439.6080123344607
 30
0.0
 11
-29.25956424517929
 21
442.512833240948
 31
0.0
  0
LINE
  5
10F0D
330
18
100
AcDbEntity
  8
中心線
 48
0.35
100
AcDbLine
 10
118.9919573985968
 20
446.1298028567653
 30
0.0
 11
118.9919573985968
 21
428.7627220901454
 31
0.0
  0
LINE
  5
10F0E
330
18
100
AcDbEntity
  8
想像線
 48
0.35
100
AcDbLine
 10
116.4174429452952
 20
441.3101652899765
 30
0.0
 11
121.5664718518985
 21
441.3101652899764
 31
0.0
  0
LINE
  5
10F0F
330
18
100
AcDbEntity
  8
想像線
 48
0.35
100
AcDbLine
 10
115.5919573985968
 20
435.5067930035791
 30
0.0
 11
115.5919573985968
 21
430.3283424502514
 31
0.0
  0
LINE
  5
10F10
330
18
100
AcDbEntity
  8
想像線
 48
0.35
100
AcDbLine
 10
122.3919573985968
 20
435.5067930035795
 30
0.0
 11
122.3919573985968
 21
430.5658036827953
 31
0.0
  0
LINE
  5
10F11
330
18
100
AcDbEntity
  8
想像線
 48
0.35
100
AcDbLine
 10
118.0919573985968
 20
443.7856254482522
 30
0.0
 11
118.0919573985968
 21
441.3101652899766
 31
0.0
  0
LINE
  5
10F12
330
18
100
AcDbEntity
  8
想像線
 48
0.35
100
AcDbLine
 10
119.8919573985968
 20
443.7856254482522
 30
0.0
 11
119.8919573985968
 21
441.3101652899766
 31
0.0
  0
SPLINE
  5
10F13
330
18
100
AcDbEntity
  8
寸法線
 48
0.35
100
AcDbSpline
210
0.0
220
0.0
230
1.0
 70
     8
 71
     3
 72
    15
 73
    11
 74
     9
 42
0.0000000001
 43
0.0000000001
 44
0.0000000001
 40
0.0
 40
0.0
 40
0.0
 40
0.0
 40
0.293662184470876
 40
0.4980793457427686
 40
0.7326298956400937
 40
0.9291998277063909
 40
1.158908818980713
 40
1.418322365643203
 40
1.711900698486499
 40
1.883172559482189
 40
1.883172559482189
 40
1.883172559482189
 40
1.883172559482189
 10
118.0919573985968
 20
443.7856254482522
 30
0.0
 10
118.1836881779243
 20
443.8207808339228
 30
0.0
 10
118.3392724137162
 20
443.880407753629
 30
0.0
 10
118.5863874175248
 20
443.9029595443729
 30
0.0
 10
118.7942529343929
 20
443.8540414976235
 30
0.0
 10
119.0061007691655
 20
443.7916469279362
 30
0.0
 10
119.1992938758693
 20
443.6576850535287
 30
0.0
 10
119.4662620682874
 20
443.6442861859183
 30
0.0
 10
119.7140658073359
 20
443.6657169251271
 30
0.0
 10
119.8440612068846
 20
443.7533408328254
 30
0.0
 10
119.8919573985968
 20
443.7856254482522
 30
0.0
 11
118.0919573985968
 21
443.7856254482522
 31
0.0
 11
118.3714661486824
 21
443.87569396225
 31
0.0
 11
118.5752498218801
 21
443.8917747072738
 31
0.0
 11
118.8058468855952
 21
443.8488916725967
 31
0.0
 11
118.9919573985968
 21
443.7856254482522
 31
0.0
 11
119.1973258801358
 21
443.6827176863358
 31
0.0
 11
119.4547379220876
 21
443.6505551483413
 31
0.0
 11
119.7443250800293
 21
443.6987994793067
 31
0.0
 11
119.8919573985968
 21
443.7856254482522
 31
0.0
  0
LINE
  5
10F14
330
18
100
AcDbEntity
  8
想像線
 48
0.35
100
AcDbLine
 10
116.1687684672523
 20
441.0858752874507
 30
0.0
 11
115.5919573985968
 21
435.5067930035791
 31
0.0
  0
ARC
  5
10F15
330
18
100
AcDbEntity
  8
想像線
 48
0.35
100
AcDbCircle
 10
116.4174429452952
 20
441.0601652899765
 30
0.0
 40
0.25
100
AcDbArc
 50
90.0
 51
174.0972666513254
  0
LINE
  5
10F16
330
18
100
AcDbEntity
  8
想像線
 48
0.35
100
AcDbLine
 10
121.8151463299413
 20
441.0858752874507
 30
0.0
 11
122.3919573985968
 21
435.5067930035791
 31
0.0
  0
ARC
  5
10F17
330
18
100
AcDbEntity
  8
想像線
 48
0.35
100
AcDbCircle
 10
121.5664718518985
 20
441.0601652899765
 30
0.0
 40
0.25
100
AcDbArc
 50
5.902733348674605
 51
90.0
  0
TEXT
  5
10FF4
330
18
100
AcDbEntity
  8
文字
100
AcDbText
 10
28.06000779896505
 20
501.6529403061629
 30
0.0
 40
4.0
  1
Model No.PDN-21 Digital Gauge
  7
STYLE3
100
AcDbText
  0
LINE
  5
10FF5
330
18
100
AcDbEntity
  8
外形線
100
AcDbLine
 10
27.60719179896506
 20
498.2623983061629
 30
0.0
 11
123.607191798965
 21
498.2623983061629
 31
0.0
  0
LINE
  5
10FF6
330
18
100
AcDbEntity
  8
外形線
100
AcDbLine
 10
27.60719179896506
 20
499.2623983061629
 30
0.0
 11
123.607191798965
 21
499.2623983061629
 31
0.0
  0
TEXT
  5
11011
330
18
100
AcDbEntity
  8
0
  6
Continuous
100
AcDbText
 10
121.444136911336
 20
255.1218031827799
 30
0.0
 40
2.1
  1
Design and specifications are subject to change without notice for future improvement.
  7
STYLE3
100
AcDbText
  0
LINE
  5
11012
330
18
100
AcDbEntity
  8
外形線
100
AcDbLine
 10
119.986669911336
 20
253.2238121827799
 30
0.0
 11
260.7780879113361
 21
253.2238121827799
 31
0.0
  0
TEXT
  5
11013
330
18
100
AcDbEntity
  8
0
  6
Continuous
100
AcDbText
 10
224.232878911336
 20
245.3571761827799
 30
0.0
 40
2.1
  1
OZAKI MFG. CO., LTD.
  7
STYLE3
100
AcDbText
  0
TEXT
  5
11014
330
18
100
AcDbEntity
  8
0
  6
Continuous
100
AcDbText
 10
223.358399911336
 20
249.1448151827799
 30
0.0
 40
3.0
  1
株式会社　尾崎製作所
  7
STYLE3
100
AcDbText
  0
TEXT
  5
11015
330
18
100
AcDbEntity
  8
0
  6
Continuous
100
AcDbText
 10
121.735631911336
 20
259.0509511827799
 30
0.0
 40
3.5
  1
仕様及び外観は予告なく変更される場合がございますのでご了承下さい。
  7
STYLE3
100
AcDbText
  0
LINE
  5
11016
330
18
100
AcDbEntity
  8
外形線
100
AcDbLine
 10
119.986669911336
 20
264.0040181827799
 30
0.0
 11
260.7780879113361
 21
264.0040181827799
 31
0.0
  0
TEXT
  5
11017
330
18
100
AcDbEntity
  8
0
  6
Continuous
100
AcDbText
 10
156.886587911336
 20
245.3571761827799
 30
0.0
 40
2.1
  1
Unit
  7
STYLE3
100
AcDbText
  0
TEXT
  5
11018
330
18
100
AcDbEntity
  8
0
  6
Continuous
100
AcDbText
 10
156.714866911336
 20
248.8594121827799
 30
0.0
 40
3.0
  1
単位
  7
STYLE3
100
AcDbText
  0
LINE
  5
11019
330
18
100
AcDbEntity
  8
外形線
100
AcDbLine
 10
119.986669911336
 20
243.6090341827799
 30
0.0
 11
119.986669911336
 21
264.0040181827799
 31
0.0
  0
LINE
  5
1101A
330
18
100
AcDbEntity
  8
外形線
100
AcDbLine
 10
155.257397911336
 20
253.2238121827799
 30
0.0
 11
155.257397911336
 21
243.6090341827799
 31
0.0
  0
TEXT
  5
1101B
330
18
100
AcDbEntity
  8
0
  6
Continuous
100
AcDbText
 10
121.152645911336
 20
245.3571751827799
 30
0.0
 40
2.1
  1
3RD Angle Projection
  7
STYLE3
100
AcDbText
  0
TEXT
  5
1101C
330
18
100
AcDbEntity
  8
0
  6
Continuous
100
AcDbText
 10
123.776088911336
 20
248.8534581827799
 30
0.0
 40
3.0
  1
三　　角　　法
  7
STYLE3
100
AcDbText
  0
LINE
  5
1101D
330
18
100
AcDbEntity
  8
外形線
100
AcDbLine
 10
172.747014911336
 20
253.2238121827799
 30
0.0
 11
172.747014911336
 21
243.6090341827799
 31
0.0
  0
LINE
  5
1101E
330
18
100
AcDbEntity
  8
外形線
100
AcDbLine
 10
192.2770869113361
 20
253.2238121827799
 30
0.0
 11
192.2770869113361
 21
243.6090341827799
 31
0.0
  0
LINE
  5
1101F
330
18
100
AcDbEntity
  8
外形線
100
AcDbLine
 10
222.0094369113361
 20
253.2238121827799
 30
0.0
 11
222.0094369113361
 21
243.6090341827799
 31
0.0
  0
TEXT
  5
11020
330
18
100
AcDbEntity
  8
0
  6
Continuous
100
AcDbText
 10
174.495977911336
 20
245.6485331827799
 30
0.0
 40
2.1
  1
Scale
  7
STYLE3
100
AcDbText
  0
TEXT
  5
11021
330
18
100
AcDbEntity
  8
0
  6
Continuous
100
AcDbText
 10
174.0327629113361
 20
248.5680551827799
 30
0.0
 40
3.0
  1
尺 度
  7
STYLE3
100
AcDbText
  0
TEXT
  5
11022
330
18
100
AcDbEntity
  8
0
  6
Continuous
100
AcDbText
 10
164.756914911336
 20
247.1053181827799
 30
0.0
 40
2.399999999999999
  1
mm
  7
STYLE3
100
AcDbText
  0
TEXT
  5
11023
330
18
100
AcDbEntity
  8
0
  6
Continuous
100
AcDbText
 10
184.115266911336
 20
247.3966751827799
 30
0.0
 40
2.399999999999999
  1
1/1
  7
STYLE3
100
AcDbText
  0
TEXT
  5
11024
330
18
100
AcDbEntity
  8
0
  6
Continuous
100
AcDbText
 10
202.9538459113362
 20
247.1053171827799
 30
0.0
 40
2.1
  1
2012.02.15
  7
STYLE3
100
AcDbText
  0
TEXT
  5
11025
330
18
100
AcDbEntity
  8
0
  6
Continuous
100
AcDbText
 10
193.8256779113361
 20
248.6902601827799
 30
0.0
 40
3.0
  1
日 付
  7
STYLE3
100
AcDbText
  0
TEXT
  5
11026
330
18
100
AcDbEntity
  8
0
  6
Continuous
100
AcDbText
 10
194.209038911336
 20
245.3571771827799
 30
0.0
 40
2.1
  1
Date
  7
STYLE3
100
AcDbText
  0
VIEWPORT
  5
177
330
15
100
AcDbEntity
 67
     1
  8
0
100
AcDbViewport
 10
148.7981095588714
 20
159.2824826196904
 30
0.0
 40
1006.643174802244
 41
634.8428062195056
 68
     2
 69
     1
 12
148.7981095588714
 22
159.2824826196904
 13
0.0
 23
0.0
 14
10.0
 24
10.0
 15
10.0
 25
10.0
 16
0.0
 26
0.0
 36
1.0
 17
0.0
 27
0.0
 37
0.0
 42
50.0
 43
0.0
 44
0.0
 45
634.8428062195056
 50
0.0
 51
0.0
 72
   100
 90
    32800
  1

281
     0
 71
     1
 74
     0
110
0.0
120
0.0
130
0.0
111
1.0
121
0.0
131
0.0
112
0.0
122
1.0
132
0.0
 79
     0
146
0.0
170
     0
  0
VIEWPORT
  5
D33B
330
15
100
AcDbEntity
 67
     1
  8
外形線
100
AcDbViewport
 10
204.099579334259
 20
142.6315760612488
 30
0.0
 40
326.5593269348144
 41
228.2105216979981
 68
     1
 69
     2
 12
139.2268420062388
 22
345.898025609359
 13
0.0
 23
0.0
 14
10.0
 24
10.0
 15
10.0
 25
10.0
 16
0.0
 26
0.0
 36
1.0
 17
0.0
 27
0.0
 37
0.0
 42
50.0
 43
0.0
 44
0.0
 45
45.64210433959961
 50
0.0
 51
0.0
 72
   100
 90
    32800
  1

281
     0
 71
     1
 74
     0
110
0.0
120
0.0
130
0.0
111
1.0
121
0.0
131
0.0
112
0.0
122
1.0
132
0.0
 79
     0
146
0.0
170
     0
  0
ENDSEC
  0
SECTION
  2
OBJECTS
  0
DICTIONARY
  5
C
330
0
100
AcDbDictionary
281
     1
  3
ACAD_COLOR
350
249C
  3
ACAD_GROUP
350
D
  3
ACAD_LAYOUT
350
249F
  3
ACAD_MATERIAL
350
249B
  3
ACAD_MLINESTYLE
350
1B
  3
ACAD_PLOTSETTINGS
350
24A0
  3
ACAD_PLOTSTYLENAME
350
2499
  3
ACAD_TABLESTYLE
350
249D
  3
AcadDim
350
1097B
  3
ACDBVARIABLEDICTIONARY
350
458
  3
DRAWINGVARIABLESDICT
350
7A6
  0
DICTIONARY
  5
C7D2
330
2
100
AcDbDictionary
280
     1
281
     1
  3
ACAD_LAYERFILTERS
360
D936
  3
ACAD_LAYERSTATES
360
C7D3
  0
DICTIONARY
  5
26F5
330
18
100
AcDbDictionary
280
     1
281
     1
  3
ACAD_SORTENTS
360
26F6
  0
DICTIONARY
  5
249C
102
{ACAD_REACTORS
330
C
102
}
330
C
100
AcDbDictionary
281
     1
  0
DICTIONARY
  5
D
102
{ACAD_REACTORS
330
C
102
}
330
C
100
AcDbDictionary
281
     1
  3
*A1
350
EBCC
  3
*A10
350
107C4
  3
*A11
350
10C48
  3
*A12
350
F713
  3
*A13
350
F87A
  3
*A14
350
107D3
  3
*A15
350
107DB
  3
*A16
350
107E5
  3
*A17
350
107E4
  3
*A18
350
EF71
  3
*A19
350
F84F
  3
*A2
350
F8CB
  3
*A20
350
107CE
  3
*A21
350
1083A
  3
*A22
350
10890
  3
*A23
350
108E0
  3
*A24
350
108BE
  3
*A25
350
10902
  3
*A26
350
F820
  3
*A27
350
107EC
  3
*A28
350
10924
  3
*A29
350
EFEA
  3
*A3
350
10968
  3
*A30
350
10946
  3
*A31
350
10C44
  3
*A32
350
F6CE
  3
*A33
350
F44B
  3
*A34
350
10C45
  3
*A35
350
10C46
  3
*A36
350
10C47
  3
*A37
350
10C5C
  3
*A38
350
F6CF
  3
*A4
350
F229
  3
*A40
350
EFE1
  3
*A41
350
F68F
  3
*A42
350
FAB9
  3
*A43
350
F850
  3
*A44
350
EF3E
  3
*A45
350
F22F
  3
*A46
350
F230
  3
*A47
350
F3AB
  3
*A48
350
F22E
  3
*A49
350
F87B
  3
*A5
350
F68E
  3
*A50
350
EF3D
  3
*A51
350
EC7A
  3
*A52
350
F830
  3
*A53
350
EE48
  3
*A6
350
F87C
  3
*A7
350
F851
  3
*A8
350
107BF
  3
*A9
350
107BA
  0
DICTIONARY
  5
249F
102
{ACAD_REACTORS
330
C
102
}
330
C
100
AcDbDictionary
281
     1
  3
Model
350
24A1
  3
レイアウト1
350
24A2
  0
DICTIONARY
  5
249B
102
{ACAD_REACTORS
330
C
102
}
330
C
100
AcDbDictionary
281
     1
  0
DICTIONARY
  5
1B
102
{ACAD_REACTORS
330
C
102
}
330
C
100
AcDbDictionary
281
     1
  3
STANDARD
350
1C
  0
DICTIONARY
  5
24A0
102
{ACAD_REACTORS
330
C
102
}
330
C
100
AcDbDictionary
281
     1
  0
ACDBDICTIONARYWDFLT
  5
2499
102
{ACAD_REACTORS
330
C
102
}
330
C
100
AcDbDictionary
281
     1
  3
Normal
350
249A
100
AcDbDictionaryWithDefault
340
249A
  0
DICTIONARY
  5
249D
102
{ACAD_REACTORS
330
C
102
}
330
C
100
AcDbDictionary
281
     1
  3
Standard
350
249E
  0
XRECORD
  5
1097B
102
{ACAD_REACTORS
330
C
102
}
330
C
100
AcDbXrecord
280
     1
 90
   990106
  3
OPEN
 60
     0
 61
     0
 62
     4
 63
     4
 64
     1
 65
     0
 66
     0
 67
     3
 68
     1
 69
     0
 70
     0
 71
     1
 72
     0
 40
1.0
170
     2
340
1097D
  0
DICTIONARY
  5
458
102
{ACAD_REACTORS
330
C
102
}
330
C
100
AcDbDictionary
281
     1
  3
CTABLESTYLE
350
24A9
  3
SORTENTS
350
459
  0
DICTIONARY
  5
7A6
102
{ACAD_REACTORS
330
C
102
}
330
C
100
AcDbDictionary
281
     1
1001
DRAWINGVARIABLESXDATA
1000
POLARANG
1000
0.261799387799149410000000
1000
POLARMODE
1000
1
  0
DICTIONARY
  5
D936
102
{ACAD_REACTORS
330
C7D2
102
}
330
C7D2
100
AcDbDictionary
281
     1
  0
DICTIONARY
  5
C7D3
102
{ACAD_REACTORS
330
C7D2
102
}
330
C7D2
100
AcDbDictionary
281
     1
  0
SORTENTSTABLE
  5
26F6
102
{ACAD_REACTORS
330
26F5
102
}
330
26F5
100
AcDbSortentsTable
330
18
331
C17A
  5
C18B
331
9C20
  5
9C20
  0
GROUP
  5
EBCC
102
{ACAD_REACTORS
330
D
102
}
330
D
100
AcDbGroup
300

 70
     1
 71
     1
  0
GROUP
  5
107C4
102
{ACAD_REACTORS
330
D
102
}
330
D
100
AcDbGroup
300

 70
     1
 71
     1
  0
GROUP
  5
10C48
102
{ACAD_REACTORS
330
D
102
}
330
D
100
AcDbGroup
300

 70
     1
 71
     1
340
10BF6
340
10BEF
340
10BE0
340
10BDE
340
10BFC
340
10BE8
340
10BE7
340
10BF2
340
10BF0
340
10BED
340
10BEC
340
10BE6
340
10BE5
340
10BDF
340
10BFA
340
10BF7
340
10BF4
340
10BF3
340
10BEA
340
10BE9
340
10BE1
340
10BFB
340
10BDD
340
10BDC
340
10BFD
340
10BF1
340
10BEE
340
10BEB
340
10BE2
340
10BF9
340
10BF8
340
10BF5
340
10BE4
340
10BE3
  0
GROUP
  5
F713
102
{ACAD_REACTORS
330
D
102
}
330
D
100
AcDbGroup
300

 70
     1
 71
     1
  0
GROUP
  5
F87A
102
{ACAD_REACTORS
330
D
102
}
330
D
100
AcDbGroup
300

 70
     1
 71
     1
  0
GROUP
  5
107D3
102
{ACAD_REACTORS
330
D
102
}
330
D
100
AcDbGroup
300

 70
     1
 71
     1
  0
GROUP
  5
107DB
102
{ACAD_REACTORS
330
D
102
}
330
D
100
AcDbGroup
300

 70
     1
 71
     1
  0
GROUP
  5
107E5
102
{ACAD_REACTORS
330
D
102
}
330
D
100
AcDbGroup
300

 70
     1
 71
     1
  0
GROUP
  5
107E4
102
{ACAD_REACTORS
330
D
102
}
330
D
100
AcDbGroup
300

 70
     1
 71
     1
  0
GROUP
  5
EF71
102
{ACAD_REACTORS
330
D
102
}
330
D
100
AcDbGroup
300

 70
     1
 71
     1
  0
GROUP
  5
F84F
102
{ACAD_REACTORS
330
D
102
}
330
D
100
AcDbGroup
300

 70
     1
 71
     1
  0
GROUP
  5
F8CB
102
{ACAD_REACTORS
330
D
102
}
330
D
100
AcDbGroup
300

 70
     1
 71
     1
  0
GROUP
  5
107CE
102
{ACAD_REACTORS
330
D
102
}
330
D
100
AcDbGroup
300

 70
     1
 71
     1
  0
GROUP
  5
1083A
102
{ACAD_REACTORS
330
D
102
}
330
D
100
AcDbGroup
300

 70
     1
 71
     1
  0
GROUP
  5
10890
102
{ACAD_REACTORS
330
D
102
}
330
D
100
AcDbGroup
300

 70
     1
 71
     1
  0
GROUP
  5
108E0
102
{ACAD_REACTORS
330
D
102
}
330
D
100
AcDbGroup
300

 70
     1
 71
     1
  0
GROUP
  5
108BE
102
{ACAD_REACTORS
330
D
102
}
330
D
100
AcDbGroup
300

 70
     1
 71
     1
  0
GROUP
  5
10902
102
{ACAD_REACTORS
330
D
102
}
330
D
100
AcDbGroup
300

 70
     1
 71
     1
  0
GROUP
  5
F820
102
{ACAD_REACTORS
330
D
102
}
330
D
100
AcDbGroup
300

 70
     1
 71
     1
  0
GROUP
  5
107EC
102
{ACAD_REACTORS
330
D
102
}
330
D
100
AcDbGroup
300

 70
     1
 71
     1
  0
GROUP
  5
10924
102
{ACAD_REACTORS
330
D
102
}
330
D
100
AcDbGroup
300

 70
     1
 71
     1
  0
GROUP
  5
EFEA
102
{ACAD_REACTORS
330
D
102
}
330
D
100
AcDbGroup
300

 70
     1
 71
     1
  0
GROUP
  5
10968
102
{ACAD_REACTORS
330
D
102
}
330
D
100
AcDbGroup
300

 70
     1
 71
     1
  0
GROUP
  5
10946
102
{ACAD_REACTORS
330
D
102
}
330
D
100
AcDbGroup
300

 70
     1
 71
     1
  0
GROUP
  5
10C44
102
{ACAD_REACTORS
330
D
102
}
330
D
100
AcDbGroup
300

 70
     1
 71
     1
340
10C40
340
10C3F
340
10C2E
340
10C2B
340
10C21
340
10C20
340
10C33
340
10C22
340
10C36
340
10C34
340
10C31
340
10C30
340
10C2C
340
10C2A
340
10C29
340
10C23
340
10C41
340
10C35
340
10C32
340
10C2F
340
10C26
340
10C3A
340
10C24
340
10C3E
340
10C3B
340
10C38
340
10C37
340
10C2D
340
10C25
340
10C3D
340
10C3C
340
10C39
340
10C28
340
10C27
  0
GROUP
  5
F6CE
102
{ACAD_REACTORS
330
D
102
}
330
D
100
AcDbGroup
300

 70
     1
 71
     1
  0
GROUP
  5
F44B
102
{ACAD_REACTORS
330
D
102
}
330
D
100
AcDbGroup
300

 70
     1
 71
     1
  0
GROUP
  5
10C45
102
{ACAD_REACTORS
330
D
102
}
330
D
100
AcDbGroup
300

 70
     1
 71
     1
340
10C18
340
10C11
340
10C02
340
10C00
340
10C1E
340
10C0A
340
10C09
340
10C14
340
10C12
340
10C0F
340
10C0E
340
10C08
340
10C07
340
10C01
340
10C1C
340
10C19
340
10C16
340
10C15
340
10C0C
340
10C0B
340
10C03
340
10C1D
340
10BFF
340
10BFE
340
10C1F
340
10C13
340
10C10
340
10C0D
340
10C04
340
10C1B
340
10C1A
340
10C17
340
10C06
340
10C05
  0
GROUP
  5
10C46
102
{ACAD_REACTORS
330
D
102
}
330
D
100
AcDbGroup
300

 70
     1
 71
     1
340
10B9C
340
10B9A
340
10BB2
340
10BAB
340
10BAC
340
10BA2
340
10BA1
340
10BAE
340
10BA8
340
10B9D
340
10B9B
340
10BB8
340
10BB6
340
10BB3
340
10BB0
340
10BAF
340
10BA9
340
10BA6
340
10BA5
340
10BA4
340
10BA3
340
10BAD
340
10B9F
340
10B9E
340
10B99
340
10B98
340
10BB9
340
10BB7
340
10BB5
340
10BB4
340
10BB1
340
10BAA
340
10BA7
340
10BA0
  0
GROUP
  5
10C47
102
{ACAD_REACTORS
330
D
102
}
330
D
100
AcDbGroup
300

 70
     1
 71
     1
340
10BDA
340
10BD9
340
10BC6
340
10BC5
340
10BBB
340
10BBA
340
10BCD
340
10BBC
340
10BD0
340
10BCE
340
10BCB
340
10BCA
340
10BC4
340
10BC3
340
10BBD
340
10BDB
340
10BCF
340
10BCC
340
10BC9
340
10BC0
340
10BD4
340
10BBE
340
10BD8
340
10BD5
340
10BD2
340
10BD1
340
10BC8
340
10BC7
340
10BBF
340
10BD7
340
10BD6
340
10BD3
340
10BC2
340
10BC1
  0
GROUP
  5
10C5C
102
{ACAD_REACTORS
330
D
102
}
330
D
100
AcDbGroup
300

 70
     1
 71
     1
340
10C58
340
10C56
340
10C5B
340
10C57
340
10C59
340
10C5A
  0
GROUP
  5
F6CF
102
{ACAD_REACTORS
330
D
102
}
330
D
100
AcDbGroup
300

 70
     1
 71
     1
  0
GROUP
  5
F229
102
{ACAD_REACTORS
330
D
102
}
330
D
100
AcDbGroup
300

 70
     1
 71
     1
  0
GROUP
  5
EFE1
102
{ACAD_REACTORS
330
D
102
}
330
D
100
AcDbGroup
300

 70
     1
 71
     1
  0
GROUP
  5
F68F
102
{ACAD_REACTORS
330
D
102
}
330
D
100
AcDbGroup
300

 70
     1
 71
     1
  0
GROUP
  5
FAB9
102
{ACAD_REACTORS
330
D
102
}
330
D
100
AcDbGroup
300

 70
     1
 71
     1
  0
GROUP
  5
F850
102
{ACAD_REACTORS
330
D
102
}
330
D
100
AcDbGroup
300

 70
     1
 71
     1
  0
GROUP
  5
EF3E
102
{ACAD_REACTORS
330
D
102
}
330
D
100
AcDbGroup
300

 70
     1
 71
     1
  0
GROUP
  5
F22F
102
{ACAD_REACTORS
330
D
102
}
330
D
100
AcDbGroup
300

 70
     1
 71
     1
  0
GROUP
  5
F230
102
{ACAD_REACTORS
330
D
102
}
330
D
100
AcDbGroup
300

 70
     1
 71
     1
  0
GROUP
  5
F3AB
102
{ACAD_REACTORS
330
D
102
}
330
D
100
AcDbGroup
300

 70
     1
 71
     1
  0
GROUP
  5
F22E
102
{ACAD_REACTORS
330
D
102
}
330
D
100
AcDbGroup
300

 70
     1
 71
     1
  0
GROUP
  5
F87B
102
{ACAD_REACTORS
330
D
102
}
330
D
100
AcDbGroup
300

 70
     1
 71
     1
  0
GROUP
  5
F68E
102
{ACAD_REACTORS
330
D
102
}
330
D
100
AcDbGroup
300

 70
     1
 71
     1
  0
GROUP
  5
EF3D
102
{ACAD_REACTORS
330
D
102
}
330
D
100
AcDbGroup
300

 70
     1
 71
     1
  0
GROUP
  5
EC7A
102
{ACAD_REACTORS
330
D
102
}
330
D
100
AcDbGroup
300

 70
     1
 71
     1
  0
GROUP
  5
F830
102
{ACAD_REACTORS
330
D
102
}
330
D
100
AcDbGroup
300

 70
     1
 71
     1
  0
GROUP
  5
EE48
102
{ACAD_REACTORS
330
D
102
}
330
D
100
AcDbGroup
300

 70
     1
 71
     1
  0
GROUP
  5
F87C
102
{ACAD_REACTORS
330
D
102
}
330
D
100
AcDbGroup
300

 70
     1
 71
     1
  0
GROUP
  5
F851
102
{ACAD_REACTORS
330
D
102
}
330
D
100
AcDbGroup
300

 70
     1
 71
     1
  0
GROUP
  5
107BF
102
{ACAD_REACTORS
330
D
102
}
330
D
100
AcDbGroup
300

 70
     1
 71
     1
  0
GROUP
  5
107BA
102
{ACAD_REACTORS
330
D
102
}
330
D
100
AcDbGroup
300

 70
     1
 71
     1
  0
LAYOUT
  5
24A1
102
{ACAD_REACTORS
330
249F
102
}
330
249F
100
AcDbPlotSettings
  1

  2
A4 EPSON LP-6100.pc3
  4
A3
  6
OLE1
 40
5.873749732971191
 41
5.873747825622558
 42
5.873748779296875
 43
5.873748779296875
 44
297.0106506347656
 45
419.9466552734374
 46
-5.889999999999999
 47
-5.919999999999999
 48
0.0
 49
0.0
140
0.0
141
0.0
142
1.0
143
1.0
 70
 28340
 72
     1
 73
     1
 74
     1
  7
AutoCad LT 98.ctb
 75
    16
147
1.0
 76
     1
 77
     2
 78
   300
148
147.6617974891385
149
-235.4015572193862
100
AcDbLayout
  1
Model
 70
     1
 71
     0
 10
0.0
 20
0.0
 11
12.0
 21
9.0
 12
0.0
 22
0.0
 32
0.0
 14
0.0
 24
0.0
 34
0.0
 15
0.0
 25
0.0
 35
0.0
146
0.0
 13
0.0
 23
0.0
 33
0.0
 16
1.0
 26
0.0
 36
0.0
 17
0.0
 27
1.0
 37
0.0
 76
     0
330
18
1001
ACAD_PSEXT
1000
A4 EPSON LP-6100.pc3
1000
EPSON LP-6100
1000
\\SATO-MATE2
1000

1070
     0
  0
LAYOUT
  5
24A2
102
{ACAD_REACTORS
330
249F
102
}
330
249F
100
AcDbPlotSettings
  1

  2
C:\Documents and Settings\Tikara Sato\Application Data\Autodesk\AutoCAD LT 2004\R9\jpn\plotters\A3 EPSON LP-6100.pc3
  4
A3
  6

 40
5.873749732971191
 41
5.873747825622558
 42
5.873748779296875
 43
5.873748779296875
 44
297.0106506347656
 45
419.9466552734374
 46
0.0
 47
0.0
 48
0.0
 49
0.0
140
0.0
141
0.0
142
1.0
143
1.0
 70
   688
 72
     1
 73
     1
 74
     5
  7
AutoCAD LT 98.ctb
 75
    16
147
1.0
 76
     0
 77
     2
 78
   300
148
0.0
149
0.0
100
AcDbLayout
  1
レイアウト1
 70
     1
 71
     1
 10
-5.873748779296875
 20
-5.873749732971191
 11
414.0729064941406
 21
291.1369009017944
 12
0.0
 22
0.0
 32
0.0
 14
40.81991586685183
 24
28.52631521224976
 34
0.0
 15
367.3792428016662
 25
256.7368369102478
 35
0.0
146
0.0
 13
0.0
 23
0.0
 33
0.0
 16
1.0
 26
0.0
 36
0.0
 17
0.0
 27
1.0
 37
0.0
 76
     0
330
15
331
D33B
  0
MLINESTYLE
  5
1C
102
{ACAD_REACTORS
330
1B
102
}
330
1B
100
AcDbMlineStyle
  2
STANDARD
 70
     0
  3

 62
   256
 51
90.0
 52
90.0
 71
     2
 49
0.5
 62
   256
  6
BYLAYER
 49
-0.5
 62
   256
  6
BYLAYER
  0
ACDBPLACEHOLDER
  5
249A
102
{ACAD_REACTORS
330
2499
102
}
330
2499
  0
ACAD_PROXY_OBJECT
  5
249E
102
{ACAD_REACTORS
330
249D
102
}
330
249D
100
AcDbProxyObject
 90
      499
 91
      504
 95
       25
 70
     0
 93
     1849
310
4214DD185B99185C992420000000000000F83F0000000000003E0FC00000000000004901028000000C1008070000C3001FDFF8000000C1003FBFF000000182007F7FE00000030400FEFFC00000060801FDFF8000000C1003FBFF000000182000000000000000C2020B0000001820100E000186003FBFF000000182007F7FE0
310
0000030400FEFFC00000060801FDFF8000000C1003FBFF000000182007F7FE0000003040000000000000012404160000003040201C00030C007F7FE00000030400FEFFC00000060801FDFF8000000C1003FBFF000000182007F7FE00000030400FEFFC000000608000
340
F
340
F
340
F
 94
        0
  0
DICTIONARYVAR
  5
24A9
102
{ACAD_REACTORS
330
458
102
}
330
458
100
DictionaryVariables
280
     0
  1
STANDARD
  0
DICTIONARYVAR
  5
459
102
{ACAD_REACTORS
330
458
102
}
330
458
100
DictionaryVariables
280
     0
  1
96
  0
ENDSEC
  0
EOF
