  0
SECTION
  2
HEADER
  9
$ACADVER
  1
AC1018
  9
$ACADMAINTVER
 70
     0
  9
$DWGCODEPAGE
  3
ANSI_932
  9
$INSBASE
 10
0.0
 20
0.0
 30
0.0
  9
$EXTMIN
 10
392.5691733583915
 20
-0.4167840056491059
 30
-0.0000305152498541
  9
$EXTMAX
 10
755.4230547373451
 20
549.6370462536754
 30
1.000030519906466
  9
$LIMMIN
 10
0.0
 20
0.0
  9
$LIMMAX
 10
420.0
 20
297.0
  9
$ORTHOMODE
 70
     0
  9
$REGENMODE
 70
     1
  9
$FILLMODE
 70
     1
  9
$QTEXTMODE
 70
     0
  9
$MIRRTEXT
 70
     1
  9
$LTSCALE
 40
1.0
  9
$ATTMODE
 70
     1
  9
$TEXTSIZE
 40
2.0
  9
$TRACEWID
 40
1.0
  9
$TEXTSTYLE
  7
STYLE3
  9
$CLAYER
  8
外形線
  9
$CELTYPE
  6
BYLAYER
  9
$CECOLOR
 62
   256
  9
$CELTSCALE
 40
1.0
  9
$DISPSILH
 70
     0
  9
$DIMSCALE
 40
1.0
  9
$DIMASZ
 40
2.5
  9
$DIMEXO
 40
0.0
  9
$DIMDLI
 40
3.75
  9
$DIMRND
 40
0.0
  9
$DIMDLE
 40
0.0
  9
$DIMEXE
 40
1.25
  9
$DIMTP
 40
0.0
  9
$DIMTM
 40
0.0
  9
$DIMTXT
 40
2.5
  9
$DIMCEN
 40
2.5
  9
$DIMTSZ
 40
0.0
  9
$DIMTOL
 70
     0
  9
$DIMLIM
 70
     0
  9
$DIMTIH
 70
     0
  9
$DIMTOH
 70
     0
  9
$DIMSE1
 70
     0
  9
$DIMSE2
 70
     0
  9
$DIMTAD
 70
     1
  9
$DIMZIN
 70
     8
  9
$DIMBLK
  1

  9
$DIMASO
 70
     1
  9
$DIMSHO
 70
     1
  9
$DIMPOST
  1

  9
$DIMAPOST
  1

  9
$DIMALT
 70
     0
  9
$DIMALTD
 70
     4
  9
$DIMALTF
 40
0.0394
  9
$DIMLFAC
 40
1.0
  9
$DIMTOFL
 70
     1
  9
$DIMTVP
 40
0.0
  9
$DIMTIX
 70
     0
  9
$DIMSOXD
 70
     0
  9
$DIMSAH
 70
     1
  9
$DIMBLK1
  1
OPEN
  9
$DIMBLK2
  1
OPEN
  9
$DIMSTYLE
  2
STYLE3
  9
$DIMCLRD
 70
     2
  9
$DIMCLRE
 70
     2
  9
$DIMCLRT
 70
     6
  9
$DIMTFAC
 40
1.0
  9
$DIMGAP
 40
0.625
  9
$DIMJUST
 70
     0
  9
$DIMSD1
 70
     0
  9
$DIMSD2
 70
     0
  9
$DIMTOLJ
 70
     1
  9
$DIMTZIN
 70
     0
  9
$DIMALTZ
 70
     0
  9
$DIMALTTZ
 70
     0
  9
$DIMUPT
 70
     0
  9
$DIMDEC
 70
     2
  9
$DIMTDEC
 70
     4
  9
$DIMALTU
 70
     8
  9
$DIMALTTD
 70
     4
  9
$DIMTXSTY
  7
STYLE3
  9
$DIMAUNIT
 70
     0
  9
$DIMADEC
 70
     0
  9
$DIMALTRND
 40
0.0
  9
$DIMAZIN
 70
     0
  9
$DIMDSEP
 70
    46
  9
$DIMATFIT
 70
     3
  9
$DIMFRAC
 70
     0
  9
$DIMLDRBLK
  1

  9
$DIMLUNIT
 70
     2
  9
$DIMLWD
 70
    -2
  9
$DIMLWE
 70
    -2
  9
$DIMTMOVE
 70
     0
  9
$LUNITS
 70
     2
  9
$LUPREC
 70
     4
  9
$SKETCHINC
 40
1.0
  9
$FILLETRAD
 40
1.0
  9
$AUNITS
 70
     0
  9
$AUPREC
 70
     0
  9
$MENU
  1
.
  9
$ELEVATION
 40
0.0
  9
$PELEVATION
 40
0.0
  9
$THICKNESS
 40
0.0
  9
$LIMCHECK
 70
     0
  9
$CHAMFERA
 40
1.0
  9
$CHAMFERB
 40
1.0
  9
$CHAMFERC
 40
20.0
  9
$CHAMFERD
 40
0.0
  9
$SKPOLY
 70
     0
  9
$TDCREATE
 40
2450911.546279051
  9
$TDUCREATE
 40
2450911.171279051
  9
$TDUPDATE
 40
2455363.631066077
  9
$TDUUPDATE
 40
2455363.256066076
  9
$TDINDWG
 40
0.9086949537
  9
$TDUSRTIMER
 40
0.9086949537
  9
$USRTIMER
 70
     1
  9
$ANGBASE
 50
0.0
  9
$ANGDIR
 70
     0
  9
$PDMODE
 70
     0
  9
$PDSIZE
 40
0.0
  9
$PLINEWID
 40
0.0
  9
$SPLFRAME
 70
     0
  9
$SPLINETYPE
 70
     6
  9
$SPLINESEGS
 70
     8
  9
$HANDSEED
  5
2303
  9
$SURFTAB1
 70
     6
  9
$SURFTAB2
 70
     6
  9
$SURFTYPE
 70
     6
  9
$SURFU
 70
     6
  9
$SURFV
 70
     6
  9
$UCSBASE
  2

  9
$UCSNAME
  2

  9
$UCSORG
 10
0.0
 20
0.0
 30
0.0
  9
$UCSXDIR
 10
1.0
 20
0.0
 30
0.0
  9
$UCSYDIR
 10
0.0
 20
1.0
 30
0.0
  9
$UCSORTHOREF
  2

  9
$UCSORTHOVIEW
 70
     0
  9
$UCSORGTOP
 10
0.0
 20
0.0
 30
0.0
  9
$UCSORGBOTTOM
 10
0.0
 20
0.0
 30
0.0
  9
$UCSORGLEFT
 10
0.0
 20
0.0
 30
0.0
  9
$UCSORGRIGHT
 10
0.0
 20
0.0
 30
0.0
  9
$UCSORGFRONT
 10
0.0
 20
0.0
 30
0.0
  9
$UCSORGBACK
 10
0.0
 20
0.0
 30
0.0
  9
$PUCSBASE
  2

  9
$PUCSNAME
  2

  9
$PUCSORG
 10
0.0
 20
0.0
 30
0.0
  9
$PUCSXDIR
 10
1.0
 20
0.0
 30
0.0
  9
$PUCSYDIR
 10
0.0
 20
1.0
 30
0.0
  9
$PUCSORTHOREF
  2

  9
$PUCSORTHOVIEW
 70
     0
  9
$PUCSORGTOP
 10
0.0
 20
0.0
 30
0.0
  9
$PUCSORGBOTTOM
 10
0.0
 20
0.0
 30
0.0
  9
$PUCSORGLEFT
 10
0.0
 20
0.0
 30
0.0
  9
$PUCSORGRIGHT
 10
0.0
 20
0.0
 30
0.0
  9
$PUCSORGFRONT
 10
0.0
 20
0.0
 30
0.0
  9
$PUCSORGBACK
 10
0.0
 20
0.0
 30
0.0
  9
$USERI1
 70
     0
  9
$USERI2
 70
     0
  9
$USERI3
 70
     0
  9
$USERI4
 70
     0
  9
$USERI5
 70
     0
  9
$USERR1
 40
0.0
  9
$USERR2
 40
0.0
  9
$USERR3
 40
0.0
  9
$USERR4
 40
0.0
  9
$USERR5
 40
0.0
  9
$WORLDVIEW
 70
     1
  9
$SHADEDGE
 70
     3
  9
$SHADEDIF
 70
    70
  9
$TILEMODE
 70
     1
  9
$MAXACTVP
 70
    48
  9
$PINSBASE
 10
0.0
 20
0.0
 30
0.0
  9
$PLIMCHECK
 70
     0
  9
$PEXTMIN
 10
1.000000000000000E+20
 20
1.000000000000000E+20
 30
1.000000000000000E+20
  9
$PEXTMAX
 10
-1.000000000000000E+20
 20
-1.000000000000000E+20
 30
-1.000000000000000E+20
  9
$PLIMMIN
 10
0.0
 20
0.0
  9
$PLIMMAX
 10
420.0
 20
297.0
  9
$UNITMODE
 70
     0
  9
$VISRETAIN
 70
     1
  9
$PLINEGEN
 70
     0
  9
$PSLTSCALE
 70
     1
  9
$TREEDEPTH
 70
  3020
  9
$CMLSTYLE
  2
STANDARD
  9
$CMLJUST
 70
     0
  9
$CMLSCALE
 40
20.0
  9
$PROXYGRAPHICS
 70
     1
  9
$MEASUREMENT
 70
     1
  9
$CELWEIGHT
370
    -1
  9
$ENDCAPS
280
     0
  9
$JOINSTYLE
280
     0
  9
$LWDISPLAY
290
     0
  9
$INSUNITS
 70
     0
  9
$HYPERLINKBASE
  1

  9
$STYLESHEET
  1

  9
$XEDIT
290
     1
  9
$CEPSNTYPE
380
     0
  9
$PSTYLEMODE
290
     1
  9
$FINGERPRINTGUID
  2
{841C38F7-5666-496D-809A-0F8DCA410449}
  9
$VERSIONGUID
  2
{ED0DDE7E-CFB0-41FE-ABDD-16A5F50B4D2F}
  9
$EXTNAMES
290
     1
  9
$PSVPSCALE
 40
0.0
  9
$OLESTARTUP
290
     0
  9
$SORTENTS
280
   127
  9
$INDEXCTL
280
     0
  9
$HIDETEXT
280
     0
  9
$XCLIPFRAME
290
     0
  9
$HALOGAP
280
     0
  9
$OBSCOLOR
 70
   257
  9
$OBSLTYPE
280
     0
  9
$INTERSECTIONDISPLAY
280
     0
  9
$INTERSECTIONCOLOR
 70
   257
  9
$DIMASSOC
280
     1
  9
$PROJECTNAME
  1

  0
ENDSEC
  0
SECTION
  2
CLASSES
  0
CLASS
  1
ACDBDICTIONARYWDFLT
  2
AcDbDictionaryWithDefault
  3
ObjectDBX Classes
 90
        0
 91
        1
280
     0
281
     0
  0
ENDSEC
  0
SECTION
  2
TABLES
  0
TABLE
  2
VPORT
  5
8
330
0
100
AcDbSymbolTable
 70
     2
  0
VPORT
  5
2302
330
8
100
AcDbSymbolTableRecord
100
AcDbViewportTableRecord
  2
*Active
 70
     0
 10
0.0
 20
0.0
 11
1.0
 21
1.0
 12
573.9961140478682
 22
274.6101311240131
 13
0.0
 23
0.0
 14
10.0
 24
10.0
 15
10.0
 25
10.0
 16
0.0
 26
0.0
 36
1.0
 17
0.0
 27
0.0
 37
0.0
 40
554.236749120612
 41
1.530456852791878
 42
50.0
 43
0.0
 44
0.0
 50
0.0
 51
0.0
 71
     0
 72
   100
 73
     1
 74
     1
 75
     0
 76
     0
 77
     0
 78
     0
281
     0
 65
     1
110
0.0
120
0.0
130
0.0
111
1.0
121
0.0
131
0.0
112
0.0
122
1.0
132
0.0
 79
     0
146
0.0
  0
ENDTAB
  0
TABLE
  2
LTYPE
  5
5
330
0
100
AcDbSymbolTable
 70
    13
  0
LTYPE
  5
12
330
5
100
AcDbSymbolTableRecord
100
AcDbLinetypeTableRecord
  2
BYBLOCK
 70
     0
  3

 72
    65
 73
     0
 40
0.0
  0
LTYPE
  5
13
330
5
100
AcDbSymbolTableRecord
100
AcDbLinetypeTableRecord
  2
BYLAYER
 70
     0
  3

 72
    65
 73
     0
 40
0.0
  0
LTYPE
  5
14
330
5
100
AcDbSymbolTableRecord
100
AcDbLinetypeTableRecord
  2
CONTINUOUS
 70
     0
  3
Solid line
 72
    65
 73
     0
 40
0.0
  0
LTYPE
  5
22
330
5
100
AcDbSymbolTableRecord
100
AcDbLinetypeTableRecord
  2
CENTER2
 70
     0
  3
Center (.5x) ___ _ ___ _ ___ _ ___ _ ___ _ ___
 72
    65
 73
     4
 40
28.575
 49
19.05
 74
     0
 49
-3.174999999999999
 74
     0
 49
3.174999999999999
 74
     0
 49
-3.174999999999999
 74
     0
  0
LTYPE
  5
23
330
5
100
AcDbSymbolTableRecord
100
AcDbLinetypeTableRecord
  2
HIDDEN2
 70
     0
  3
Hidden (.5x) _ _ _ _ _ _ _ _ _ _ _ _ _ _ _ _ _
 72
    65
 73
     2
 40
4.762499999999999
 49
3.174999999999999
 74
     0
 49
-1.587499999999999
 74
     0
  0
ENDTAB
  0
TABLE
  2
LAYER
  5
2
330
0
100
AcDbSymbolTable
 70
    18
  0
LAYER
  5
E
330
2
100
AcDbSymbolTableRecord
100
AcDbLayerTableRecord
  2
0
 70
     0
 62
     7
  6
CONTINUOUS
370
    -3
390
22B0
  0
LAYER
  5
25
330
2
100
AcDbSymbolTableRecord
100
AcDbLayerTableRecord
  2
外形線
 70
     0
 62
     7
  6
CONTINUOUS
370
    -3
390
22B0
  0
LAYER
  5
26
330
2
100
AcDbSymbolTableRecord
100
AcDbLayerTableRecord
  2
寸法線
 70
     0
 62
     2
  6
CONTINUOUS
370
    -3
390
22B0
  0
LAYER
  5
27
330
2
100
AcDbSymbolTableRecord
100
AcDbLayerTableRecord
  2
中心線
 70
     0
 62
     4
  6
CENTER2
370
    -3
390
22B0
  0
LAYER
  5
2B
330
2
100
AcDbSymbolTableRecord
100
AcDbLayerTableRecord
  2
文字
 70
     0
 62
     6
  6
CONTINUOUS
370
    -3
390
22B0
  0
LAYER
  5
53
330
2
100
AcDbSymbolTableRecord
100
AcDbLayerTableRecord
  2
DEFPOINTS
 70
     0
 62
     7
  6
CONTINUOUS
290
     0
370
    -3
390
22B0
  0
LAYER
  5
A5
330
2
100
AcDbSymbolTableRecord
100
AcDbLayerTableRecord
  2
C
 70
     0
 62
     7
  6
CONTINUOUS
370
    -3
390
22B0
  0
LAYER
  5
479
330
2
100
AcDbSymbolTableRecord
100
AcDbLayerTableRecord
  2
外線
 70
     0
 62
     7
  6
CONTINUOUS
370
    -3
390
22B0
  0
LAYER
  5
156C
330
2
100
AcDbSymbolTableRecord
100
AcDbLayerTableRecord
  2
隠れ線2
 70
     0
 62
     1
  6
HIDDEN2
370
    -3
390
22B0
  0
ENDTAB
  0
TABLE
  2
STYLE
  5
3
330
0
100
AcDbSymbolTable
 70
     6
  0
STYLE
  5
F
330
3
100
AcDbSymbolTableRecord
100
AcDbTextStyleTableRecord
  2
STANDARD
 70
     0
 40
0.0
 41
1.0
 50
0.0
 71
     0
 42
2.5
  3
txt
  4

  0
STYLE
  5
3F
330
3
100
AcDbSymbolTableRecord
100
AcDbTextStyleTableRecord
  2
STYLE3
 70
     0
 40
0.0
 41
1.0
 50
0.0
 71
     0
 42
2.0
  3
romans.shx
  4
bigfont.shx
  0
ENDTAB
  0
TABLE
  2
VIEW
  5
6
330
0
100
AcDbSymbolTable
 70
     0
  0
ENDTAB
  0
TABLE
  2
UCS
  5
7
330
0
100
AcDbSymbolTable
 70
     0
  0
ENDTAB
  0
TABLE
  2
APPID
  5
9
330
0
100
AcDbSymbolTable
 70
     2
  0
APPID
  5
10
330
9
100
AcDbSymbolTableRecord
100
AcDbRegAppTableRecord
  2
ACAD
 70
     0
  0
APPID
  5
1F4C
330
9
100
AcDbSymbolTableRecord
100
AcDbRegAppTableRecord
  2
DRAWINGVARIABLESXDATA
 70
     0
  0
ENDTAB
  0
TABLE
  2
DIMSTYLE
  5
A
330
0
100
AcDbSymbolTable
 70
     4
100
AcDbDimStyleTable
 71
     0
  0
DIMSTYLE
105
1D
330
A
100
AcDbSymbolTableRecord
100
AcDbDimStyleTableRecord
  2
STANDARD
 70
     0
 41
2.5
 42
0.625
 43
3.75
 44
1.25
 73
     0
 74
     0
 77
     1
 78
     8
140
2.5
141
2.5
143
0.0394
147
0.625
171
     4
172
     1
273
     8
274
     4
277
     6
340
F
  0
DIMSTYLE
105
8F
102
{ACAD_REACTORS
330
1430
330
1479
330
174D
330
1752
330
175A
330
1796
330
179C
330
21DE
330
2206
330
224B
330
2258
330
2271
330
227E
330
156E
330
1574
330
1579
330
1581
330
1582
330
1584
330
1594
330
15BD
330
15C3
330
15CF
330
16CF
330
1735
102
}
330
A
100
AcDbSymbolTableRecord
100
AcDbDimStyleTableRecord
  2
STYLE3
 70
     0
 41
2.5
 42
0.0
 43
3.75
 44
1.25
 73
     0
 74
     0
 77
     1
 78
     8
140
2.5
141
2.5
143
0.0394
147
0.625
171
     4
172
     1
173
     1
176
     2
177
     2
178
     6
271
     1
273
     8
274
     4
340
3F
341
45
343
45
344
45
  0
ENDTAB
  0
TABLE
  2
BLOCK_RECORD
  5
1
330
0
100
AcDbSymbolTable
 70
    53
  0
BLOCK_RECORD
  5
18
330
1
100
AcDbSymbolTableRecord
100
AcDbBlockTableRecord
  2
*MODEL_SPACE
340
22B5
  0
BLOCK_RECORD
  5
15
330
1
100
AcDbSymbolTableRecord
100
AcDbBlockTableRecord
  2
*PAPER_SPACE
340
22B6
  0
BLOCK_RECORD
  5
45
330
1
100
AcDbSymbolTableRecord
100
AcDbBlockTableRecord
  2
_OPEN
340
0
102
{BLKREFS
331
2038
331
2039
331
2217
331
2218
331
1429
331
142A
331
1472
331
1473
331
14E0
331
14E1
331
14EC
331
14ED
331
14F8
331
14F9
331
1504
331
1505
331
1510
331
1511
331
151C
331
151D
331
1528
331
1529
331
1534
331
1535
331
1540
331
1541
331
154C
331
154D
331
1558
331
1559
331
1564
331
1565
331
159D
331
19AE
331
19AF
331
19B9
331
19BA
331
19C4
331
19C5
331
19F0
331
19F1
331
19FB
331
19FC
331
1A11
331
1A12
331
1AC1
331
1AC2
331
1ACC
331
1ACD
331
1AD6
331
1AD7
331
1AE2
331
1AE3
331
1AEE
331
1AEF
331
1AFA
331
1AFB
331
1B06
331
1B07
331
1B12
331
1B13
331
1B20
331
1B21
331
1B2C
331
1B2D
331
1B38
331
1B39
331
1B45
331
1B46
331
1B50
331
1B51
331
1B5B
331
1B5C
331
1B66
331
1B67
331
1B72
331
1B73
331
1B7E
331
1B7F
331
1B8A
331
1BA3
331
1BAD
331
1BB7
331
1BDB
331
1BF5
331
1BF9
331
1C03
331
21D7
331
21D8
331
21FF
331
2200
331
222F
331
2230
331
2244
331
2245
331
2251
331
2252
331
226A
331
226B
331
2277
331
2278
331
19CF
331
19D0
331
19DA
331
19DB
331
21E4
331
21E5
331
21F1
331
21F2
331
220C
331
220D
331
2223
331
2224
331
22BF
331
22C0
331
22C5
331
22C6
102
}
  0
BLOCK_RECORD
  5
1424
330
1
100
AcDbSymbolTableRecord
100
AcDbBlockTableRecord
  2
*D3
340
0
  0
BLOCK_RECORD
  5
146D
330
1
100
AcDbSymbolTableRecord
100
AcDbBlockTableRecord
  2
*D4
340
0
  0
BLOCK_RECORD
  5
191B
330
1
100
AcDbSymbolTableRecord
100
AcDbBlockTableRecord
  2
*D19
340
0
  0
BLOCK_RECORD
  5
1927
330
1
100
AcDbSymbolTableRecord
100
AcDbBlockTableRecord
  2
*D20
340
0
  0
BLOCK_RECORD
  5
1933
330
1
100
AcDbSymbolTableRecord
100
AcDbBlockTableRecord
  2
*D21
340
0
  0
BLOCK_RECORD
  5
1963
330
1
100
AcDbSymbolTableRecord
100
AcDbBlockTableRecord
  2
*D22
340
0
  0
BLOCK_RECORD
  5
196F
330
1
100
AcDbSymbolTableRecord
100
AcDbBlockTableRecord
  2
*D23
340
0
  0
BLOCK_RECORD
  5
21D2
330
1
100
AcDbSymbolTableRecord
100
AcDbBlockTableRecord
  2
*D44
340
0
  0
BLOCK_RECORD
  5
21FA
330
1
100
AcDbSymbolTableRecord
100
AcDbBlockTableRecord
  2
*D45
340
0
  0
BLOCK_RECORD
  5
223F
330
1
100
AcDbSymbolTableRecord
100
AcDbBlockTableRecord
  2
*D47
340
0
  0
BLOCK_RECORD
  5
224C
330
1
100
AcDbSymbolTableRecord
100
AcDbBlockTableRecord
  2
*D48
340
0
  0
BLOCK_RECORD
  5
2265
330
1
100
AcDbSymbolTableRecord
100
AcDbBlockTableRecord
  2
*D49
340
0
  0
BLOCK_RECORD
  5
2272
330
1
100
AcDbSymbolTableRecord
100
AcDbBlockTableRecord
  2
*D50
340
0
  0
BLOCK_RECORD
  5
22C8
330
1
100
AcDbSymbolTableRecord
100
AcDbBlockTableRecord
  2
A$C5B3A1AB9
340
0
102
{BLKREFS
331
22CD
331
22E9
102
}
  0
ENDTAB
  0
ENDSEC
  0
SECTION
  2
BLOCKS
  0
BLOCK
  5
19
330
18
100
AcDbEntity
  8
0
100
AcDbBlockBegin
  2
*MODEL_SPACE
 70
     0
 10
0.0
 20
0.0
 30
0.0
  3
*MODEL_SPACE
  1

  0
ENDBLK
  5
1A
330
18
100
AcDbEntity
  8
0
100
AcDbBlockEnd
  0
BLOCK
  5
16
330
15
100
AcDbEntity
 67
     1
  8
0
100
AcDbBlockBegin
  2
*PAPER_SPACE
 70
     0
 10
0.0
 20
0.0
 30
0.0
  3
*PAPER_SPACE
  1

  0
ENDBLK
  5
17
330
15
100
AcDbEntity
 67
     1
  8
0
100
AcDbBlockEnd
  0
BLOCK
  5
46
330
45
100
AcDbEntity
  8
0
100
AcDbBlockBegin
  2
_OPEN
 70
     0
 10
0.0
 20
0.0
 30
0.0
  3
_OPEN
  1

  0
LINE
  5
47
330
45
100
AcDbEntity
  8
0
  6
ByBlock
 62
     0
100
AcDbLine
 10
-1.0
 20
0.1666666666666666
 30
0.0
 11
0.0
 21
0.0
 31
0.0
  0
LINE
  5
48
330
45
100
AcDbEntity
  8
0
  6
ByBlock
 62
     0
100
AcDbLine
 10
0.0
 20
0.0
 30
0.0
 11
-1.0
 21
-0.1666666666666666
 31
0.0
  0
LINE
  5
49
330
45
100
AcDbEntity
  8
0
  6
ByBlock
 62
     0
100
AcDbLine
 10
0.0
 20
0.0
 30
0.0
 11
-1.0
 21
0.0
 31
0.0
  0
ENDBLK
  5
4A
330
45
100
AcDbEntity
  8
0
100
AcDbBlockEnd
  0
BLOCK
  5
1425
330
1424
100
AcDbEntity
  8
0
100
AcDbBlockBegin
  2
*D3
 70
     1
 10
0.0
 20
0.0
 30
0.0
  3
*D3
  1

  0
LINE
  5
1426
330
1424
100
AcDbEntity
  8
0
  6
ByBlock
 62
     2
100
AcDbLine
 10
397.1913838151332
 20
139.2940385536753
 30
0.0
 11
406.9069782501851
 21
139.2940385536753
 31
0.0
  0
LINE
  5
1427
330
1424
100
AcDbEntity
  8
0
  6
ByBlock
 62
     2
100
AcDbLine
 10
399.4913838151332
 20
73.29403855367536
 30
0.0
 11
406.9069782501851
 21
73.29403855367536
 31
0.0
  0
LINE
  5
1428
330
1424
100
AcDbEntity
  8
0
  6
ByBlock
 62
     2
100
AcDbLine
 10
405.6569782501851
 20
136.7940385536753
 30
0.0
 11
405.6569782501851
 21
75.79403855367536
 31
0.0
  0
INSERT
  5
1429
330
1424
100
AcDbEntity
  8
0
  6
ByBlock
 62
     2
100
AcDbBlockReference
  2
_OPEN
 10
405.6569782501851
 20
139.2940385536753
 30
0.0
 41
2.5
 42
2.5
 43
2.5
 50
90.0
  0
INSERT
  5
142A
330
1424
100
AcDbEntity
  8
0
  6
ByBlock
 62
     2
100
AcDbBlockReference
  2
_OPEN
 10
405.6569782501851
 20
73.29403855367536
 30
0.0
 41
2.5
 42
2.5
 43
2.5
 50
270.0
  0
MTEXT
  5
142B
330
1424
100
AcDbEntity
  8
0
  6
ByBlock
 62
     6
100
AcDbMText
 10
403.7819782501851
 20
106.2940385536753
 30
0.0
 40
2.5
 41
0.0
 71
     5
 72
     1
  1
\A1;66
  7
STYLE3
 11
0.0000000000000001
 21
1.0
 31
0.0
 73
     1
 44
1.0
  0
POINT
  5
142C
330
1424
100
AcDbEntity
  8
DEFPOINTS
  6
ByBlock
 62
     0
100
AcDbPoint
 10
397.1913838151332
 20
139.2940385536753
 30
0.0
  0
POINT
  5
142D
330
1424
100
AcDbEntity
  8
DEFPOINTS
  6
ByBlock
 62
     0
100
AcDbPoint
 10
399.4913838151332
 20
73.29403855367536
 30
0.0
  0
POINT
  5
142E
330
1424
100
AcDbEntity
  8
DEFPOINTS
  6
ByBlock
 62
     0
100
AcDbPoint
 10
405.6569782501851
 20
73.29403855367536
 30
0.0
  0
ENDBLK
  5
142F
330
1424
100
AcDbEntity
  8
0
100
AcDbBlockEnd
  0
BLOCK
  5
146E
330
146D
100
AcDbEntity
  8
0
100
AcDbBlockBegin
  2
*D4
 70
     1
 10
0.0
 20
0.0
 30
0.0
  3
*D4
  1

  0
LINE
  5
146F
330
146D
100
AcDbEntity
  8
0
  6
ByBlock
 62
     2
100
AcDbLine
 10
626.2377846979974
 20
361.9971605815462
 30
0.0
 11
626.2377846979974
 21
373.0725620209633
 31
0.0
  0
LINE
  5
1470
330
146D
100
AcDbEntity
  8
0
  6
ByBlock
 62
     2
100
AcDbLine
 10
541.2377846979974
 20
361.9971605815461
 30
0.0
 11
541.2377846979974
 21
373.0725620209633
 31
0.0
  0
LINE
  5
1471
330
146D
100
AcDbEntity
  8
0
  6
ByBlock
 62
     2
100
AcDbLine
 10
623.7377846979974
 20
371.8225620209632
 30
0.0
 11
543.7377846979974
 21
371.8225620209632
 31
0.0
  0
INSERT
  5
1472
330
146D
100
AcDbEntity
  8
0
  6
ByBlock
 62
     2
100
AcDbBlockReference
  2
_OPEN
 10
626.2377846979974
 20
371.8225620209632
 30
0.0
 41
2.5
 42
2.5
 43
2.5
  0
INSERT
  5
1473
330
146D
100
AcDbEntity
  8
0
  6
ByBlock
 62
     2
100
AcDbBlockReference
  2
_OPEN
 10
541.2377846979974
 20
371.8225620209632
 30
0.0
 41
2.5
 42
2.5
 43
2.5
 50
180.0
  0
MTEXT
  5
1474
330
146D
100
AcDbEntity
  8
0
  6
ByBlock
 62
     6
100
AcDbMText
 10
583.7377846979974
 20
373.6975620209632
 30
0.0
 40
2.5
 41
0.0
 71
     5
 72
     1
  1
\A1;85
  7
STYLE3
 73
     1
 44
1.0
  0
POINT
  5
1475
330
146D
100
AcDbEntity
  8
DEFPOINTS
  6
ByBlock
 62
     0
100
AcDbPoint
 10
626.2377846979974
 20
361.9971605815462
 30
0.0
  0
POINT
  5
1476
330
146D
100
AcDbEntity
  8
DEFPOINTS
  6
ByBlock
 62
     0
100
AcDbPoint
 10
541.2377846979974
 20
361.9971605815461
 30
0.0
  0
POINT
  5
1477
330
146D
100
AcDbEntity
  8
DEFPOINTS
  6
ByBlock
 62
     0
100
AcDbPoint
 10
541.2377846979974
 20
371.8225620209632
 30
0.0
  0
ENDBLK
  5
1478
330
146D
100
AcDbEntity
  8
0
100
AcDbBlockEnd
  0
BLOCK
  5
19AA
330
191B
100
AcDbEntity
  8
0
100
AcDbBlockBegin
  2
*D19
 70
     1
 10
0.0
 20
0.0
 30
0.0
  3
*D19
  1

  0
LINE
  5
19AB
330
191B
100
AcDbEntity
  8
0
  6
ByBlock
 62
     2
100
AcDbLine
 10
1002.375651177002
 20
51.33354306356477
 30
0.0
 11
1002.375651177002
 21
44.78298346930694
 31
0.0
  0
LINE
  5
19AC
330
191B
100
AcDbEntity
  8
0
  6
ByBlock
 62
     2
100
AcDbLine
 10
823.3756511770026
 20
63.36091489537955
 30
0.0
 11
823.3756511770026
 21
44.78298346930694
 31
0.0
  0
LINE
  5
19AD
330
191B
100
AcDbEntity
  8
0
  6
ByBlock
 62
     2
100
AcDbLine
 10
999.8756511770025
 20
46.03298346930694
 30
0.0
 11
825.8756511770027
 21
46.03298346930694
 31
0.0
  0
INSERT
  5
19AE
330
191B
100
AcDbEntity
  8
0
  6
ByBlock
 62
     2
100
AcDbBlockReference
  2
_OPEN
 10
1002.375651177002
 20
46.03298346930694
 30
0.0
 41
2.5
 42
2.5
 43
2.5
  0
INSERT
  5
19AF
330
191B
100
AcDbEntity
  8
0
  6
ByBlock
 62
     2
100
AcDbBlockReference
  2
_OPEN
 10
823.3756511770026
 20
46.03298346930694
 30
0.0
 41
2.5
 42
2.5
 43
2.5
 50
180.0
  0
MTEXT
  5
19B0
330
191B
100
AcDbEntity
  8
0
  6
ByBlock
 62
     6
100
AcDbMText
 10
912.8756511770028
 20
47.90798346930694
 30
0.0
 40
2.5
 41
0.0
 71
     5
 72
     1
  1
\A1;179
  7
STYLE3
 73
     1
 44
1.0
  0
POINT
  5
19B1
330
191B
100
AcDbEntity
  8
DEFPOINTS
  6
ByBlock
 62
     0
100
AcDbPoint
 10
1002.375651177002
 20
51.33354306356477
 30
0.0
  0
POINT
  5
19B2
330
191B
100
AcDbEntity
  8
DEFPOINTS
  6
ByBlock
 62
     0
100
AcDbPoint
 10
823.3756511770026
 20
63.36091489537955
 30
0.0
  0
POINT
  5
19B3
330
191B
100
AcDbEntity
  8
DEFPOINTS
  6
ByBlock
 62
     0
100
AcDbPoint
 10
823.3756511770026
 20
46.03298346930694
 30
0.0
  0
ENDBLK
  5
19B4
330
191B
100
AcDbEntity
  8
0
100
AcDbBlockEnd
  0
BLOCK
  5
19B5
330
1927
100
AcDbEntity
  8
0
100
AcDbBlockBegin
  2
*D20
 70
     1
 10
0.0
 20
0.0
 30
0.0
  3
*D20
  1

  0
LINE
  5
19B6
330
1927
100
AcDbEntity
  8
0
  6
ByBlock
 62
     2
100
AcDbLine
 10
1002.375651177002
 20
58.36091489537955
 30
0.0
 11
1002.375651177002
 21
51.33354306356477
 31
0.0
  0
LINE
  5
19B7
330
1927
100
AcDbEntity
  8
0
  6
ByBlock
 62
     2
100
AcDbLine
 10
971.3756511770027
 20
77.12345101997261
 30
0.0
 11
971.3756511770027
 21
51.33354306356477
 31
0.0
  0
LINE
  5
19B8
330
1927
100
AcDbEntity
  8
0
  6
ByBlock
 62
     2
100
AcDbLine
 10
999.8756511770025
 20
52.58354306356477
 30
0.0
 11
973.8756511770025
 21
52.58354306356477
 31
0.0
  0
INSERT
  5
19B9
330
1927
100
AcDbEntity
  8
0
  6
ByBlock
 62
     2
100
AcDbBlockReference
  2
_OPEN
 10
1002.375651177002
 20
52.58354306356477
 30
0.0
 41
2.5
 42
2.5
 43
2.5
  0
INSERT
  5
19BA
330
1927
100
AcDbEntity
  8
0
  6
ByBlock
 62
     2
100
AcDbBlockReference
  2
_OPEN
 10
971.3756511770027
 20
52.58354306356477
 30
0.0
 41
2.5
 42
2.5
 43
2.5
 50
180.0
  0
MTEXT
  5
19BB
330
1927
100
AcDbEntity
  8
0
  6
ByBlock
 62
     6
100
AcDbMText
 10
986.8756511770026
 20
54.45854306356477
 30
0.0
 40
2.5
 41
0.0
 71
     5
 72
     1
  1
\A1;31
  7
STYLE3
 73
     1
 44
1.0
  0
POINT
  5
19BC
330
1927
100
AcDbEntity
  8
DEFPOINTS
  6
ByBlock
 62
     0
100
AcDbPoint
 10
1002.375651177002
 20
58.36091489537955
 30
0.0
  0
POINT
  5
19BD
330
1927
100
AcDbEntity
  8
DEFPOINTS
  6
ByBlock
 62
     0
100
AcDbPoint
 10
971.3756511770027
 20
77.12345101997261
 30
0.0
  0
POINT
  5
19BE
330
1927
100
AcDbEntity
  8
DEFPOINTS
  6
ByBlock
 62
     0
100
AcDbPoint
 10
971.3756511770027
 20
52.58354306356477
 30
0.0
  0
ENDBLK
  5
19BF
330
1927
100
AcDbEntity
  8
0
100
AcDbBlockEnd
  0
BLOCK
  5
19C0
330
1933
100
AcDbEntity
  8
0
100
AcDbBlockBegin
  2
*D21
 70
     1
 10
0.0
 20
0.0
 30
0.0
  3
*D21
  1

  0
LINE
  5
19C1
330
1933
100
AcDbEntity
  8
0
  6
ByBlock
 62
     2
100
AcDbLine
 10
886.3756511770025
 20
342.9786065157288
 30
0.0
 11
886.3756511770025
 21
352.2601698374743
 31
0.0
  0
LINE
  5
19C2
330
1933
100
AcDbEntity
  8
0
  6
ByBlock
 62
     2
100
AcDbLine
 10
953.8756511770026
 20
351.3822086803676
 30
0.0
 11
953.8756511770026
 21
349.7601698374743
 31
0.0
  0
LINE
  5
19C3
330
1933
100
AcDbEntity
  8
0
  6
ByBlock
 62
     2
100
AcDbLine
 10
888.8756511770024
 20
351.0101698374743
 30
0.0
 11
951.3756511770026
 21
351.0101698374743
 31
0.0
  0
INSERT
  5
19C4
330
1933
100
AcDbEntity
  8
0
  6
ByBlock
 62
     2
100
AcDbBlockReference
  2
_OPEN
 10
886.3756511770025
 20
351.0101698374743
 30
0.0
 41
2.5
 42
2.5
 43
2.5
 50
180.0
  0
INSERT
  5
19C5
330
1933
100
AcDbEntity
  8
0
  6
ByBlock
 62
     2
100
AcDbBlockReference
  2
_OPEN
 10
953.8756511770026
 20
351.0101698374743
 30
0.0
 41
2.5
 42
2.5
 43
2.5
  0
MTEXT
  5
19C6
330
1933
100
AcDbEntity
  8
0
  6
ByBlock
 62
     6
100
AcDbMText
 10
920.1256511770024
 20
352.8851698374743
 30
0.0
 40
2.5
 41
0.0
 71
     5
 72
     1
  1
\A1;67.5
  7
STYLE3
 73
     1
 44
1.0
  0
POINT
  5
19C7
330
1933
100
AcDbEntity
  8
DEFPOINTS
  6
ByBlock
 62
     0
100
AcDbPoint
 10
886.3756511770025
 20
342.9786065157288
 30
0.0
  0
POINT
  5
19C8
330
1933
100
AcDbEntity
  8
DEFPOINTS
  6
ByBlock
 62
     0
100
AcDbPoint
 10
953.8756511770026
 20
351.3822086803676
 30
0.0
  0
POINT
  5
19C9
330
1933
100
AcDbEntity
  8
DEFPOINTS
  6
ByBlock
 62
     0
100
AcDbPoint
 10
953.8756511770026
 20
351.0101698374743
 30
0.0
  0
ENDBLK
  5
19CA
330
1933
100
AcDbEntity
  8
0
100
AcDbBlockEnd
  0
BLOCK
  5
19EC
330
1963
100
AcDbEntity
  8
0
100
AcDbBlockBegin
  2
*D22
 70
     1
 10
0.0
 20
0.0
 30
0.0
  3
*D22
  1

  0
LINE
  5
19ED
330
1963
100
AcDbEntity
  8
0
  6
ByBlock
 62
     2
100
AcDbLine
 10
896.3756511770027
 20
261.0328945184107
 30
0.0
 11
896.3756511770027
 21
237.3373373252109
 31
0.0
  0
LINE
  5
19EE
330
1963
100
AcDbEntity
  8
0
  6
ByBlock
 62
     2
100
AcDbLine
 10
876.3756511770024
 20
261.0328945184107
 30
0.0
 11
876.3756511770024
 21
237.3373373252109
 31
0.0
  0
LINE
  5
19EF
330
1963
100
AcDbEntity
  8
0
  6
ByBlock
 62
     2
100
AcDbLine
 10
893.8756511770026
 20
238.5873373252109
 30
0.0
 11
878.8756511770024
 21
238.5873373252109
 31
0.0
  0
INSERT
  5
19F0
330
1963
100
AcDbEntity
  8
0
  6
ByBlock
 62
     2
100
AcDbBlockReference
  2
_OPEN
 10
896.3756511770027
 20
238.5873373252109
 30
0.0
 41
2.5
 42
2.5
 43
2.5
  0
INSERT
  5
19F1
330
1963
100
AcDbEntity
  8
0
  6
ByBlock
 62
     2
100
AcDbBlockReference
  2
_OPEN
 10
876.3756511770024
 20
238.5873373252109
 30
0.0
 41
2.5
 42
2.5
 43
2.5
 50
180.0
  0
MTEXT
  5
19F2
330
1963
100
AcDbEntity
  8
0
  6
ByBlock
 62
     6
100
AcDbMText
 10
886.3756511770025
 20
240.4623373252109
 30
0.0
 40
2.5
 41
0.0
 71
     5
 72
     1
  1
\A1;φ20
  7
STYLE3
 73
     1
 44
1.0
  0
POINT
  5
19F3
330
1963
100
AcDbEntity
  8
DEFPOINTS
  6
ByBlock
 62
     0
100
AcDbPoint
 10
896.3756511770027
 20
261.0328945184107
 30
0.0
  0
POINT
  5
19F4
330
1963
100
AcDbEntity
  8
DEFPOINTS
  6
ByBlock
 62
     0
100
AcDbPoint
 10
876.3756511770024
 20
261.0328945184107
 30
0.0
  0
POINT
  5
19F5
330
1963
100
AcDbEntity
  8
DEFPOINTS
  6
ByBlock
 62
     0
100
AcDbPoint
 10
876.3756511770024
 20
238.5873373252109
 30
0.0
  0
ENDBLK
  5
19F6
330
1963
100
AcDbEntity
  8
0
100
AcDbBlockEnd
  0
BLOCK
  5
19F7
330
196F
100
AcDbEntity
  8
0
100
AcDbBlockBegin
  2
*D23
 70
     1
 10
0.0
 20
0.0
 30
0.0
  3
*D23
  1

  0
LINE
  5
19F8
330
196F
100
AcDbEntity
  8
0
  6
ByBlock
 62
     2
100
AcDbLine
 10
882.3756511770024
 20
261.0328945184107
 30
0.0
 11
882.3756511770024
 21
245.0452434780574
 31
0.0
  0
LINE
  5
19F9
330
196F
100
AcDbEntity
  8
0
  6
ByBlock
 62
     2
100
AcDbLine
 10
890.3756511770025
 20
261.0328945184107
 30
0.0
 11
890.3756511770025
 21
245.0452434780574
 31
0.0
  0
LINE
  5
19FA
330
196F
100
AcDbEntity
  8
0
  6
ByBlock
 62
     2
100
AcDbLine
 10
884.8756511770025
 20
246.2952434780574
 30
0.0
 11
887.8756511770024
 21
246.2952434780574
 31
0.0
  0
INSERT
  5
19FB
330
196F
100
AcDbEntity
  8
0
  6
ByBlock
 62
     2
100
AcDbBlockReference
  2
_OPEN
 10
882.3756511770024
 20
246.2952434780574
 30
0.0
 41
2.5
 42
2.5
 43
2.5
 50
180.0
  0
INSERT
  5
19FC
330
196F
100
AcDbEntity
  8
0
  6
ByBlock
 62
     2
100
AcDbBlockReference
  2
_OPEN
 10
890.3756511770025
 20
246.2952434780574
 30
0.0
 41
2.5
 42
2.5
 43
2.5
  0
MTEXT
  5
19FD
330
196F
100
AcDbEntity
  8
0
  6
ByBlock
 62
     6
100
AcDbMText
 10
886.3756511770025
 20
248.1702434780574
 30
0.0
 40
2.5
 41
0.0
 71
     5
 72
     1
  1
\A1;φ8
  7
STYLE3
 73
     1
 44
1.0
  0
POINT
  5
19FE
330
196F
100
AcDbEntity
  8
DEFPOINTS
  6
ByBlock
 62
     0
100
AcDbPoint
 10
882.3756511770024
 20
261.0328945184107
 30
0.0
  0
POINT
  5
19FF
330
196F
100
AcDbEntity
  8
DEFPOINTS
  6
ByBlock
 62
     0
100
AcDbPoint
 10
890.3756511770025
 20
261.0328945184107
 30
0.0
  0
POINT
  5
1A00
330
196F
100
AcDbEntity
  8
DEFPOINTS
  6
ByBlock
 62
     0
100
AcDbPoint
 10
890.3756511770025
 20
246.2952434780574
 30
0.0
  0
ENDBLK
  5
1A01
330
196F
100
AcDbEntity
  8
0
100
AcDbBlockEnd
  0
BLOCK
  5
21D3
330
21D2
100
AcDbEntity
  8
0
100
AcDbBlockBegin
  2
*D44
 70
     1
 10
0.0
 20
0.0
 30
0.0
  3
*D44
  1

  0
LINE
  5
21D4
330
21D2
100
AcDbEntity
  8
0
  6
ByBlock
 62
     2
100
AcDbLine
 10
520.1913883181787
 20
63.75842791116747
 30
0.0
 11
520.1913883181787
 21
44.64002765237728
 31
0.0
  0
LINE
  5
21D5
330
21D2
100
AcDbEntity
  8
0
  6
ByBlock
 62
     2
100
AcDbLine
 10
400.1913883181787
 20
63.75842791116747
 30
0.0
 11
400.1913883181787
 21
44.64002765237728
 31
0.0
  0
LINE
  5
21D6
330
21D2
100
AcDbEntity
  8
0
  6
ByBlock
 62
     2
100
AcDbLine
 10
517.6913883181787
 20
45.89002765237728
 30
0.0
 11
402.6913883181787
 21
45.89002765237728
 31
0.0
  0
INSERT
  5
21D7
330
21D2
100
AcDbEntity
  8
0
  6
ByBlock
 62
     2
100
AcDbBlockReference
  2
_OPEN
 10
520.1913883181787
 20
45.89002765237728
 30
0.0
 41
2.5
 42
2.5
 43
2.5
  0
INSERT
  5
21D8
330
21D2
100
AcDbEntity
  8
0
  6
ByBlock
 62
     2
100
AcDbBlockReference
  2
_OPEN
 10
400.1913883181787
 20
45.89002765237728
 30
0.0
 41
2.5
 42
2.5
 43
2.5
 50
180.0
  0
MTEXT
  5
21D9
330
21D2
100
AcDbEntity
  8
0
  6
ByBlock
 62
     6
100
AcDbMText
 10
460.1913883181786
 20
47.76502765237728
 30
0.0
 40
2.5
 41
0.0
 71
     5
 72
     1
  1
\A1;120
  7
STYLE3
 73
     1
 44
1.0
  0
POINT
  5
21DA
330
21D2
100
AcDbEntity
  8
DEFPOINTS
  6
ByBlock
 62
     0
100
AcDbPoint
 10
520.1913883181787
 20
63.75842791116747
 30
0.0
  0
POINT
  5
21DB
330
21D2
100
AcDbEntity
  8
DEFPOINTS
  6
ByBlock
 62
     0
100
AcDbPoint
 10
400.1913883181787
 20
63.75842791116747
 30
0.0
  0
POINT
  5
21DC
330
21D2
100
AcDbEntity
  8
DEFPOINTS
  6
ByBlock
 62
     0
100
AcDbPoint
 10
400.1913883181787
 20
45.89002765237728
 30
0.0
  0
ENDBLK
  5
21DD
330
21D2
100
AcDbEntity
  8
0
100
AcDbBlockEnd
  0
BLOCK
  5
21FB
330
21FA
100
AcDbEntity
  8
0
100
AcDbBlockBegin
  2
*D45
 70
     1
 10
0.0
 20
0.0
 30
0.0
  3
*D45
  1

  0
LINE
  5
21FC
330
21FA
100
AcDbEntity
  8
0
  6
ByBlock
 62
     2
100
AcDbLine
 10
550.447870436978
 20
117.7584279111675
 30
0.0
 11
532.5151872878391
 21
117.7584279111675
 31
0.0
  0
LINE
  5
21FD
330
21FA
100
AcDbEntity
  8
0
  6
ByBlock
 62
     2
100
AcDbLine
 10
534.0735313800815
 20
132.7584279111674
 30
0.0
 11
532.5151872878391
 21
132.7584279111674
 31
0.0
  0
LINE
  5
21FE
330
21FA
100
AcDbEntity
  8
0
  6
ByBlock
 62
     2
100
AcDbLine
 10
533.7651872878391
 20
120.2584279111674
 30
0.0
 11
533.7651872878391
 21
130.2584279111675
 31
0.0
  0
INSERT
  5
21FF
330
21FA
100
AcDbEntity
  8
0
  6
ByBlock
 62
     2
100
AcDbBlockReference
  2
_OPEN
 10
533.7651872878391
 20
117.7584279111675
 30
0.0
 41
2.5
 42
2.5
 43
2.5
 50
270.0
  0
INSERT
  5
2200
330
21FA
100
AcDbEntity
  8
0
  6
ByBlock
 62
     2
100
AcDbBlockReference
  2
_OPEN
 10
533.7651872878391
 20
132.7584279111674
 30
0.0
 41
2.5
 42
2.5
 43
2.5
 50
90.0
  0
MTEXT
  5
2201
330
21FA
100
AcDbEntity
  8
0
  6
ByBlock
 62
     6
100
AcDbMText
 10
531.8901872878391
 20
125.2584279111675
 30
0.0
 40
2.5
 41
0.0
 71
     5
 72
     1
  1
\A1;15
  7
STYLE3
 11
0.0000000000000001
 21
1.0
 31
0.0
 73
     1
 44
1.0
  0
POINT
  5
2202
330
21FA
100
AcDbEntity
  8
DEFPOINTS
  6
ByBlock
 62
     0
100
AcDbPoint
 10
550.447870436978
 20
117.7584279111675
 30
0.0
  0
POINT
  5
2203
330
21FA
100
AcDbEntity
  8
DEFPOINTS
  6
ByBlock
 62
     0
100
AcDbPoint
 10
534.0735313800815
 20
132.7584279111674
 30
0.0
  0
POINT
  5
2204
330
21FA
100
AcDbEntity
  8
DEFPOINTS
  6
ByBlock
 62
     0
100
AcDbPoint
 10
533.7651872878391
 20
132.7584279111674
 30
0.0
  0
ENDBLK
  5
2205
330
21FA
100
AcDbEntity
  8
0
100
AcDbBlockEnd
  0
BLOCK
  5
2240
330
223F
100
AcDbEntity
  8
0
100
AcDbBlockBegin
  2
*D47
 70
     1
 10
0.0
 20
0.0
 30
0.0
  3
*D47
  1

  0
LINE
  5
2241
330
223F
100
AcDbEntity
  8
0
  6
ByBlock
 62
     2
100
AcDbLine
 10
540.447870436978
 20
58.75842791116747
 30
0.0
 11
526.6666647379857
 21
58.75842791116747
 31
0.0
  0
LINE
  5
2242
330
223F
100
AcDbEntity
  8
0
  6
ByBlock
 62
     2
100
AcDbLine
 10
532.5151872878391
 20
132.7584279111674
 30
0.0
 11
526.6666647379857
 21
132.7584279111674
 31
0.0
  0
LINE
  5
2243
330
223F
100
AcDbEntity
  8
0
  6
ByBlock
 62
     2
100
AcDbLine
 10
527.9166647379857
 20
61.25842791116747
 30
0.0
 11
527.9166647379857
 21
130.2584279111675
 31
0.0
  0
INSERT
  5
2244
330
223F
100
AcDbEntity
  8
0
  6
ByBlock
 62
     2
100
AcDbBlockReference
  2
_OPEN
 10
527.9166647379857
 20
58.75842791116747
 30
0.0
 41
2.5
 42
2.5
 43
2.5
 50
270.0
  0
INSERT
  5
2245
330
223F
100
AcDbEntity
  8
0
  6
ByBlock
 62
     2
100
AcDbBlockReference
  2
_OPEN
 10
527.9166647379857
 20
132.7584279111674
 30
0.0
 41
2.5
 42
2.5
 43
2.5
 50
90.0
  0
MTEXT
  5
2246
330
223F
100
AcDbEntity
  8
0
  6
ByBlock
 62
     6
100
AcDbMText
 10
526.0416647379856
 20
95.75842791116746
 30
0.0
 40
2.5
 41
0.0
 71
     5
 72
     1
  1
\A1;74
  7
STYLE3
 11
0.0000000000000001
 21
1.0
 31
0.0
 73
     1
 44
1.0
  0
POINT
  5
2247
330
223F
100
AcDbEntity
  8
DEFPOINTS
  6
ByBlock
 62
     0
100
AcDbPoint
 10
540.447870436978
 20
58.75842791116747
 30
0.0
  0
POINT
  5
2248
330
223F
100
AcDbEntity
  8
DEFPOINTS
  6
ByBlock
 62
     0
100
AcDbPoint
 10
532.5151872878391
 20
132.7584279111674
 30
0.0
  0
POINT
  5
2249
330
223F
100
AcDbEntity
  8
DEFPOINTS
  6
ByBlock
 62
     0
100
AcDbPoint
 10
527.9166647379857
 20
132.7584279111674
 30
0.0
  0
ENDBLK
  5
224A
330
223F
100
AcDbEntity
  8
0
100
AcDbBlockEnd
  0
BLOCK
  5
224D
330
224C
100
AcDbEntity
  8
0
100
AcDbBlockBegin
  2
*D48
 70
     1
 10
0.0
 20
0.0
 30
0.0
  3
*D48
  1

  0
LINE
  5
224E
330
224C
100
AcDbEntity
  8
0
  6
ByBlock
 62
     2
100
AcDbLine
 10
716.4478704369781
 20
58.75842791116747
 30
0.0
 11
736.641032595392
 21
58.75842791116747
 31
0.0
  0
LINE
  5
224F
330
224C
100
AcDbEntity
  8
0
  6
ByBlock
 62
     2
100
AcDbLine
 10
705.447870436978
 20
119.7584279111675
 30
0.0
 11
736.641032595392
 21
119.7584279111675
 31
0.0
  0
LINE
  5
2250
330
224C
100
AcDbEntity
  8
0
  6
ByBlock
 62
     2
100
AcDbLine
 10
735.391032595392
 20
61.25842791116747
 30
0.0
 11
735.391032595392
 21
117.2584279111674
 31
0.0
  0
INSERT
  5
2251
330
224C
100
AcDbEntity
  8
0
  6
ByBlock
 62
     2
100
AcDbBlockReference
  2
_OPEN
 10
735.391032595392
 20
58.75842791116747
 30
0.0
 41
2.5
 42
2.5
 43
2.5
 50
270.0
  0
INSERT
  5
2252
330
224C
100
AcDbEntity
  8
0
  6
ByBlock
 62
     2
100
AcDbBlockReference
  2
_OPEN
 10
735.391032595392
 20
119.7584279111675
 30
0.0
 41
2.5
 42
2.5
 43
2.5
 50
90.0
  0
MTEXT
  5
2253
330
224C
100
AcDbEntity
  8
0
  6
ByBlock
 62
     6
100
AcDbMText
 10
733.516032595392
 20
89.25842791116748
 30
0.0
 40
2.5
 41
0.0
 71
     5
 72
     1
  1
\A1;61
  7
STYLE3
 11
0.0000000000000001
 21
1.0
 31
0.0
 73
     1
 44
1.0
  0
POINT
  5
2254
330
224C
100
AcDbEntity
  8
DEFPOINTS
  6
ByBlock
 62
     0
100
AcDbPoint
 10
716.4478704369781
 20
58.75842791116747
 30
0.0
  0
POINT
  5
2255
330
224C
100
AcDbEntity
  8
DEFPOINTS
  6
ByBlock
 62
     0
100
AcDbPoint
 10
705.447870436978
 20
119.7584279111675
 30
0.0
  0
POINT
  5
2256
330
224C
100
AcDbEntity
  8
DEFPOINTS
  6
ByBlock
 62
     0
100
AcDbPoint
 10
735.391032595392
 20
119.7584279111675
 30
0.0
  0
ENDBLK
  5
2257
330
224C
100
AcDbEntity
  8
0
100
AcDbBlockEnd
  0
BLOCK
  5
2266
330
2265
100
AcDbEntity
  8
0
100
AcDbBlockBegin
  2
*D49
 70
     1
 10
0.0
 20
0.0
 30
0.0
  3
*D49
  1

  0
LINE
  5
2267
330
2265
100
AcDbEntity
  8
0
  6
ByBlock
 62
     2
100
AcDbLine
 10
701.9478704369778
 20
338.7584279111674
 30
0.0
 11
736.641032595392
 21
338.7584279111674
 31
0.0
  0
LINE
  5
2268
330
2265
100
AcDbEntity
  8
0
  6
ByBlock
 62
     2
100
AcDbLine
 10
727.6038490073278
 20
119.7584279111675
 30
0.0
 11
736.641032595392
 21
119.7584279111675
 31
0.0
  0
LINE
  5
2269
330
2265
100
AcDbEntity
  8
0
  6
ByBlock
 62
     2
100
AcDbLine
 10
735.391032595392
 20
336.2584279111674
 30
0.0
 11
735.391032595392
 21
122.2584279111674
 31
0.0
  0
INSERT
  5
226A
330
2265
100
AcDbEntity
  8
0
  6
ByBlock
 62
     2
100
AcDbBlockReference
  2
_OPEN
 10
735.391032595392
 20
338.7584279111674
 30
0.0
 41
2.5
 42
2.5
 43
2.5
 50
90.0
  0
INSERT
  5
226B
330
2265
100
AcDbEntity
  8
0
  6
ByBlock
 62
     2
100
AcDbBlockReference
  2
_OPEN
 10
735.391032595392
 20
119.7584279111675
 30
0.0
 41
2.5
 42
2.5
 43
2.5
 50
270.0
  0
MTEXT
  5
226C
330
2265
100
AcDbEntity
  8
0
  6
ByBlock
 62
     6
100
AcDbMText
 10
733.516032595392
 20
229.2584279111674
 30
0.0
 40
2.5
 41
0.0
 71
     5
 72
     1
  1
\A1;219
  7
STYLE3
 11
0.0000000000000001
 21
1.0
 31
0.0
 73
     1
 44
1.0
  0
POINT
  5
226D
330
2265
100
AcDbEntity
  8
DEFPOINTS
  6
ByBlock
 62
     0
100
AcDbPoint
 10
701.9478704369778
 20
338.7584279111674
 30
0.0
  0
POINT
  5
226E
330
2265
100
AcDbEntity
  8
DEFPOINTS
  6
ByBlock
 62
     0
100
AcDbPoint
 10
727.6038490073278
 20
119.7584279111675
 30
0.0
  0
POINT
  5
226F
330
2265
100
AcDbEntity
  8
DEFPOINTS
  6
ByBlock
 62
     0
100
AcDbPoint
 10
735.391032595392
 20
119.7584279111675
 30
0.0
  0
ENDBLK
  5
2270
330
2265
100
AcDbEntity
  8
0
100
AcDbBlockEnd
  0
BLOCK
  5
2273
330
2272
100
AcDbEntity
  8
0
100
AcDbBlockBegin
  2
*D50
 70
     1
 10
0.0
 20
0.0
 30
0.0
  3
*D50
  1

  0
LINE
  5
2274
330
2272
100
AcDbEntity
  8
0
  6
ByBlock
 62
     2
100
AcDbLine
 10
736.641032595392
 20
338.7584279111674
 30
0.0
 11
743.937336351878
 21
338.7584279111674
 31
0.0
  0
LINE
  5
2275
330
2272
100
AcDbEntity
  8
0
  6
ByBlock
 62
     2
100
AcDbLine
 10
736.641032595392
 20
58.75842791116747
 30
0.0
 11
743.937336351878
 21
58.75842791116747
 31
0.0
  0
LINE
  5
2276
330
2272
100
AcDbEntity
  8
0
  6
ByBlock
 62
     2
100
AcDbLine
 10
742.687336351878
 20
336.2584279111674
 30
0.0
 11
742.687336351878
 21
61.25842791116747
 31
0.0
  0
INSERT
  5
2277
330
2272
100
AcDbEntity
  8
0
  6
ByBlock
 62
     2
100
AcDbBlockReference
  2
_OPEN
 10
742.687336351878
 20
338.7584279111674
 30
0.0
 41
2.5
 42
2.5
 43
2.5
 50
90.0
  0
INSERT
  5
2278
330
2272
100
AcDbEntity
  8
0
  6
ByBlock
 62
     2
100
AcDbBlockReference
  2
_OPEN
 10
742.687336351878
 20
58.75842791116747
 30
0.0
 41
2.5
 42
2.5
 43
2.5
 50
270.0
  0
MTEXT
  5
2279
330
2272
100
AcDbEntity
  8
0
  6
ByBlock
 62
     6
100
AcDbMText
 10
740.812336351878
 20
198.7584279111674
 30
0.0
 40
2.5
 41
0.0
 71
     5
 72
     1
  1
\A1;280
  7
STYLE3
 11
0.0000000000000001
 21
1.0
 31
0.0
 73
     1
 44
1.0
  0
POINT
  5
227A
330
2272
100
AcDbEntity
  8
DEFPOINTS
  6
ByBlock
 62
     0
100
AcDbPoint
 10
736.641032595392
 20
338.7584279111674
 30
0.0
  0
POINT
  5
227B
330
2272
100
AcDbEntity
  8
DEFPOINTS
  6
ByBlock
 62
     0
100
AcDbPoint
 10
736.641032595392
 20
58.75842791116747
 30
0.0
  0
POINT
  5
227C
330
2272
100
AcDbEntity
  8
DEFPOINTS
  6
ByBlock
 62
     0
100
AcDbPoint
 10
742.687336351878
 20
58.75842791116747
 30
0.0
  0
ENDBLK
  5
227D
330
2272
100
AcDbEntity
  8
0
100
AcDbBlockEnd
  0
BLOCK
  5
22C9
330
22C8
100
AcDbEntity
  8
0
100
AcDbBlockBegin
  2
A$C5B3A1AB9
 70
     0
 10
0.0
 20
0.0
 30
0.0
  3
A$C5B3A1AB9
  1

  0
LINE
  5
22CA
330
22C8
100
AcDbEntity
  8
外形線
100
AcDbLine
 10
0.000001
 20
0.0
 30
0.0
 11
133.000001
 21
0.0
 31
0.0
  0
ENDBLK
  5
22CB
330
22C8
100
AcDbEntity
  8
0
100
AcDbBlockEnd
  0
ENDSEC
  0
SECTION
  2
ENTITIES
  0
LWPOLYLINE
  5
1A0
330
18
100
AcDbEntity
  8
C
100
AcDbPolyline
 90
        5
 70
     0
 43
0.8
 38
1.0
 10
393.0
 20
549.2202596867948
 10
755.0
 20
549.2202596867948
 10
755.0
 20
0.0
 10
393.0
 20
0.0
 10
393.0
 20
549.2202596867948
  0
LINE
  5
138B
330
18
100
AcDbEntity
  8
外形線
100
AcDbLine
 10
401.3913883181786
 20
58.75842791116747
 30
0.0
 11
428.9913883181787
 21
58.75842791116747
 31
0.0
  0
LINE
  5
138C
330
18
100
AcDbEntity
  8
外形線
100
AcDbLine
 10
540.447870436978
 20
58.75842791116747
 30
0.0
 11
548.0749249438039
 21
58.75842791116747
 31
0.0
  0
LINE
  5
138F
330
18
100
AcDbEntity
  8
外形線
100
AcDbLine
 10
542.447870436978
 20
124.7584279111675
 30
0.0
 11
549.4478704369781
 21
124.7584279111675
 31
0.0
  0
LINE
  5
1390
330
18
100
AcDbEntity
  8
外形線
100
AcDbLine
 10
447.621929416176
 20
124.7584279111674
 30
0.0
 11
472.7608472201812
 21
124.7584279111674
 31
0.0
  0
LINE
  5
1391
330
18
100
AcDbEntity
  8
中心線
100
AcDbLine
 10
460.1913883181786
 20
52.25411581243133
 30
0.0
 11
460.1913883181786
 21
344.5475845890196
 31
0.0
  0
LINE
  5
1392
330
18
100
AcDbEntity
  8
中心線
100
AcDbLine
 10
685.447870436978
 20
50.88508513362757
 30
0.0
 11
685.4478704369779
 21
347.4615499390383
 31
0.0
  0
LINE
  5
1396
330
18
100
AcDbEntity
  8
中心線
100
AcDbLine
 10
600.447870436978
 20
59.65084428749003
 30
0.0
 11
600.447870436978
 21
347.4615499390383
 31
0.0
  0
LINE
  5
1397
330
18
100
AcDbEntity
  8
外形線
100
AcDbLine
 10
537.4478704369781
 20
63.75842791116747
 30
0.0
 11
715.9478704369781
 21
63.75842791116747
 31
0.0
  0
LINE
  5
1399
330
18
100
AcDbEntity
  8
外形線
100
AcDbLine
 10
542.447870436978
 20
124.7584279111675
 30
0.0
 11
537.4478704369781
 21
63.75842791116747
 31
0.0
  0
LINE
  5
139A
330
18
100
AcDbEntity
  8
外形線
100
AcDbLine
 10
549.4478704369781
 20
116.7584279111675
 30
0.0
 11
549.4478704369781
 21
124.7584279111675
 31
0.0
  0
LINE
  5
139B
330
18
100
AcDbEntity
  8
外形線
100
AcDbLine
 10
548.4847610093777
 20
63.75842791116747
 30
0.0
 11
548.0749249438039
 21
58.75842791116747
 31
0.0
  0
LINE
  5
139D
330
18
100
AcDbEntity
  8
外形線
100
AcDbLine
 10
540.447870436978
 20
58.75842791116747
 30
0.0
 11
537.4478704369781
 21
63.75842791116747
 31
0.0
  0
LINE
  5
139F
330
18
100
AcDbEntity
  8
外形線
100
AcDbLine
 10
651.4478704369779
 20
118.7584279111675
 30
0.0
 11
709.5428828748659
 21
118.7584279111675
 31
0.0
  0
LINE
  5
13A0
330
18
100
AcDbEntity
  8
外形線
100
AcDbLine
 10
665.4478704369779
 20
119.7584279111675
 30
0.0
 11
705.447870436978
 21
119.7584279111675
 31
0.0
  0
LINE
  5
13A1
330
18
100
AcDbEntity
  8
外形線
100
AcDbLine
 10
716.4478704369781
 20
58.75842791116747
 30
0.0
 11
710.5379200650759
 21
117.8579316301885
 31
0.0
  0
LINE
  5
13A2
330
18
100
AcDbEntity
  8
外形線
100
AcDbLine
 10
709.4129575021934
 20
58.75842791116747
 30
0.0
 11
708.9129575021934
 21
63.75842791116747
 31
0.0
  0
LINE
  5
13A3
330
18
100
AcDbEntity
  8
外形線
100
AcDbLine
 10
709.4129575021932
 20
58.75842791116747
 30
0.0
 11
716.4478704369781
 21
58.75842791116747
 31
0.0
  0
LINE
  5
13A7
330
18
100
AcDbEntity
  8
外形線
100
AcDbLine
 10
550.447870436978
 20
117.7584279111675
 30
0.0
 11
650.447870436978
 21
117.7584279111675
 31
0.0
  0
LINE
  5
13B5
330
18
100
AcDbEntity
  8
外形線
100
AcDbLine
 10
651.4478704369779
 20
116.7584279111675
 30
0.0
 11
651.4478704369778
 21
118.7584279111675
 31
0.0
  0
LINE
  5
13B6
330
18
100
AcDbEntity
  8
外形線
100
AcDbLine
 10
541.79213273206
 20
116.7584279111675
 30
0.0
 11
651.4478704369779
 21
116.7584279111675
 31
0.0
  0
LINE
  5
13BD
330
18
100
AcDbEntity
  8
外形線
100
AcDbLine
 10
551.447870436978
 20
132.7584279111674
 30
0.0
 11
649.4478704369782
 21
132.7584279111674
 31
0.0
  0
LINE
  5
13BE
330
18
100
AcDbEntity
  8
外形線
100
AcDbLine
 10
550.447870436978
 20
117.7584279111675
 30
0.0
 11
550.447870436978
 21
131.7584279111674
 31
0.0
  0
LINE
  5
13BF
330
18
100
AcDbEntity
  8
外形線
100
AcDbLine
 10
650.4478704369781
 20
117.7584279111675
 30
0.0
 11
650.4478704369781
 21
131.7584279111674
 31
0.0
  0
LINE
  5
13C0
330
18
100
AcDbEntity
  8
中心線
100
AcDbLine
 10
565.447870436978
 20
96.73972934022755
 30
0.0
 11
565.447870436978
 21
126.0410273434436
 31
0.0
  0
LINE
  5
13C2
330
18
100
AcDbEntity
  8
中心線
100
AcDbLine
 10
617.947870436978
 20
93.68098244998851
 30
0.0
 11
617.947870436978
 21
124.5935376642867
 31
0.0
  0
LINE
  5
13C6
330
18
100
AcDbEntity
  8
外形線
100
AcDbLine
 10
400.1913883181787
 20
63.75842791116747
 30
0.0
 11
520.1913883181787
 21
63.75842791116747
 31
0.0
  0
LINE
  5
13C7
330
18
100
AcDbEntity
  8
外形線
100
AcDbLine
 10
410.1913883181786
 20
117.7584279111675
 30
0.0
 11
410.1913883181786
 21
131.7584279111674
 31
0.0
  0
LINE
  5
13C9
330
18
100
AcDbEntity
  8
外形線
100
AcDbLine
 10
510.1913883181788
 20
117.7584279111675
 30
0.0
 11
510.1913883181788
 21
131.7584279111674
 31
0.0
  0
LINE
  5
13CF
330
18
100
AcDbEntity
  8
外形線
100
AcDbLine
 10
477.1913883181787
 20
63.75842791116747
 30
0.0
 11
473.7360728456697
 21
123.97964043204
 31
0.0
  0
LINE
  5
13D2
330
18
100
AcDbEntity
  8
外形線
100
AcDbLine
 10
443.1913883181787
 20
63.75842791116747
 30
0.0
 11
444.3913883181787
 21
58.75842791116747
 31
0.0
  0
LINE
  5
13D3
330
18
100
AcDbEntity
  8
外形線
100
AcDbLine
 10
475.9913883181787
 20
58.75842791116747
 30
0.0
 11
477.1913883181787
 21
63.75842791116747
 31
0.0
  0
LINE
  5
13DA
330
18
100
AcDbEntity
  8
外形線
100
AcDbLine
 10
520.1913883181787
 20
63.75842791116747
 30
0.0
 11
518.9913883181787
 21
58.75842791116747
 31
0.0
  0
LINE
  5
13DB
330
18
100
AcDbEntity
  8
外形線
100
AcDbLine
 10
491.3913883181787
 20
58.75842791116747
 30
0.0
 11
490.1913883181787
 21
63.75842791116747
 31
0.0
  0
LINE
  5
13DC
330
18
100
AcDbEntity
  8
外形線
100
AcDbLine
 10
491.3913883181788
 20
58.75842791116747
 30
0.0
 11
518.9913883181787
 21
58.75842791116747
 31
0.0
  0
LINE
  5
13DD
330
18
100
AcDbEntity
  8
外形線
100
AcDbLine
 10
400.1913883181787
 20
63.75842791116747
 30
0.0
 11
401.3913883181786
 21
58.75842791116747
 31
0.0
  0
LINE
  5
13DE
330
18
100
AcDbEntity
  8
外形線
100
AcDbLine
 10
428.9913883181787
 20
58.75842791116747
 30
0.0
 11
430.1913883181787
 21
63.75842791116747
 31
0.0
  0
LINE
  5
13DF
330
18
100
AcDbEntity
  8
外形線
100
AcDbLine
 10
444.3913883181787
 20
58.75842791116747
 30
0.0
 11
475.9913883181788
 21
58.75842791116747
 31
0.0
  0
LINE
  5
1404
330
18
100
AcDbEntity
  8
外形線
100
AcDbLine
 10
446.6467037906879
 20
123.9796404320412
 30
0.0
 11
443.1913883181787
 21
63.75842791116747
 31
0.0
  0
DIMENSION
  5
1430
330
18
100
AcDbEntity
  8
外形線
100
AcDbDimension
  2
*D3
 10
482.1569827532307
 20
58.75842791116747
 30
0.0
 11
480.2819827532307
 21
91.75842791116748
 31
0.0
 12
76.5000045030456
 22
-14.53561064250789
 32
0.0
 70
    32
 71
     5
 42
-1.0
  3
STYLE3
100
AcDbAlignedDimension
 13
473.6913883181787
 23
124.7584279111674
 33
0.0
 14
475.9913883181788
 24
58.75842791116747
 34
0.0
 50
90.0
100
AcDbRotatedDimension
1001
ACAD
1000
DSTYLE
1002
{
1070
   271
1070
     2
1002
}
  0
LINE
  5
1436
330
18
100
AcDbEntity
  8
外形線
100
AcDbLine
 10
400.1913883181787
 20
63.75842791116747
 30
0.0
 11
405.1913883181787
 21
114.7584279111675
 31
0.0
  0
LINE
  5
1437
330
18
100
AcDbEntity
  8
外形線
100
AcDbLine
 10
405.1913883181787
 20
114.7584279111675
 30
0.0
 11
444.1621255630856
 21
121.3591834857709
 31
0.0
  0
LINE
  5
1438
330
18
100
AcDbEntity
  8
外形線
100
AcDbLine
 10
476.2206510732717
 20
121.3591834857709
 30
0.0
 11
515.1913883181787
 21
114.7584279111675
 31
0.0
  0
LINE
  5
1439
330
18
100
AcDbEntity
  8
外形線
100
AcDbLine
 10
515.1913883181787
 20
114.7584279111675
 30
0.0
 11
520.1913883181787
 21
63.75842791116747
 31
0.0
  0
ARC
  5
143B
330
18
100
AcDbEntity
  8
外形線
100
AcDbCircle
 10
443.6611295027101
 20
124.3170548398849
 30
0.0
 40
3.0
100
AcDbArc
 50
279.6133619764615
 51
351.9720166884832
  0
ARC
  5
143C
330
18
100
AcDbEntity
  8
外形線
100
AcDbCircle
 10
476.7216471336472
 20
124.3170548398848
 30
0.0
 40
3.0
100
AcDbArc
 50
188.0279833115162
 51
260.3866380235384
  0
ARC
  5
1440
330
18
100
AcDbEntity
  8
外形線
100
AcDbCircle
 10
447.621929416176
 20
123.7584279111674
 30
0.0
 40
1.0
100
AcDbArc
 50
90.0
 51
171.9720166884833
  0
ARC
  5
1442
330
18
100
AcDbEntity
  8
外形線
100
AcDbCircle
 10
472.7608472201812
 20
123.7584279111674
 30
0.0
 40
1.0
100
AcDbArc
 50
8.027983311516678
 51
90.0
  0
LINE
  5
1444
330
18
100
AcDbEntity
  8
外形線
100
AcDbLine
 10
410.1913883181786
 20
117.7584279111675
 30
0.0
 11
422.9033321120897
 21
117.7584279111675
 31
0.0
  0
LINE
  5
1445
330
18
100
AcDbEntity
  8
外形線
100
AcDbLine
 10
497.4794445242675
 20
117.7584279111675
 30
0.0
 11
510.1913883181786
 21
117.7584279111675
 31
0.0
  0
DIMENSION
  5
1479
330
18
100
AcDbEntity
  8
外形線
100
AcDbDimension
  2
*D4
 10
600.447870436978
 20
357.2869513784553
 30
0.0
 11
642.9478704369779
 21
359.1619513784554
 31
0.0
 12
59.21008573898053
 22
-14.53561064250789
 32
0.0
 70
    32
 71
     5
 42
-1.0
  3
STYLE3
100
AcDbAlignedDimension
 13
685.4478704369779
 23
347.4615499390383
 33
0.0
 14
600.447870436978
 24
347.4615499390383
 34
0.0
100
AcDbRotatedDimension
1001
ACAD
1000
DSTYLE
1002
{
1070
   271
1070
     2
1002
}
  0
LINE
  5
14B0
330
18
100
AcDbEntity
  8
外形線
100
AcDbLine
 10
755.0
 20
549.2202596867948
 30
1.0
 11
393.0
 21
549.2202596867948
 31
1.0
  0
DIMENSION
  5
174D
330
18
100
AcDbEntity
  8
寸法線
100
AcDbDimension
  2
*D19
 10
537.4478704369781
 20
46.43049648509486
 30
0.0
 11
626.9478704369781
 21
48.30549648509486
 31
0.0
 12
-285.9277807400246
 22
0.3975130157879221
 32
0.0
 70
    32
 71
     5
 42
-1.0
  3
STYLE3
100
AcDbAlignedDimension
 13
716.4478704369781
 23
51.73105607935269
 33
0.0
 14
537.4478704369781
 24
63.75842791116747
 34
0.0
100
AcDbRotatedDimension
1001
ACAD
1000
DSTYLE
1002
{
1070
   271
1070
     2
1002
}
  0
DIMENSION
  5
1752
330
18
100
AcDbEntity
  8
寸法線
100
AcDbDimension
  2
*D20
 10
685.447870436978
 20
52.98105607935269
 30
0.0
 11
700.947870436978
 21
54.85605607935269
 31
0.0
 12
-285.9277807400246
 22
0.3975130157879221
 32
0.0
 70
    32
 71
     5
 42
-1.0
  3
STYLE3
100
AcDbAlignedDimension
 13
716.4478704369781
 23
58.75842791116747
 33
0.0
 14
685.447870436978
 24
77.52096403576053
 34
0.0
100
AcDbRotatedDimension
1001
ACAD
1000
DSTYLE
1002
{
1070
   271
1070
     2
1002
}
  0
DIMENSION
  5
175A
330
18
100
AcDbEntity
  8
寸法線
100
AcDbDimension
  2
*D21
 10
667.9478704369778
 20
320.4076828532621
 30
0.0
 11
634.1978704369777
 21
322.2826828532622
 31
0.0
 12
-285.9277807400248
 22
-30.60248698421219
 32
0.0
 70
    32
 71
     5
 42
-1.0
  3
STYLE3
100
AcDbAlignedDimension
 13
600.4478704369777
 23
312.3761195315166
 33
0.0
 14
667.9478704369778
 24
320.7797216961554
 34
0.0
100
AcDbRotatedDimension
1001
ACAD
1000
DSTYLE
1002
{
1070
   271
1070
     2
1002
}
  0
LINE
  5
175E
330
18
100
AcDbEntity
  8
外形線
100
AcDbLine
 10
651.4478704369776
 20
238.4304075341982
 30
0.0
 11
641.9478704369776
 21
230.4304075341984
 31
0.0
  0
LINE
  5
175F
330
18
100
AcDbEntity
  8
外形線
100
AcDbLine
 10
616.4478704369776
 20
255.4304075341985
 30
0.0
 11
650.4478704369776
 21
284.4304075341981
 31
0.0
  0
LINE
  5
1760
330
18
100
AcDbEntity
  8
隠れ線2
100
AcDbLine
 10
604.4478704369777
 20
230.4304075341985
 30
0.0
 11
604.4478704369777
 21
253.4304075341986
 31
0.0
  0
LINE
  5
1761
330
18
100
AcDbEntity
  8
隠れ線2
100
AcDbLine
 10
596.4478704369777
 20
230.4304075341985
 30
0.0
 11
596.4478704369777
 21
253.4304075341986
 31
0.0
  0
LINE
  5
1762
330
18
100
AcDbEntity
  8
隠れ線2
100
AcDbLine
 10
610.4478704369778
 20
230.4304075341984
 30
0.0
 11
610.4478704369777
 21
253.4304075341985
 31
0.0
  0
LINE
  5
1763
330
18
100
AcDbEntity
  8
隠れ線2
100
AcDbLine
 10
590.4478704369777
 20
230.4304075341985
 30
0.0
 11
590.4478704369777
 21
253.4304075341985
 31
0.0
  0
CIRCLE
  5
1764
330
18
100
AcDbEntity
  8
外形線
100
AcDbCircle
 10
578.4478704369775
 20
243.4304075341985
 30
0.0
 40
13.0
  0
LINE
  5
1765
330
18
100
AcDbEntity
  8
中心線
100
AcDbLine
 10
600.4478704369777
 20
222.069912601314
 30
0.0
 11
600.4478704369777
 21
266.1520662297018
 31
0.0
  0
LINE
  5
1766
330
18
100
AcDbEntity
  8
隠れ線2
100
AcDbLine
 10
570.4478704369774
 20
250.4304075341987
 30
0.0
 11
578.4478704369775
 21
255.4304075341987
 31
0.0
  0
LINE
  5
1767
330
18
100
AcDbEntity
  8
中心線
100
AcDbLine
 10
578.4478704369775
 20
227.6879313952814
 30
0.0
 11
578.4478704369775
 21
259.1728836731155
 31
0.0
  0
DIMENSION
  5
1796
330
18
100
AcDbEntity
  8
寸法線
100
AcDbDimension
  2
*D22
 10
590.4478704369777
 20
207.9848503409987
 30
0.0
 11
600.4478704369777
 21
209.8598503409987
 31
0.0
 12
-285.9277807400248
 22
-30.60248698421219
 32
0.0
 70
    32
  1
φ<>
 71
     5
 42
-1.0
  3
STYLE3
100
AcDbAlignedDimension
 13
610.4478704369778
 23
230.4304075341985
 33
0.0
 14
590.4478704369777
 24
230.4304075341985
 34
0.0
100
AcDbRotatedDimension
1001
ACAD
1000
DSTYLE
1002
{
1070
   271
1070
     2
1002
}
  0
LINE
  5
1797
330
18
100
AcDbEntity
  8
外形線
100
AcDbLine
 10
586.4478704369775
 20
230.4304075341985
 30
0.0
 11
641.9478704369776
 21
230.4304075341984
 31
0.0
  0
LINE
  5
1798
330
18
100
AcDbEntity
  8
隠れ線2
100
AcDbLine
 10
584.2562618104838
 20
231.8001629257572
 30
0.0
 11
570.4478704369774
 21
240.4304075341985
 31
0.0
  0
LINE
  5
1799
330
18
100
AcDbEntity
  8
中心線
100
AcDbLine
 10
562.7053942980605
 20
243.4304075341986
 30
0.0
 11
594.1903465758946
 21
243.4304075341984
 31
0.0
  0
LINE
  5
179A
330
18
100
AcDbEntity
  8
隠れ線2
100
AcDbLine
 10
570.4478704369774
 20
240.4304075341985
 30
0.0
 11
570.4478704369774
 21
250.4304075341987
 31
0.0
  0
LINE
  5
179B
330
18
100
AcDbEntity
  8
外形線
100
AcDbLine
 10
586.4478704369775
 20
230.4304075341985
 30
0.0
 11
584.2562618104838
 21
231.8001629257572
 31
0.0
  0
DIMENSION
  5
179C
330
18
100
AcDbEntity
  8
寸法線
100
AcDbDimension
  2
*D23
 10
604.4478704369777
 20
215.6927564938452
 30
0.0
 11
600.4478704369777
 21
217.5677564938452
 31
0.0
 12
-285.9277807400248
 22
-30.60248698421219
 32
0.0
 70
    32
  1
φ<>
 71
     5
 42
-1.0
  3
STYLE3
100
AcDbAlignedDimension
 13
596.4478704369777
 23
230.4304075341985
 33
0.0
 14
604.4478704369777
 24
230.4304075341985
 34
0.0
100
AcDbRotatedDimension
1001
ACAD
1000
DSTYLE
1002
{
1070
   271
1070
     2
1002
}
  0
LINE
  5
17A0
330
18
100
AcDbEntity
  8
隠れ線2
100
AcDbLine
 10
589.1978704369778
 20
253.4304075341986
 30
0.0
 11
611.6978704369775
 21
253.4304075341985
 31
0.0
  0
LINE
  5
17A1
330
18
100
AcDbEntity
  8
外形線
100
AcDbLine
 10
583.4478704369773
 20
255.4304075341986
 30
0.0
 11
616.4478704369776
 21
255.4304075341985
 31
0.0
  0
LINE
  5
17A2
330
18
100
AcDbEntity
  8
隠れ線2
100
AcDbLine
 10
578.4478704369775
 20
255.4304075341987
 30
0.0
 11
583.4478704369773
 21
255.4304075341987
 31
0.0
  0
LINE
  5
17A3
330
18
100
AcDbEntity
  8
隠れ線2
100
AcDbLine
 10
589.1978704369777
 20
253.4304075341986
 30
0.0
 11
589.1978704369777
 21
255.4304075341986
 31
0.0
  0
LINE
  5
17A6
330
18
100
AcDbEntity
  8
隠れ線2
100
AcDbLine
 10
611.6978704369775
 20
253.4304075341986
 30
0.0
 11
611.6978704369777
 21
255.4304075341985
 31
0.0
  0
CIRCLE
  5
17A9
330
18
100
AcDbEntity
  8
外形線
100
AcDbCircle
 10
719.4478704369777
 20
261.4304075341983
 30
0.0
 40
19.0
  0
LINE
  5
17AA
330
18
100
AcDbEntity
  8
隠れ線2
100
AcDbLine
 10
697.4478704369776
 20
274.3242044924259
 30
0.0
 11
697.4478704369776
 21
248.5366105759709
 31
0.0
  0
LINE
  5
17AB
330
18
100
AcDbEntity
  8
隠れ線2
100
AcDbLine
 10
709.4478704369776
 20
281.7124085254768
 30
0.0
 11
709.4478704369776
 21
241.1484065429192
 31
0.0
  0
LINE
  5
17AC
330
18
100
AcDbEntity
  8
隠れ線2
100
AcDbLine
 10
729.4478704369776
 20
281.7124085254777
 30
0.0
 11
729.4478704369776
 21
241.1484065429184
 31
0.0
  0
ARC
  5
17AD
330
18
100
AcDbEntity
  8
外形線
100
AcDbCircle
 10
719.4478704369777
 20
261.4304075341983
 30
0.0
 40
25.5
100
AcDbArc
 50
194.0671961847124
 51
225.9328038152874
  0
ARC
  5
17AE
330
18
100
AcDbEntity
  8
外形線
100
AcDbCircle
 10
719.4478704369777
 20
261.4304075341983
 30
0.0
 40
25.5
100
AcDbArc
 50
314.0671961847126
 51
345.9328038152876
  0
LINE
  5
17AF
330
18
100
AcDbEntity
  8
中心線
100
AcDbLine
 10
719.4478704369778
 20
231.9503553596349
 30
0.0
 11
719.4478704369778
 21
290.9104597087619
 31
0.0
  0
CIRCLE
  5
17B0
330
18
100
AcDbEntity
  8
外形線
100
AcDbCircle
 10
719.4478704369777
 20
261.4304075341983
 30
0.0
 40
9.0
  0
LINE
  5
17B1
330
18
100
AcDbEntity
  8
外形線
100
AcDbLine
 10
673.4478704369776
 20
238.4304075341982
 30
0.0
 11
673.4478704369776
 21
284.4304075341981
 31
0.0
  0
LINE
  5
17B2
330
18
100
AcDbEntity
  8
外形線
100
AcDbLine
 10
656.4478704369776
 20
238.4304075341982
 30
0.0
 11
656.4478704369776
 21
284.4304075341981
 31
0.0
  0
ELLIPSE
  5
17B3
330
18
100
AcDbEntity
  8
外形線
100
AcDbEllipse
 10
702.9478704369778
 20
164.6704083512651
 30
0.0
 11
0.0
 21
-2.0
 31
0.0
210
0.0
220
0.0
230
1.0
 40
0.8749999999999431
 41
3.141592653589793
 42
6.283185307179586
  0
LINE
  5
17B4
330
18
100
AcDbEntity
  8
外形線
100
AcDbLine
 10
702.9478704369778
 20
166.6704083512651
 30
0.0
 11
685.4478704369779
 21
163.6704083512651
 31
0.0
  0
LINE
  5
17B5
330
18
100
AcDbEntity
  8
外形線
100
AcDbLine
 10
667.9478704369778
 20
168.6704083512652
 30
0.0
 11
667.9478704369778
 21
160.6704083512653
 31
0.0
  0
LINE
  5
17C7
330
18
100
AcDbEntity
  8
外形線
100
AcDbLine
 10
702.9478704369782
 20
150.6704083512651
 30
0.0
 11
685.4478704369783
 21
147.6704083512651
 31
0.0
  0
LINE
  5
17C8
330
18
100
AcDbEntity
  8
外形線
100
AcDbLine
 10
702.9478704369778
 20
142.6704083512651
 30
0.0
 11
685.4478704369779
 21
139.6704083512651
 31
0.0
  0
LINE
  5
17C9
330
18
100
AcDbEntity
  8
外形線
100
AcDbLine
 10
702.9478704369778
 20
154.6704083512651
 30
0.0
 11
685.4478704369779
 21
151.6704083512651
 31
0.0
  0
LINE
  5
17CA
330
18
100
AcDbEntity
  8
外形線
100
AcDbLine
 10
702.9478704369782
 20
150.6704083512651
 30
0.0
 11
685.4478704369783
 21
147.6704083512651
 31
0.0
  0
LINE
  5
17CB
330
18
100
AcDbEntity
  8
外形線
100
AcDbLine
 10
702.9478704369782
 20
162.6704083512651
 30
0.0
 11
685.4478704369783
 21
159.6704083512651
 31
0.0
  0
LINE
  5
17CC
330
18
100
AcDbEntity
  8
外形線
100
AcDbLine
 10
702.9478704369782
 20
126.6704083512651
 30
0.0
 11
685.4478704369783
 21
123.6704083512651
 31
0.0
  0
LINE
  5
17CD
330
18
100
AcDbEntity
  8
外形線
100
AcDbLine
 10
702.9478704369782
 20
126.6704083512651
 30
0.0
 11
685.4478704369783
 21
123.6704083512651
 31
0.0
  0
LINE
  5
17CE
330
18
100
AcDbEntity
  8
外形線
100
AcDbLine
 10
702.9478704369782
 20
126.6704083512651
 30
0.0
 11
685.4478704369783
 21
123.6704083512651
 31
0.0
  0
LINE
  5
17CF
330
18
100
AcDbEntity
  8
外形線
100
AcDbLine
 10
702.9478704369782
 20
126.6704083512651
 30
0.0
 11
685.4478704369783
 21
123.6704083512651
 31
0.0
  0
LINE
  5
17D0
330
18
100
AcDbEntity
  8
外形線
100
AcDbLine
 10
702.9478704369782
 20
126.6704083512651
 30
0.0
 11
685.4478704369783
 21
123.6704083512651
 31
0.0
  0
LINE
  5
17D1
330
18
100
AcDbEntity
  8
外形線
100
AcDbLine
 10
702.9478704369782
 20
126.6704083512651
 30
0.0
 11
685.4478704369783
 21
123.6704083512651
 31
0.0
  0
LINE
  5
17D2
330
18
100
AcDbEntity
  8
外形線
100
AcDbLine
 10
702.9478704369782
 20
126.6704083512651
 30
0.0
 11
685.4478704369783
 21
123.6704083512651
 31
0.0
  0
LINE
  5
17D3
330
18
100
AcDbEntity
  8
外形線
100
AcDbLine
 10
702.9478704369778
 20
130.6704083512651
 30
0.0
 11
685.4478704369779
 21
127.6704083512651
 31
0.0
  0
LINE
  5
17D4
330
18
100
AcDbEntity
  8
外形線
100
AcDbLine
 10
702.9478704369782
 20
126.6704083512651
 30
0.0
 11
685.4478704369783
 21
123.6704083512651
 31
0.0
  0
LINE
  5
17D5
330
18
100
AcDbEntity
  8
外形線
100
AcDbLine
 10
702.9478704369778
 20
130.6704083512651
 30
0.0
 11
685.4478704369779
 21
127.6704083512651
 31
0.0
  0
LINE
  5
17D6
330
18
100
AcDbEntity
  8
外形線
100
AcDbLine
 10
702.9478704369782
 20
126.6704083512651
 30
0.0
 11
685.4478704369783
 21
123.6704083512651
 31
0.0
  0
LINE
  5
17D7
330
18
100
AcDbEntity
  8
外形線
100
AcDbLine
 10
702.9478704369778
 20
130.6704083512651
 30
0.0
 11
685.4478704369779
 21
127.6704083512651
 31
0.0
  0
LINE
  5
17D8
330
18
100
AcDbEntity
  8
外形線
100
AcDbLine
 10
702.9478704369782
 20
126.6704083512651
 30
0.0
 11
685.4478704369783
 21
123.6704083512651
 31
0.0
  0
LINE
  5
17D9
330
18
100
AcDbEntity
  8
外形線
100
AcDbLine
 10
702.9478704369782
 20
138.6704083512651
 30
0.0
 11
685.4478704369783
 21
135.6704083512651
 31
0.0
  0
LINE
  5
17DA
330
18
100
AcDbEntity
  8
外形線
100
AcDbLine
 10
702.9478704369782
 20
138.6704083512651
 30
0.0
 11
685.4478704369783
 21
135.6704083512651
 31
0.0
  0
LINE
  5
17DB
330
18
100
AcDbEntity
  8
外形線
100
AcDbLine
 10
702.9478704369782
 20
138.6704083512651
 30
0.0
 11
685.4478704369783
 21
135.6704083512651
 31
0.0
  0
LINE
  5
17DC
330
18
100
AcDbEntity
  8
外形線
100
AcDbLine
 10
702.9478704369782
 20
138.6704083512651
 30
0.0
 11
685.4478704369783
 21
135.6704083512651
 31
0.0
  0
LINE
  5
17DD
330
18
100
AcDbEntity
  8
外形線
100
AcDbLine
 10
702.9478704369782
 20
138.6704083512651
 30
0.0
 11
685.4478704369783
 21
135.6704083512651
 31
0.0
  0
LINE
  5
17DE
330
18
100
AcDbEntity
  8
外形線
100
AcDbLine
 10
702.9478704369782
 20
138.6704083512651
 30
0.0
 11
685.4478704369783
 21
135.6704083512651
 31
0.0
  0
LINE
  5
17DF
330
18
100
AcDbEntity
  8
外形線
100
AcDbLine
 10
702.9478704369782
 20
138.6704083512651
 30
0.0
 11
685.4478704369783
 21
135.6704083512651
 31
0.0
  0
ELLIPSE
  5
17E0
330
18
100
AcDbEntity
  8
外形線
100
AcDbEllipse
 10
667.9478704369778
 20
122.6704083512653
 30
0.0
 11
0.0
 21
2.0
 31
0.0
210
0.0
220
0.0
230
1.0
 40
0.8750000000000568
 41
3.141592653589793
 42
6.283185307179586
  0
LINE
  5
17E1
330
18
100
AcDbEntity
  8
外形線
100
AcDbLine
 10
685.4478704369779
 20
123.6704083512651
 30
0.0
 11
667.9478704369778
 21
120.6704083512653
 31
0.0
  0
LINE
  5
17E2
330
18
100
AcDbEntity
  8
外形線
100
AcDbLine
 10
685.4478704369779
 20
123.6704083512651
 30
0.0
 11
667.9478704369778
 21
120.6704083512653
 31
0.0
  0
LINE
  5
17E3
330
18
100
AcDbEntity
  8
外形線
100
AcDbLine
 10
685.4478704369779
 20
123.6704083512651
 30
0.0
 11
667.9478704369778
 21
120.6704083512653
 31
0.0
  0
LINE
  5
17E4
330
18
100
AcDbEntity
  8
外形線
100
AcDbLine
 10
685.4478704369779
 20
123.6704083512651
 30
0.0
 11
667.9478704369778
 21
120.6704083512653
 31
0.0
  0
LINE
  5
17F8
330
18
100
AcDbEntity
  8
外形線
100
AcDbLine
 10
667.9478704369781
 20
119.7584279111675
 30
0.0
 11
667.9478704369781
 21
120.6704083512653
 31
0.0
  0
LINE
  5
17F9
330
18
100
AcDbEntity
  8
外形線
100
AcDbLine
 10
685.4478704369779
 20
163.6704083512651
 30
0.0
 11
667.9478704369778
 21
160.6704083512653
 31
0.0
  0
LINE
  5
17FA
330
18
100
AcDbEntity
  8
外形線
100
AcDbLine
 10
685.4478704369779
 20
159.6704083512651
 30
0.0
 11
667.9478704369778
 21
156.6704083512653
 31
0.0
  0
LINE
  5
17FB
330
18
100
AcDbEntity
  8
外形線
100
AcDbLine
 10
685.4478704369779
 20
139.6704083512651
 30
0.0
 11
667.9478704369778
 21
136.6704083512653
 31
0.0
  0
LINE
  5
17FC
330
18
100
AcDbEntity
  8
外形線
100
AcDbLine
 10
685.4478704369779
 20
147.6704083512651
 30
0.0
 11
667.9478704369778
 21
144.6704083512653
 31
0.0
  0
LINE
  5
17FD
330
18
100
AcDbEntity
  8
外形線
100
AcDbLine
 10
685.4478704369779
 20
147.6704083512651
 30
0.0
 11
667.9478704369778
 21
144.6704083512653
 31
0.0
  0
LINE
  5
17FE
330
18
100
AcDbEntity
  8
外形線
100
AcDbLine
 10
685.4478704369779
 20
151.6704083512651
 30
0.0
 11
667.9478704369778
 21
148.6704083512653
 31
0.0
  0
LINE
  5
17FF
330
18
100
AcDbEntity
  8
外形線
100
AcDbLine
 10
685.4478704369779
 20
135.6704083512651
 30
0.0
 11
667.9478704369778
 21
132.6704083512653
 31
0.0
  0
LINE
  5
1800
330
18
100
AcDbEntity
  8
外形線
100
AcDbLine
 10
685.4478704369779
 20
127.6704083512651
 30
0.0
 11
667.9478704369778
 21
124.6704083512653
 31
0.0
  0
LINE
  5
1801
330
18
100
AcDbEntity
  8
外形線
100
AcDbLine
 10
685.4478704369779
 20
135.6704083512651
 30
0.0
 11
667.9478704369778
 21
132.6704083512653
 31
0.0
  0
LINE
  5
1802
330
18
100
AcDbEntity
  8
外形線
100
AcDbLine
 10
685.4478704369779
 20
127.6704083512651
 30
0.0
 11
667.9478704369778
 21
124.6704083512653
 31
0.0
  0
LINE
  5
1803
330
18
100
AcDbEntity
  8
外形線
100
AcDbLine
 10
685.4478704369779
 20
135.6704083512651
 30
0.0
 11
667.9478704369778
 21
132.6704083512653
 31
0.0
  0
LINE
  5
1804
330
18
100
AcDbEntity
  8
外形線
100
AcDbLine
 10
685.4478704369779
 20
127.6704083512651
 30
0.0
 11
667.9478704369778
 21
124.6704083512653
 31
0.0
  0
LINE
  5
1805
330
18
100
AcDbEntity
  8
外形線
100
AcDbLine
 10
685.4478704369779
 20
135.6704083512651
 30
0.0
 11
667.9478704369778
 21
132.6704083512653
 31
0.0
  0
LINE
  5
1806
330
18
100
AcDbEntity
  8
外形線
100
AcDbLine
 10
667.9478704369778
 20
136.6704083512653
 30
0.0
 11
667.9478704369778
 21
144.6704083512653
 31
0.0
  0
LINE
  5
1807
330
18
100
AcDbEntity
  8
外形線
100
AcDbLine
 10
667.9478704369778
 20
124.6704083512653
 30
0.0
 11
667.9478704369778
 21
132.6704083512653
 31
0.0
  0
LINE
  5
1808
330
18
100
AcDbEntity
  8
外形線
100
AcDbLine
 10
667.9478704369778
 20
124.6704083512653
 30
0.0
 11
667.9478704369778
 21
132.6704083512653
 31
0.0
  0
LINE
  5
1809
330
18
100
AcDbEntity
  8
外形線
100
AcDbLine
 10
667.9478704369778
 20
124.6704083512653
 30
0.0
 11
667.9478704369778
 21
132.6704083512653
 31
0.0
  0
ELLIPSE
  5
180A
330
18
100
AcDbEntity
  8
外形線
100
AcDbEllipse
 10
667.9478704369778
 20
134.6704083512653
 30
0.0
 11
0.0
 21
2.0
 31
0.0
210
0.0
220
0.0
230
1.0
 40
0.8750000000000568
 41
3.141592653589793
 42
6.283185307179586
  0
LINE
  5
180B
330
18
100
AcDbEntity
  8
外形線
100
AcDbLine
 10
667.9478704369778
 20
148.6704083512653
 30
0.0
 11
667.9478704369778
 21
156.6704083512653
 31
0.0
  0
ELLIPSE
  5
180C
330
18
100
AcDbEntity
  8
外形線
100
AcDbEllipse
 10
667.9478704369778
 20
146.6704083512652
 30
0.0
 11
0.0
 21
2.0
 31
0.0
210
0.0
220
0.0
230
1.0
 40
0.8750000000000568
 41
3.141592653589793
 42
6.283185307179586
  0
ELLIPSE
  5
180D
330
18
100
AcDbEntity
  8
外形線
100
AcDbEllipse
 10
667.9478704369778
 20
158.6704083512653
 30
0.0
 11
0.0
 21
2.0
 31
0.0
210
0.0
220
0.0
230
1.0
 40
0.8750000000000568
 41
3.141592653589793
 42
6.283185307179586
  0
LINE
  5
180E
330
18
100
AcDbEntity
  8
外形線
100
AcDbLine
 10
702.947870436978
 20
119.7584279111675
 30
0.0
 11
702.9478704369782
 21
126.6704083512652
 31
0.0
  0
LINE
  5
1816
330
18
100
AcDbEntity
  8
外形線
100
AcDbLine
 10
702.9478704369777
 20
142.6704083512651
 30
0.0
 11
702.9478704369778
 21
150.6704083512651
 31
0.0
  0
LINE
  5
1817
330
18
100
AcDbEntity
  8
外形線
100
AcDbLine
 10
702.9478704369777
 20
130.6704083512651
 30
0.0
 11
702.9478704369778
 21
138.6704083512651
 31
0.0
  0
LINE
  5
1818
330
18
100
AcDbEntity
  8
外形線
100
AcDbLine
 10
702.9478704369777
 20
130.6704083512651
 30
0.0
 11
702.9478704369778
 21
138.6704083512651
 31
0.0
  0
LINE
  5
1819
330
18
100
AcDbEntity
  8
外形線
100
AcDbLine
 10
702.9478704369777
 20
130.6704083512651
 30
0.0
 11
702.9478704369778
 21
138.6704083512651
 31
0.0
  0
ELLIPSE
  5
181A
330
18
100
AcDbEntity
  8
外形線
100
AcDbEllipse
 10
702.9478704369778
 20
128.6704083512651
 30
0.0
 11
0.0
 21
-2.0
 31
0.0
210
0.0
220
0.0
230
1.0
 40
0.8749999999999431
 41
3.141592653589793
 42
6.283185307179586
  0
ELLIPSE
  5
181B
330
18
100
AcDbEntity
  8
外形線
100
AcDbEllipse
 10
702.9478704369778
 20
140.6704083512651
 30
0.0
 11
0.0
 21
-2.0
 31
0.0
210
0.0
220
0.0
230
1.0
 40
0.8749999999999431
 41
3.141592653589793
 42
6.283185307179586
  0
ELLIPSE
  5
181C
330
18
100
AcDbEntity
  8
外形線
100
AcDbEllipse
 10
702.9478704369778
 20
152.6704083512651
 30
0.0
 11
0.0
 21
-2.0
 31
0.0
210
0.0
220
0.0
230
1.0
 40
0.8749999999999431
 41
3.141592653589793
 42
6.283185307179586
  0
LINE
  5
181D
330
18
100
AcDbEntity
  8
外形線
100
AcDbLine
 10
702.9478704369777
 20
154.6704083512651
 30
0.0
 11
702.9478704369778
 21
162.6704083512651
 31
0.0
  0
LINE
  5
181E
330
18
100
AcDbEntity
  8
外形線
100
AcDbLine
 10
661.447870436978
 20
230.4304075341985
 30
0.0
 11
709.447870436978
 21
230.4304075341983
 31
0.0
  0
LINE
  5
181F
330
18
100
AcDbEntity
  8
外形線
100
AcDbLine
 10
685.4478704369779
 20
213.4304075341983
 30
0.0
 11
709.4478704369779
 21
213.4304075341983
 31
0.0
  0
LINE
  5
1820
330
18
100
AcDbEntity
  8
外形線
100
AcDbLine
 10
695.754452520893
 20
228.4304075341982
 30
0.0
 11
700.966559810806
 21
228.4304075341982
 31
0.0
  0
LINE
  5
1821
330
18
100
AcDbEntity
  8
外形線
100
AcDbLine
 10
695.754452520893
 20
215.4304075341983
 30
0.0
 11
700.966559810806
 21
215.4304075341983
 31
0.0
  0
LINE
  5
1822
330
18
100
AcDbEntity
  8
外形線
100
AcDbLine
 10
702.9478704369778
 20
178.6704083512652
 30
0.0
 11
685.4478704369779
 21
175.6704083512651
 31
0.0
  0
LINE
  5
1823
330
18
100
AcDbEntity
  8
外形線
100
AcDbLine
 10
702.9478704369782
 20
174.6704083512651
 30
0.0
 11
685.4478704369783
 21
171.6704083512651
 31
0.0
  0
LINE
  5
1824
330
18
100
AcDbEntity
  8
外形線
100
AcDbLine
 10
702.9478704369782
 20
210.6704083512652
 30
0.0
 11
685.4478704369783
 21
207.6704083512652
 31
0.0
  0
LINE
  5
1825
330
18
100
AcDbEntity
  8
外形線
100
AcDbLine
 10
702.9478704369778
 20
202.6704083512651
 30
0.0
 11
685.4478704369779
 21
199.6704083512651
 31
0.0
  0
LINE
  5
1826
330
18
100
AcDbEntity
  8
外形線
100
AcDbLine
 10
702.9478704369782
 20
198.6704083512652
 30
0.0
 11
685.4478704369783
 21
195.6704083512651
 31
0.0
  0
LINE
  5
1827
330
18
100
AcDbEntity
  8
外形線
100
AcDbLine
 10
702.9478704369782
 20
210.6704083512652
 30
0.0
 11
685.4478704369783
 21
207.6704083512652
 31
0.0
  0
LINE
  5
1828
330
18
100
AcDbEntity
  8
外形線
100
AcDbLine
 10
702.9478704369782
 20
198.6704083512652
 30
0.0
 11
685.4478704369783
 21
195.6704083512651
 31
0.0
  0
LINE
  5
1829
330
18
100
AcDbEntity
  8
外形線
100
AcDbLine
 10
702.9478704369782
 20
186.6704083512651
 30
0.0
 11
685.4478704369783
 21
183.6704083512652
 31
0.0
  0
LINE
  5
182A
330
18
100
AcDbEntity
  8
外形線
100
AcDbLine
 10
702.9478704369778
 20
190.6704083512651
 30
0.0
 11
685.4478704369779
 21
187.6704083512651
 31
0.0
  0
LINE
  5
182B
330
18
100
AcDbEntity
  8
外形線
100
AcDbLine
 10
702.9478704369782
 20
198.6704083512652
 30
0.0
 11
685.4478704369783
 21
195.6704083512651
 31
0.0
  0
LINE
  5
182C
330
18
100
AcDbEntity
  8
外形線
100
AcDbLine
 10
702.9478704369782
 20
198.6704083512652
 30
0.0
 11
685.4478704369783
 21
195.6704083512651
 31
0.0
  0
LINE
  5
182D
330
18
100
AcDbEntity
  8
外形線
100
AcDbLine
 10
702.9478704369782
 20
186.6704083512651
 30
0.0
 11
685.4478704369783
 21
183.6704083512652
 31
0.0
  0
LINE
  5
182E
330
18
100
AcDbEntity
  8
外形線
100
AcDbLine
 10
702.9478704369778
 20
190.6704083512651
 30
0.0
 11
685.4478704369779
 21
187.6704083512651
 31
0.0
  0
LINE
  5
182F
330
18
100
AcDbEntity
  8
外形線
100
AcDbLine
 10
702.9478704369782
 20
198.6704083512652
 30
0.0
 11
685.4478704369783
 21
195.6704083512651
 31
0.0
  0
LINE
  5
1830
330
18
100
AcDbEntity
  8
外形線
100
AcDbLine
 10
702.9478704369782
 20
198.6704083512652
 30
0.0
 11
685.4478704369783
 21
195.6704083512651
 31
0.0
  0
LINE
  5
1831
330
18
100
AcDbEntity
  8
外形線
100
AcDbLine
 10
702.9478704369782
 20
186.6704083512651
 30
0.0
 11
685.4478704369783
 21
183.6704083512652
 31
0.0
  0
LINE
  5
1832
330
18
100
AcDbEntity
  8
外形線
100
AcDbLine
 10
702.9478704369778
 20
190.6704083512651
 30
0.0
 11
685.4478704369779
 21
187.6704083512651
 31
0.0
  0
LINE
  5
1833
330
18
100
AcDbEntity
  8
外形線
100
AcDbLine
 10
702.9478704369782
 20
198.6704083512652
 30
0.0
 11
685.4478704369783
 21
195.6704083512651
 31
0.0
  0
LINE
  5
1834
330
18
100
AcDbEntity
  8
外形線
100
AcDbLine
 10
702.9478704369782
 20
186.6704083512651
 30
0.0
 11
685.4478704369783
 21
183.6704083512652
 31
0.0
  0
LINE
  5
1835
330
18
100
AcDbEntity
  8
外形線
100
AcDbLine
 10
702.9478704369782
 20
186.6704083512651
 30
0.0
 11
685.4478704369783
 21
183.6704083512652
 31
0.0
  0
LINE
  5
1836
330
18
100
AcDbEntity
  8
外形線
100
AcDbLine
 10
702.9478704369782
 20
186.6704083512651
 30
0.0
 11
685.4478704369783
 21
183.6704083512652
 31
0.0
  0
LINE
  5
1837
330
18
100
AcDbEntity
  8
外形線
100
AcDbLine
 10
702.9478704369782
 20
186.6704083512651
 30
0.0
 11
685.4478704369783
 21
183.6704083512652
 31
0.0
  0
LINE
  5
1838
330
18
100
AcDbEntity
  8
外形線
100
AcDbLine
 10
702.9478704369782
 20
186.6704083512651
 30
0.0
 11
685.4478704369783
 21
183.6704083512652
 31
0.0
  0
LINE
  5
1839
330
18
100
AcDbEntity
  8
外形線
100
AcDbLine
 10
702.9478704369782
 20
186.6704083512651
 30
0.0
 11
685.4478704369783
 21
183.6704083512652
 31
0.0
  0
LINE
  5
183A
330
18
100
AcDbEntity
  8
外形線
100
AcDbLine
 10
702.9478704369782
 20
186.6704083512651
 30
0.0
 11
685.4478704369783
 21
183.6704083512652
 31
0.0
  0
LINE
  5
183B
330
18
100
AcDbEntity
  8
外形線
100
AcDbLine
 10
679.4478704369776
 20
245.4304075341985
 30
0.0
 11
699.5921407853129
 21
245.4304075341984
 31
0.0
  0
LINE
  5
183C
330
18
100
AcDbEntity
  8
外形線
100
AcDbLine
 10
651.4478704369779
 20
238.4304075341985
 30
0.0
 11
712.2107269007488
 21
238.4304075341985
 31
0.0
  0
LINE
  5
183E
330
18
100
AcDbEntity
  8
外形線
100
AcDbLine
 10
667.9478704369778
 20
208.6704083512653
 30
0.0
 11
667.9478704369778
 21
213.4304075341983
 31
0.0
  0
LINE
  5
183F
330
18
100
AcDbEntity
  8
外形線
100
AcDbLine
 10
685.4478704369779
 20
211.6704083512652
 30
0.0
 11
667.9478704369778
 21
208.6704083512653
 31
0.0
  0
LINE
  5
1840
330
18
100
AcDbEntity
  8
外形線
100
AcDbLine
 10
685.4478704369779
 20
171.6704083512651
 30
0.0
 11
667.9478704369778
 21
168.6704083512652
 31
0.0
  0
LINE
  5
1841
330
18
100
AcDbEntity
  8
外形線
100
AcDbLine
 10
685.4478704369779
 20
175.6704083512651
 30
0.0
 11
667.9478704369778
 21
172.6704083512653
 31
0.0
  0
LINE
  5
1842
330
18
100
AcDbEntity
  8
外形線
100
AcDbLine
 10
685.4478704369779
 20
207.6704083512652
 30
0.0
 11
667.9478704369778
 21
204.6704083512653
 31
0.0
  0
LINE
  5
1843
330
18
100
AcDbEntity
  8
外形線
100
AcDbLine
 10
685.4478704369779
 20
207.6704083512652
 30
0.0
 11
667.9478704369778
 21
204.6704083512653
 31
0.0
  0
LINE
  5
1844
330
18
100
AcDbEntity
  8
外形線
100
AcDbLine
 10
685.4478704369779
 20
195.6704083512651
 30
0.0
 11
667.9478704369778
 21
192.6704083512652
 31
0.0
  0
LINE
  5
1845
330
18
100
AcDbEntity
  8
外形線
100
AcDbLine
 10
685.4478704369779
 20
199.6704083512651
 30
0.0
 11
667.9478704369778
 21
196.6704083512652
 31
0.0
  0
LINE
  5
1846
330
18
100
AcDbEntity
  8
外形線
100
AcDbLine
 10
685.4478704369779
 20
187.6704083512651
 30
0.0
 11
667.9478704369778
 21
184.6704083512653
 31
0.0
  0
LINE
  5
1847
330
18
100
AcDbEntity
  8
外形線
100
AcDbLine
 10
685.4478704369779
 20
195.6704083512651
 30
0.0
 11
667.9478704369778
 21
192.6704083512652
 31
0.0
  0
LINE
  5
1848
330
18
100
AcDbEntity
  8
外形線
100
AcDbLine
 10
685.4478704369779
 20
187.6704083512651
 30
0.0
 11
667.9478704369778
 21
184.6704083512653
 31
0.0
  0
LINE
  5
1849
330
18
100
AcDbEntity
  8
外形線
100
AcDbLine
 10
685.4478704369779
 20
195.6704083512651
 30
0.0
 11
667.9478704369778
 21
192.6704083512652
 31
0.0
  0
LINE
  5
184A
330
18
100
AcDbEntity
  8
外形線
100
AcDbLine
 10
685.4478704369779
 20
187.6704083512651
 30
0.0
 11
667.9478704369778
 21
184.6704083512653
 31
0.0
  0
LINE
  5
184B
330
18
100
AcDbEntity
  8
外形線
100
AcDbLine
 10
685.4478704369779
 20
195.6704083512651
 30
0.0
 11
667.9478704369778
 21
192.6704083512652
 31
0.0
  0
LINE
  5
184C
330
18
100
AcDbEntity
  8
外形線
100
AcDbLine
 10
685.4478704369779
 20
183.6704083512652
 30
0.0
 11
667.9478704369778
 21
180.6704083512653
 31
0.0
  0
LINE
  5
184D
330
18
100
AcDbEntity
  8
外形線
100
AcDbLine
 10
685.4478704369779
 20
183.6704083512652
 30
0.0
 11
667.9478704369778
 21
180.6704083512653
 31
0.0
  0
LINE
  5
184E
330
18
100
AcDbEntity
  8
外形線
100
AcDbLine
 10
685.4478704369779
 20
183.6704083512652
 30
0.0
 11
667.9478704369778
 21
180.6704083512653
 31
0.0
  0
LINE
  5
184F
330
18
100
AcDbEntity
  8
外形線
100
AcDbLine
 10
685.4478704369779
 20
183.6704083512652
 30
0.0
 11
667.9478704369778
 21
180.6704083512653
 31
0.0
  0
LINE
  5
1850
330
18
100
AcDbEntity
  8
外形線
100
AcDbLine
 10
667.9478704369778
 20
184.6704083512653
 30
0.0
 11
667.9478704369778
 21
192.6704083512652
 31
0.0
  0
LINE
  5
1851
330
18
100
AcDbEntity
  8
外形線
100
AcDbLine
 10
667.9478704369778
 20
184.6704083512653
 30
0.0
 11
667.9478704369778
 21
192.6704083512652
 31
0.0
  0
LINE
  5
1852
330
18
100
AcDbEntity
  8
外形線
100
AcDbLine
 10
667.9478704369778
 20
184.6704083512653
 30
0.0
 11
667.9478704369778
 21
192.6704083512652
 31
0.0
  0
LINE
  5
1853
330
18
100
AcDbEntity
  8
外形線
100
AcDbLine
 10
667.9478704369778
 20
172.6704083512653
 30
0.0
 11
667.9478704369778
 21
180.6704083512653
 31
0.0
  0
ELLIPSE
  5
1854
330
18
100
AcDbEntity
  8
外形線
100
AcDbEllipse
 10
667.9478704369778
 20
170.6704083512653
 30
0.0
 11
0.0
 21
2.0
 31
0.0
210
0.0
220
0.0
230
1.0
 40
0.8750000000000568
 41
3.141592653589793
 42
6.283185307179586
  0
ELLIPSE
  5
1855
330
18
100
AcDbEntity
  8
外形線
100
AcDbEllipse
 10
667.9478704369778
 20
182.6704083512653
 30
0.0
 11
0.0
 21
2.0
 31
0.0
210
0.0
220
0.0
230
1.0
 40
0.8750000000000568
 41
3.141592653589793
 42
6.283185307179586
  0
LINE
  5
1856
330
18
100
AcDbEntity
  8
外形線
100
AcDbLine
 10
667.9478704369778
 20
196.6704083512652
 30
0.0
 11
667.9478704369778
 21
204.6704083512653
 31
0.0
  0
ELLIPSE
  5
1857
330
18
100
AcDbEntity
  8
外形線
100
AcDbEllipse
 10
667.9478704369778
 20
194.6704083512653
 30
0.0
 11
0.0
 21
2.0
 31
0.0
210
0.0
220
0.0
230
1.0
 40
0.8750000000000568
 41
3.141592653589793
 42
6.283185307179586
  0
ELLIPSE
  5
1858
330
18
100
AcDbEntity
  8
外形線
100
AcDbEllipse
 10
667.9478704369778
 20
206.6704083512653
 30
0.0
 11
0.0
 21
2.0
 31
0.0
210
0.0
220
0.0
230
1.0
 40
0.8750000000000568
 41
3.141592653589793
 42
6.283185307179586
  0
LINE
  5
1859
330
18
100
AcDbEntity
  8
外形線
100
AcDbLine
 10
675.1412883530626
 20
228.4304075341982
 30
0.0
 11
669.9291810631498
 21
228.4304075341982
 31
0.0
  0
LINE
  5
185A
330
18
100
AcDbEntity
  8
外形線
100
AcDbLine
 10
675.1412883530626
 20
215.4304075341983
 30
0.0
 11
669.9291810631498
 21
215.4304075341983
 31
0.0
  0
LINE
  5
185B
330
18
100
AcDbEntity
  8
外形線
100
AcDbLine
 10
685.4478704369779
 20
213.4304075341983
 30
0.0
 11
661.4478704369778
 21
213.4304075341983
 31
0.0
  0
LINE
  5
185C
330
18
100
AcDbEntity
  8
外形線
100
AcDbLine
 10
661.447870436978
 20
237.4304075341985
 30
0.0
 11
661.447870436978
 21
230.4304075341985
 31
0.0
  0
SPLINE
  5
185D
330
18
100
AcDbEntity
  8
外形線
100
AcDbSpline
210
0.0
220
0.0
230
1.0
 70
     8
 71
     3
 72
     9
 73
     5
 74
     3
 42
0.0000000001
 43
0.0000000001
 44
0.0000000001
 40
0.0
 40
0.0
 40
0.0
 40
0.0
 40
2.912930466850271
 40
4.874789709406659
 40
4.874789709406659
 40
4.874789709406659
 40
4.874789709406659
 10
659.6225989792342
 20
228.4304075341984
 30
0.0
 10
660.589848693794
 20
229.5634338189474
 30
0.0
 10
662.2085412814207
 20
231.4595535294032
 30
0.0
 10
661.7588869276272
 20
229.2996576755324
 30
0.0
 10
661.5779235215046
 20
228.4304075341984
 30
0.0
 11
659.6225989792342
 21
228.4304075341984
 31
0.0
 11
661.7858118116377
 21
230.3812212481212
 31
0.0
 11
661.5779235215046
 21
228.4304075341984
 31
0.0
  0
LINE
  5
185E
330
18
100
AcDbEntity
  8
外形線
100
AcDbLine
 10
661.4478704369778
 20
230.4304075341984
 30
0.0
 11
659.4478704369778
 21
228.4304075341984
 31
0.0
  0
SPLINE
  5
185F
330
18
100
AcDbEntity
  8
外形線
100
AcDbSpline
210
0.0
220
0.0
230
1.0
 70
     8
 71
     3
 72
     9
 73
     5
 74
     3
 42
0.0000000001
 43
0.0000000001
 44
0.0000000001
 40
0.0
 40
0.0
 40
0.0
 40
0.0
 40
2.930517198650488
 40
4.886286147414096
 40
4.886286147414096
 40
4.886286147414096
 40
4.886286147414096
 10
659.6225989792342
 20
215.4304075341983
 30
0.0
 10
660.60991487697
 20
214.2987029739885
 30
0.0
 10
662.2561457868073
 20
212.4117212773565
 30
0.0
 10
661.7717901344145
 20
214.5675304067562
 30
0.0
 10
661.5779235215046
 20
215.4304075341983
 30
0.0
 11
659.6225989792342
 21
215.4304075341983
 31
0.0
 11
661.818191769747
 21
213.4894532972741
 31
0.0
 11
661.5779235215046
 21
215.4304075341983
 31
0.0
  0
LINE
  5
1860
330
18
100
AcDbEntity
  8
外形線
100
AcDbLine
 10
661.4478704369778
 20
213.4304075341983
 30
0.0
 11
659.4478704369778
 21
215.4304075341983
 31
0.0
  0
LINE
  5
1861
330
18
100
AcDbEntity
  8
外形線
100
AcDbLine
 10
659.4478704369778
 20
215.4304075341983
 30
0.0
 11
659.4478704369778
 21
228.4304075341984
 31
0.0
  0
LINE
  5
1862
330
18
100
AcDbEntity
  8
外形線
100
AcDbLine
 10
659.6225989792342
 20
228.4304075341984
 30
0.0
 11
659.6225989792342
 21
215.4304075341983
 31
0.0
  0
LINE
  5
1863
330
18
100
AcDbEntity
  8
外形線
100
AcDbLine
 10
659.6225989792342
 20
215.4304075341983
 30
0.0
 11
659.4478704369778
 21
215.4304075341983
 31
0.0
  0
LINE
  5
1864
330
18
100
AcDbEntity
  8
外形線
100
AcDbLine
 10
659.6225989792342
 20
228.4304075341984
 30
0.0
 11
659.4478704369778
 21
228.4304075341983
 31
0.0
  0
LINE
  5
1865
330
18
100
AcDbEntity
  8
外形線
100
AcDbLine
 10
669.9291810631498
 20
228.4304075341983
 30
0.0
 11
669.9291810631498
 21
215.4304075341983
 31
0.0
  0
LINE
  5
1866
330
18
100
AcDbEntity
  8
外形線
100
AcDbLine
 10
664.587135068381
 20
228.4304075341983
 30
0.0
 11
664.587135068381
 21
215.4304075341983
 31
0.0
  0
LINE
  5
1867
330
18
100
AcDbEntity
  8
外形線
100
AcDbLine
 10
661.5779235215046
 20
228.4304075341984
 30
0.0
 11
661.5779235215046
 21
215.4304075341983
 31
0.0
  0
ELLIPSE
  5
1868
330
18
100
AcDbEntity
  8
外形線
100
AcDbEllipse
 10
667.2581580657654
 20
215.4304075341983
 30
0.0
 11
2.67102299738444
 21
0.0000000000000002
 31
0.0
210
0.0
220
0.0
230
-1.0
 40
0.7487767802667844
 41
0.0
 42
3.141592653589793
  0
LINE
  5
1869
330
18
100
AcDbEntity
  8
外形線
100
AcDbLine
 10
664.587135068381
 20
215.4304075341983
 30
0.0
 11
661.5779235215046
 21
215.4304075341983
 31
0.0
  0
ELLIPSE
  5
186A
330
18
100
AcDbEntity
  8
外形線
100
AcDbEllipse
 10
667.2581580657654
 20
228.4304075341984
 30
0.0
 11
2.67102299738444
 21
0.0000000000000002
 31
0.0
210
0.0
220
0.0
230
-1.0
 40
0.7487767802667844
 41
3.141592653589793
 42
6.283185307179586
  0
LINE
  5
186B
330
18
100
AcDbEntity
  8
外形線
100
AcDbLine
 10
664.587135068381
 20
228.4304075341983
 30
0.0
 11
661.5779235215046
 21
228.4304075341984
 31
0.0
  0
ARC
  5
186C
330
18
100
AcDbEntity
  8
外形線
100
AcDbCircle
 10
660.447870436978
 20
237.4304075341985
 30
0.0
 40
1.0
100
AcDbArc
 50
0.0
 51
89.9999999999998
  0
LWPOLYLINE
  5
186D
330
18
100
AcDbEntity
  8
外形線
100
AcDbPolyline
 90
        6
 70
     1
 43
0.0
 10
685.4478704369779
 20
220.1322033337066
 10
687.0051609557956
 20
221.0313054339524
 10
687.0051609557956
 20
222.8295096344441
 10
685.4478704369779
 20
223.7286117346901
 10
683.8905799181603
 20
222.8295096344442
 10
683.8905799181603
 20
221.0313054339525
  0
CIRCLE
  5
186E
330
18
100
AcDbEntity
  8
寸法線
100
AcDbCircle
 10
685.4478704369779
 20
221.9304075341983
 30
0.0
 40
2.435842972048665
  0
CIRCLE
  5
186F
330
18
100
AcDbEntity
  8
外形線
100
AcDbCircle
 10
685.4478704369779
 20
221.9304075341983
 30
0.0
 40
3.0
  0
LINE
  5
1870
330
18
100
AcDbEntity
  8
中心線
 48
0.4
100
AcDbLine
 10
691.6465009194326
 20
221.9304075341983
 30
0.0
 11
679.2492399545231
 21
221.9304075341983
 31
0.0
  0
LINE
  5
1871
330
18
100
AcDbEntity
  8
外形線
100
AcDbLine
 10
685.4478704369778
 20
228.4304075341982
 30
0.0
 11
688.4570819838541
 21
228.4304075341982
 31
0.0
  0
LINE
  5
1872
330
18
100
AcDbEntity
  8
外形線
100
AcDbLine
 10
685.4478704369778
 20
215.4304075341983
 30
0.0
 11
688.4570819838541
 21
215.4304075341983
 31
0.0
  0
LINE
  5
1873
330
18
100
AcDbEntity
  8
外形線
100
AcDbLine
 10
695.7145323374215
 20
213.4304075341983
 30
0.0
 11
685.4478704369779
 21
211.6704083512652
 31
0.0
  0
LINE
  5
1874
330
18
100
AcDbEntity
  8
外形線
100
AcDbLine
 10
682.4386588901017
 20
228.4304075341982
 30
0.0
 11
682.4386588901017
 21
215.4304075341983
 31
0.0
  0
LINE
  5
1875
330
18
100
AcDbEntity
  8
外形線
100
AcDbLine
 10
675.1412883530626
 20
228.4304075341983
 30
0.0
 11
675.1412883530626
 21
215.4304075341983
 31
0.0
  0
ELLIPSE
  5
1876
330
18
100
AcDbEntity
  8
外形線
100
AcDbEllipse
 10
678.7899736215821
 20
215.4304075341983
 30
0.0
 11
3.6486852685195
 21
0.0000000000000002
 31
0.0
210
0.0
220
0.0
230
-1.0
 40
0.5481426466831385
 41
0.0
 42
3.141592653589793
  0
LINE
  5
1877
330
18
100
AcDbEntity
  8
外形線
100
AcDbLine
 10
685.4478704369779
 20
215.4304075341983
 30
0.0
 11
682.4386588901017
 21
215.4304075341983
 31
0.0
  0
ELLIPSE
  5
1878
330
18
100
AcDbEntity
  8
外形線
100
AcDbEllipse
 10
678.7899736215821
 20
228.4304075341982
 30
0.0
 11
3.6486852685195
 21
0.0000000000000002
 31
0.0
210
0.0
220
0.0
230
-1.0
 40
0.5481426466831385
 41
3.141592653589793
 42
6.283185307179586
  0
LINE
  5
1879
330
18
100
AcDbEntity
  8
外形線
100
AcDbLine
 10
685.4478704369779
 20
228.4304075341982
 30
0.0
 11
682.4386588901017
 21
228.4304075341982
 31
0.0
  0
LINE
  5
187A
330
18
100
AcDbEntity
  8
外形線
100
AcDbLine
 10
688.4570819838541
 20
228.4304075341982
 30
0.0
 11
688.4570819838541
 21
215.4304075341983
 31
0.0
  0
LINE
  5
187B
330
18
100
AcDbEntity
  8
外形線
100
AcDbLine
 10
695.754452520893
 20
228.4304075341983
 30
0.0
 11
695.754452520893
 21
215.4304075341983
 31
0.0
  0
ELLIPSE
  5
187C
330
18
100
AcDbEntity
  8
外形線
100
AcDbEllipse
 10
692.1057672523735
 20
215.4304075341983
 30
0.0
 11
-3.6486852685195
 21
0.0000000000000002
 31
0.0
210
0.0
220
0.0
230
1.0
 40
0.5481426466831385
 41
0.0
 42
3.141592653589793
  0
ELLIPSE
  5
187D
330
18
100
AcDbEntity
  8
外形線
100
AcDbEllipse
 10
692.1057672523735
 20
228.4304075341982
 30
0.0
 11
-3.6486852685195
 21
0.0000000000000002
 31
0.0
210
0.0
220
0.0
230
1.0
 40
0.5481426466831385
 41
3.141592653589793
 42
6.283185307179586
  0
LWPOLYLINE
  5
187E
330
18
100
AcDbEntity
  8
外形線
100
AcDbPolyline
 90
        6
 70
     1
 43
0.0
 10
685.4478704369779
 20
232.5088286902954
 10
686.2459811273882
 20
232.9696181122469
 10
686.2459811273882
 20
233.8911969561498
 10
685.4478704369779
 20
234.3519863781013
 10
684.6497597465677
 20
233.8911969561498
 10
684.6497597465677
 20
232.9696181122469
  0
CIRCLE
  5
187F
330
18
100
AcDbEntity
  8
寸法線
100
AcDbCircle
 10
685.4478704369779
 20
233.4304075341984
 30
0.0
 40
1.141032527626293
  0
CIRCLE
  5
1880
330
18
100
AcDbEntity
  8
外形線
100
AcDbCircle
 10
685.4478704369779
 20
233.4304075341984
 30
0.0
 40
1.5
  0
LINE
  5
1881
330
18
100
AcDbEntity
  8
中心線
 48
0.2
100
AcDbLine
 10
682.551209328603
 20
233.4304075341984
 30
0.0
 11
688.3445315453529
 21
233.4304075341984
 31
0.0
  0
LINE
  5
1882
330
18
100
AcDbEntity
  8
外形線
100
AcDbLine
 10
679.4478704369776
 20
247.4304075341984
 30
0.0
 11
698.1347289510306
 21
247.4304075341983
 31
0.0
  0
LINE
  5
1883
330
18
100
AcDbEntity
  8
外形線
100
AcDbLine
 10
679.4478704369776
 20
247.4304075341984
 30
0.0
 11
679.4478704369776
 21
245.4304075341985
 31
0.0
  0
LINE
  5
1884
330
18
100
AcDbEntity
  8
外形線
100
AcDbLine
 10
697.4478704369776
 20
238.4304075341982
 30
0.0
 11
697.4478704369776
 21
245.4304075341984
 31
0.0
  0
LINE
  5
1885
330
18
100
AcDbEntity
  8
外形線
100
AcDbLine
 10
697.4478704369775
 20
247.4304075341982
 30
0.0
 11
697.4478704369776
 21
248.5366105759709
 31
0.0
  0
LINE
  5
1886
330
18
100
AcDbEntity
  8
外形線
100
AcDbLine
 10
702.9478704369777
 20
202.6704083512651
 30
0.0
 11
702.9478704369778
 21
210.6704083512652
 31
0.0
  0
ELLIPSE
  5
1887
330
18
100
AcDbEntity
  8
外形線
100
AcDbEllipse
 10
702.9478704369778
 20
188.6704083512651
 30
0.0
 11
0.0
 21
-2.0
 31
0.0
210
0.0
220
0.0
230
1.0
 40
0.8749999999999431
 41
3.141592653589793
 42
6.283185307179586
  0
ELLIPSE
  5
1888
330
18
100
AcDbEntity
  8
外形線
100
AcDbEllipse
 10
702.9478704369778
 20
176.6704083512651
 30
0.0
 11
0.0
 21
-2.0
 31
0.0
210
0.0
220
0.0
230
1.0
 40
0.8749999999999431
 41
3.141592653589793
 42
6.283185307179586
  0
LINE
  5
1889
330
18
100
AcDbEntity
  8
外形線
100
AcDbLine
 10
702.9478704369778
 20
166.6704083512651
 30
0.0
 11
702.9478704369782
 21
174.6704083512651
 31
0.0
  0
LINE
  5
188A
330
18
100
AcDbEntity
  8
外形線
100
AcDbLine
 10
702.9478704369777
 20
178.6704083512652
 30
0.0
 11
702.9478704369778
 21
186.6704083512651
 31
0.0
  0
LINE
  5
188B
330
18
100
AcDbEntity
  8
外形線
100
AcDbLine
 10
702.9478704369777
 20
190.6704083512651
 30
0.0
 11
702.9478704369778
 21
198.6704083512652
 31
0.0
  0
LINE
  5
188C
330
18
100
AcDbEntity
  8
外形線
100
AcDbLine
 10
702.9478704369777
 20
190.6704083512651
 30
0.0
 11
702.9478704369778
 21
198.6704083512652
 31
0.0
  0
LINE
  5
188D
330
18
100
AcDbEntity
  8
外形線
100
AcDbLine
 10
702.9478704369777
 20
190.6704083512651
 30
0.0
 11
702.9478704369778
 21
198.6704083512652
 31
0.0
  0
ELLIPSE
  5
188E
330
18
100
AcDbEntity
  8
外形線
100
AcDbEllipse
 10
702.9478704369778
 20
200.6704083512651
 30
0.0
 11
0.0
 21
-2.0
 31
0.0
210
0.0
220
0.0
230
1.0
 40
0.8749999999999431
 41
3.141592653589793
 42
6.283185307179586
  0
LINE
  5
188F
330
18
100
AcDbEntity
  8
隠れ線2
100
AcDbLine
 10
726.6850139732063
 20
238.4304075341982
 30
0.0
 11
712.2107269007491
 21
238.4304075341983
 31
0.0
  0
ARC
  5
1890
330
18
100
AcDbEntity
  8
外形線
100
AcDbCircle
 10
719.4478704369777
 20
261.4304075341983
 30
0.0
 40
25.5
100
AcDbArc
 50
254.0671961847129
 51
285.9328038152882
  0
LINE
  5
1891
330
18
100
AcDbEntity
  8
外形線
100
AcDbLine
 10
709.4478704369779
 20
237.4304075341985
 30
0.0
 11
709.447870436978
 21
230.4304075341984
 31
0.0
  0
LINE
  5
1892
330
18
100
AcDbEntity
  8
外形線
100
AcDbLine
 10
700.966559810806
 20
228.4304075341983
 30
0.0
 11
700.966559810806
 21
215.4304075341983
 31
0.0
  0
LINE
  5
1893
330
18
100
AcDbEntity
  8
外形線
100
AcDbLine
 10
706.3086058055747
 20
228.4304075341983
 30
0.0
 11
706.3086058055747
 21
215.4304075341983
 31
0.0
  0
LINE
  5
1894
330
18
100
AcDbEntity
  8
外形線
100
AcDbLine
 10
711.4478704369779
 20
215.4304075341983
 30
0.0
 11
711.4478704369779
 21
228.4304075341984
 31
0.0
  0
LINE
  5
1895
330
18
100
AcDbEntity
  8
外形線
100
AcDbLine
 10
709.3178173524511
 20
228.4304075341984
 30
0.0
 11
709.3178173524511
 21
215.4304075341983
 31
0.0
  0
LINE
  5
1896
330
18
100
AcDbEntity
  8
外形線
100
AcDbLine
 10
711.2731418947215
 20
228.4304075341984
 30
0.0
 11
711.2731418947215
 21
215.4304075341983
 31
0.0
  0
ELLIPSE
  5
1897
330
18
100
AcDbEntity
  8
外形線
100
AcDbEllipse
 10
703.6375828081903
 20
215.4304075341983
 30
0.0
 11
-2.67102299738444
 21
0.0000000000000002
 31
0.0
210
0.0
220
0.0
230
1.0
 40
0.7487767802667844
 41
0.0
 42
3.141592653589793
  0
ELLIPSE
  5
1898
330
18
100
AcDbEntity
  8
外形線
100
AcDbEllipse
 10
702.9478704369778
 20
212.6704083512652
 30
0.0
 11
0.0
 21
-2.0
 31
0.0
210
0.0
220
0.0
230
1.0
 40
0.8749999999999431
 41
4.322593125574663
 42
6.283185307179586
  0
LINE
  5
1899
330
18
100
AcDbEntity
  8
外形線
100
AcDbLine
 10
711.2731418947215
 20
215.4304075341983
 30
0.0
 11
711.4478704369779
 21
215.4304075341983
 31
0.0
  0
LINE
  5
189A
330
18
100
AcDbEntity
  8
外形線
100
AcDbLine
 10
709.4478704369779
 20
213.4304075341983
 30
0.0
 11
711.4478704369779
 21
215.4304075341983
 31
0.0
  0
SPLINE
  5
189B
330
18
100
AcDbEntity
  8
外形線
100
AcDbSpline
210
0.0
220
0.0
230
1.0
 70
     8
 71
     3
 72
     9
 73
     5
 74
     3
 42
0.0000000001
 43
0.0000000001
 44
0.0000000001
 40
0.0
 40
0.0
 40
0.0
 40
0.0
 40
2.930517198650488
 40
4.886286147414096
 40
4.886286147414096
 40
4.886286147414096
 40
4.886286147414096
 10
711.2731418947215
 20
215.4304075341983
 30
0.0
 10
710.2858259969857
 20
214.2987029739885
 30
0.0
 10
708.6395950871485
 20
212.4117212773565
 30
0.0
 10
709.1239507395412
 20
214.5675304067562
 30
0.0
 10
709.3178173524511
 20
215.4304075341983
 30
0.0
 11
711.2731418947215
 21
215.4304075341983
 31
0.0
 11
709.0775491042087
 21
213.4894532972741
 31
0.0
 11
709.3178173524511
 21
215.4304075341983
 31
0.0
  0
LINE
  5
189C
330
18
100
AcDbEntity
  8
外形線
100
AcDbLine
 10
706.3086058055747
 20
215.4304075341983
 30
0.0
 11
709.3178173524511
 21
215.4304075341983
 31
0.0
  0
ELLIPSE
  5
189D
330
18
100
AcDbEntity
  8
外形線
100
AcDbEllipse
 10
703.6375828081903
 20
228.4304075341984
 30
0.0
 11
-2.67102299738444
 21
0.0000000000000002
 31
0.0
210
0.0
220
0.0
230
1.0
 40
0.7487767802667844
 41
3.141592653589793
 42
6.283185307179586
  0
LINE
  5
189E
330
18
100
AcDbEntity
  8
外形線
100
AcDbLine
 10
711.2731418947215
 20
228.4304075341984
 30
0.0
 11
711.4478704369779
 21
228.4304075341983
 31
0.0
  0
LINE
  5
189F
330
18
100
AcDbEntity
  8
外形線
100
AcDbLine
 10
709.4478704369779
 20
230.4304075341984
 30
0.0
 11
711.4478704369779
 21
228.4304075341984
 31
0.0
  0
SPLINE
  5
18A0
330
18
100
AcDbEntity
  8
外形線
100
AcDbSpline
210
0.0
220
0.0
230
1.0
 70
     8
 71
     3
 72
     9
 73
     5
 74
     3
 42
0.0000000001
 43
0.0000000001
 44
0.0000000001
 40
0.0
 40
0.0
 40
0.0
 40
0.0
 40
2.912930466850271
 40
4.874789709406659
 40
4.874789709406659
 40
4.874789709406659
 40
4.874789709406659
 10
711.2731418947215
 20
228.4304075341984
 30
0.0
 10
710.3058921801617
 20
229.5634338189474
 30
0.0
 10
708.6871995925348
 20
231.4595535294032
 30
0.0
 10
709.1368539463285
 20
229.2996576755324
 30
0.0
 10
709.3178173524511
 20
228.4304075341984
 30
0.0
 11
711.2731418947215
 21
228.4304075341984
 31
0.0
 11
709.1099290623181
 21
230.3812212481212
 31
0.0
 11
709.3178173524511
 21
228.4304075341984
 31
0.0
  0
LINE
  5
18A1
330
18
100
AcDbEntity
  8
外形線
100
AcDbLine
 10
706.3086058055747
 20
228.4304075341983
 30
0.0
 11
709.3178173524511
 21
228.4304075341984
 31
0.0
  0
ELLIPSE
  5
18A2
330
18
100
AcDbEntity
  8
外形線
100
AcDbEllipse
 10
707.0802259241865
 20
240.009018868094
 30
0.0
 11
-5.36764451279089
 21
3.099011004374119
 31
0.0
210
0.0
220
0.0
230
-1.0
 40
0.3606455450508291
 41
0.0
 42
3.141592653589793
  0
ARC
  5
18A3
330
18
100
AcDbEntity
  8
外形線
100
AcDbCircle
 10
710.4478704369779
 20
237.4304075341985
 30
0.0
 40
1.0
100
AcDbArc
 50
90.0
 51
180.0000000000008
  0
LINE
  5
18A4
330
18
100
AcDbEntity
  8
外形線
100
AcDbLine
 10
709.4478704369776
 20
238.4304075341982
 30
0.0
 11
709.4478704369776
 21
241.1484065429192
 31
0.0
  0
ELLIPSE
  5
18A5
330
18
100
AcDbEntity
  8
外形線
100
AcDbEllipse
 10
731.8155149497688
 20
240.009018868094
 30
0.0
 11
5.36764451279089
 21
3.099011004374119
 31
0.0
210
0.0
220
0.0
230
1.0
 40
0.3606455450508291
 41
0.0
 42
3.141592653589793
  0
LINE
  5
18A6
330
18
100
AcDbEntity
  8
外形線
100
AcDbLine
 10
726.6850139732063
 20
238.4304075341982
 30
0.0
 11
729.4478704369777
 21
238.4304075341982
 31
0.0
  0
LINE
  5
18A7
330
18
100
AcDbEntity
  8
外形線
100
AcDbLine
 10
729.4478704369776
 20
238.4304075341982
 30
0.0
 11
729.4478704369776
 21
241.1484065429184
 31
0.0
  0
LINE
  5
18A9
330
18
100
AcDbEntity
  8
外形線
100
AcDbLine
 10
702.9478704369782
 20
294.7584279111674
 30
0.0
 11
685.4478704369783
 21
291.7584279111673
 31
0.0
  0
LINE
  5
18AA
330
18
100
AcDbEntity
  8
外形線
100
AcDbLine
 10
702.9478704369782
 20
294.7584279111674
 30
0.0
 11
685.4478704369783
 21
291.7584279111673
 31
0.0
  0
LINE
  5
18AB
330
18
100
AcDbEntity
  8
外形線
100
AcDbLine
 10
702.9478704369778
 20
286.7584279111674
 30
0.0
 11
689.3677515713253
 21
284.4304075341983
 31
0.0
  0
LINE
  5
18AC
330
18
100
AcDbEntity
  8
外形線
100
AcDbLine
 10
702.9478704369782
 20
294.7584279111674
 30
0.0
 11
685.4478704369783
 21
291.7584279111673
 31
0.0
  0
LINE
  5
18AD
330
18
100
AcDbEntity
  8
外形線
100
AcDbLine
 10
702.9478704369782
 20
294.7584279111674
 30
0.0
 11
685.4478704369783
 21
291.7584279111673
 31
0.0
  0
LINE
  5
18AE
330
18
100
AcDbEntity
  8
外形線
100
AcDbLine
 10
702.9478704369778
 20
286.7584279111674
 30
0.0
 11
689.3677515713253
 21
284.4304075341983
 31
0.0
  0
LINE
  5
18AF
330
18
100
AcDbEntity
  8
外形線
100
AcDbLine
 10
702.9478704369782
 20
294.7584279111674
 30
0.0
 11
685.4478704369783
 21
291.7584279111673
 31
0.0
  0
LINE
  5
18B0
330
18
100
AcDbEntity
  8
外形線
100
AcDbLine
 10
702.9478704369782
 20
294.7584279111674
 30
0.0
 11
685.4478704369783
 21
291.7584279111673
 31
0.0
  0
LINE
  5
18B1
330
18
100
AcDbEntity
  8
外形線
100
AcDbLine
 10
702.9478704369778
 20
286.7584279111674
 30
0.0
 11
689.3677515713253
 21
284.4304075341983
 31
0.0
  0
LINE
  5
18B2
330
18
100
AcDbEntity
  8
外形線
100
AcDbLine
 10
702.9478704369782
 20
294.7584279111674
 30
0.0
 11
685.4478704369783
 21
291.7584279111673
 31
0.0
  0
LINE
  5
18B3
330
18
100
AcDbEntity
  8
外形線
100
AcDbLine
 10
702.9478704369782
 20
306.7584279111674
 30
0.0
 11
685.4478704369783
 21
303.7584279111674
 31
0.0
  0
LINE
  5
18B4
330
18
100
AcDbEntity
  8
外形線
100
AcDbLine
 10
702.9478704369778
 20
298.7584279111674
 30
0.0
 11
685.4478704369779
 21
295.7584279111673
 31
0.0
  0
LINE
  5
18B5
330
18
100
AcDbEntity
  8
外形線
100
AcDbLine
 10
702.9478704369782
 20
294.7584279111674
 30
0.0
 11
685.4478704369783
 21
291.7584279111673
 31
0.0
  0
LINE
  5
18B6
330
18
100
AcDbEntity
  8
外形線
100
AcDbLine
 10
702.9478704369782
 20
306.7584279111674
 30
0.0
 11
685.4478704369783
 21
303.7584279111674
 31
0.0
  0
LINE
  5
18B7
330
18
100
AcDbEntity
  8
外形線
100
AcDbLine
 10
702.9478704369782
 20
306.7584279111674
 30
0.0
 11
685.4478704369783
 21
303.7584279111674
 31
0.0
  0
LINE
  5
18B8
330
18
100
AcDbEntity
  8
外形線
100
AcDbLine
 10
702.9478704369778
 20
298.7584279111674
 30
0.0
 11
685.4478704369779
 21
295.7584279111673
 31
0.0
  0
LINE
  5
18B9
330
18
100
AcDbEntity
  8
外形線
100
AcDbLine
 10
702.9478704369782
 20
294.7584279111674
 30
0.0
 11
685.4478704369783
 21
291.7584279111673
 31
0.0
  0
LINE
  5
18BA
330
18
100
AcDbEntity
  8
外形線
100
AcDbLine
 10
702.9478704369782
 20
306.7584279111674
 30
0.0
 11
685.4478704369783
 21
303.7584279111674
 31
0.0
  0
LINE
  5
18BB
330
18
100
AcDbEntity
  8
外形線
100
AcDbLine
 10
702.9478704369782
 20
306.7584279111674
 30
0.0
 11
685.4478704369783
 21
303.7584279111674
 31
0.0
  0
LINE
  5
18BC
330
18
100
AcDbEntity
  8
外形線
100
AcDbLine
 10
702.9478704369778
 20
298.7584279111674
 30
0.0
 11
685.4478704369779
 21
295.7584279111673
 31
0.0
  0
LINE
  5
18BD
330
18
100
AcDbEntity
  8
外形線
100
AcDbLine
 10
702.9478704369782
 20
294.7584279111674
 30
0.0
 11
685.4478704369783
 21
291.7584279111673
 31
0.0
  0
LINE
  5
18BE
330
18
100
AcDbEntity
  8
外形線
100
AcDbLine
 10
702.9478704369782
 20
306.7584279111674
 30
0.0
 11
685.4478704369783
 21
303.7584279111674
 31
0.0
  0
LINE
  5
18BF
330
18
100
AcDbEntity
  8
外形線
100
AcDbLine
 10
702.9478704369782
 20
318.7584279111673
 30
0.0
 11
685.4478704369783
 21
315.7584279111674
 31
0.0
  0
LINE
  5
18C0
330
18
100
AcDbEntity
  8
外形線
100
AcDbLine
 10
702.9478704369782
 20
306.7584279111674
 30
0.0
 11
685.4478704369783
 21
303.7584279111674
 31
0.0
  0
LINE
  5
18C1
330
18
100
AcDbEntity
  8
外形線
100
AcDbLine
 10
702.9478704369778
 20
310.7584279111673
 30
0.0
 11
685.4478704369779
 21
307.7584279111674
 31
0.0
  0
LINE
  5
18C2
330
18
100
AcDbEntity
  8
外形線
100
AcDbLine
 10
702.9478704369782
 20
318.7584279111673
 30
0.0
 11
685.4478704369783
 21
315.7584279111674
 31
0.0
  0
LINE
  5
18C3
330
18
100
AcDbEntity
  8
外形線
100
AcDbLine
 10
702.9478704369778
 20
322.7584279111674
 30
0.0
 11
685.4478704369779
 21
319.7584279111674
 31
0.0
  0
LINE
  5
18C4
330
18
100
AcDbEntity
  8
外形線
100
AcDbLine
 10
702.9478704369782
 20
330.7584279111674
 30
0.0
 11
685.4478704369783
 21
327.7584279111674
 31
0.0
  0
LINE
  5
18C5
330
18
100
AcDbEntity
  8
外形線
100
AcDbLine
 10
702.9478704369778
 20
334.7584279111674
 30
0.0
 11
685.4478704369779
 21
331.7584279111674
 31
0.0
  0
LINE
  5
18C6
330
18
100
AcDbEntity
  8
外形線
100
AcDbLine
 10
679.4478704369774
 20
277.4304075341984
 30
0.0
 11
699.5921407853128
 21
277.4304075341983
 31
0.0
  0
ARC
  5
18C7
330
18
100
AcDbEntity
  8
外形線
100
AcDbCircle
 10
719.4478704369777
 20
261.4304075341983
 30
0.0
 40
25.5
100
AcDbArc
 50
134.0671961847125
 51
165.9328038152875
  0
LINE
  5
18C8
330
18
100
AcDbEntity
  8
外形線
100
AcDbLine
 10
669.6978704369779
 20
338.7584279111675
 30
0.0
 11
701.9478704369778
 21
338.7584279111674
 31
0.0
  0
LINE
  5
18C9
330
18
100
AcDbEntity
  8
外形線
100
AcDbLine
 10
650.4478704369777
 20
284.4304075341985
 30
0.0
 11
712.2107269007488
 21
284.4304075341982
 31
0.0
  0
LINE
  5
18CA
330
18
100
AcDbEntity
  8
中心線
100
AcDbLine
 10
689.9678182624143
 20
261.4304075341985
 30
0.0
 11
748.927922611541
 21
261.4304075341983
 31
0.0
  0
LINE
  5
18CB
330
18
100
AcDbEntity
  8
外形線
100
AcDbLine
 10
667.9478704369778
 20
292.7584279111675
 30
0.0
 11
667.9478704369778
 21
300.7584279111675
 31
0.0
  0
LINE
  5
18CC
330
18
100
AcDbEntity
  8
外形線
100
AcDbLine
 10
667.9478704369778
 20
292.7584279111675
 30
0.0
 11
667.9478704369778
 21
300.7584279111675
 31
0.0
  0
LINE
  5
18CD
330
18
100
AcDbEntity
  8
外形線
100
AcDbLine
 10
667.9478704369778
 20
292.7584279111675
 30
0.0
 11
667.9478704369778
 21
300.7584279111675
 31
0.0
  0
LINE
  5
18CE
330
18
100
AcDbEntity
  8
外形線
100
AcDbLine
 10
685.4478704369779
 20
291.7584279111673
 30
0.0
 11
667.9478704369778
 21
288.7584279111674
 31
0.0
  0
LINE
  5
18CF
330
18
100
AcDbEntity
  8
外形線
100
AcDbLine
 10
685.4478704369779
 20
291.7584279111673
 30
0.0
 11
667.9478704369778
 21
288.7584279111674
 31
0.0
  0
LINE
  5
18D0
330
18
100
AcDbEntity
  8
外形線
100
AcDbLine
 10
685.4478704369779
 20
295.7584279111673
 30
0.0
 11
667.9478704369778
 21
292.7584279111675
 31
0.0
  0
LINE
  5
18D1
330
18
100
AcDbEntity
  8
外形線
100
AcDbLine
 10
685.4478704369779
 20
291.7584279111673
 30
0.0
 11
667.9478704369778
 21
288.7584279111674
 31
0.0
  0
LINE
  5
18D2
330
18
100
AcDbEntity
  8
外形線
100
AcDbLine
 10
685.4478704369779
 20
295.7584279111673
 30
0.0
 11
667.9478704369778
 21
292.7584279111675
 31
0.0
  0
LINE
  5
18D3
330
18
100
AcDbEntity
  8
外形線
100
AcDbLine
 10
685.4478704369779
 20
291.7584279111673
 30
0.0
 11
667.9478704369778
 21
288.7584279111674
 31
0.0
  0
LINE
  5
18D4
330
18
100
AcDbEntity
  8
外形線
100
AcDbLine
 10
685.4478704369779
 20
295.7584279111673
 30
0.0
 11
667.9478704369778
 21
292.7584279111675
 31
0.0
  0
LINE
  5
18D5
330
18
100
AcDbEntity
  8
外形線
100
AcDbLine
 10
667.9478704369778
 20
284.4304075341985
 30
0.0
 11
667.9478704369778
 21
288.7584279111674
 31
0.0
  0
LINE
  5
18D6
330
18
100
AcDbEntity
  8
外形線
100
AcDbLine
 10
667.9478704369778
 20
284.4304075341985
 30
0.0
 11
667.9478704369778
 21
288.7584279111674
 31
0.0
  0
LINE
  5
18D7
330
18
100
AcDbEntity
  8
外形線
100
AcDbLine
 10
667.9478704369778
 20
284.4304075341985
 30
0.0
 11
667.9478704369778
 21
288.7584279111674
 31
0.0
  0
ELLIPSE
  5
18D8
330
18
100
AcDbEntity
  8
外形線
100
AcDbEllipse
 10
667.9478704369778
 20
290.7584279111675
 30
0.0
 11
0.0
 21
2.0
 31
0.0
210
0.0
220
0.0
230
1.0
 40
0.8750000000000568
 41
3.141592653589793
 42
6.283185307179586
  0
LINE
  5
18D9
330
18
100
AcDbEntity
  8
外形線
100
AcDbLine
 10
697.4478704369776
 20
274.3242044924258
 30
0.0
 11
697.4478704369776
 21
275.4304075341983
 31
0.0
  0
ELLIPSE
  5
18DA
330
18
100
AcDbEntity
  8
外形線
100
AcDbEllipse
 10
694.7125814113958
 20
261.4304075341983
 30
0.0
 11
0.0
 21
-6.198022008748182
 31
0.0
210
0.0
220
0.0
230
-1.0
 40
0.360645545050808
 41
3.141592653589793
 42
6.283185307179586
  0
LINE
  5
18DB
330
18
100
AcDbEntity
  8
外形線
100
AcDbLine
 10
679.4478704369774
 20
275.4304075341984
 30
0.0
 11
698.1347289510305
 21
275.4304075341983
 31
0.0
  0
LINE
  5
18DC
330
18
100
AcDbEntity
  8
外形線
100
AcDbLine
 10
679.4478704369776
 20
277.4304075341984
 30
0.0
 11
679.4478704369776
 21
275.4304075341984
 31
0.0
  0
LINE
  5
18DD
330
18
100
AcDbEntity
  8
外形線
100
AcDbLine
 10
697.4478704369776
 20
277.4304075341983
 30
0.0
 11
697.4478704369776
 21
284.4304075341981
 31
0.0
  0
LINE
  5
18DE
330
18
100
AcDbEntity
  8
外形線
100
AcDbLine
 10
685.4478704369779
 20
303.7584279111674
 30
0.0
 11
667.9478704369778
 21
300.7584279111675
 31
0.0
  0
LINE
  5
18DF
330
18
100
AcDbEntity
  8
外形線
100
AcDbLine
 10
685.4478704369779
 20
303.7584279111674
 30
0.0
 11
667.9478704369778
 21
300.7584279111675
 31
0.0
  0
LINE
  5
18E0
330
18
100
AcDbEntity
  8
外形線
100
AcDbLine
 10
685.4478704369779
 20
303.7584279111674
 30
0.0
 11
667.9478704369778
 21
300.7584279111675
 31
0.0
  0
LINE
  5
18E1
330
18
100
AcDbEntity
  8
外形線
100
AcDbLine
 10
685.4478704369779
 20
307.7584279111674
 30
0.0
 11
667.9478704369778
 21
304.7584279111675
 31
0.0
  0
LINE
  5
18E2
330
18
100
AcDbEntity
  8
外形線
100
AcDbLine
 10
685.4478704369779
 20
303.7584279111674
 30
0.0
 11
667.9478704369778
 21
300.7584279111675
 31
0.0
  0
LINE
  5
18E3
330
18
100
AcDbEntity
  8
外形線
100
AcDbLine
 10
685.4478704369779
 20
315.7584279111674
 30
0.0
 11
667.9478704369778
 21
312.7584279111675
 31
0.0
  0
LINE
  5
18E4
330
18
100
AcDbEntity
  8
外形線
100
AcDbLine
 10
679.614537103645
 20
338.7584279111674
 30
0.0
 11
667.9478704369778
 21
336.7584279111675
 31
0.0
  0
LINE
  5
18E5
330
18
100
AcDbEntity
  8
外形線
100
AcDbLine
 10
685.4478704369779
 20
315.7584279111674
 30
0.0
 11
667.9478704369778
 21
312.7584279111675
 31
0.0
  0
LINE
  5
18E6
330
18
100
AcDbEntity
  8
外形線
100
AcDbLine
 10
685.4478704369779
 20
319.7584279111674
 30
0.0
 11
667.9478704369778
 21
316.7584279111675
 31
0.0
  0
LINE
  5
18E7
330
18
100
AcDbEntity
  8
外形線
100
AcDbLine
 10
685.4478704369779
 20
327.7584279111674
 30
0.0
 11
667.9478704369778
 21
324.7584279111675
 31
0.0
  0
LINE
  5
18E8
330
18
100
AcDbEntity
  8
外形線
100
AcDbLine
 10
685.4478704369779
 20
331.7584279111674
 30
0.0
 11
667.9478704369778
 21
328.7584279111675
 31
0.0
  0
LINE
  5
18E9
330
18
100
AcDbEntity
  8
外形線
100
AcDbLine
 10
667.9478704369778
 20
316.7584279111675
 30
0.0
 11
667.9478704369778
 21
324.7584279111675
 31
0.0
  0
LINE
  5
18EA
330
18
100
AcDbEntity
  8
外形線
100
AcDbLine
 10
667.9478704369778
 20
304.7584279111675
 30
0.0
 11
667.9478704369778
 21
312.7584279111675
 31
0.0
  0
ELLIPSE
  5
18EB
330
18
100
AcDbEntity
  8
外形線
100
AcDbEllipse
 10
667.9478704369778
 20
302.7584279111675
 30
0.0
 11
0.0
 21
2.0
 31
0.0
210
0.0
220
0.0
230
1.0
 40
0.8750000000000568
 41
3.141592653589793
 42
6.283185307179586
  0
ELLIPSE
  5
18EC
330
18
100
AcDbEntity
  8
外形線
100
AcDbEllipse
 10
667.9478704369778
 20
314.7584279111675
 30
0.0
 11
0.0
 21
2.0
 31
0.0
210
0.0
220
0.0
230
1.0
 40
0.8750000000000568
 41
3.141592653589793
 42
6.283185307179586
  0
LINE
  5
18ED
330
18
100
AcDbEntity
  8
外形線
100
AcDbLine
 10
667.9478704369778
 20
328.7584279111675
 30
0.0
 11
667.9478704369778
 21
336.7584279111675
 31
0.0
  0
ELLIPSE
  5
18EE
330
18
100
AcDbEntity
  8
外形線
100
AcDbEllipse
 10
667.9478704369778
 20
326.7584279111675
 30
0.0
 11
0.0
 21
2.0
 31
0.0
210
0.0
220
0.0
230
1.0
 40
0.8750000000000568
 41
3.141592653589793
 42
6.283185307179586
  0
ELLIPSE
  5
18EF
330
18
100
AcDbEntity
  8
外形線
100
AcDbEllipse
 10
667.9478704369778
 20
338.7584279111675
 30
0.0
 11
0.0
 21
2.0
 31
0.0
210
0.0
220
0.0
230
1.0
 40
0.8750000000000568
 41
3.141592653589793
 42
4.712388980384689
  0
ELLIPSE
  5
18F1
330
18
100
AcDbEntity
  8
外形線
100
AcDbEllipse
 10
702.9478704369778
 20
296.7584279111674
 30
0.0
 11
0.0
 21
-2.0
 31
0.0
210
0.0
220
0.0
230
1.0
 40
0.8749999999999431
 41
3.141592653589793
 42
6.283185307179586
  0
LINE
  5
18F2
330
18
100
AcDbEntity
  8
隠れ線2
100
AcDbLine
 10
712.2107269007488
 20
284.4304075341982
 30
0.0
 11
726.6850139732065
 21
284.4304075341982
 31
0.0
  0
ARC
  5
18F3
330
18
100
AcDbEntity
  8
外形線
100
AcDbCircle
 10
719.4478704369777
 20
261.4304075341983
 30
0.0
 40
25.5
100
AcDbArc
 50
74.06719618471182
 51
105.9328038152871
  0
CIRCLE
  5
18F4
330
18
100
AcDbEntity
  8
外形線
100
AcDbCircle
 10
719.4478704369777
 20
261.4304075341983
 30
0.0
 40
4.0
  0
ELLIPSE
  5
18F5
330
18
100
AcDbEntity
  8
外形線
100
AcDbEllipse
 10
707.0802259241865
 20
282.8517962003027
 30
0.0
 11
5.367644512790888
 21
3.099011004374062
 31
0.0
210
0.0
220
0.0
230
-1.0
 40
0.3606455450508295
 41
0.0
 42
3.141592653589793
  0
ELLIPSE
  5
18F6
330
18
100
AcDbEntity
  8
外形線
100
AcDbEllipse
 10
702.9478704369778
 20
284.7584279111674
 30
0.0
 11
0.0
 21
-2.0
 31
0.0
210
0.0
220
0.0
230
1.0
 40
0.8749999999999431
 41
3.141592653589793
 42
4.877143508918695
  0
ELLIPSE
  5
18F7
330
18
100
AcDbEntity
  8
外形線
100
AcDbEllipse
 10
702.9478704369778
 20
284.7584279111674
 30
0.0
 11
0.0
 21
-2.0
 31
0.0
210
0.0
220
0.0
230
1.0
 40
0.8749999999999431
 41
3.141592653589793
 42
4.877143508918695
  0
ELLIPSE
  5
18F8
330
18
100
AcDbEntity
  8
外形線
100
AcDbEllipse
 10
702.9478704369778
 20
284.7584279111674
 30
0.0
 11
0.0
 21
-2.0
 31
0.0
210
0.0
220
0.0
230
1.0
 40
0.8749999999999431
 41
3.141592653589793
 42
4.877143508918695
  0
LINE
  5
18F9
330
18
100
AcDbEntity
  8
外形線
100
AcDbLine
 10
709.4478704369776
 20
281.7124085254768
 30
0.0
 11
709.4478704369776
 21
284.4304075341981
 31
0.0
  0
LINE
  5
18FA
330
18
100
AcDbEntity
  8
外形線
100
AcDbLine
 10
702.9478704369777
 20
286.7584279111674
 30
0.0
 11
702.9478704369778
 21
294.7584279111674
 31
0.0
  0
LINE
  5
18FB
330
18
100
AcDbEntity
  8
外形線
100
AcDbLine
 10
702.9478704369777
 20
286.7584279111674
 30
0.0
 11
702.9478704369778
 21
294.7584279111674
 31
0.0
  0
LINE
  5
18FC
330
18
100
AcDbEntity
  8
外形線
100
AcDbLine
 10
702.9478704369777
 20
286.7584279111674
 30
0.0
 11
702.9478704369778
 21
294.7584279111674
 31
0.0
  0
ARC
  5
18FD
330
18
100
AcDbEntity
  8
外形線
100
AcDbCircle
 10
719.4478704369777
 20
261.4304075341983
 30
0.0
 40
25.5
100
AcDbArc
 50
14.0671961847124
 51
45.93280381528751
  0
ELLIPSE
  5
18FE
330
18
100
AcDbEntity
  8
外形線
100
AcDbEllipse
 10
744.1831594625597
 20
261.4304075341983
 30
0.0
 11
0.0
 21
-6.198022008748182
 31
0.0
210
0.0
220
0.0
230
1.0
 40
0.360645545050808
 41
3.141592653589793
 42
6.283185307179586
  0
ELLIPSE
  5
18FF
330
18
100
AcDbEntity
  8
外形線
100
AcDbEllipse
 10
731.8155149497688
 20
282.8517962003027
 30
0.0
 11
-5.367644512790888
 21
3.099011004374062
 31
0.0
210
0.0
220
0.0
230
1.0
 40
0.3606455450508295
 41
0.0
 42
3.141592653589793
  0
LINE
  5
1900
330
18
100
AcDbEntity
  8
外形線
100
AcDbLine
 10
726.6850139732065
 20
284.4304075341982
 30
0.0
 11
729.4478704369777
 21
284.4304075341982
 31
0.0
  0
LINE
  5
1901
330
18
100
AcDbEntity
  8
外形線
100
AcDbLine
 10
729.4478704369776
 20
281.7124085254777
 30
0.0
 11
729.4478704369776
 21
284.4304075341981
 31
0.0
  0
LINE
  5
1904
330
18
100
AcDbEntity
  8
外形線
100
AcDbLine
 10
702.9478704369777
 20
310.7584279111673
 30
0.0
 11
702.9478704369778
 21
318.7584279111673
 31
0.0
  0
ELLIPSE
  5
1905
330
18
100
AcDbEntity
  8
外形線
100
AcDbEllipse
 10
702.9478704369778
 20
308.7584279111674
 30
0.0
 11
0.0
 21
-2.0
 31
0.0
210
0.0
220
0.0
230
1.0
 40
0.8749999999999431
 41
3.141592653589793
 42
6.283185307179586
  0
LINE
  5
1906
330
18
100
AcDbEntity
  8
外形線
100
AcDbLine
 10
702.9478704369777
 20
298.7584279111674
 30
0.0
 11
702.9478704369778
 21
306.7584279111674
 31
0.0
  0
LINE
  5
1907
330
18
100
AcDbEntity
  8
外形線
100
AcDbLine
 10
702.9478704369777
 20
298.7584279111674
 30
0.0
 11
702.9478704369778
 21
306.7584279111674
 31
0.0
  0
LINE
  5
1908
330
18
100
AcDbEntity
  8
外形線
100
AcDbLine
 10
702.9478704369777
 20
298.7584279111674
 30
0.0
 11
702.9478704369778
 21
306.7584279111674
 31
0.0
  0
LINE
  5
1909
330
18
100
AcDbEntity
  8
外形線
100
AcDbLine
 10
702.9478704369777
 20
322.7584279111674
 30
0.0
 11
702.9478704369778
 21
330.7584279111674
 31
0.0
  0
ELLIPSE
  5
190A
330
18
100
AcDbEntity
  8
外形線
100
AcDbEllipse
 10
702.9478704369778
 20
320.7584279111673
 30
0.0
 11
0.0
 21
-2.0
 31
0.0
210
0.0
220
0.0
230
1.0
 40
0.8749999999999431
 41
3.141592653589793
 42
6.283185307179586
  0
ELLIPSE
  5
190B
330
18
100
AcDbEntity
  8
外形線
100
AcDbEllipse
 10
702.9478704369778
 20
332.7584279111674
 30
0.0
 11
0.0
 21
-2.0
 31
0.0
210
0.0
220
0.0
230
1.0
 40
0.8749999999999431
 41
3.141592653589793
 42
6.283185307179586
  0
LINE
  5
190C
330
18
100
AcDbEntity
  8
外形線
100
AcDbLine
 10
702.9478704369778
 20
334.7584279111674
 30
0.0
 11
702.9478704369778
 21
337.7584279111673
 31
0.0
  0
ARC
  5
190D
330
18
100
AcDbEntity
  8
外形線
100
AcDbCircle
 10
701.9478704369778
 20
337.7584279111673
 30
0.0
 40
1.0
100
AcDbArc
 50
0.0000000000000509
 51
89.9999999999998
  0
ARC
  5
1A23
330
18
100
AcDbEntity
  8
外形線
100
AcDbCircle
 10
709.5428828748659
 20
117.7584279111675
 30
0.0
 40
1.0
100
AcDbArc
 50
5.710593137499734
 51
90.0
  0
ARC
  5
1A28
330
18
100
AcDbEntity
  8
外形線
100
AcDbCircle
 10
663.7158196294091
 20
120.7584279111675
 30
0.0
 40
2.0
100
AcDbArc
 50
270.0
 51
329.9999999999977
  0
ARC
  5
1A34
330
18
100
AcDbEntity
  8
外形線
100
AcDbCircle
 10
707.1799212445469
 20
120.7584279111675
 30
0.0
 40
2.0
100
AcDbArc
 50
210.0000000000023
 51
270.0
  0
LINE
  5
1A35
330
18
100
AcDbEntity
  8
寸法線
100
AcDbLine
 10
551.447870436978
 20
132.7584279111674
 30
0.0
 11
534.0735313800815
 21
132.7584279111674
 31
0.0
  0
LINE
  5
1A36
330
18
100
AcDbEntity
  8
中心線
100
AcDbLine
 10
685.4478704369779
 20
405.87265935355
 30
0.0
 11
685.4478704369779
 21
531.966158530502
 31
0.0
  0
LINE
  5
1A37
330
18
100
AcDbEntity
  8
寸法線
100
AcDbLine
 10
735.0881581382564
 20
468.8328069967735
 30
0.0
 11
531.809138790501
 21
468.8328069967735
 31
0.0
  0
CIRCLE
  5
1A38
330
18
100
AcDbEntity
  8
外形線
100
AcDbCircle
 10
685.4478704369779
 20
468.8328069967735
 30
0.0
 40
17.5
  0
LINE
  5
1A39
330
18
100
AcDbEntity
  8
中心線
100
AcDbLine
 10
600.447870436978
 20
408.1267863396128
 30
0.0
 11
600.447870436978
 21
534.2202855165648
 31
0.0
  0
LINE
  5
1A47
330
18
100
AcDbEntity
  8
中心線
100
AcDbLine
 10
578.4478704369775
 20
431.6471121243751
 30
0.0
 11
578.4478704369775
 21
486.0624797701087
 31
0.0
  0
LINE
  5
1A48
330
18
100
AcDbEntity
  8
中心線
100
AcDbLine
 10
719.4478704369778
 20
413.9329360583793
 30
0.0
 11
719.4478704369778
 21
485.6612670159424
 31
0.0
  0
LINE
  5
1A49
330
18
100
AcDbEntity
  8
外形線
100
AcDbLine
 10
729.447870436978
 20
456.8328069967735
 30
0.0
 11
729.447870436978
 21
467.8328069967736
 31
0.0
  0
LINE
  5
1A4A
330
18
100
AcDbEntity
  8
外形線
100
AcDbLine
 10
570.4478704369779
 20
455.8328069967735
 30
0.0
 11
570.4478704369779
 21
467.8328069967736
 31
0.0
  0
LINE
  5
1A4B
330
18
100
AcDbEntity
  8
外形線
100
AcDbLine
 10
697.447870436978
 20
493.8328069967736
 30
0.0
 11
673.4478704369779
 21
493.8328069967735
 31
0.0
  0
LINE
  5
1A4C
330
18
100
AcDbEntity
  8
外形線
100
AcDbLine
 10
697.447870436978
 20
443.8328069967735
 30
0.0
 11
673.4478704369779
 21
443.8328069967735
 31
0.0
  0
LINE
  5
1A4D
330
18
100
AcDbEntity
  8
外形線
100
AcDbLine
 10
729.447870436978
 20
480.8328069967735
 30
0.0
 11
709.4478704369779
 21
480.8328069967735
 31
0.0
  0
LINE
  5
1A4E
330
18
100
AcDbEntity
  8
外形線
100
AcDbLine
 10
729.447870436978
 20
456.8328069967735
 30
0.0
 11
709.4478704369779
 21
456.8328069967734
 31
0.0
  0
LINE
  5
1A4F
330
18
100
AcDbEntity
  8
外形線
100
AcDbLine
 10
656.4478704369779
 20
481.8328069967736
 30
0.0
 11
570.4478704369779
 21
481.8328069967734
 31
0.0
  0
LINE
  5
1A50
330
18
100
AcDbEntity
  8
外形線
100
AcDbLine
 10
656.4478704369779
 20
455.8328069967735
 30
0.0
 11
568.9478704369776
 21
455.8328069967735
 31
0.0
  0
LINE
  5
1A89
330
18
100
AcDbEntity
  8
外形線
100
AcDbLine
 10
673.4478704369779
 20
493.8328069967735
 30
0.0
 11
656.4478704369779
 21
481.8328069967736
 31
0.0
  0
LINE
  5
1A8A
330
18
100
AcDbEntity
  8
外形線
100
AcDbLine
 10
656.4478704369779
 20
455.8328069967735
 30
0.0
 11
673.4478704369779
 21
443.8328069967735
 31
0.0
  0
LINE
  5
1A8B
330
18
100
AcDbEntity
  8
外形線
100
AcDbLine
 10
709.4478704369779
 20
456.8328069967734
 30
0.0
 11
697.447870436978
 21
443.8328069967735
 31
0.0
  0
LINE
  5
1A8C
330
18
100
AcDbEntity
  8
外形線
100
AcDbLine
 10
709.4478704369779
 20
480.8328069967735
 30
0.0
 11
697.447870436978
 21
493.8328069967736
 31
0.0
  0
LINE
  5
1A8D
330
18
100
AcDbEntity
  8
中心線
 48
0.5
100
AcDbLine
 10
621.447870436978
 20
460.4327038632509
 30
0.0
 11
621.447870436978
 21
477.2329101302962
 31
0.0
  0
ARC
  5
1A8E
330
18
100
AcDbEntity
  8
外形線
100
AcDbCircle
 10
621.447870436978
 20
468.8328069967735
 30
0.0
 40
5.0
100
AcDbArc
 50
191.5369590328156
 51
168.463040967185
  0
ARC
  5
1A90
330
18
100
AcDbEntity
  8
隠れ線2
100
AcDbCircle
 10
600.447870436978
 20
468.8328069967735
 30
0.0
 40
10.0
100
AcDbArc
 50
185.7391704772667
 51
354.2608295227332
  0
ARC
  5
1A91
330
18
100
AcDbEntity
  8
外形線
100
AcDbCircle
 10
600.447870436978
 20
468.8328069967735
 30
0.0
 40
11.25
100
AcDbArc
 50
185.0996889142173
 51
354.9003110857827
  0
LINE
  5
1A92
330
18
100
AcDbEntity
  8
外形線
100
AcDbLine
 10
578.4478704369779
 20
455.8328069967735
 30
0.0
 11
578.4478704369779
 21
467.8328069967736
 31
0.0
  0
LINE
  5
1A93
330
18
100
AcDbEntity
  8
外形線
100
AcDbLine
 10
616.4478704369779
 20
455.8328069967735
 30
0.0
 11
616.4478704369779
 21
467.8328069967736
 31
0.0
  0
LINE
  5
1A94
330
18
100
AcDbEntity
  8
外形線
100
AcDbLine
 10
650.447870436978
 20
455.8328069967735
 30
0.0
 11
650.4478704369778
 21
481.8328069967736
 31
0.0
  0
LINE
  5
1A95
330
18
100
AcDbEntity
  8
外形線
100
AcDbLine
 10
616.5488909514116
 20
469.8328069967735
 30
0.0
 11
611.6533378524855
 21
469.8328069967735
 31
0.0
  0
LINE
  5
1A96
330
18
100
AcDbEntity
  8
外形線
100
AcDbLine
 10
616.5488909514116
 20
467.8328069967736
 30
0.0
 11
611.6533378524855
 21
467.8328069967736
 31
0.0
  0
LINE
  5
1A97
330
18
100
AcDbEntity
  8
外形線
100
AcDbLine
 10
570.4478704369779
 20
469.8328069967736
 30
0.0
 11
570.4478704369779
 21
481.8328069967734
 31
0.0
  0
ARC
  5
1A98
330
18
100
AcDbEntity
  8
隠れ線2
100
AcDbCircle
 10
600.447870436978
 20
468.8328069967735
 30
0.0
 40
10.0
100
AcDbArc
 50
354.2608295227332
 51
174.2608295227335
  0
ARC
  5
1A99
330
18
100
AcDbEntity
  8
外形線
100
AcDbCircle
 10
600.447870436978
 20
468.8328069967735
 30
0.0
 40
11.25
100
AcDbArc
 50
354.9003110857827
 51
174.9003110857829
  0
LINE
  5
1A9A
330
18
100
AcDbEntity
  8
外形線
100
AcDbLine
 10
616.4478704369779
 20
469.8328069967734
 30
0.0
 11
616.4478704369779
 21
481.8328069967734
 31
0.0
  0
LINE
  5
1A9B
330
18
100
AcDbEntity
  8
外形線
100
AcDbLine
 10
578.4478704369779
 20
469.8328069967735
 30
0.0
 11
578.4478704369779
 21
481.8328069967734
 31
0.0
  0
LINE
  5
1A9C
330
18
100
AcDbEntity
  8
隠れ線2
100
AcDbLine
 10
584.4478704369779
 20
456.8328069967735
 30
0.0
 11
572.4478704369779
 21
456.8328069967735
 31
0.0
  0
LINE
  5
1A9D
330
18
100
AcDbEntity
  8
隠れ線2
100
AcDbLine
 10
572.4478704369779
 20
455.8328069967735
 30
0.0
 11
572.4478704369779
 21
456.8328069967735
 31
0.0
  0
LINE
  5
1A9E
330
18
100
AcDbEntity
  8
隠れ線2
100
AcDbLine
 10
584.4478704369779
 20
455.8328069967735
 30
0.0
 11
584.4478704369779
 21
456.8328069967735
 31
0.0
  0
LINE
  5
1A9F
330
18
100
AcDbEntity
  8
隠れ線2
100
AcDbLine
 10
575.4478704369776
 20
469.8328069967735
 30
0.0
 11
575.4478704369776
 21
481.8328069967735
 31
0.0
  0
LINE
  5
1AA0
330
18
100
AcDbEntity
  8
隠れ線2
100
AcDbLine
 10
581.4478704369776
 20
469.8328069967735
 30
0.0
 11
581.4478704369776
 21
481.8328069967735
 31
0.0
  0
LINE
  5
1AA2
330
18
100
AcDbEntity
  8
隠れ線2
100
AcDbLine
 10
576.2478704369775
 20
469.8328069967735
 30
0.0
 11
576.2478704369775
 21
481.8328069967735
 31
0.0
  0
LINE
  5
1AA3
330
18
100
AcDbEntity
  8
隠れ線2
100
AcDbLine
 10
580.6478704369776
 20
469.8328069967735
 30
0.0
 11
580.6478704369776
 21
481.8328069967735
 31
0.0
  0
LINE
  5
1AA4
330
18
100
AcDbEntity
  8
隠れ線2
100
AcDbLine
 10
575.2478704369779
 20
456.8328069967735
 30
0.0
 11
575.2478704369779
 21
467.8328069967736
 31
0.0
  0
LINE
  5
1AA5
330
18
100
AcDbEntity
  8
隠れ線2
100
AcDbLine
 10
581.647870436978
 20
456.8328069967735
 30
0.0
 11
581.647870436978
 21
467.8328069967736
 31
0.0
  0
LINE
  5
1AA7
330
18
100
AcDbEntity
  8
外形線
100
AcDbLine
 10
705.447870436978
 20
469.8328069967737
 30
0.0
 11
705.4478704369779
 21
467.8328069967736
 31
0.0
  0
LINE
  5
1AA8
330
18
100
AcDbEntity
  8
外形線
100
AcDbLine
 10
729.447870436978
 20
469.8328069967735
 30
0.0
 11
705.4478704369779
 21
469.8328069967736
 31
0.0
  0
LINE
  5
1AA9
330
18
100
AcDbEntity
  8
外形線
100
AcDbLine
 10
729.447870436978
 20
467.8328069967736
 30
0.0
 11
705.4478704369779
 21
467.8328069967736
 31
0.0
  0
LINE
  5
1AAA
330
18
100
AcDbEntity
  8
外形線
100
AcDbLine
 10
729.447870436978
 20
469.8328069967735
 30
0.0
 11
729.447870436978
 21
480.8328069967735
 31
0.0
  0
LINE
  5
1AAB
330
18
100
AcDbEntity
  8
隠れ線2
100
AcDbLine
 10
723.6478704369782
 20
457.8328069967735
 30
0.0
 11
723.6478704369782
 21
467.8328069967736
 31
0.0
  0
LINE
  5
1AAC
330
18
100
AcDbEntity
  8
隠れ線2
100
AcDbLine
 10
715.2478704369781
 20
457.8328069967735
 30
0.0
 11
715.2478704369781
 21
467.8328069967736
 31
0.0
  0
LINE
  5
1AAD
330
18
100
AcDbEntity
  8
隠れ線2
100
AcDbLine
 10
728.4478704369782
 20
457.8328069967735
 30
0.0
 11
710.4478704369782
 21
457.8328069967735
 31
0.0
  0
LINE
  5
1AAE
330
18
100
AcDbEntity
  8
隠れ線2
100
AcDbLine
 10
710.4478704369782
 20
456.8328069967734
 30
0.0
 11
710.4478704369782
 21
457.8328069967735
 31
0.0
  0
LINE
  5
1AAF
330
18
100
AcDbEntity
  8
隠れ線2
100
AcDbLine
 10
728.4478704369782
 20
456.8328069967734
 30
0.0
 11
728.4478704369782
 21
457.8328069967735
 31
0.0
  0
LINE
  5
1AB0
330
18
100
AcDbEntity
  8
隠れ線2
100
AcDbLine
 10
722.6478704369778
 20
469.8328069967735
 30
0.0
 11
722.647870436978
 21
480.8328069967735
 31
0.0
  0
LINE
  5
1AB1
330
18
100
AcDbEntity
  8
隠れ線2
100
AcDbLine
 10
716.2478704369777
 20
469.8328069967735
 30
0.0
 11
716.2478704369776
 21
480.8328069967735
 31
0.0
  0
LINE
  5
1AB2
330
18
100
AcDbEntity
  8
隠れ線2
100
AcDbLine
 10
723.4478704369778
 20
469.8328069967735
 30
0.0
 11
723.4478704369778
 21
480.8328069967735
 31
0.0
  0
LINE
  5
1AB3
330
18
100
AcDbEntity
  8
隠れ線2
100
AcDbLine
 10
715.4478704369778
 20
469.8328069967735
 30
0.0
 11
715.4478704369779
 21
480.8328069967735
 31
0.0
  0
ARC
  5
1EC3
330
18
100
AcDbEntity
  8
隠れ線2
100
AcDbCircle
 10
710.4478704369778
 20
415.1928069967736
 30
0.0
 40
10.64
100
AcDbArc
 50
90.00000000000062
 51
159.99480991184
  0
LINE
  5
1EC4
330
18
100
AcDbEntity
  8
隠れ線2
100
AcDbLine
 10
704.4854951381926
 20
426.8328069967735
 30
0.0
 11
699.9478704369778
 21
426.8328069967735
 31
0.0
  0
LINE
  5
1EC5
330
18
100
AcDbEntity
  8
外形線
100
AcDbLine
 10
738.4478704369778
 20
418.8328069967734
 30
0.0
 11
700.4478704369777
 21
418.8328069967734
 31
0.0
  0
LINE
  5
1EC6
330
18
100
AcDbEntity
  8
外形線
100
AcDbLine
 10
738.4478704369778
 20
431.8328069967734
 30
0.0
 11
700.4478704369778
 21
431.8328069967734
 31
0.0
  0
ELLIPSE
  5
1EC7
330
18
100
AcDbEntity
  8
外形線
100
AcDbEllipse
 10
699.962298851828
 20
425.3328069967735
 30
0.0
 11
-0.0000000000000003
 21
-5.477225575051704
 31
0.0
210
0.0
220
0.0
230
1.0
 40
0.919229638498327
 41
3.141592653589793
 42
6.283185307179586
  0
ARC
  5
1EC8
330
18
100
AcDbEntity
  8
外形線
100
AcDbCircle
 10
700.4478704369777
 20
425.3328069967735
 30
0.0
 40
6.5
100
AcDbArc
 50
90.0
 51
270.0
  0
ELLIPSE
  5
1EC9
330
18
100
AcDbEntity
  8
外形線
100
AcDbEllipse
 10
699.962298851828
 20
425.3328069967735
 30
0.0
 11
-0.0000000000000003
 21
-5.477225575051704
 31
0.0
210
0.0
220
0.0
230
1.0
 40
0.2123691835366178
 41
0.0
 42
3.141592653589793
  0
LINE
  5
1ECA
330
18
100
AcDbEntity
  8
隠れ線2
100
AcDbLine
 10
699.9478704369777
 20
426.8328069967735
 30
0.0
 11
699.9478704369777
 21
431.8135476951815
 31
0.0
  0
ARC
  5
1ECB
330
18
100
AcDbEntity
  8
外形線
100
AcDbCircle
 10
732.9897048499691
 20
437.3328069967737
 30
0.0
 40
0.5
100
AcDbArc
 50
5.000000000000301
 51
89.99999999999952
  0
LINE
  5
1ECC
330
18
100
AcDbEntity
  8
隠れ線2
100
AcDbLine
 10
728.4478704369778
 20
425.8328069967735
 30
0.0
 11
728.4478704369778
 21
437.8328069967737
 31
0.0
  0
ARC
  5
1ECD
330
18
100
AcDbEntity
  8
外形線
100
AcDbCircle
 10
705.9060360239864
 20
437.3328069967737
 30
0.0
 40
0.5
100
AcDbArc
 50
89.99999999999976
 51
175.0000000000002
  0
LINE
  5
1ECE
330
18
100
AcDbEntity
  8
隠れ線2
100
AcDbLine
 10
710.4478704369778
 20
425.8328069967735
 30
0.0
 11
710.4478704369778
 21
437.8328069967737
 31
0.0
  0
LINE
  5
1ECF
330
18
100
AcDbEntity
  8
隠れ線2
100
AcDbLine
 10
724.4478704369778
 20
427.8328069967734
 30
0.0
 11
724.4478704369778
 21
447.8328069967735
 31
0.0
  0
LINE
  5
1ED0
330
18
100
AcDbEntity
  8
隠れ線2
100
AcDbLine
 10
714.4478704369778
 20
427.8328069967734
 30
0.0
 11
714.4478704369778
 21
447.8328069967735
 31
0.0
  0
LINE
  5
1ED1
330
18
100
AcDbEntity
  8
外形線
100
AcDbLine
 10
733.9728024181333
 20
431.8328069967734
 30
0.0
 11
733.487802199015
 21
437.3763848681475
 31
0.0
  0
ARC
  5
1ED2
330
18
100
AcDbEntity
  8
隠れ線2
100
AcDbCircle
 10
728.4478704369774
 20
415.1928069967734
 30
0.0
 40
10.64
100
AcDbArc
 50
20.00519008815965
 51
89.99999999999905
  0
ELLIPSE
  5
1ED3
330
18
100
AcDbEntity
  8
外形線
100
AcDbEllipse
 10
719.4478704369778
 20
425.3328069967735
 30
0.0
 11
-6.198022008748182
 21
0.0000000000000004
 31
0.0
210
0.0
220
0.0
230
1.0
 40
0.8837054091322825
 41
0.0
 42
6.283185307179586
  0
LINE
  5
1ED4
330
18
100
AcDbEntity
  8
隠れ線2
100
AcDbLine
 10
728.4478704369778
 20
427.8328069967734
 30
0.0
 11
710.4478704369778
 21
427.8328069967737
 31
0.0
  0
LINE
  5
1ED5
330
18
100
AcDbEntity
  8
隠れ線2
100
AcDbLine
 10
728.4478704369778
 20
425.8328069967735
 30
0.0
 11
710.4478704369778
 21
425.8328069967735
 31
0.0
  0
LINE
  5
1ED6
330
18
100
AcDbEntity
  8
外形線
100
AcDbLine
 10
704.9229384558223
 20
431.8328069967734
 30
0.0
 11
705.4079386749406
 21
437.3763848681475
 31
0.0
  0
LINE
  5
1ED7
330
18
100
AcDbEntity
  8
隠れ線2
100
AcDbLine
 10
704.4854951381926
 20
426.8328069967735
 30
0.0
 11
704.9229384558222
 21
431.8328069967734
 31
0.0
  0
ELLIPSE
  5
1ED8
330
18
100
AcDbEntity
  8
外形線
100
AcDbEllipse
 10
738.9334420221274
 20
425.3328069967735
 30
0.0
 11
-0.0000000000000433
 21
-5.477225575051704
 31
0.0
210
0.0
220
0.0
230
-1.0
 40
0.919229638498327
 41
3.141592653589793
 42
6.283185307179586
  0
ARC
  5
1ED9
330
18
100
AcDbEntity
  8
外形線
100
AcDbCircle
 10
738.4478704369777
 20
425.3328069967735
 30
0.0
 40
6.5
100
AcDbArc
 50
270.0
 51
90.0
  0
ELLIPSE
  5
1EDA
330
18
100
AcDbEntity
  8
外形線
100
AcDbEllipse
 10
738.9334420221274
 20
425.3328069967735
 30
0.0
 11
-0.0000000000000433
 21
-5.477225575051704
 31
0.0
210
0.0
220
0.0
230
-1.0
 40
0.2123691835366178
 41
0.0
 42
3.141592653589793
  0
LINE
  5
1EDB
330
18
100
AcDbEntity
  8
隠れ線2
100
AcDbLine
 10
738.9478704369778
 20
426.8328069967737
 30
0.0
 11
734.410245735763
 21
426.8328069967737
 31
0.0
  0
LINE
  5
1EDC
330
18
100
AcDbEntity
  8
隠れ線2
100
AcDbLine
 10
734.410245735763
 20
426.8328069967735
 30
0.0
 11
733.9728024181333
 21
431.8328069967734
 31
0.0
  0
LINE
  5
1EDD
330
18
100
AcDbEntity
  8
隠れ線2
100
AcDbLine
 10
738.9478704369778
 20
426.8328069967737
 30
0.0
 11
738.9478704369778
 21
431.8135476951815
 31
0.0
  0
LINE
  5
1EE0
330
18
100
AcDbEntity
  8
外形線
100
AcDbLine
 10
729.4478704369778
 20
447.0328069967735
 30
0.0
 11
709.4478704369778
 21
447.0328069967735
 31
0.0
  0
LINE
  5
1EE1
330
18
100
AcDbEntity
  8
外形線
100
AcDbLine
 10
728.6478704369777
 20
447.8328069967735
 30
0.0
 11
710.2478704369779
 21
447.8328069967735
 31
0.0
  0
LINE
  5
1EE2
330
18
100
AcDbEntity
  8
外形線
100
AcDbLine
 10
727.4478704369778
 20
456.8328069967734
 30
0.0
 11
711.4478704369778
 21
456.8328069967734
 31
0.0
  0
LINE
  5
1EE3
330
18
100
AcDbEntity
  8
外形線
100
AcDbLine
 10
732.9897048499693
 20
437.8328069967737
 30
0.0
 11
705.9060360239864
 21
437.8328069967737
 31
0.0
  0
LINE
  5
1EE4
330
18
100
AcDbEntity
  8
外形線
100
AcDbLine
 10
711.4478704369778
 20
447.8328069967735
 30
0.0
 11
711.4478704369778
 21
456.8328069967734
 31
0.0
  0
LINE
  5
1EE5
330
18
100
AcDbEntity
  8
外形線
100
AcDbLine
 10
709.4478704369778
 20
447.0328069967735
 30
0.0
 11
710.2478704369779
 21
447.8328069967735
 31
0.0
  0
POINT
  5
1EE6
330
18
100
AcDbEntity
  8
DEFPOINTS
  6
ByBlock
 62
     0
100
AcDbPoint
 10
705.537198218652
 20
437.6703846520713
 30
0.0
  0
LINE
  5
1EE7
330
18
100
AcDbEntity
  8
外形線
100
AcDbLine
 10
709.4478704369778
 20
437.8328069967735
 30
0.0
 11
709.4478704369778
 21
447.0328069967735
 31
0.0
  0
LINE
  5
1EE8
330
18
100
AcDbEntity
  8
外形線
100
AcDbLine
 10
727.4478704369778
 20
447.8328069967735
 30
0.0
 11
727.4478704369778
 21
456.8328069967734
 31
0.0
  0
POINT
  5
1EE9
330
18
100
AcDbEntity
  8
DEFPOINTS
  6
ByBlock
 62
     0
100
AcDbPoint
 10
733.2536555276899
 20
437.7574598429088
 30
0.0
  0
LINE
  5
1EEA
330
18
100
AcDbEntity
  8
外形線
100
AcDbLine
 10
728.6478704369777
 20
447.8328069967735
 30
0.0
 11
729.4478704369778
 21
447.0328069967735
 31
0.0
  0
LINE
  5
1EEB
330
18
100
AcDbEntity
  8
外形線
100
AcDbLine
 10
729.4478704369778
 20
437.8328069967735
 30
0.0
 11
729.4478704369778
 21
447.0328069967735
 31
0.0
  0
LINE
  5
1EF3
330
18
100
AcDbEntity
  8
外形線
100
AcDbLine
 10
723.4478704369778
 20
469.8328069967735
 30
0.0
 11
723.4478704369778
 21
467.8328069967736
 31
0.0
  0
LINE
  5
1EF4
330
18
100
AcDbEntity
  8
外形線
100
AcDbLine
 10
715.4478704369778
 20
469.8328069967736
 30
0.0
 11
715.4478704369778
 21
467.8328069967736
 31
0.0
  0
LINE
  5
1EF5
330
18
100
AcDbEntity
  8
寸法線
100
AcDbLine
 10
722.6478704369778
 20
469.8328069967735
 30
0.0
 11
722.6478704369778
 21
467.8328069967736
 31
0.0
  0
LINE
  5
1EF6
330
18
100
AcDbEntity
  8
寸法線
100
AcDbLine
 10
716.2478704369777
 20
469.8328069967736
 30
0.0
 11
716.2478704369777
 21
467.8328069967736
 31
0.0
  0
LINE
  5
1EF7
330
18
100
AcDbEntity
  8
外形線
100
AcDbLine
 10
715.447870436978
 20
528.8328069967737
 30
0.0
 11
542.3991196567029
 21
528.8328069967734
 31
0.0
  0
LINE
  5
1EF8
330
18
100
AcDbEntity
  8
外形線
100
AcDbLine
 10
715.4478704369779
 20
408.8328069967735
 30
0.0
 11
542.3991196567029
 21
408.8328069967737
 31
0.0
  0
LINE
  5
1EF9
330
18
100
AcDbEntity
  8
外形線
100
AcDbLine
 10
716.4478704369779
 20
409.8328069967736
 30
0.0
 11
716.4478704369779
 21
418.8328069967735
 31
0.0
  0
LINE
  5
1EFA
330
18
100
AcDbEntity
  8
外形線
100
AcDbLine
 10
537.4478704369779
 20
468.8328069967735
 30
0.0
 11
537.4478704369779
 21
484.8328069967736
 31
0.0
  0
LINE
  5
1EFD
330
18
100
AcDbEntity
  8
外形線
100
AcDbLine
 10
716.4478704369779
 20
480.8328069967736
 30
0.0
 11
716.4478704369781
 21
527.8328069967736
 31
0.0
  0
LINE
  5
1EFE
330
18
100
AcDbEntity
  8
外形線
100
AcDbLine
 10
710.4478704369778
 20
413.8328069967735
 30
0.0
 11
546.5995703809621
 21
413.8328069967737
 31
0.0
  0
LINE
  5
1EFF
330
18
100
AcDbEntity
  8
外形線
100
AcDbLine
 10
710.4478704369778
 20
523.8328069967735
 30
0.0
 11
546.5995703809621
 21
523.8328069967738
 31
0.0
  0
LINE
  5
1F00
330
18
100
AcDbEntity
  8
外形線
100
AcDbLine
 10
710.4478704369779
 20
480.8328069967736
 30
0.0
 11
710.4478704369779
 21
523.8328069967735
 31
0.0
  0
LINE
  5
1F01
330
18
100
AcDbEntity
  8
外形線
100
AcDbLine
 10
710.447870436978
 20
413.8328069967735
 30
0.0
 11
710.4478704369779
 21
418.8328069967735
 31
0.0
  0
LINE
  5
1F02
330
18
100
AcDbEntity
  8
外線
100
AcDbLine
 10
716.1278015870516
 20
528.5660829551683
 30
0.0
 11
710.4478704369779
 21
523.8328069967735
 31
0.0
  0
ARC
  5
1F03
330
18
100
AcDbEntity
  8
外形線
100
AcDbCircle
 10
715.447870436978
 20
527.8328069967736
 30
0.0
 40
1.0
100
AcDbArc
 50
0.0
 51
90.0
  0
LINE
  5
1F04
330
18
100
AcDbEntity
  8
外線
100
AcDbLine
 10
716.1278015870514
 20
409.0995310383789
 30
0.0
 11
710.4478704369779
 21
413.8328069967735
 31
0.0
  0
ARC
  5
1F05
330
18
100
AcDbEntity
  8
外形線
100
AcDbCircle
 10
715.4478704369779
 20
409.8328069967736
 30
0.0
 40
1.0
100
AcDbArc
 50
270.0
 51
0.0
  0
LINE
  5
1F0E
330
18
100
AcDbEntity
  8
外形線
100
AcDbLine
 10
591.4478704369776
 20
449.8328069967735
 30
0.0
 11
565.4478704369775
 21
449.8328069967736
 31
0.0
  0
LINE
  5
1F10
330
18
100
AcDbEntity
  8
外形線
100
AcDbLine
 10
591.4478704369774
 20
440.8328069967735
 30
0.0
 11
565.4478704369775
 21
440.8328069967735
 31
0.0
  0
LINE
  5
1F11
330
18
100
AcDbEntity
  8
外形線
100
AcDbLine
 10
568.9478704369776
 20
449.8328069967735
 30
0.0
 11
568.9478704369776
 21
455.8328069967735
 31
0.0
  0
LINE
  5
1F12
330
18
100
AcDbEntity
  8
外形線
100
AcDbLine
 10
587.9478704369776
 20
449.8328069967735
 30
0.0
 11
587.9478704369776
 21
455.8328069967735
 31
0.0
  0
LINE
  5
1F13
330
18
100
AcDbEntity
  8
外形線
100
AcDbLine
 10
565.4478704369775
 20
440.8328069967735
 30
0.0
 11
565.4478704369775
 21
449.8328069967735
 31
0.0
  0
LINE
  5
1F14
330
18
100
AcDbEntity
  8
外形線
100
AcDbLine
 10
591.4478704369774
 20
440.8328069967735
 30
0.0
 11
591.4478704369776
 21
449.8328069967735
 31
0.0
  0
LINE
  5
1F1D
330
18
100
AcDbEntity
  8
外形線
100
AcDbLine
 10
590.9478704369774
 20
439.8328069967734
 30
0.0
 11
565.9478704369775
 21
439.8328069967734
 31
0.0
  0
LINE
  5
1F1E
330
18
100
AcDbEntity
  8
外形線
100
AcDbLine
 10
565.9478704369775
 20
439.8328069967735
 30
0.0
 11
565.9478704369775
 21
440.8328069967735
 31
0.0
  0
LINE
  5
1F1F
330
18
100
AcDbEntity
  8
外形線
100
AcDbLine
 10
590.9478704369775
 20
439.8328069967734
 30
0.0
 11
590.9478704369775
 21
440.8328069967735
 31
0.0
  0
ELLIPSE
  5
1F20
330
18
100
AcDbEntity
  8
外形線
100
AcDbEllipse
 10
578.4478704369775
 20
439.8328069967734
 30
0.0
 11
12.5
 21
0.0000000000000568
 31
0.0
210
0.0
220
0.0
230
1.0
 40
0.1599999999999909
 41
3.141592653589793
 42
6.283185307179586
  0
LINE
  5
1F21
330
18
100
AcDbEntity
  8
外形線
100
AcDbLine
 10
575.4478704369776
 20
469.8328069967736
 30
0.0
 11
575.4478704369776
 21
467.8328069967736
 31
0.0
  0
LINE
  5
1F22
330
18
100
AcDbEntity
  8
寸法線
100
AcDbLine
 10
576.2478704369775
 20
469.8328069967736
 30
0.0
 11
576.2478704369775
 21
467.8328069967736
 31
0.0
  0
LINE
  5
1F23
330
18
100
AcDbEntity
  8
寸法線
100
AcDbLine
 10
580.6478704369783
 20
469.8328069967736
 30
0.0
 11
580.6478704369783
 21
467.8328069967736
 31
0.0
  0
LINE
  5
1F24
330
18
100
AcDbEntity
  8
外形線
100
AcDbLine
 10
581.4478704369783
 20
469.8328069967736
 30
0.0
 11
581.4478704369783
 21
467.8328069967736
 31
0.0
  0
LINE
  5
1F3D
330
18
100
AcDbEntity
  8
外形線
100
AcDbLine
 10
550.447870436978
 20
419.8328069967735
 30
0.0
 11
550.4478704369778
 21
517.8328069967734
 31
0.0
  0
LINE
  5
1F3E
330
18
100
AcDbEntity
  8
外形線
100
AcDbLine
 10
650.447870436978
 20
419.8328069967734
 30
0.0
 11
650.447870436978
 21
455.8328069967735
 31
0.0
  0
LINE
  5
1F3F
330
18
100
AcDbEntity
  8
外形線
100
AcDbLine
 10
649.4478704369781
 20
518.8328069967735
 30
0.0
 11
551.4478704369778
 21
518.8328069967734
 31
0.0
  0
LINE
  5
1F40
330
18
100
AcDbEntity
  8
外形線
100
AcDbLine
 10
649.4478704369781
 20
418.8328069967734
 30
0.0
 11
551.4478704369779
 21
418.8328069967735
 31
0.0
  0
LINE
  5
1F41
330
18
100
AcDbEntity
  8
外形線
100
AcDbLine
 10
650.447870436978
 20
481.8328069967735
 30
0.0
 11
650.447870436978
 21
517.8328069967736
 31
0.0
  0
LINE
  5
1F42
330
18
100
AcDbEntity
  8
外形線
100
AcDbLine
 10
550.4478704369778
 20
517.8328069967734
 30
0.0
 11
551.4478704369778
 21
518.8328069967734
 31
0.0
  0
LINE
  5
1F43
330
18
100
AcDbEntity
  8
外形線
100
AcDbLine
 10
551.447870436978
 20
419.8328069967736
 30
0.0
 11
551.4478704369801
 21
517.8328069967734
 31
0.0
  0
LINE
  5
1F44
330
18
100
AcDbEntity
  8
外形線
100
AcDbLine
 10
649.4478704369779
 20
517.8328069967736
 30
0.0
 11
551.4478704369778
 21
517.8328069967734
 31
0.0
  0
LINE
  5
1F46
330
18
100
AcDbEntity
  8
外形線
100
AcDbLine
 10
649.4478704369781
 20
419.8328069967734
 30
0.0
 11
649.4478704369781
 21
455.8328069967735
 31
0.0
  0
LINE
  5
1F47
330
18
100
AcDbEntity
  8
外形線
100
AcDbLine
 10
649.4478704369782
 20
419.8328069967734
 30
0.0
 11
551.447870436978
 21
419.8328069967734
 31
0.0
  0
LINE
  5
1F48
330
18
100
AcDbEntity
  8
外形線
100
AcDbLine
 10
649.4478704369781
 20
518.8328069967735
 30
0.0
 11
650.447870436978
 21
517.8328069967736
 31
0.0
  0
LINE
  5
1F49
330
18
100
AcDbEntity
  8
外形線
100
AcDbLine
 10
650.447870436978
 20
419.8328069967734
 30
0.0
 11
649.4478704369781
 21
418.8328069967734
 31
0.0
  0
LINE
  5
1F4A
330
18
100
AcDbEntity
  8
外形線
100
AcDbLine
 10
550.447870436978
 20
419.8328069967735
 30
0.0
 11
551.4478704369779
 21
418.8328069967735
 31
0.0
  0
LINE
  5
1F4D
330
18
100
AcDbEntity
  8
外形線
100
AcDbLine
 10
551.4478704369778
 20
517.8328069967734
 30
0.0
 11
550.9478704369778
 21
518.3328069967735
 31
0.0
  0
LINE
  5
1F4E
330
18
100
AcDbEntity
  8
外形線
100
AcDbLine
 10
649.4478704369779
 20
517.8328069967736
 30
0.0
 11
649.9478704369781
 21
518.3328069967735
 31
0.0
  0
LINE
  5
1F4F
330
18
100
AcDbEntity
  8
外形線
100
AcDbLine
 10
649.4478704369781
 20
419.8328069967734
 30
0.0
 11
649.9478704369781
 21
419.3328069967734
 31
0.0
  0
LINE
  5
1F50
330
18
100
AcDbEntity
  8
外形線
100
AcDbLine
 10
551.447870436978
 20
419.8328069967735
 30
0.0
 11
550.947870436978
 21
419.3328069967734
 31
0.0
  0
LINE
  5
1F80
330
18
100
AcDbEntity
  8
外形線
100
AcDbLine
 10
649.4478704369779
 20
481.8328069967735
 30
0.0
 11
649.4478704369779
 21
517.8328069967736
 31
0.0
  0
LINE
  5
1FFA
330
18
100
AcDbEntity
  8
外形線
100
AcDbLine
 10
542.4478704369779
 20
468.8328069967735
 30
0.0
 11
542.4478704369779
 21
481.3328069967735
 31
0.0
  0
LINE
  5
1FFB
330
18
100
AcDbEntity
  8
外形線
100
AcDbLine
 10
549.4478704369778
 20
418.8328069967735
 30
0.0
 11
549.4478704369779
 21
518.8328069967733
 31
0.0
  0
LINE
  5
1FFC
330
18
100
AcDbEntity
  8
外形線
100
AcDbLine
 10
538.727120905143
 20
485.8328069967736
 30
0.0
 11
538.4478704369779
 21
485.8328069967736
 31
0.0
  0
LINE
  5
1FFE
330
18
100
AcDbEntity
  8
外形線
100
AcDbLine
 10
549.4478704369779
 20
482.3328069967735
 30
0.0
 11
543.1122936117431
 21
482.3328069967735
 31
0.0
  0
LINE
  5
2001
330
18
100
AcDbEntity
  8
外形線
100
AcDbLine
 10
542.7947053654208
 20
482.0900225468634
 30
0.0
 11
537.7947053654209
 21
485.5900225468634
 31
0.0
  0
LINE
  5
2008
330
18
100
AcDbEntity
  8
外形線
100
AcDbLine
 10
541.4003673178251
 20
527.8827446137174
 30
0.0
 11
539.3263723084697
 21
486.4028444266073
 31
0.0
  0
LINE
  5
2009
330
18
100
AcDbEntity
  8
外形線
100
AcDbLine
 10
545.6012674400409
 20
522.8910413349941
 30
0.0
 11
543.2561382720489
 21
482.6888270265622
 31
0.0
  0
LINE
  5
200A
330
18
100
AcDbEntity
  8
外形線
100
AcDbLine
 10
545.8980539371756
 20
523.5454602638658
 30
0.0
 11
541.6933040980743
 21
528.5412026469562
 31
0.0
  0
LINE
  5
200B
330
18
100
AcDbEntity
  8
外形線
100
AcDbLine
 10
650.447870436978
 20
519.8328069967735
 30
0.0
 11
550.447870436978
 21
519.8328069967733
 31
0.0
  0
LINE
  5
200C
330
18
100
AcDbEntity
  8
外形線
100
AcDbLine
 10
651.4478704369778
 20
481.8328069967735
 30
0.0
 11
651.447870436978
 21
518.8328069967735
 31
0.0
  0
ARC
  5
2015
330
18
100
AcDbEntity
  8
外形線
100
AcDbCircle
 10
542.3991196567029
 20
527.8328069967734
 30
0.0
 40
1.0
100
AcDbArc
 50
90.00000000000007
 51
177.1375947738882
  0
ARC
  5
2016
330
18
100
AcDbEntity
  8
外形線
100
AcDbCircle
 10
546.5995703809621
 20
522.8328069967737
 30
0.0
 40
1.0
100
AcDbArc
 50
89.99999999999994
 51
176.6615294562355
  0
ARC
  5
2017
330
18
100
AcDbEntity
  8
外形線
100
AcDbCircle
 10
550.447870436978
 20
518.8328069967733
 30
0.0
 40
1.0
100
AcDbArc
 50
90.00000000000012
 51
180.0
  0
LINE
  5
2018
330
18
100
AcDbEntity
  8
外形線
100
AcDbLine
 10
539.12655471989
 20
485.9850876341851
 30
0.0
 11
543.1613858314125
 21
482.3985710906094
 31
0.0
  0
ARC
  5
2019
330
18
100
AcDbEntity
  8
外形線
100
AcDbCircle
 10
538.4478704369779
 20
484.8328069967736
 30
0.0
 40
1.0
100
AcDbArc
 50
90.0
 51
180.0
  0
ARC
  5
201B
330
18
100
AcDbEntity
  8
外形線
100
AcDbCircle
 10
543.4478704369779
 20
481.3328069967735
 30
0.0
 40
1.0
100
AcDbArc
 50
119.6167612038071
 51
180.0
  0
ARC
  5
201C
330
18
100
AcDbEntity
  8
外形線
100
AcDbCircle
 10
538.727120905143
 20
486.4328069967736
 30
0.0
 40
0.6
100
AcDbArc
 50
270.0
 51
357.1375947738883
  0
ARC
  5
201D
330
18
100
AcDbEntity
  8
外形線
100
AcDbCircle
 10
542.6571565074961
 20
482.7237676294945
 30
0.0
 40
0.6
100
AcDbArc
 50
299.616761203803
 51
356.6615294562306
  0
LINE
  5
201E
330
18
100
AcDbEntity
  8
外形線
100
AcDbLine
 10
545.6012674400409
 20
414.7745726585529
 30
0.0
 11
543.2561382720489
 21
454.9767869669849
 31
0.0
  0
ARC
  5
201F
330
18
100
AcDbEntity
  8
外形線
100
AcDbCircle
 10
538.727120905143
 20
451.2328069967734
 30
0.0
 40
0.6
100
AcDbArc
 50
2.862405226111746
 51
90.00000000000003
  0
LINE
  5
2020
330
18
100
AcDbEntity
  8
外形線
100
AcDbLine
 10
539.12655471989
 20
451.6805263593619
 30
0.0
 11
543.1613858314125
 21
455.2670429029377
 31
0.0
  0
LINE
  5
2021
330
18
100
AcDbEntity
  8
外形線
100
AcDbLine
 10
542.7947053654208
 20
455.5755914466836
 30
0.0
 11
537.7947053654209
 21
452.0755914466836
 31
0.0
  0
LINE
  5
2022
330
18
100
AcDbEntity
  8
外形線
100
AcDbLine
 10
537.4478704369779
 20
468.8328069967735
 30
0.0
 11
537.4478704369779
 21
452.8328069967734
 31
0.0
  0
LINE
  5
2023
330
18
100
AcDbEntity
  8
外形線
100
AcDbLine
 10
538.727120905143
 20
451.8328069967735
 30
0.0
 11
538.4478704369779
 21
451.8328069967735
 31
0.0
  0
ARC
  5
2024
330
18
100
AcDbEntity
  8
外形線
100
AcDbCircle
 10
538.4478704369779
 20
452.8328069967734
 30
0.0
 40
1.0
100
AcDbArc
 50
180.0
 51
270.0
  0
LINE
  5
2025
330
18
100
AcDbEntity
  8
外形線
100
AcDbLine
 10
542.4478704369779
 20
468.8328069967735
 30
0.0
 11
542.4478704369779
 21
456.3328069967735
 31
0.0
  0
LINE
  5
2026
330
18
100
AcDbEntity
  8
外形線
100
AcDbLine
 10
549.4478704369779
 20
455.3328069967736
 30
0.0
 11
543.1122936117431
 21
455.3328069967736
 31
0.0
  0
ARC
  5
2027
330
18
100
AcDbEntity
  8
外形線
100
AcDbCircle
 10
542.6571565074961
 20
454.9418463640526
 30
0.0
 40
0.6
100
AcDbArc
 50
3.338470543769424
 51
60.38323879619696
  0
ARC
  5
2028
330
18
100
AcDbEntity
  8
外形線
100
AcDbCircle
 10
543.4478704369779
 20
456.3328069967735
 30
0.0
 40
1.0
100
AcDbArc
 50
180.0
 51
240.3832387961929
  0
LINE
  5
2029
330
18
100
AcDbEntity
  8
外形線
100
AcDbLine
 10
541.4003673178251
 20
409.7828693798297
 30
0.0
 11
539.3263723084697
 21
451.2627695669398
 31
0.0
  0
LINE
  5
202A
330
18
100
AcDbEntity
  8
外形線
100
AcDbLine
 10
545.8980539371756
 20
414.1201537296812
 30
0.0
 11
541.6933040980743
 21
409.1244113465909
 31
0.0
  0
ARC
  5
202B
330
18
100
AcDbEntity
  8
外形線
100
AcDbCircle
 10
546.5995703809621
 20
414.8328069967733
 30
0.0
 40
1.0
100
AcDbArc
 50
183.3384705437645
 51
270.0000000000001
  0
ARC
  5
202C
330
18
100
AcDbEntity
  8
外形線
100
AcDbCircle
 10
542.3991196567029
 20
409.8328069967736
 30
0.0
 40
1.0
100
AcDbArc
 50
182.8624052261117
 51
269.9999999999999
  0
LINE
  5
202D
330
18
100
AcDbEntity
  8
外形線
100
AcDbLine
 10
650.447870436978
 20
417.8328069967735
 30
0.0
 11
550.4478704369778
 21
417.8328069967736
 31
0.0
  0
LINE
  5
202E
330
18
100
AcDbEntity
  8
外形線
100
AcDbLine
 10
651.447870436978
 20
418.8328069967734
 30
0.0
 11
651.447870436978
 21
455.8328069967735
 31
0.0
  0
ARC
  5
202F
330
18
100
AcDbEntity
  8
外形線
100
AcDbCircle
 10
550.4478704369778
 20
418.8328069967735
 30
0.0
 40
1.0
100
AcDbArc
 50
179.9999999999999
 51
270.0
  0
ARC
  5
2030
330
18
100
AcDbEntity
  8
外形線
100
AcDbCircle
 10
650.447870436978
 20
518.8328069967735
 30
0.0
 40
1.0
100
AcDbArc
 50
359.9999999999996
 51
90.0000000000001
  0
ARC
  5
2031
330
18
100
AcDbEntity
  8
外形線
100
AcDbCircle
 10
650.447870436978
 20
418.8328069967734
 30
0.0
 40
1.0
100
AcDbArc
 50
270.0
 51
0.0
  0
LINE
  5
2032
330
18
100
AcDbEntity
  8
外形線
100
AcDbLine
 10
550.447870436978
 20
131.7584279111674
 30
0.0
 11
650.447870436978
 21
131.7584279111674
 31
0.0
  0
LINE
  5
2033
330
18
100
AcDbEntity
  8
外形線
100
AcDbLine
 10
550.447870436978
 20
131.7584279111674
 30
0.0
 11
551.447870436978
 21
132.7584279111674
 31
0.0
  0
LINE
  5
2034
330
18
100
AcDbEntity
  8
外形線
100
AcDbLine
 10
649.4478704369782
 20
132.7584279111674
 30
0.0
 11
650.4478704369781
 21
131.7584279111674
 31
0.0
  0
LINE
  5
2035
330
18
100
AcDbEntity
  8
0
  6
ByBlock
 62
     2
100
AcDbLine
 10
650.447870436978
 20
131.7584279111676
 30
0.0
 11
650.447870436978
 21
142.167548292037
 31
0.0
  0
LINE
  5
2036
330
18
100
AcDbEntity
  8
0
  6
ByBlock
 62
     2
100
AcDbLine
 10
550.447870436978
 20
131.7584279111674
 30
0.0
 11
550.447870436978
 21
142.167548292037
 31
0.0
  0
LINE
  5
2037
330
18
100
AcDbEntity
  8
0
  6
ByBlock
 62
     2
100
AcDbLine
 10
647.947870436978
 20
140.917548292037
 30
0.0
 11
552.947870436978
 21
140.917548292037
 31
0.0
  0
INSERT
  5
2038
330
18
100
AcDbEntity
  8
0
  6
ByBlock
 62
     2
100
AcDbBlockReference
  2
_OPEN
 10
650.447870436978
 20
140.917548292037
 30
0.0
 41
2.5
 42
2.5
 43
2.5
  0
INSERT
  5
2039
330
18
100
AcDbEntity
  8
0
  6
ByBlock
 62
     2
100
AcDbBlockReference
  2
_OPEN
 10
550.447870436978
 20
140.917548292037
 30
0.0
 41
2.5
 42
2.5
 43
2.5
 50
180.0
  0
MTEXT
  5
203A
330
18
100
AcDbEntity
  8
0
  6
ByBlock
 62
     6
100
AcDbMText
 10
600.447870436978
 20
142.792548292037
 30
0.0
 40
2.5
 41
0.0
 71
     5
 72
     1
  1
100
  7
STYLE3
 73
     1
 44
1.0
  0
POINT
  5
203B
330
18
100
AcDbEntity
  8
DEFPOINTS
  6
ByBlock
 62
     0
100
AcDbPoint
 10
650.447870436978
 20
132.7584279111674
 30
0.0
  0
POINT
  5
203C
330
18
100
AcDbEntity
  8
DEFPOINTS
  6
ByBlock
 62
     0
100
AcDbPoint
 10
550.447870436978
 20
132.7584279111674
 30
0.0
  0
POINT
  5
203D
330
18
100
AcDbEntity
  8
DEFPOINTS
  6
ByBlock
 62
     0
100
AcDbPoint
 10
550.447870436978
 20
140.917548292037
 30
0.0
  0
ARC
  5
2040
330
18
100
AcDbEntity
  8
外形線
100
AcDbCircle
 10
606.9478704369779
 20
117.7584279111675
 30
0.0
 40
1.0
100
AcDbArc
 50
270.0
 51
0.0
  0
ARC
  5
2041
330
18
100
AcDbEntity
  8
外形線
100
AcDbCircle
 10
628.9478704369781
 20
117.7584279111675
 30
0.0
 40
1.0
100
AcDbArc
 50
180.0
 51
270.0
  0
ARC
  5
2042
330
18
100
AcDbEntity
  8
外形線
100
AcDbCircle
 10
554.4478704369779
 20
117.7584279111675
 30
0.0
 40
1.0
100
AcDbArc
 50
270.0
 51
0.0
  0
ARC
  5
2043
330
18
100
AcDbEntity
  8
外形線
100
AcDbCircle
 10
576.447870436978
 20
117.7584279111675
 30
0.0
 40
1.0
100
AcDbArc
 50
180.0
 51
270.0
  0
LINE
  5
2051
330
18
100
AcDbEntity
  8
外形線
100
AcDbLine
 10
460.1913883181786
 20
334.7584279111674
 30
0.0
 11
442.6913883181785
 21
331.7584279111675
 31
0.0
  0
LINE
  5
2052
330
18
100
AcDbEntity
  8
外形線
100
AcDbLine
 10
460.1913883181786
 20
330.7584279111674
 30
0.0
 11
442.6913883181785
 21
327.7584279111675
 31
0.0
  0
LINE
  5
2053
330
18
100
AcDbEntity
  8
外形線
100
AcDbLine
 10
460.1913883181786
 20
322.7584279111674
 30
0.0
 11
442.6913883181785
 21
319.7584279111675
 31
0.0
  0
LINE
  5
2054
330
18
100
AcDbEntity
  8
外形線
100
AcDbLine
 10
460.1913883181786
 20
318.7584279111673
 30
0.0
 11
442.6913883181785
 21
315.7584279111675
 31
0.0
  0
LINE
  5
2056
330
18
100
AcDbEntity
  8
外形線
100
AcDbLine
 10
460.1913883181786
 20
318.7584279111673
 30
0.0
 11
442.6913883181785
 21
315.7584279111675
 31
0.0
  0
LINE
  5
2057
330
18
100
AcDbEntity
  8
外形線
100
AcDbLine
 10
460.1913883181786
 20
306.7584279111674
 30
0.0
 11
442.6913883181785
 21
303.7584279111675
 31
0.0
  0
LINE
  5
2058
330
18
100
AcDbEntity
  8
外形線
100
AcDbLine
 10
460.1913883181786
 20
310.7584279111673
 30
0.0
 11
442.6913883181785
 21
307.7584279111675
 31
0.0
  0
LINE
  5
2059
330
18
100
AcDbEntity
  8
外形線
100
AcDbLine
 10
460.1913883181786
 20
306.7584279111674
 30
0.0
 11
442.6913883181785
 21
303.7584279111675
 31
0.0
  0
LINE
  5
205A
330
18
100
AcDbEntity
  8
外形線
100
AcDbLine
 10
460.1913883181786
 20
306.7584279111674
 30
0.0
 11
442.6913883181785
 21
303.7584279111675
 31
0.0
  0
LINE
  5
205B
330
18
100
AcDbEntity
  8
外形線
100
AcDbLine
 10
460.1913883181786
 20
306.7584279111674
 30
0.0
 11
442.6913883181785
 21
303.7584279111675
 31
0.0
  0
LINE
  5
205C
330
18
100
AcDbEntity
  8
外形線
100
AcDbLine
 10
460.1913883181786
 20
298.7584279111674
 30
0.0
 11
442.6913883181785
 21
295.7584279111675
 31
0.0
  0
LINE
  5
205D
330
18
100
AcDbEntity
  8
外形線
100
AcDbLine
 10
460.1913883181786
 20
294.7584279111674
 30
0.0
 11
442.6913883181785
 21
291.7584279111675
 31
0.0
  0
LINE
  5
205E
330
18
100
AcDbEntity
  8
外形線
100
AcDbLine
 10
460.1913883181786
 20
298.7584279111674
 30
0.0
 11
442.6913883181785
 21
295.7584279111675
 31
0.0
  0
LINE
  5
205F
330
18
100
AcDbEntity
  8
外形線
100
AcDbLine
 10
460.1913883181786
 20
294.7584279111674
 30
0.0
 11
442.6913883181785
 21
291.7584279111675
 31
0.0
  0
LINE
  5
2060
330
18
100
AcDbEntity
  8
外形線
100
AcDbLine
 10
460.1913883181786
 20
298.7584279111674
 30
0.0
 11
442.6913883181785
 21
295.7584279111675
 31
0.0
  0
LINE
  5
2061
330
18
100
AcDbEntity
  8
外形線
100
AcDbLine
 10
460.1913883181786
 20
294.7584279111674
 30
0.0
 11
442.6913883181785
 21
291.7584279111675
 31
0.0
  0
LINE
  5
2062
330
18
100
AcDbEntity
  8
外形線
100
AcDbLine
 10
460.1913883181786
 20
294.7584279111674
 30
0.0
 11
442.6913883181785
 21
291.7584279111675
 31
0.0
  0
ELLIPSE
  5
2064
330
18
100
AcDbEntity
  8
外形線
100
AcDbEllipse
 10
442.6913883181785
 20
329.7584279111675
 30
0.0
 11
0.0
 21
2.0
 31
0.0
210
0.0
220
0.0
230
1.0
 40
0.8750000000000568
 41
3.141592653589793
 42
6.283185307179586
  0
ELLIPSE
  5
2065
330
18
100
AcDbEntity
  8
外形線
100
AcDbEllipse
 10
442.6913883181785
 20
305.7584279111675
 30
0.0
 11
0.0
 21
2.0
 31
0.0
210
0.0
220
0.0
230
1.0
 40
0.8750000000000568
 41
3.141592653589793
 42
6.283185307179586
  0
LINE
  5
2066
330
18
100
AcDbEntity
  8
外形線
100
AcDbLine
 10
442.6913883181785
 20
295.7584279111675
 30
0.0
 11
442.6913883181785
 21
303.7584279111675
 31
0.0
  0
LINE
  5
2067
330
18
100
AcDbEntity
  8
外形線
100
AcDbLine
 10
442.6913883181785
 20
295.7584279111675
 30
0.0
 11
442.6913883181785
 21
303.7584279111675
 31
0.0
  0
LINE
  5
2068
330
18
100
AcDbEntity
  8
外形線
100
AcDbLine
 10
442.6913883181785
 20
295.7584279111675
 30
0.0
 11
442.6913883181785
 21
303.7584279111675
 31
0.0
  0
ELLIPSE
  5
2069
330
18
100
AcDbEntity
  8
外形線
100
AcDbEllipse
 10
442.6913883181785
 20
293.7584279111675
 30
0.0
 11
0.0
 21
2.0
 31
0.0
210
0.0
220
0.0
230
1.0
 40
0.8750000000000568
 41
3.141592653589793
 42
6.283185307179586
  0
LINE
  5
206A
330
18
100
AcDbEntity
  8
外形線
100
AcDbLine
 10
442.6913883181784
 20
284.4304075341984
 30
0.0
 11
442.6913883181785
 21
291.7584279111675
 31
0.0
  0
LINE
  5
206B
330
18
100
AcDbEntity
  8
外形線
100
AcDbLine
 10
442.6913883181785
 20
287.4304075341985
 30
0.0
 11
442.6913883181785
 21
291.7584279111675
 31
0.0
  0
LINE
  5
206C
330
18
100
AcDbEntity
  8
外形線
100
AcDbLine
 10
442.6913883181785
 20
287.4304075341985
 30
0.0
 11
442.6913883181785
 21
291.7584279111675
 31
0.0
  0
ELLIPSE
  5
206D
330
18
100
AcDbEntity
  8
外形線
100
AcDbEllipse
 10
442.6913883181785
 20
317.7584279111675
 30
0.0
 11
0.0
 21
2.0
 31
0.0
210
0.0
220
0.0
230
1.0
 40
0.8750000000000568
 41
3.141592653589793
 42
6.283185307179586
  0
LINE
  5
206E
330
18
100
AcDbEntity
  8
外形線
100
AcDbLine
 10
442.6913883181785
 20
307.7584279111675
 30
0.0
 11
442.6913883181785
 21
315.7584279111675
 31
0.0
  0
LINE
  5
206F
330
18
100
AcDbEntity
  8
外形線
100
AcDbLine
 10
442.6913883181785
 20
319.7584279111675
 30
0.0
 11
442.6913883181785
 21
327.7584279111675
 31
0.0
  0
LINE
  5
2071
330
18
100
AcDbEntity
  8
外形線
100
AcDbLine
 10
442.6913883181785
 20
331.7584279111675
 30
0.0
 11
442.6913883181785
 21
337.7584279111675
 31
0.0
  0
LINE
  5
2072
330
18
100
AcDbEntity
  8
外形線
100
AcDbLine
 10
477.6913883181784
 20
325.7584279111674
 30
0.0
 11
477.6913883181785
 21
333.7584279111674
 31
0.0
  0
ELLIPSE
  5
2073
330
18
100
AcDbEntity
  8
外形線
100
AcDbEllipse
 10
477.6913883181785
 20
323.7584279111674
 30
0.0
 11
0.0
 21
-2.0
 31
0.0
210
0.0
220
0.0
230
1.0
 40
0.8749999999999431
 41
3.141592653589793
 42
6.283185307179586
  0
ELLIPSE
  5
2074
330
18
100
AcDbEntity
  8
外形線
100
AcDbEllipse
 10
477.6913883181785
 20
311.7584279111674
 30
0.0
 11
0.0
 21
-2.0
 31
0.0
210
0.0
220
0.0
230
1.0
 40
0.8749999999999431
 41
3.141592653589793
 42
6.283185307179586
  0
ELLIPSE
  5
2078
330
18
100
AcDbEntity
  8
外形線
100
AcDbEllipse
 10
477.6913883181785
 20
299.7584279111674
 30
0.0
 11
0.0
 21
-2.0
 31
0.0
210
0.0
220
0.0
230
1.0
 40
0.8749999999999431
 41
3.141592653589793
 42
6.283185307179586
  0
LINE
  5
2079
330
18
100
AcDbEntity
  8
外形線
100
AcDbLine
 10
477.6913883181785
 20
325.7584279111674
 30
0.0
 11
460.1913883181786
 21
322.7584279111674
 31
0.0
  0
LINE
  5
207A
330
18
100
AcDbEntity
  8
外形線
100
AcDbLine
 10
477.6913883181788
 20
321.7584279111674
 30
0.0
 11
460.1913883181789
 21
318.7584279111673
 31
0.0
  0
LINE
  5
207B
330
18
100
AcDbEntity
  8
外形線
100
AcDbLine
 10
477.6913883181785
 20
313.7584279111674
 30
0.0
 11
460.1913883181786
 21
310.7584279111673
 31
0.0
  0
LINE
  5
207C
330
18
100
AcDbEntity
  8
外形線
100
AcDbLine
 10
477.6913883181788
 20
309.7584279111674
 30
0.0
 11
460.1913883181789
 21
306.7584279111674
 31
0.0
  0
LINE
  5
207D
330
18
100
AcDbEntity
  8
外形線
100
AcDbLine
 10
477.6913883181788
 20
321.7584279111674
 30
0.0
 11
460.1913883181789
 21
318.7584279111673
 31
0.0
  0
LINE
  5
207E
330
18
100
AcDbEntity
  8
外形線
100
AcDbLine
 10
477.6913883181788
 20
309.7584279111674
 30
0.0
 11
460.1913883181789
 21
306.7584279111674
 31
0.0
  0
LINE
  5
207F
330
18
100
AcDbEntity
  8
外形線
100
AcDbLine
 10
477.6913883181788
 20
297.7584279111674
 30
0.0
 11
460.1913883181789
 21
294.7584279111674
 31
0.0
  0
LINE
  5
2080
330
18
100
AcDbEntity
  8
外形線
100
AcDbLine
 10
477.6913883181785
 20
301.7584279111674
 30
0.0
 11
460.1913883181786
 21
298.7584279111674
 31
0.0
  0
LINE
  5
2081
330
18
100
AcDbEntity
  8
外形線
100
AcDbLine
 10
477.6913883181788
 20
309.7584279111674
 30
0.0
 11
460.1913883181789
 21
306.7584279111674
 31
0.0
  0
LINE
  5
2082
330
18
100
AcDbEntity
  8
外形線
100
AcDbLine
 10
477.6913883181788
 20
309.7584279111674
 30
0.0
 11
460.1913883181789
 21
306.7584279111674
 31
0.0
  0
LINE
  5
2083
330
18
100
AcDbEntity
  8
外形線
100
AcDbLine
 10
477.6913883181788
 20
297.7584279111674
 30
0.0
 11
460.1913883181789
 21
294.7584279111674
 31
0.0
  0
LINE
  5
2084
330
18
100
AcDbEntity
  8
外形線
100
AcDbLine
 10
477.6913883181785
 20
301.7584279111674
 30
0.0
 11
460.1913883181786
 21
298.7584279111674
 31
0.0
  0
LINE
  5
2085
330
18
100
AcDbEntity
  8
外形線
100
AcDbLine
 10
477.6913883181788
 20
309.7584279111674
 30
0.0
 11
460.1913883181789
 21
306.7584279111674
 31
0.0
  0
LINE
  5
2086
330
18
100
AcDbEntity
  8
外形線
100
AcDbLine
 10
477.6913883181788
 20
309.7584279111674
 30
0.0
 11
460.1913883181789
 21
306.7584279111674
 31
0.0
  0
LINE
  5
2087
330
18
100
AcDbEntity
  8
外形線
100
AcDbLine
 10
477.6913883181788
 20
297.7584279111674
 30
0.0
 11
460.1913883181789
 21
294.7584279111674
 31
0.0
  0
LINE
  5
2088
330
18
100
AcDbEntity
  8
外形線
100
AcDbLine
 10
477.6913883181785
 20
301.7584279111674
 30
0.0
 11
460.1913883181786
 21
298.7584279111674
 31
0.0
  0
LINE
  5
2089
330
18
100
AcDbEntity
  8
外形線
100
AcDbLine
 10
477.6913883181788
 20
309.7584279111674
 30
0.0
 11
460.1913883181789
 21
306.7584279111674
 31
0.0
  0
LINE
  5
208A
330
18
100
AcDbEntity
  8
外形線
100
AcDbLine
 10
477.6913883181788
 20
297.7584279111674
 30
0.0
 11
460.1913883181789
 21
294.7584279111674
 31
0.0
  0
LINE
  5
208B
330
18
100
AcDbEntity
  8
外形線
100
AcDbLine
 10
477.6913883181785
 20
289.7584279111674
 30
0.0
 11
446.6112694525267
 21
284.4304075341984
 31
0.0
  0
LINE
  5
208C
330
18
100
AcDbEntity
  8
外形線
100
AcDbLine
 10
477.6913883181788
 20
297.7584279111674
 30
0.0
 11
460.1913883181789
 21
294.7584279111674
 31
0.0
  0
LINE
  5
208D
330
18
100
AcDbEntity
  8
外形線
100
AcDbLine
 10
477.6913883181788
 20
297.7584279111674
 30
0.0
 11
460.1913883181789
 21
294.7584279111674
 31
0.0
  0
LINE
  5
208E
330
18
100
AcDbEntity
  8
外形線
100
AcDbLine
 10
477.6913883181785
 20
289.7584279111674
 30
0.0
 11
464.111269452526
 21
287.4304075341983
 31
0.0
  0
LINE
  5
208F
330
18
100
AcDbEntity
  8
外形線
100
AcDbLine
 10
477.6913883181788
 20
297.7584279111674
 30
0.0
 11
460.1913883181789
 21
294.7584279111674
 31
0.0
  0
LINE
  5
2090
330
18
100
AcDbEntity
  8
外形線
100
AcDbLine
 10
477.6913883181788
 20
297.7584279111674
 30
0.0
 11
460.1913883181789
 21
294.7584279111674
 31
0.0
  0
LINE
  5
2091
330
18
100
AcDbEntity
  8
外形線
100
AcDbLine
 10
477.6913883181785
 20
289.7584279111674
 30
0.0
 11
464.111269452526
 21
287.4304075341983
 31
0.0
  0
LINE
  5
2092
330
18
100
AcDbEntity
  8
外形線
100
AcDbLine
 10
477.6913883181788
 20
297.7584279111674
 30
0.0
 11
460.1913883181789
 21
294.7584279111674
 31
0.0
  0
LINE
  5
2093
330
18
100
AcDbEntity
  8
外形線
100
AcDbLine
 10
477.6913883181788
 20
297.7584279111674
 30
0.0
 11
460.1913883181789
 21
294.7584279111674
 31
0.0
  0
LINE
  5
2094
330
18
100
AcDbEntity
  8
外形線
100
AcDbLine
 10
477.6913883181784
 20
301.7584279111674
 30
0.0
 11
477.6913883181785
 21
309.7584279111674
 31
0.0
  0
LINE
  5
2095
330
18
100
AcDbEntity
  8
外形線
100
AcDbLine
 10
477.6913883181784
 20
301.7584279111674
 30
0.0
 11
477.6913883181785
 21
309.7584279111674
 31
0.0
  0
LINE
  5
2096
330
18
100
AcDbEntity
  8
外形線
100
AcDbLine
 10
477.6913883181784
 20
301.7584279111674
 30
0.0
 11
477.6913883181785
 21
309.7584279111674
 31
0.0
  0
LINE
  5
2097
330
18
100
AcDbEntity
  8
外形線
100
AcDbLine
 10
477.6913883181784
 20
289.7584279111674
 30
0.0
 11
477.6913883181785
 21
297.7584279111674
 31
0.0
  0
LINE
  5
2098
330
18
100
AcDbEntity
  8
外形線
100
AcDbLine
 10
477.6913883181784
 20
289.7584279111674
 30
0.0
 11
477.6913883181785
 21
297.7584279111674
 31
0.0
  0
LINE
  5
2099
330
18
100
AcDbEntity
  8
外形線
100
AcDbLine
 10
477.6913883181784
 20
289.7584279111674
 30
0.0
 11
477.6913883181785
 21
297.7584279111674
 31
0.0
  0
LINE
  5
209A
330
18
100
AcDbEntity
  8
外形線
100
AcDbLine
 10
477.6913883181784
 20
313.7584279111674
 30
0.0
 11
477.6913883181785
 21
321.7584279111674
 31
0.0
  0
ELLIPSE
  5
209C
330
18
100
AcDbEntity
  8
外形線
100
AcDbEllipse
 10
477.6913883181785
 20
335.7584279111673
 30
0.0
 11
0.0
 21
-2.0
 31
0.0
210
0.0
220
0.0
230
1.0
 40
0.8749999999999431
 41
3.141592653589793
 42
6.283185307179586
  0
LINE
  5
209D
330
18
100
AcDbEntity
  8
外形線
100
AcDbLine
 10
477.6913883181785
 20
337.7584279111673
 30
0.0
 11
460.1913883181786
 21
334.7584279111674
 31
0.0
  0
LINE
  5
209E
330
18
100
AcDbEntity
  8
外形線
100
AcDbLine
 10
477.6913883181788
 20
333.7584279111674
 30
0.0
 11
460.1913883181789
 21
330.7584279111674
 31
0.0
  0
LINE
  5
209F
330
18
100
AcDbEntity
  8
外形線
100
AcDbLine
 10
477.6913883181785
 20
337.7584279111673
 30
0.0
 11
477.6913883181784
 21
337.7584279111675
 31
0.0
  0
LINE
  5
20A0
330
18
100
AcDbEntity
  8
外形線
100
AcDbLine
 10
460.1913883181786
 20
213.4304075341983
 30
0.0
 11
436.1913883181784
 21
213.4304075341983
 31
0.0
  0
LINE
  5
20A1
330
18
100
AcDbEntity
  8
外形線
100
AcDbLine
 10
449.8848062342633
 20
215.4304075341983
 30
0.0
 11
444.6726989443504
 21
215.4304075341983
 31
0.0
  0
LINE
  5
20A2
330
18
100
AcDbEntity
  8
外形線
100
AcDbLine
 10
449.8848062342633
 20
228.4304075341982
 30
0.0
 11
444.6726989443504
 21
228.4304075341982
 31
0.0
  0
LINE
  5
20A3
330
18
100
AcDbEntity
  8
外形線
100
AcDbLine
 10
436.1913883181785
 20
230.4304075341985
 30
0.0
 11
485.1913883181786
 21
230.4304075341983
 31
0.0
  0
LINE
  5
20A4
330
18
100
AcDbEntity
  8
外形線
100
AcDbLine
 10
436.3214414027053
 20
228.4304075341984
 30
0.0
 11
436.3214414027053
 21
215.4304075341983
 31
0.0
  0
LINE
  5
20A5
330
18
100
AcDbEntity
  8
外形線
100
AcDbLine
 10
439.3306529495816
 20
228.4304075341983
 30
0.0
 11
439.3306529495816
 21
215.4304075341983
 31
0.0
  0
LINE
  5
20A6
330
18
100
AcDbEntity
  8
外形線
100
AcDbLine
 10
444.6726989443504
 20
228.4304075341983
 30
0.0
 11
444.6726989443504
 21
215.4304075341983
 31
0.0
  0
LINE
  5
20A7
330
18
100
AcDbEntity
  8
外形線
100
AcDbLine
 10
434.3661168604349
 20
228.4304075341984
 30
0.0
 11
434.3661168604349
 21
215.4304075341983
 31
0.0
  0
LINE
  5
20A8
330
18
100
AcDbEntity
  8
外形線
100
AcDbLine
 10
434.1913883181785
 20
215.4304075341983
 30
0.0
 11
434.1913883181785
 21
228.4304075341984
 31
0.0
  0
ELLIPSE
  5
20A9
330
18
100
AcDbEntity
  8
外形線
100
AcDbEllipse
 10
442.001675946966
 20
215.4304075341983
 30
0.0
 11
2.67102299738444
 21
0.0000000000000002
 31
0.0
210
0.0
220
0.0
230
-1.0
 40
0.7487767802667844
 41
0.0
 42
3.141592653589793
  0
LINE
  5
20AA
330
18
100
AcDbEntity
  8
外形線
100
AcDbLine
 10
439.3306529495816
 20
215.4304075341983
 30
0.0
 11
436.3214414027053
 21
215.4304075341983
 31
0.0
  0
LINE
  5
20AB
330
18
100
AcDbEntity
  8
外形線
100
AcDbLine
 10
434.3661168604349
 20
215.4304075341983
 30
0.0
 11
434.1913883181785
 21
215.4304075341983
 31
0.0
  0
LINE
  5
20AC
330
18
100
AcDbEntity
  8
外形線
100
AcDbLine
 10
436.1913883181784
 20
213.4304075341983
 30
0.0
 11
434.1913883181785
 21
215.4304075341983
 31
0.0
  0
SPLINE
  5
20AD
330
18
100
AcDbEntity
  8
外形線
100
AcDbSpline
210
0.0
220
0.0
230
1.0
 70
     8
 71
     3
 72
     9
 73
     5
 74
     3
 42
0.0000000001
 43
0.0000000001
 44
0.0000000001
 40
0.0
 40
0.0
 40
0.0
 40
0.0
 40
2.930517198650488
 40
4.886286147414096
 40
4.886286147414096
 40
4.886286147414096
 40
4.886286147414096
 10
434.3661168604349
 20
215.4304075341983
 30
0.0
 10
435.3534327581707
 20
214.2987029739885
 30
0.0
 10
436.9996636680081
 20
212.4117212773565
 30
0.0
 10
436.5153080156152
 20
214.5675304067562
 30
0.0
 10
436.3214414027053
 20
215.4304075341983
 30
0.0
 11
434.3661168604349
 21
215.4304075341983
 31
0.0
 11
436.5617096509477
 21
213.4894532972741
 31
0.0
 11
436.3214414027053
 21
215.4304075341983
 31
0.0
  0
ELLIPSE
  5
20AE
330
18
100
AcDbEntity
  8
外形線
100
AcDbEllipse
 10
442.001675946966
 20
228.4304075341984
 30
0.0
 11
2.67102299738444
 21
0.0000000000000002
 31
0.0
210
0.0
220
0.0
230
-1.0
 40
0.7487767802667844
 41
3.141592653589793
 42
6.283185307179586
  0
LINE
  5
20AF
330
18
100
AcDbEntity
  8
外形線
100
AcDbLine
 10
439.3306529495816
 20
228.4304075341983
 30
0.0
 11
436.3214414027053
 21
228.4304075341984
 31
0.0
  0
LINE
  5
20B0
330
18
100
AcDbEntity
  8
外形線
100
AcDbLine
 10
434.3661168604349
 20
228.4304075341984
 30
0.0
 11
434.1913883181785
 21
228.4304075341983
 31
0.0
  0
LINE
  5
20B1
330
18
100
AcDbEntity
  8
外形線
100
AcDbLine
 10
436.1913883181784
 20
230.4304075341984
 30
0.0
 11
434.1913883181785
 21
228.4304075341984
 31
0.0
  0
SPLINE
  5
20B2
330
18
100
AcDbEntity
  8
外形線
100
AcDbSpline
210
0.0
220
0.0
230
1.0
 70
     8
 71
     3
 72
     9
 73
     5
 74
     3
 42
0.0000000001
 43
0.0000000001
 44
0.0000000001
 40
0.0
 40
0.0
 40
0.0
 40
0.0
 40
2.912930466850271
 40
4.874789709406659
 40
4.874789709406659
 40
4.874789709406659
 40
4.874789709406659
 10
434.3661168604349
 20
228.4304075341984
 30
0.0
 10
435.3333665749946
 20
229.5634338189474
 30
0.0
 10
436.9520591626214
 20
231.4595535294032
 30
0.0
 10
436.5024048088279
 20
229.2996576755324
 30
0.0
 10
436.3214414027053
 20
228.4304075341984
 30
0.0
 11
434.3661168604349
 21
228.4304075341984
 31
0.0
 11
436.5293296928383
 21
230.3812212481212
 31
0.0
 11
436.3214414027053
 21
228.4304075341984
 31
0.0
  0
ELLIPSE
  5
20B3
330
18
100
AcDbEntity
  8
外形線
100
AcDbEllipse
 10
478.381100689391
 20
228.4304075341984
 30
0.0
 11
-2.67102299738444
 21
0.0000000000000002
 31
0.0
210
0.0
220
0.0
230
1.0
 40
0.7487767802667844
 41
3.141592653589793
 42
6.283185307179586
  0
ELLIPSE
  5
20B5
330
18
100
AcDbEntity
  8
外形線
100
AcDbEllipse
 10
478.381100689391
 20
215.4304075341983
 30
0.0
 11
-2.67102299738444
 21
0.0000000000000002
 31
0.0
210
0.0
220
0.0
230
1.0
 40
0.7487767802667844
 41
0.0
 42
3.141592653589793
  0
LINE
  5
20B6
330
18
100
AcDbEntity
  8
外形線
100
AcDbLine
 10
460.1913883181786
 20
213.4304075341983
 30
0.0
 11
484.1913883181786
 21
213.4304075341983
 31
0.0
  0
LINE
  5
20B7
330
18
100
AcDbEntity
  8
外形線
100
AcDbLine
 10
475.7100776920066
 20
228.4304075341983
 30
0.0
 11
475.7100776920066
 21
215.4304075341983
 31
0.0
  0
LINE
  5
20B8
330
18
100
AcDbEntity
  8
外形線
100
AcDbLine
 10
470.4979704020937
 20
228.4304075341983
 30
0.0
 11
470.4979704020937
 21
215.4304075341983
 31
0.0
  0
LINE
  5
20B9
330
18
100
AcDbEntity
  8
外形線
100
AcDbLine
 10
463.2005998650547
 20
228.4304075341982
 30
0.0
 11
463.2005998650547
 21
215.4304075341983
 31
0.0
  0
LINE
  5
20BA
330
18
100
AcDbEntity
  8
外形線
100
AcDbLine
 10
449.8848062342633
 20
228.4304075341983
 30
0.0
 11
449.8848062342633
 21
215.4304075341983
 31
0.0
  0
LINE
  5
20BB
330
18
100
AcDbEntity
  8
外形線
100
AcDbLine
 10
457.1821767713023
 20
228.4304075341982
 30
0.0
 11
457.1821767713023
 21
215.4304075341983
 31
0.0
  0
LINE
  5
20BD
330
18
100
AcDbEntity
  8
外形線
100
AcDbLine
 10
460.1913883181785
 20
215.4304075341983
 30
0.0
 11
463.2005998650547
 21
215.4304075341983
 31
0.0
  0
ELLIPSE
  5
20BE
330
18
100
AcDbEntity
  8
外形線
100
AcDbEllipse
 10
453.5334915027828
 20
215.4304075341983
 30
0.0
 11
3.6486852685195
 21
0.0000000000000002
 31
0.0
210
0.0
220
0.0
230
-1.0
 40
0.5481426466831385
 41
0.0
 42
3.141592653589793
  0
LINE
  5
20BF
330
18
100
AcDbEntity
  8
外形線
100
AcDbLine
 10
460.1913883181786
 20
215.4304075341983
 30
0.0
 11
457.1821767713023
 21
215.4304075341983
 31
0.0
  0
ELLIPSE
  5
20C0
330
18
100
AcDbEntity
  8
外形線
100
AcDbEllipse
 10
466.8492851335741
 20
215.4304075341983
 30
0.0
 11
-3.6486852685195
 21
0.0000000000000002
 31
0.0
210
0.0
220
0.0
230
1.0
 40
0.5481426466831385
 41
0.0
 42
3.141592653589793
  0
LINE
  5
20C1
330
18
100
AcDbEntity
  8
外形線
100
AcDbLine
 10
470.4979704020937
 20
215.4304075341983
 30
0.0
 11
475.7100776920066
 21
215.4304075341983
 31
0.0
  0
LINE
  5
20C2
330
18
100
AcDbEntity
  8
外形線
100
AcDbLine
 10
460.1913883181785
 20
228.4304075341982
 30
0.0
 11
463.2005998650547
 21
228.4304075341982
 31
0.0
  0
LINE
  5
20C3
330
18
100
AcDbEntity
  8
中心線
 48
0.4
100
AcDbLine
 10
488.8205363031985
 20
221.9304075341983
 30
0.0
 11
476.423275338289
 21
221.9304075341983
 31
0.0
  0
ELLIPSE
  5
20C7
330
18
100
AcDbEntity
  8
外形線
100
AcDbEllipse
 10
453.5334915027828
 20
228.4304075341982
 30
0.0
 11
3.6486852685195
 21
0.0000000000000002
 31
0.0
210
0.0
220
0.0
230
-1.0
 40
0.5481426466831385
 41
3.141592653589793
 42
6.283185307179586
  0
LINE
  5
20C8
330
18
100
AcDbEntity
  8
外形線
100
AcDbLine
 10
460.1913883181786
 20
228.4304075341982
 30
0.0
 11
457.1821767713023
 21
228.4304075341982
 31
0.0
  0
ELLIPSE
  5
20C9
330
18
100
AcDbEntity
  8
外形線
100
AcDbEllipse
 10
466.8492851335741
 20
228.4304075341982
 30
0.0
 11
-3.6486852685195
 21
0.0000000000000002
 31
0.0
210
0.0
220
0.0
230
1.0
 40
0.5481426466831385
 41
3.141592653589793
 42
6.283185307179586
  0
LINE
  5
20CA
330
18
100
AcDbEntity
  8
外形線
100
AcDbLine
 10
470.4979704020937
 20
228.4304075341982
 30
0.0
 11
475.7100776920066
 21
228.4304075341982
 31
0.0
  0
LINE
  5
20CB
330
18
100
AcDbEntity
  8
外形線
100
AcDbLine
 10
486.0166597759222
 20
228.4304075341984
 30
0.0
 11
486.0166597759222
 21
215.4304075341983
 31
0.0
  0
LINE
  5
20CC
330
18
100
AcDbEntity
  8
外形線
100
AcDbLine
 10
484.0613352336517
 20
228.4304075341984
 30
0.0
 11
484.0613352336517
 21
215.4304075341983
 31
0.0
  0
LINE
  5
20CD
330
18
100
AcDbEntity
  8
外形線
100
AcDbLine
 10
486.1913883181785
 20
215.4304075341983
 30
0.0
 11
486.1913883181785
 21
228.4304075341984
 31
0.0
  0
LINE
  5
20CE
330
18
100
AcDbEntity
  8
外形線
100
AcDbLine
 10
481.0521236867754
 20
228.4304075341983
 30
0.0
 11
481.0521236867754
 21
215.4304075341983
 31
0.0
  0
SPLINE
  5
20CF
330
18
100
AcDbEntity
  8
外形線
100
AcDbSpline
210
0.0
220
0.0
230
1.0
 70
     8
 71
     3
 72
     9
 73
     5
 74
     3
 42
0.0000000001
 43
0.0000000001
 44
0.0000000001
 40
0.0
 40
0.0
 40
0.0
 40
0.0
 40
2.930517198650488
 40
4.886286147414096
 40
4.886286147414096
 40
4.886286147414096
 40
4.886286147414096
 10
486.0166597759222
 20
215.4304075341983
 30
0.0
 10
485.0293438781863
 20
214.2987029739885
 30
0.0
 10
483.3831129683492
 20
212.4117212773565
 30
0.0
 10
483.8674686207418
 20
214.5675304067562
 30
0.0
 10
484.0613352336517
 20
215.4304075341983
 30
0.0
 11
486.0166597759222
 21
215.4304075341983
 31
0.0
 11
483.8210669854094
 21
213.4894532972741
 31
0.0
 11
484.0613352336517
 21
215.4304075341983
 31
0.0
  0
LINE
  5
20D0
330
18
100
AcDbEntity
  8
外形線
100
AcDbLine
 10
484.1913883181786
 20
213.4304075341983
 30
0.0
 11
486.1913883181785
 21
215.4304075341983
 31
0.0
  0
LINE
  5
20D1
330
18
100
AcDbEntity
  8
外形線
100
AcDbLine
 10
481.0521236867754
 20
215.4304075341983
 30
0.0
 11
484.0613352336517
 21
215.4304075341983
 31
0.0
  0
LINE
  5
20D2
330
18
100
AcDbEntity
  8
外形線
100
AcDbLine
 10
486.0166597759222
 20
215.4304075341983
 30
0.0
 11
486.1913883181785
 21
215.4304075341983
 31
0.0
  0
SPLINE
  5
20D3
330
18
100
AcDbEntity
  8
外形線
100
AcDbSpline
210
0.0
220
0.0
230
1.0
 70
     8
 71
     3
 72
     9
 73
     5
 74
     3
 42
0.0000000001
 43
0.0000000001
 44
0.0000000001
 40
0.0
 40
0.0
 40
0.0
 40
0.0
 40
2.912930466850271
 40
4.874789709406659
 40
4.874789709406659
 40
4.874789709406659
 40
4.874789709406659
 10
486.0166597759222
 20
228.4304075341984
 30
0.0
 10
485.0494100613624
 20
229.5634338189474
 30
0.0
 10
483.4307174737357
 20
231.4595535294032
 30
0.0
 10
483.8803718275292
 20
229.2996576755324
 30
0.0
 10
484.0613352336517
 20
228.4304075341984
 30
0.0
 11
486.0166597759222
 21
228.4304075341984
 31
0.0
 11
483.8534469435187
 21
230.3812212481212
 31
0.0
 11
484.0613352336517
 21
228.4304075341984
 31
0.0
  0
LINE
  5
20D4
330
18
100
AcDbEntity
  8
外形線
100
AcDbLine
 10
484.1913883181786
 20
230.4304075341984
 30
0.0
 11
486.1913883181785
 21
228.4304075341984
 31
0.0
  0
LINE
  5
20D5
330
18
100
AcDbEntity
  8
外形線
100
AcDbLine
 10
481.0521236867754
 20
228.4304075341983
 30
0.0
 11
484.0613352336517
 21
228.4304075341984
 31
0.0
  0
LINE
  5
20D6
330
18
100
AcDbEntity
  8
外形線
100
AcDbLine
 10
486.0166597759222
 20
228.4304075341984
 30
0.0
 11
486.1913883181785
 21
228.4304075341983
 31
0.0
  0
LINE
  5
20D7
330
18
100
AcDbEntity
  8
外形線
100
AcDbLine
 10
477.6913883181784
 20
193.6704083512651
 30
0.0
 11
477.6913883181785
 21
201.6704083512652
 31
0.0
  0
LINE
  5
20D8
330
18
100
AcDbEntity
  8
外形線
100
AcDbLine
 10
477.6913883181784
 20
193.6704083512651
 30
0.0
 11
477.6913883181785
 21
201.6704083512652
 31
0.0
  0
LINE
  5
20D9
330
18
100
AcDbEntity
  8
外形線
100
AcDbLine
 10
477.6913883181784
 20
193.6704083512651
 30
0.0
 11
477.6913883181785
 21
201.6704083512652
 31
0.0
  0
ELLIPSE
  5
20DA
330
18
100
AcDbEntity
  8
外形線
100
AcDbEllipse
 10
442.6913883181785
 20
197.6704083512652
 30
0.0
 11
0.0
 21
2.0
 31
0.0
210
0.0
220
0.0
230
1.0
 40
0.8750000000000568
 41
3.141592653589793
 42
6.283185307179586
  0
LINE
  5
20DB
330
18
100
AcDbEntity
  8
外形線
100
AcDbLine
 10
460.1913883181786
 20
198.6704083512652
 30
0.0
 11
442.6913883181785
 21
195.6704083512653
 31
0.0
  0
LINE
  5
20DC
330
18
100
AcDbEntity
  8
外形線
100
AcDbLine
 10
460.1913883181786
 20
198.6704083512652
 30
0.0
 11
442.6913883181785
 21
195.6704083512653
 31
0.0
  0
LINE
  5
20DD
330
18
100
AcDbEntity
  8
外形線
100
AcDbLine
 10
460.1913883181786
 20
198.6704083512652
 30
0.0
 11
442.6913883181785
 21
195.6704083512653
 31
0.0
  0
LINE
  5
20DE
330
18
100
AcDbEntity
  8
外形線
100
AcDbLine
 10
460.1913883181786
 20
198.6704083512652
 30
0.0
 11
442.6913883181785
 21
195.6704083512653
 31
0.0
  0
LINE
  5
20DF
330
18
100
AcDbEntity
  8
外形線
100
AcDbLine
 10
460.1913883181786
 20
186.6704083512651
 30
0.0
 11
442.6913883181785
 21
183.6704083512653
 31
0.0
  0
LINE
  5
20E0
330
18
100
AcDbEntity
  8
外形線
100
AcDbLine
 10
460.1913883181786
 20
186.6704083512651
 30
0.0
 11
442.6913883181785
 21
183.6704083512653
 31
0.0
  0
LINE
  5
20E1
330
18
100
AcDbEntity
  8
外形線
100
AcDbLine
 10
460.1913883181786
 20
186.6704083512651
 30
0.0
 11
442.6913883181785
 21
183.6704083512653
 31
0.0
  0
LINE
  5
20E2
330
18
100
AcDbEntity
  8
外形線
100
AcDbLine
 10
460.1913883181786
 20
186.6704083512651
 30
0.0
 11
442.6913883181785
 21
183.6704083512653
 31
0.0
  0
LINE
  5
20E3
330
18
100
AcDbEntity
  8
外形線
100
AcDbLine
 10
460.1913883181786
 20
190.6704083512651
 30
0.0
 11
442.6913883181785
 21
187.6704083512653
 31
0.0
  0
LINE
  5
20E4
330
18
100
AcDbEntity
  8
外形線
100
AcDbLine
 10
460.1913883181786
 20
190.6704083512651
 30
0.0
 11
442.6913883181785
 21
187.6704083512653
 31
0.0
  0
LINE
  5
20E5
330
18
100
AcDbEntity
  8
外形線
100
AcDbLine
 10
460.1913883181786
 20
190.6704083512651
 30
0.0
 11
442.6913883181785
 21
187.6704083512653
 31
0.0
  0
LINE
  5
20E6
330
18
100
AcDbEntity
  8
外形線
100
AcDbLine
 10
460.1913883181786
 20
178.6704083512652
 30
0.0
 11
442.6913883181785
 21
175.6704083512653
 31
0.0
  0
LINE
  5
20E7
330
18
100
AcDbEntity
  8
外形線
100
AcDbLine
 10
460.1913883181786
 20
174.6704083512651
 30
0.0
 11
442.6913883181785
 21
171.6704083512652
 31
0.0
  0
LINE
  5
20EE
330
18
100
AcDbEntity
  8
外形線
100
AcDbLine
 10
460.1913883181786
 20
138.6704083512651
 30
0.0
 11
442.6913883181785
 21
135.6704083512653
 31
0.0
  0
LINE
  5
20EF
330
18
100
AcDbEntity
  8
外形線
100
AcDbLine
 10
460.1913883181786
 20
154.6704083512651
 30
0.0
 11
442.6913883181785
 21
151.6704083512653
 31
0.0
  0
LINE
  5
20F0
330
18
100
AcDbEntity
  8
外形線
100
AcDbLine
 10
460.1913883181786
 20
150.6704083512651
 30
0.0
 11
442.6913883181785
 21
147.6704083512653
 31
0.0
  0
LINE
  5
20F1
330
18
100
AcDbEntity
  8
外形線
100
AcDbLine
 10
460.1913883181786
 20
150.6704083512651
 30
0.0
 11
442.6913883181785
 21
147.6704083512653
 31
0.0
  0
LINE
  5
20F2
330
18
100
AcDbEntity
  8
外形線
100
AcDbLine
 10
460.1913883181786
 20
142.6704083512651
 30
0.0
 11
442.6913883181785
 21
139.6704083512652
 31
0.0
  0
LINE
  5
20F3
330
18
100
AcDbEntity
  8
外形線
100
AcDbLine
 10
460.1913883181786
 20
162.6704083512651
 30
0.0
 11
442.6913883181785
 21
159.6704083512653
 31
0.0
  0
LINE
  5
20F4
330
18
100
AcDbEntity
  8
外形線
100
AcDbLine
 10
460.1913883181786
 20
166.6704083512651
 30
0.0
 11
442.6913883181785
 21
163.6704083512652
 31
0.0
  0
LINE
  5
20F5
330
18
100
AcDbEntity
  8
外形線
100
AcDbLine
 10
442.6913883181785
 20
151.6704083512653
 30
0.0
 11
442.6913883181785
 21
159.6704083512653
 31
0.0
  0
LINE
  5
20F8
330
18
100
AcDbEntity
  8
外形線
100
AcDbLine
 10
442.6913883181785
 20
132.7584279111674
 30
0.0
 11
442.6913883181785
 21
135.6704083512653
 31
0.0
  0
LINE
  5
20F9
330
18
100
AcDbEntity
  8
外形線
100
AcDbLine
 10
442.6913883181785
 20
139.6704083512652
 30
0.0
 11
442.6913883181785
 21
147.6704083512653
 31
0.0
  0
ELLIPSE
  5
20FA
330
18
100
AcDbEntity
  8
外形線
100
AcDbEllipse
 10
442.6913883181785
 20
137.6704083512652
 30
0.0
 11
0.0
 21
2.0
 31
0.0
210
0.0
220
0.0
230
1.0
 40
0.8750000000000568
 41
3.141592653589793
 42
6.283185307179586
  0
ELLIPSE
  5
20FB
330
18
100
AcDbEntity
  8
外形線
100
AcDbEllipse
 10
442.6913883181785
 20
149.6704083512653
 30
0.0
 11
0.0
 21
2.0
 31
0.0
210
0.0
220
0.0
230
1.0
 40
0.8750000000000568
 41
3.141592653589793
 42
6.283185307179586
  0
ELLIPSE
  5
20FC
330
18
100
AcDbEntity
  8
外形線
100
AcDbEllipse
 10
442.6913883181785
 20
173.6704083512653
 30
0.0
 11
0.0
 21
2.0
 31
0.0
210
0.0
220
0.0
230
1.0
 40
0.8750000000000568
 41
3.141592653589793
 42
6.283185307179586
  0
LINE
  5
20FD
330
18
100
AcDbEntity
  8
外形線
100
AcDbLine
 10
442.6913883181785
 20
171.6704083512652
 30
0.0
 11
442.6913883181785
 21
163.6704083512652
 31
0.0
  0
ELLIPSE
  5
20FE
330
18
100
AcDbEntity
  8
外形線
100
AcDbEllipse
 10
442.6913883181785
 20
161.6704083512653
 30
0.0
 11
0.0
 21
2.0
 31
0.0
210
0.0
220
0.0
230
1.0
 40
0.8750000000000568
 41
3.141592653589793
 42
6.283185307179586
  0
ELLIPSE
  5
20FF
330
18
100
AcDbEntity
  8
外形線
100
AcDbEllipse
 10
442.6913883181785
 20
185.6704083512653
 30
0.0
 11
0.0
 21
2.0
 31
0.0
210
0.0
220
0.0
230
1.0
 40
0.8750000000000568
 41
3.141592653589793
 42
6.283185307179586
  0
LINE
  5
2100
330
18
100
AcDbEntity
  8
外形線
100
AcDbLine
 10
442.6913883181785
 20
175.6704083512653
 30
0.0
 11
442.6913883181785
 21
183.6704083512653
 31
0.0
  0
LINE
  5
2101
330
18
100
AcDbEntity
  8
外形線
100
AcDbLine
 10
442.6913883181785
 20
187.6704083512653
 30
0.0
 11
442.6913883181785
 21
195.6704083512653
 31
0.0
  0
LINE
  5
2102
330
18
100
AcDbEntity
  8
外形線
100
AcDbLine
 10
442.6913883181785
 20
187.6704083512653
 30
0.0
 11
442.6913883181785
 21
195.6704083512653
 31
0.0
  0
LINE
  5
2103
330
18
100
AcDbEntity
  8
外形線
100
AcDbLine
 10
442.6913883181785
 20
187.6704083512653
 30
0.0
 11
442.6913883181785
 21
195.6704083512653
 31
0.0
  0
LINE
  5
2104
330
18
100
AcDbEntity
  8
外形線
100
AcDbLine
 10
477.6913883181784
 20
145.6704083512651
 30
0.0
 11
477.6913883181785
 21
153.6704083512652
 31
0.0
  0
LINE
  5
2105
330
18
100
AcDbEntity
  8
外形線
100
AcDbLine
 10
477.6913883181788
 20
153.6704083512652
 30
0.0
 11
460.1913883181789
 21
150.6704083512651
 31
0.0
  0
LINE
  5
2106
330
18
100
AcDbEntity
  8
外形線
100
AcDbLine
 10
477.6913883181788
 20
153.6704083512652
 30
0.0
 11
460.1913883181789
 21
150.6704083512651
 31
0.0
  0
ELLIPSE
  5
2107
330
18
100
AcDbEntity
  8
外形線
100
AcDbEllipse
 10
477.6913883181785
 20
143.6704083512651
 30
0.0
 11
0.0
 21
-2.0
 31
0.0
210
0.0
220
0.0
230
1.0
 40
0.8749999999999431
 41
3.141592653589793
 42
6.283185307179586
  0
ELLIPSE
  5
2108
330
18
100
AcDbEntity
  8
外形線
100
AcDbEllipse
 10
477.6913883181785
 20
131.6704083512652
 30
0.0
 11
0.0
 21
-2.0
 31
0.0
210
0.0
220
0.0
230
1.0
 40
0.8749999999999431
 41
3.141592653589793
 42
4.137180445233594
  0
LINE
  5
2109
330
18
100
AcDbEntity
  8
外形線
100
AcDbLine
 10
477.6913883181788
 20
141.6704083512651
 30
0.0
 11
460.1913883181789
 21
138.6704083512651
 31
0.0
  0
LINE
  5
210A
330
18
100
AcDbEntity
  8
外形線
100
AcDbLine
 10
477.6913883181788
 20
141.6704083512651
 30
0.0
 11
460.1913883181789
 21
138.6704083512651
 31
0.0
  0
LINE
  5
210B
330
18
100
AcDbEntity
  8
外形線
100
AcDbLine
 10
477.6913883181788
 20
141.6704083512651
 30
0.0
 11
460.1913883181789
 21
138.6704083512651
 31
0.0
  0
LINE
  5
210C
330
18
100
AcDbEntity
  8
外形線
100
AcDbLine
 10
477.6913883181788
 20
141.6704083512651
 30
0.0
 11
460.1913883181789
 21
138.6704083512651
 31
0.0
  0
LINE
  5
210D
330
18
100
AcDbEntity
  8
外形線
100
AcDbLine
 10
477.6913883181788
 20
141.6704083512651
 30
0.0
 11
460.1913883181789
 21
138.6704083512651
 31
0.0
  0
LINE
  5
210E
330
18
100
AcDbEntity
  8
外形線
100
AcDbLine
 10
477.6913883181788
 20
141.6704083512651
 30
0.0
 11
460.1913883181789
 21
138.6704083512651
 31
0.0
  0
LINE
  5
210F
330
18
100
AcDbEntity
  8
外形線
100
AcDbLine
 10
477.6913883181788
 20
141.6704083512651
 30
0.0
 11
460.1913883181789
 21
138.6704083512651
 31
0.0
  0
LINE
  5
2110
330
18
100
AcDbEntity
  8
外形線
100
AcDbLine
 10
477.6913883181785
 20
133.6704083512652
 30
0.0
 11
472.3715024176086
 21
132.7584279111674
 31
0.0
  0
LINE
  5
2111
330
18
100
AcDbEntity
  8
外形線
100
AcDbLine
 10
477.6913883181785
 20
133.6704083512652
 30
0.0
 11
472.3715024176086
 21
132.7584279111674
 31
0.0
  0
LINE
  5
2112
330
18
100
AcDbEntity
  8
外形線
100
AcDbLine
 10
477.6913883181785
 20
133.6704083512652
 30
0.0
 11
472.3715024176086
 21
132.7584279111674
 31
0.0
  0
LINE
  5
2113
330
18
100
AcDbEntity
  8
外形線
100
AcDbLine
 10
477.6913883181785
 20
145.6704083512651
 30
0.0
 11
460.1913883181786
 21
142.6704083512651
 31
0.0
  0
LINE
  5
2114
330
18
100
AcDbEntity
  8
外形線
100
AcDbLine
 10
477.6913883181784
 20
133.6704083512652
 30
0.0
 11
477.6913883181785
 21
141.6704083512651
 31
0.0
  0
LINE
  5
2115
330
18
100
AcDbEntity
  8
外形線
100
AcDbLine
 10
477.6913883181784
 20
133.6704083512652
 30
0.0
 11
477.6913883181785
 21
141.6704083512651
 31
0.0
  0
LINE
  5
2116
330
18
100
AcDbEntity
  8
外形線
100
AcDbLine
 10
477.6913883181784
 20
133.6704083512652
 30
0.0
 11
477.6913883181785
 21
141.6704083512651
 31
0.0
  0
ELLIPSE
  5
2117
330
18
100
AcDbEntity
  8
外形線
100
AcDbEllipse
 10
477.6913883181785
 20
179.6704083512651
 30
0.0
 11
0.0
 21
-2.0
 31
0.0
210
0.0
220
0.0
230
1.0
 40
0.8749999999999431
 41
3.141592653589793
 42
6.283185307179586
  0
ELLIPSE
  5
2118
330
18
100
AcDbEntity
  8
外形線
100
AcDbEllipse
 10
477.6913883181785
 20
191.6704083512651
 30
0.0
 11
0.0
 21
-2.0
 31
0.0
210
0.0
220
0.0
230
1.0
 40
0.8749999999999431
 41
3.141592653589793
 42
6.283185307179586
  0
LINE
  5
2119
330
18
100
AcDbEntity
  8
外形線
100
AcDbLine
 10
477.6913883181788
 20
189.6704083512651
 30
0.0
 11
460.1913883181789
 21
186.6704083512651
 31
0.0
  0
LINE
  5
211A
330
18
100
AcDbEntity
  8
外形線
100
AcDbLine
 10
477.6913883181788
 20
189.6704083512651
 30
0.0
 11
460.1913883181789
 21
186.6704083512651
 31
0.0
  0
LINE
  5
211B
330
18
100
AcDbEntity
  8
外形線
100
AcDbLine
 10
477.6913883181788
 20
189.6704083512651
 30
0.0
 11
460.1913883181789
 21
186.6704083512651
 31
0.0
  0
LINE
  5
211C
330
18
100
AcDbEntity
  8
外形線
100
AcDbLine
 10
477.6913883181788
 20
189.6704083512651
 30
0.0
 11
460.1913883181789
 21
186.6704083512651
 31
0.0
  0
LINE
  5
211D
330
18
100
AcDbEntity
  8
外形線
100
AcDbLine
 10
477.6913883181788
 20
189.6704083512651
 30
0.0
 11
460.1913883181789
 21
186.6704083512651
 31
0.0
  0
LINE
  5
211E
330
18
100
AcDbEntity
  8
外形線
100
AcDbLine
 10
477.6913883181788
 20
189.6704083512651
 30
0.0
 11
460.1913883181789
 21
186.6704083512651
 31
0.0
  0
LINE
  5
211F
330
18
100
AcDbEntity
  8
外形線
100
AcDbLine
 10
477.6913883181788
 20
189.6704083512651
 30
0.0
 11
460.1913883181789
 21
186.6704083512651
 31
0.0
  0
LINE
  5
2120
330
18
100
AcDbEntity
  8
外形線
100
AcDbLine
 10
477.6913883181785
 20
193.6704083512651
 30
0.0
 11
460.1913883181786
 21
190.6704083512651
 31
0.0
  0
LINE
  5
2121
330
18
100
AcDbEntity
  8
外形線
100
AcDbLine
 10
477.6913883181788
 20
189.6704083512651
 30
0.0
 11
460.1913883181789
 21
186.6704083512651
 31
0.0
  0
LINE
  5
2122
330
18
100
AcDbEntity
  8
外形線
100
AcDbLine
 10
477.6913883181785
 20
193.6704083512651
 30
0.0
 11
460.1913883181786
 21
190.6704083512651
 31
0.0
  0
LINE
  5
2123
330
18
100
AcDbEntity
  8
外形線
100
AcDbLine
 10
477.6913883181788
 20
189.6704083512651
 30
0.0
 11
460.1913883181789
 21
186.6704083512651
 31
0.0
  0
LINE
  5
2124
330
18
100
AcDbEntity
  8
外形線
100
AcDbLine
 10
477.6913883181785
 20
193.6704083512651
 30
0.0
 11
460.1913883181786
 21
190.6704083512651
 31
0.0
  0
LINE
  5
2125
330
18
100
AcDbEntity
  8
外形線
100
AcDbLine
 10
477.6913883181788
 20
189.6704083512651
 30
0.0
 11
460.1913883181789
 21
186.6704083512651
 31
0.0
  0
LINE
  5
2126
330
18
100
AcDbEntity
  8
外形線
100
AcDbLine
 10
477.6913883181788
 20
177.6704083512651
 30
0.0
 11
460.1913883181789
 21
174.6704083512651
 31
0.0
  0
LINE
  5
2127
330
18
100
AcDbEntity
  8
外形線
100
AcDbLine
 10
477.6913883181785
 20
181.6704083512652
 30
0.0
 11
460.1913883181786
 21
178.6704083512652
 31
0.0
  0
ELLIPSE
  5
2128
330
18
100
AcDbEntity
  8
外形線
100
AcDbEllipse
 10
477.6913883181785
 20
155.6704083512651
 30
0.0
 11
0.0
 21
-2.0
 31
0.0
210
0.0
220
0.0
230
1.0
 40
0.8749999999999431
 41
3.141592653589793
 42
6.283185307179586
  0
LINE
  5
2129
330
18
100
AcDbEntity
  8
外形線
100
AcDbLine
 10
477.6913883181788
 20
165.6704083512651
 30
0.0
 11
460.1913883181789
 21
162.6704083512651
 31
0.0
  0
LINE
  5
212A
330
18
100
AcDbEntity
  8
外形線
100
AcDbLine
 10
477.6913883181785
 20
157.6704083512652
 30
0.0
 11
460.1913883181786
 21
154.6704083512651
 31
0.0
  0
LINE
  5
212B
330
18
100
AcDbEntity
  8
外形線
100
AcDbLine
 10
477.6913883181785
 20
169.6704083512651
 30
0.0
 11
460.1913883181786
 21
166.6704083512651
 31
0.0
  0
ELLIPSE
  5
212C
330
18
100
AcDbEntity
  8
外形線
100
AcDbEllipse
 10
477.6913883181785
 20
167.6704083512651
 30
0.0
 11
0.0
 21
-2.0
 31
0.0
210
0.0
220
0.0
230
1.0
 40
0.8749999999999431
 41
3.141592653589793
 42
6.283185307179586
  0
LINE
  5
212D
330
18
100
AcDbEntity
  8
外形線
100
AcDbLine
 10
477.6913883181785
 20
169.6704083512651
 30
0.0
 11
477.6913883181788
 21
177.6704083512651
 31
0.0
  0
LINE
  5
212E
330
18
100
AcDbEntity
  8
外形線
100
AcDbLine
 10
477.6913883181784
 20
157.6704083512652
 30
0.0
 11
477.6913883181785
 21
165.6704083512651
 31
0.0
  0
LINE
  5
212F
330
18
100
AcDbEntity
  8
外形線
100
AcDbLine
 10
477.6913883181784
 20
181.6704083512652
 30
0.0
 11
477.6913883181785
 21
189.6704083512651
 31
0.0
  0
LINE
  5
2130
330
18
100
AcDbEntity
  8
外形線
100
AcDbLine
 10
460.1913883181786
 20
202.6704083512651
 30
0.0
 11
442.6913883181785
 21
199.6704083512653
 31
0.0
  0
LINE
  5
2131
330
18
100
AcDbEntity
  8
外形線
100
AcDbLine
 10
460.1913883181786
 20
210.6704083512652
 30
0.0
 11
442.6913883181785
 21
207.6704083512653
 31
0.0
  0
LINE
  5
2132
330
18
100
AcDbEntity
  8
外形線
100
AcDbLine
 10
460.1913883181786
 20
210.6704083512652
 30
0.0
 11
442.6913883181785
 21
207.6704083512653
 31
0.0
  0
LINE
  5
2133
330
18
100
AcDbEntity
  8
外形線
100
AcDbLine
 10
452.9580502186214
 20
213.4304075341983
 30
0.0
 11
442.6913883181785
 21
211.6704083512653
 31
0.0
  0
ELLIPSE
  5
2134
330
18
100
AcDbEntity
  8
外形線
100
AcDbEllipse
 10
442.6913883181785
 20
209.6704083512653
 30
0.0
 11
0.0
 21
2.0
 31
0.0
210
0.0
220
0.0
230
1.0
 40
0.8750000000000568
 41
3.141592653589793
 42
6.283185307179586
  0
LINE
  5
2135
330
18
100
AcDbEntity
  8
外形線
100
AcDbLine
 10
442.6913883181785
 20
199.6704083512653
 30
0.0
 11
442.6913883181785
 21
207.6704083512653
 31
0.0
  0
LINE
  5
2136
330
18
100
AcDbEntity
  8
外形線
100
AcDbLine
 10
442.6913883181785
 20
211.6704083512653
 30
0.0
 11
442.6913883181784
 21
213.4304075341983
 31
0.0
  0
ELLIPSE
  5
2137
330
18
100
AcDbEntity
  8
外形線
100
AcDbEllipse
 10
477.6913883181785
 20
203.6704083512652
 30
0.0
 11
0.0
 21
-2.0
 31
0.0
210
0.0
220
0.0
230
1.0
 40
0.8749999999999431
 41
3.141592653589793
 42
6.283185307179586
  0
LINE
  5
2138
330
18
100
AcDbEntity
  8
外形線
100
AcDbLine
 10
477.6913883181788
 20
201.6704083512652
 30
0.0
 11
460.1913883181789
 21
198.6704083512652
 31
0.0
  0
LINE
  5
2139
330
18
100
AcDbEntity
  8
外形線
100
AcDbLine
 10
477.6913883181788
 20
201.6704083512652
 30
0.0
 11
460.1913883181789
 21
198.6704083512652
 31
0.0
  0
LINE
  5
213A
330
18
100
AcDbEntity
  8
外形線
100
AcDbLine
 10
477.6913883181788
 20
201.6704083512652
 30
0.0
 11
460.1913883181789
 21
198.6704083512652
 31
0.0
  0
LINE
  5
213B
330
18
100
AcDbEntity
  8
外形線
100
AcDbLine
 10
477.6913883181788
 20
201.6704083512652
 30
0.0
 11
460.1913883181789
 21
198.6704083512652
 31
0.0
  0
LINE
  5
213C
330
18
100
AcDbEntity
  8
外形線
100
AcDbLine
 10
477.6913883181788
 20
201.6704083512652
 30
0.0
 11
460.1913883181789
 21
198.6704083512652
 31
0.0
  0
LINE
  5
213D
330
18
100
AcDbEntity
  8
外形線
100
AcDbLine
 10
477.6913883181788
 20
201.6704083512652
 30
0.0
 11
460.1913883181789
 21
198.6704083512652
 31
0.0
  0
LINE
  5
213E
330
18
100
AcDbEntity
  8
外形線
100
AcDbLine
 10
476.2913835519553
 20
213.4304075341983
 30
0.0
 11
460.1913883181789
 21
210.6704083512652
 31
0.0
  0
LINE
  5
213F
330
18
100
AcDbEntity
  8
外形線
100
AcDbLine
 10
477.6913883181788
 20
201.6704083512652
 30
0.0
 11
460.1913883181789
 21
198.6704083512652
 31
0.0
  0
LINE
  5
2140
330
18
100
AcDbEntity
  8
外形線
100
AcDbLine
 10
477.6913883181785
 20
205.6704083512652
 30
0.0
 11
460.1913883181786
 21
202.6704083512651
 31
0.0
  0
LINE
  5
2141
330
18
100
AcDbEntity
  8
外形線
100
AcDbLine
 10
476.2913835519553
 20
213.4304075341983
 30
0.0
 11
460.1913883181789
 21
210.6704083512652
 31
0.0
  0
LINE
  5
2142
330
18
100
AcDbEntity
  8
外形線
100
AcDbLine
 10
477.6913883181784
 20
205.6704083512652
 30
0.0
 11
477.6913883181785
 21
213.4304075341983
 31
0.0
  0
LINE
  5
2146
330
18
100
AcDbEntity
  8
外形線
100
AcDbLine
 10
435.1913883181787
 20
284.4304075341985
 30
0.0
 11
485.1913883181786
 21
284.4304075341982
 31
0.0
  0
LINE
  5
2148
330
18
100
AcDbEntity
  8
外形線
100
AcDbLine
 10
447.1913883181788
 20
255.4304075341986
 30
0.0
 11
459.1913883181788
 21
255.4304075341986
 31
0.0
  0
LINE
  5
2149
330
18
100
AcDbEntity
  8
中心線
100
AcDbLine
 10
439.81081730599
 20
243.4304075341986
 30
0.0
 11
495.2445922520573
 21
243.4304075341984
 31
0.0
  0
LINE
  5
214B
330
18
100
AcDbEntity
  8
外形線
100
AcDbLine
 10
443.6913883181785
 20
338.7584279111675
 30
0.0
 11
476.6913883181784
 21
338.7584279111675
 31
0.0
  0
ARC
  5
214C
330
18
100
AcDbEntity
  8
外形線
100
AcDbCircle
 10
443.6913883181785
 20
337.7584279111675
 30
0.0
 40
1.0
100
AcDbArc
 50
90.0
 51
180.0
  0
ARC
  5
214D
330
18
100
AcDbEntity
  8
外形線
100
AcDbCircle
 10
476.6913883181784
 20
337.7584279111675
 30
0.0
 40
1.0
100
AcDbArc
 50
0.0
 51
90.0
  0
ELLIPSE
  5
214E
330
18
100
AcDbEntity
  8
外形線
100
AcDbEllipse
 10
477.6913883181785
 20
287.7584279111673
 30
0.0
 11
0.0
 21
-2.0
 31
0.0
210
0.0
220
0.0
230
1.0
 40
0.8749999999999431
 41
3.141592653589793
 42
6.283185307179586
  0
LINE
  5
214F
330
18
100
AcDbEntity
  8
外形線
100
AcDbLine
 10
477.6913883181785
 20
289.7584279111674
 30
0.0
 11
460.1913883181786
 21
286.7584279111674
 31
0.0
  0
LINE
  5
2150
330
18
100
AcDbEntity
  8
外形線
100
AcDbLine
 10
477.6913883181789
 20
285.7584279111673
 30
0.0
 11
469.9446027858597
 21
284.4304075341982
 31
0.0
  0
LINE
  5
2151
330
18
100
AcDbEntity
  8
外形線
100
AcDbLine
 10
477.6913883181785
 20
284.4304075341982
 30
0.0
 11
477.6913883181785
 21
285.7584279111673
 31
0.0
  0
LINE
  5
2152
330
18
100
AcDbEntity
  8
外形線
100
AcDbLine
 10
411.1913883181787
 20
132.7584279111674
 30
0.0
 11
509.1913883181788
 21
132.7584279111674
 31
0.0
  0
LINE
  5
215A
330
18
100
AcDbEntity
  8
外形線
100
AcDbLine
 10
435.1913883181786
 20
238.4304075341985
 30
0.0
 11
435.1913883181786
 21
284.4304075341985
 31
0.0
  0
LINE
  5
215B
330
18
100
AcDbEntity
  8
外形線
100
AcDbLine
 10
485.1913883181786
 20
256.4304075341984
 30
0.0
 11
485.1913883181786
 21
284.4304075341982
 31
0.0
  0
LINE
  5
215C
330
18
100
AcDbEntity
  8
外形線
100
AcDbLine
 10
447.1913883181787
 20
230.4304075341985
 30
0.0
 11
447.1913883181789
 21
284.4304075341985
 31
0.0
  0
LINE
  5
215D
330
18
100
AcDbEntity
  8
外形線
100
AcDbLine
 10
473.1913883181786
 20
230.4304075341983
 30
0.0
 11
473.1913883181787
 21
284.4304075341983
 31
0.0
  0
LINE
  5
215E
330
18
100
AcDbEntity
  8
外形線
100
AcDbLine
 10
459.1913883181788
 20
230.4304075341984
 30
0.0
 11
459.1913883181788
 21
255.5213259971887
 31
0.0
  0
LINE
  5
215F
330
18
100
AcDbEntity
  8
外形線
100
AcDbLine
 10
461.1913883181786
 20
230.4304075341984
 30
0.0
 11
461.1913883181787
 21
255.5213259971887
 31
0.0
  0
LINE
  5
2163
330
18
100
AcDbEntity
  8
中心線
 48
0.4
100
AcDbLine
 10
452.1877788332353
 20
259.9304075341984
 30
0.0
 11
468.1949978031221
 21
259.9304075341984
 31
0.0
  0
ELLIPSE
  5
2166
330
18
100
AcDbEntity
  8
外形線
100
AcDbEllipse
 10
460.1913883181786
 20
259.9304075341984
 30
0.0
 11
-5.0
 21
0.0000000000000568
 31
0.0
210
0.0
220
0.0
230
1.0
 40
0.9
 41
1.772154247585238
 42
7.652623713184185
  0
LINE
  5
2168
330
18
100
AcDbEntity
  8
外形線
100
AcDbLine
 10
461.1913883181787
 20
255.4304075341986
 30
0.0
 11
473.1913883181787
 21
255.4304075341986
 31
0.0
  0
LINE
  5
2171
330
18
100
AcDbEntity
  8
外形線
100
AcDbLine
 10
479.1913883181788
 20
233.9304075341985
 30
0.0
 11
473.1913883181788
 21
233.9304075341985
 31
0.0
  0
LINE
  5
2173
330
18
100
AcDbEntity
  8
外形線
100
AcDbLine
 10
489.1913883181788
 20
255.9304075341984
 30
0.0
 11
489.1913883181788
 21
230.9304075341985
 31
0.0
  0
LINE
  5
2174
330
18
100
AcDbEntity
  8
外形線
100
AcDbLine
 10
488.1913883181787
 20
256.4304075341984
 30
0.0
 11
488.1913883181787
 21
230.4304075341985
 31
0.0
  0
LINE
  5
2175
330
18
100
AcDbEntity
  8
外形線
100
AcDbLine
 10
479.1913883181787
 20
256.4304075341985
 30
0.0
 11
479.1913883181787
 21
230.4304075341985
 31
0.0
  0
LINE
  5
2177
330
18
100
AcDbEntity
  8
外形線
100
AcDbLine
 10
479.1913883181788
 20
252.9304075341985
 30
0.0
 11
473.1913883181788
 21
252.9304075341985
 31
0.0
  0
LINE
  5
2178
330
18
100
AcDbEntity
  8
外形線
100
AcDbLine
 10
488.1913883181788
 20
256.4304075341984
 30
0.0
 11
479.1913883181788
 21
256.4304075341985
 31
0.0
  0
LINE
  5
2179
330
18
100
AcDbEntity
  8
外形線
100
AcDbLine
 10
489.1913883181788
 20
255.9304075341985
 30
0.0
 11
488.1913883181787
 21
255.9304075341985
 31
0.0
  0
ELLIPSE
  5
217A
330
18
100
AcDbEntity
  8
外形線
100
AcDbEllipse
 10
489.1913883181788
 20
243.4304075341985
 30
0.0
 11
-0.0000000000000561
 21
12.5
 31
0.0
210
0.0
220
0.0
230
1.0
 40
0.1599999999999909
 41
3.141592653589793
 42
6.283185307179586
  0
LINE
  5
217B
330
18
100
AcDbEntity
  8
外形線
100
AcDbLine
 10
488.1913883181788
 20
230.4304075341985
 30
0.0
 11
479.1913883181788
 21
230.4304075341985
 31
0.0
  0
LINE
  5
217C
330
18
100
AcDbEntity
  8
外形線
100
AcDbLine
 10
489.1913883181786
 20
230.9304075341985
 30
0.0
 11
488.1913883181787
 21
230.9304075341985
 31
0.0
  0
LINE
  5
217F
330
18
100
AcDbEntity
  8
隠れ線2
100
AcDbLine
 10
472.1913883181787
 20
249.4304075341988
 30
0.0
 11
472.1913883181787
 21
237.4304075341988
 31
0.0
  0
LINE
  5
2180
330
18
100
AcDbEntity
  8
隠れ線2
100
AcDbLine
 10
473.1913883181788
 20
237.4304075341988
 30
0.0
 11
472.1913883181787
 21
237.4304075341988
 31
0.0
  0
LINE
  5
2181
330
18
100
AcDbEntity
  8
隠れ線2
100
AcDbLine
 10
473.1913883181788
 20
249.4304075341988
 30
0.0
 11
472.1913883181787
 21
249.4304075341988
 31
0.0
  0
LINE
  5
2182
330
18
100
AcDbEntity
  8
隠れ線2
100
AcDbLine
 10
472.1913883181787
 20
246.6304075341989
 30
0.0
 11
461.1913883181787
 21
246.6304075341989
 31
0.0
  0
LINE
  5
2183
330
18
100
AcDbEntity
  8
隠れ線2
100
AcDbLine
 10
472.1913883181787
 20
240.2304075341988
 30
0.0
 11
461.1913883181787
 21
240.2304075341988
 31
0.0
  0
LINE
  5
2184
330
18
100
AcDbEntity
  8
寸法線
100
AcDbLine
 10
459.1913883181787
 20
241.2304075341984
 30
0.0
 11
461.1913883181787
 21
241.2304075341984
 31
0.0
  0
LINE
  5
2185
330
18
100
AcDbEntity
  8
外形線
100
AcDbLine
 10
459.1913883181787
 20
240.4304075341985
 30
0.0
 11
461.1913883181787
 21
240.4304075341985
 31
0.0
  0
LINE
  5
2186
330
18
100
AcDbEntity
  8
外形線
100
AcDbLine
 10
459.1913883181787
 20
246.4304075341992
 30
0.0
 11
461.1913883181787
 21
246.4304075341992
 31
0.0
  0
LINE
  5
2187
330
18
100
AcDbEntity
  8
寸法線
100
AcDbLine
 10
459.1913883181787
 20
245.6304075341992
 30
0.0
 11
461.1913883181787
 21
245.6304075341992
 31
0.0
  0
LINE
  5
2188
330
18
100
AcDbEntity
  8
隠れ線2
100
AcDbLine
 10
459.1913883181788
 20
245.6304075341985
 30
0.0
 11
447.1913883181787
 21
245.6304075341985
 31
0.0
  0
LINE
  5
2189
330
18
100
AcDbEntity
  8
隠れ線2
100
AcDbLine
 10
459.1913883181788
 20
246.4304075341985
 30
0.0
 11
447.1913883181787
 21
246.4304075341985
 31
0.0
  0
LINE
  5
218A
330
18
100
AcDbEntity
  8
隠れ線2
100
AcDbLine
 10
459.1913883181788
 20
241.2304075341984
 30
0.0
 11
447.1913883181787
 21
241.2304075341984
 31
0.0
  0
LINE
  5
218B
330
18
100
AcDbEntity
  8
隠れ線2
100
AcDbLine
 10
459.1913883181788
 20
240.4304075341985
 30
0.0
 11
447.1913883181787
 21
240.4304075341985
 31
0.0
  0
LINE
  5
2192
330
18
100
AcDbEntity
  8
中心線
100
AcDbLine
 10
478.1345778120553
 20
261.4304075341985
 30
0.0
 11
516.140649675057
 21
261.4304075341983
 31
0.0
  0
LINE
  5
2193
330
18
100
AcDbEntity
  8
外形線
100
AcDbLine
 10
491.1913883181788
 20
271.4304075341985
 30
0.0
 11
485.1913883181786
 21
271.4304075341985
 31
0.0
  0
LINE
  5
2194
330
18
100
AcDbEntity
  8
外形線
100
AcDbLine
 10
491.1913883181788
 20
251.4304075341985
 30
0.0
 11
490.7281381351623
 21
251.4304075341985
 31
0.0
  0
LINE
  5
2195
330
18
100
AcDbEntity
  8
隠れ線2
100
AcDbLine
 10
501.1913883181788
 20
256.4304075341985
 30
0.0
 11
488.1913883181787
 21
256.4304075341985
 31
0.0
  0
LINE
  5
2196
330
18
100
AcDbEntity
  8
隠れ線2
100
AcDbLine
 10
501.1913883181788
 20
266.4304075341985
 30
0.0
 11
485.1913883181786
 21
266.4304075341984
 31
0.0
  0
LINE
  5
2197
330
18
100
AcDbEntity
  8
外形線
100
AcDbLine
 10
491.1913883181786
 20
274.9722419471899
 30
0.0
 11
491.1913883181786
 21
247.888573121207
 31
0.0
  0
LINE
  5
2198
330
18
100
AcDbEntity
  8
隠れ線2
100
AcDbLine
 10
503.1913883181788
 20
270.4304075341985
 30
0.0
 11
503.1913883181788
 21
252.4304075341985
 31
0.0
  0
LINE
  5
2199
330
18
100
AcDbEntity
  8
隠れ線2
100
AcDbLine
 10
501.1913883181788
 20
270.4304075341985
 30
0.0
 11
501.1913883181786
 21
252.4304075341985
 31
0.0
  0
ELLIPSE
  5
219A
330
18
100
AcDbEntity
  8
外形線
100
AcDbEllipse
 10
503.6913883181788
 20
261.4304075341985
 30
0.0
 11
-0.0000000000000008
 21
-6.198022008748182
 31
0.0
210
0.0
220
0.0
230
1.0
 40
0.8837054091322825
 41
0.0
 42
6.283185307179586
  0
LINE
  5
219B
330
18
100
AcDbEntity
  8
外形線
100
AcDbLine
 10
497.1913883181788
 20
280.4304075341985
 30
0.0
 11
497.1913883181788
 21
242.4304075341985
 31
0.0
  0
LINE
  5
219C
330
18
100
AcDbEntity
  8
外形線
100
AcDbLine
 10
510.1913883181788
 20
280.4304075341985
 30
0.0
 11
510.1913883181788
 21
242.4304075341983
 31
0.0
  0
ELLIPSE
  5
219D
330
18
100
AcDbEntity
  8
外形線
100
AcDbEllipse
 10
503.6913883181788
 20
241.9448359490486
 30
0.0
 11
5.477225575051704
 21
-0.0000000000000007
 31
0.0
210
0.0
220
0.0
230
1.0
 40
0.2123691835366178
 41
0.0
 42
3.141592653589793
  0
ARC
  5
219E
330
18
100
AcDbEntity
  8
外形線
100
AcDbCircle
 10
503.6913883181787
 20
242.4304075341983
 30
0.0
 40
6.5
100
AcDbArc
 50
180.0
 51
0.0
  0
ELLIPSE
  5
219F
330
18
100
AcDbEntity
  8
外形線
100
AcDbEllipse
 10
503.6913883181788
 20
241.9448359490486
 30
0.0
 11
5.477225575051704
 21
-0.0000000000000007
 31
0.0
210
0.0
220
0.0
230
1.0
 40
0.919229638498327
 41
3.141592653589793
 42
6.283185307179586
  0
ARC
  5
21A0
330
18
100
AcDbEntity
  8
隠れ線2
100
AcDbCircle
 10
513.8313883181786
 20
252.4304075341985
 30
0.0
 40
10.64
100
AcDbArc
 50
180.0000000000006
 51
249.99480991184
  0
ARC
  5
21A2
330
18
100
AcDbEntity
  8
外形線
100
AcDbCircle
 10
491.6913883181784
 20
247.888573121207
 30
0.0
 40
0.5
100
AcDbArc
 50
179.9999999999997
 51
265.0000000000003
  0
LINE
  5
21A3
330
18
100
AcDbEntity
  8
隠れ線2
100
AcDbLine
 10
502.1913883181788
 20
246.4680322354133
 30
0.0
 11
497.1913883181788
 21
246.9054755530428
 31
0.0
  0
LINE
  5
21A4
330
18
100
AcDbEntity
  8
隠れ線2
100
AcDbLine
 10
502.1913883181788
 20
241.9304075341984
 30
0.0
 11
497.2106476197708
 21
241.9304075341984
 31
0.0
  0
LINE
  5
21A5
330
18
100
AcDbEntity
  8
隠れ線2
100
AcDbLine
 10
502.1913883181788
 20
246.4680322354133
 30
0.0
 11
502.1913883181788
 21
241.9304075341985
 31
0.0
  0
LINE
  5
21A6
330
18
100
AcDbEntity
  8
外形線
100
AcDbLine
 10
497.1913883181788
 20
246.905475553043
 30
0.0
 11
491.6478104468048
 21
247.3904757721613
 31
0.0
  0
LINE
  5
21A7
330
18
100
AcDbEntity
  8
隠れ線2
100
AcDbLine
 10
503.1913883181788
 20
252.4304075341985
 30
0.0
 11
491.1913883181786
 21
252.4304075341985
 31
0.0
  0
POINT
  5
21A8
330
18
100
AcDbEntity
  8
DEFPOINTS
  6
ByBlock
 62
     0
100
AcDbPoint
 10
491.353810662881
 20
247.5197353158727
 30
0.0
  0
ELLIPSE
  5
21A9
330
18
100
AcDbEntity
  8
外形線
100
AcDbEllipse
 10
503.6913883181788
 20
280.9159791193481
 30
0.0
 11
5.477225575051704
 21
-0.0000000000000436
 31
0.0
210
0.0
220
0.0
230
-1.0
 40
0.2123691835366178
 41
0.0
 42
3.141592653589793
  0
ARC
  5
21AA
330
18
100
AcDbEntity
  8
外形線
100
AcDbCircle
 10
503.6913883181787
 20
280.4304075341984
 30
0.0
 40
6.5
100
AcDbArc
 50
0.0
 51
180.0
  0
ELLIPSE
  5
21AB
330
18
100
AcDbEntity
  8
外形線
100
AcDbEllipse
 10
503.6913883181788
 20
280.9159791193481
 30
0.0
 11
5.477225575051704
 21
-0.0000000000000436
 31
0.0
210
0.0
220
0.0
230
-1.0
 40
0.919229638498327
 41
3.141592653589793
 42
6.283185307179586
  0
ARC
  5
21AC
330
18
100
AcDbEntity
  8
隠れ線2
100
AcDbCircle
 10
513.8313883181788
 20
270.430407534198
 30
0.0
 40
10.64
100
AcDbArc
 50
110.0051900881596
 51
179.999999999999
  0
LINE
  5
21AD
330
18
100
AcDbEntity
  8
隠れ線2
100
AcDbLine
 10
502.1913883181785
 20
280.9304075341985
 30
0.0
 11
502.1913883181785
 21
276.3927828329837
 31
0.0
  0
LINE
  5
21AE
330
18
100
AcDbEntity
  8
隠れ線2
100
AcDbLine
 10
502.1913883181788
 20
276.3927828329837
 30
0.0
 11
497.1913883181788
 21
275.955339515354
 31
0.0
  0
LINE
  5
21AF
330
18
100
AcDbEntity
  8
隠れ線2
100
AcDbLine
 10
503.1913883181788
 20
270.4304075341985
 30
0.0
 11
491.1913883181786
 21
270.4304075341985
 31
0.0
  0
POINT
  5
21B0
330
18
100
AcDbEntity
  8
DEFPOINTS
  6
ByBlock
 62
     0
100
AcDbPoint
 10
491.2667354720435
 20
275.2361926249106
 30
0.0
  0
LINE
  5
21B1
330
18
100
AcDbEntity
  8
外形線
100
AcDbLine
 10
497.1913883181788
 20
275.955339515354
 30
0.0
 11
491.6478104468048
 21
275.4703392962357
 31
0.0
  0
ARC
  5
21B2
330
18
100
AcDbEntity
  8
外形線
100
AcDbCircle
 10
491.6913883181784
 20
274.9722419471898
 30
0.0
 40
0.5
100
AcDbArc
 50
95.0000000000003
 51
179.9999999999995
  0
LINE
  5
21B3
330
18
100
AcDbEntity
  8
隠れ線2
100
AcDbLine
 10
502.1913883181785
 20
280.9304075341985
 30
0.0
 11
497.2106476197708
 21
280.9304075341985
 31
0.0
  0
DIMENSION
  5
21DE
330
18
100
AcDbEntity
  8
寸法線
100
AcDbDimension
  2
*D44
 10
400.1913883181787
 20
45.89002765237728
 30
0.0
 11
460.1913883181786
 21
47.76502765237728
 31
0.0
 70
    32
 71
     5
 42
-1.0
  3
STYLE3
100
AcDbAlignedDimension
 13
520.1913883181787
 23
63.75842791116747
 33
0.0
 14
400.1913883181787
 24
63.75842791116747
 34
0.0
100
AcDbRotatedDimension
1001
ACAD
1000
DSTYLE
1002
{
1070
   271
1070
     2
1002
}
  0
DIMENSION
  5
2206
330
18
100
AcDbEntity
  8
寸法線
100
AcDbDimension
  2
*D45
 10
533.7651872878391
 20
132.7584279111674
 30
0.0
 11
531.8901872878391
 21
125.2584279111675
 31
0.0
 70
    32
 71
     5
 42
-1.0
  3
STYLE3
100
AcDbAlignedDimension
 13
550.447870436978
 23
117.7584279111675
 33
0.0
 14
534.0735313800815
 24
132.7584279111674
 34
0.0
 50
90.0
100
AcDbRotatedDimension
1001
ACAD
1000
DSTYLE
1002
{
1070
   271
1070
     2
1002
}
  0
LINE
  5
2214
330
18
100
AcDbEntity
  8
0
  6
ByBlock
 62
     2
100
AcDbLine
 10
410.1913883181786
 20
131.7584279111674
 30
0.0
 11
410.1913883181786
 21
141.2832179671786
 31
0.0
  0
LINE
  5
2215
330
18
100
AcDbEntity
  8
0
  6
ByBlock
 62
     2
100
AcDbLine
 10
510.1913883181788
 20
131.7584279111674
 30
0.0
 11
510.1913883181788
 21
141.2832179671786
 31
0.0
  0
LINE
  5
2216
330
18
100
AcDbEntity
  8
0
  6
ByBlock
 62
     2
100
AcDbLine
 10
412.6913883181787
 20
140.0332179671786
 30
0.0
 11
507.6913883181788
 21
140.0332179671786
 31
0.0
  0
INSERT
  5
2217
330
18
100
AcDbEntity
  8
0
  6
ByBlock
 62
     2
100
AcDbBlockReference
  2
_OPEN
 10
410.1913883181786
 20
140.0332179671786
 30
0.0
 41
2.5
 42
2.5
 43
2.5
 50
180.0
  0
INSERT
  5
2218
330
18
100
AcDbEntity
  8
0
  6
ByBlock
 62
     2
100
AcDbBlockReference
  2
_OPEN
 10
510.1913883181788
 20
140.0332179671786
 30
0.0
 41
2.5
 42
2.5
 43
2.5
  0
MTEXT
  5
2219
330
18
100
AcDbEntity
  8
0
  6
ByBlock
 62
     6
100
AcDbMText
 10
483.8616334364028
 20
141.9082179671786
 30
0.0
 40
2.5
 41
0.0
 71
     5
 72
     1
  1
\A1;100
  7
STYLE3
 73
     1
 44
1.0
  0
POINT
  5
221A
330
18
100
AcDbEntity
  8
DEFPOINTS
  6
ByBlock
 62
     0
100
AcDbPoint
 10
410.1913883181786
 20
132.7584279111674
 30
0.0
  0
POINT
  5
221B
330
18
100
AcDbEntity
  8
DEFPOINTS
  6
ByBlock
 62
     0
100
AcDbPoint
 10
510.1913883181788
 20
132.7584279111674
 30
0.0
  0
POINT
  5
221C
330
18
100
AcDbEntity
  8
DEFPOINTS
  6
ByBlock
 62
     0
100
AcDbPoint
 10
510.1913883181788
 20
140.0332179671786
 30
0.0
  0
DIMENSION
  5
224B
330
18
100
AcDbEntity
  8
寸法線
100
AcDbDimension
  2
*D47
 10
527.9166647379857
 20
132.7584279111674
 30
0.0
 11
526.0416647379856
 21
95.75842791116746
 31
0.0
 70
    32
 71
     5
 42
-1.0
  3
STYLE3
100
AcDbAlignedDimension
 13
540.447870436978
 23
58.75842791116747
 33
0.0
 14
532.5151872878391
 24
132.7584279111674
 34
0.0
 50
90.0
100
AcDbRotatedDimension
1001
ACAD
1000
DSTYLE
1002
{
1070
   271
1070
     2
1002
}
  0
DIMENSION
  5
2258
330
18
100
AcDbEntity
  8
寸法線
100
AcDbDimension
  2
*D48
 10
735.391032595392
 20
119.7584279111675
 30
0.0
 11
733.516032595392
 21
89.25842791116748
 31
0.0
 70
    32
 71
     5
 42
-1.0
  3
STYLE3
100
AcDbAlignedDimension
 13
716.4478704369781
 23
58.75842791116747
 33
0.0
 14
705.447870436978
 24
119.7584279111675
 34
0.0
 50
90.0
100
AcDbRotatedDimension
1001
ACAD
1000
DSTYLE
1002
{
1070
   271
1070
     2
1002
}
  0
DIMENSION
  5
2271
330
18
100
AcDbEntity
  8
寸法線
100
AcDbDimension
  2
*D49
 10
735.391032595392
 20
119.7584279111675
 30
0.0
 11
733.516032595392
 21
229.2584279111674
 31
0.0
 70
    32
 71
     5
 42
-1.0
  3
STYLE3
100
AcDbAlignedDimension
 13
701.9478704369778
 23
338.7584279111674
 33
0.0
 14
727.6038490073278
 24
119.7584279111675
 34
0.0
 50
90.0
100
AcDbRotatedDimension
1001
ACAD
1000
DSTYLE
1002
{
1070
   271
1070
     2
1002
}
  0
DIMENSION
  5
227E
330
18
100
AcDbEntity
  8
寸法線
100
AcDbDimension
  2
*D50
 10
742.687336351878
 20
58.75842791116747
 30
0.0
 11
740.812336351878
 21
198.7584279111674
 31
0.0
 70
    32
 71
     5
 42
-1.0
  3
STYLE3
100
AcDbAlignedDimension
 13
736.641032595392
 23
338.7584279111674
 33
0.0
 14
736.641032595392
 24
58.75842791116747
 34
0.0
 50
90.0
100
AcDbRotatedDimension
1001
ACAD
1000
DSTYLE
1002
{
1070
   271
1070
     2
1002
}
  0
LINE
  5
2287
330
18
100
AcDbEntity
  8
外形線
100
AcDbLine
 10
435.1913883181787
 20
238.4304075341985
 30
0.0
 11
447.1913883181787
 21
238.4304075341985
 31
0.0
  0
LINE
  5
2288
330
18
100
AcDbEntity
  8
外形線
100
AcDbLine
 10
410.1913883181786
 20
131.7584279111674
 30
0.0
 11
510.1913883181786
 21
131.7584279111674
 31
0.0
  0
LINE
  5
2289
330
18
100
AcDbEntity
  8
外形線
100
AcDbLine
 10
410.1913883181786
 20
131.7584279111674
 30
0.0
 11
411.1913883181787
 21
132.7584279111674
 31
0.0
  0
LINE
  5
228A
330
18
100
AcDbEntity
  8
外形線
100
AcDbLine
 10
509.1913883181788
 20
132.7584279111674
 30
0.0
 11
510.1913883181788
 21
131.7584279111674
 31
0.0
  0
LINE
  5
228C
330
18
100
AcDbEntity
  8
外形線
100
AcDbLine
 10
606.3298364482279
 20
469.8328069967734
 30
0.0
 11
604.3208537831853
 21
469.8328069967734
 31
0.0
  0
LINE
  5
228D
330
18
100
AcDbEntity
  8
外形線
100
AcDbLine
 10
606.3298364482282
 20
467.8328069967734
 30
0.0
 11
604.3208537831852
 21
467.8328069967733
 31
0.0
  0
ARC
  5
2291
330
18
100
AcDbEntity
  8
外形線
100
AcDbCircle
 10
600.447870436978
 20
468.8328069967735
 30
0.0
 40
4.0
100
AcDbArc
 50
14.47751218592828
 51
165.5224878140717
  0
LINE
  5
2293
330
18
100
AcDbEntity
  8
隠れ線2
100
AcDbLine
 10
590.4979960659117
 20
469.8328069967735
 30
0.0
 11
589.2424030214704
 21
469.8328069967735
 31
0.0
  0
LINE
  5
2294
330
18
100
AcDbEntity
  8
隠れ線2
100
AcDbLine
 10
590.4979960659117
 20
467.8328069967736
 30
0.0
 11
589.2424030214704
 21
467.8328069967736
 31
0.0
  0
LINE
  5
2295
330
18
100
AcDbEntity
  8
中心線
 48
0.15
100
AcDbLine
 10
607.4478704369779
 20
465.1452335096464
 30
0.0
 11
607.4478704369779
 21
472.5203804839006
 31
0.0
  0
ARC
  5
2296
330
18
100
AcDbEntity
  8
外形線
100
AcDbCircle
 10
607.4478704369779
 20
468.8328069967735
 30
0.0
 40
1.5
100
AcDbArc
 50
221.8103148957873
 51
138.1896851042266
  0
ARC
  5
2297
330
18
100
AcDbEntity
  8
外形線
100
AcDbCircle
 10
600.447870436978
 20
468.8328069967735
 30
0.0
 40
4.0
100
AcDbArc
 50
194.4775121859326
 51
345.5224878140665
  0
LINE
  5
2298
330
18
100
AcDbEntity
  8
外形線
100
AcDbLine
 10
596.5748870907705
 20
469.8328069967734
 30
0.0
 11
570.4478704369779
 21
469.8328069967736
 31
0.0
  0
LINE
  5
2299
330
18
100
AcDbEntity
  8
外形線
100
AcDbLine
 10
596.5748870907706
 20
467.8328069967734
 30
0.0
 11
570.4478704369779
 21
467.8328069967736
 31
0.0
  0
LINE
  5
22BC
330
18
100
AcDbEntity
  8
寸法線
 62
     2
100
AcDbLine
 10
586.4478704369775
 20
230.4304075341985
 30
0.0
 11
532.5151872878391
 21
230.4304075341985
 31
0.0
  0
LINE
  5
22BD
330
18
100
AcDbEntity
  8
寸法線
 62
     2
100
AcDbLine
 10
535.4603116562266
 20
132.7584279111674
 30
0.0
 11
532.5151872878391
 21
132.7584279111674
 31
0.0
  0
LINE
  5
22BE
330
18
100
AcDbEntity
  8
寸法線
 62
     2
100
AcDbLine
 10
533.7651872878391
 20
227.9304075341985
 30
0.0
 11
533.7651872878391
 21
135.2584279111674
 31
0.0
  0
INSERT
  5
22BF
330
18
100
AcDbEntity
  8
寸法線
 62
     2
100
AcDbBlockReference
  2
_OPEN
 10
533.7651872878391
 20
230.4304075341985
 30
0.0
 41
2.5
 42
2.5
 43
2.5
 50
90.0
  0
INSERT
  5
22C0
330
18
100
AcDbEntity
  8
寸法線
 62
     2
100
AcDbBlockReference
  2
_OPEN
 10
533.7651872878391
 20
132.7584279111674
 30
0.0
 41
2.5
 42
2.5
 43
2.5
 50
270.0
  0
MTEXT
  5
22C1
330
18
100
AcDbEntity
  8
寸法線
 62
     6
100
AcDbMText
 10
531.8901872878391
 20
181.594417722683
 30
0.0
 40
2.5
 41
0.0
 71
     5
 72
     1
  1
5～150
  7
STYLE3
 11
0.0000000000000001
 21
1.0
 31
0.0
 73
     1
 44
1.0
  0
LINE
  5
22C2
330
18
100
AcDbEntity
  8
寸法線
 62
     2
100
AcDbLine
 10
667.9478704369778
 20
336.7584279111675
 30
0.0
 11
667.9478704369778
 21
345.7522454992651
 31
0.0
  0
LINE
  5
22C3
330
18
100
AcDbEntity
  8
寸法線
 62
     2
100
AcDbLine
 10
702.9478704369778
 20
337.7584279111673
 30
0.0
 11
702.9478704369778
 21
345.7522454992651
 31
0.0
  0
LINE
  5
22C4
330
18
100
AcDbEntity
  8
寸法線
 62
     2
100
AcDbLine
 10
670.4478704369778
 20
344.5022454992651
 30
0.0
 11
700.4478704369778
 21
344.5022454992651
 31
0.0
  0
INSERT
  5
22C5
330
18
100
AcDbEntity
  8
寸法線
 62
     2
100
AcDbBlockReference
  2
_OPEN
 10
667.9478704369778
 20
344.5022454992651
 30
0.0
 41
2.5
 42
2.5
 43
2.5
 50
180.0
  0
INSERT
  5
22C6
330
18
100
AcDbEntity
  8
寸法線
 62
     2
100
AcDbBlockReference
  2
_OPEN
 10
702.9478704369778
 20
344.5022454992651
 30
0.0
 41
2.5
 42
2.5
 43
2.5
  0
MTEXT
  5
22C7
330
18
100
AcDbEntity
  8
寸法線
 62
     6
100
AcDbMText
 10
685.4478704369778
 20
346.3772454992651
 30
0.0
 40
2.5
 41
0.0
 71
     5
 72
     1
  1
φ35
  7
STYLE3
 73
     1
 44
1.0
  0
INSERT
  5
22E9
330
18
100
AcDbEntity
  8
外形線
100
AcDbBlockReference
  2
A$C5B3A1AB9
 10
402.8702481563938
 20
383.9156178980629
 30
0.0
  0
LINE
  5
22EA
330
18
100
AcDbEntity
  8
外形線
100
AcDbLine
 10
402.8458331563938
 20
383.1094948980629
 30
0.0
 11
535.8458331563938
 21
383.1094948980629
 31
0.0
  0
TEXT
  5
22EB
330
18
100
AcDbEntity
  8
文字
100
AcDbText
 10
403.1587431563939
 20
387.1830988980629
 30
0.0
 40
5.0
  1
Model No.PDS-2F Dial Gauge Stand
  7
STYLE3
100
AcDbText
  0
LINE
  5
22EC
330
18
100
AcDbEntity
  8
外形線
100
AcDbLine
 10
715.907810620467
 20
10.08534596067187
 30
0.0
 11
715.907810620467
 21
0.4705679606718718
 31
0.0
  0
TEXT
  5
22ED
330
18
100
AcDbEntity
  8
0
  6
Continuous
100
AcDbText
 10
688.107412620467
 20
2.218709960671871
 30
0.0
 40
2.1
  1
Date
  7
STYLE3
100
AcDbText
  0
TEXT
  5
22EE
330
18
100
AcDbEntity
  8
0
  6
Continuous
100
AcDbText
 10
687.7240516204669
 20
5.551792960671871
 30
0.0
 40
3.0
  1
日 付
  7
STYLE3
100
AcDbText
  0
TEXT
  5
22EF
330
18
100
AcDbEntity
  8
0
  6
Continuous
100
AcDbText
 10
678.013640620467
 20
4.258208960671872
 30
0.0
 40
2.399999999999999
  1
1/1
  7
STYLE3
100
AcDbText
  0
LINE
  5
22F0
330
18
100
AcDbEntity
  8
外形線
100
AcDbLine
 10
686.175461620467
 20
10.08534596067187
 30
0.0
 11
686.175461620467
 21
0.4705679606718718
 31
0.0
  0
TEXT
  5
22F1
330
18
100
AcDbEntity
  8
0
  6
Continuous
100
AcDbText
 10
696.852219620467
 20
3.96685096067187
 30
0.0
 40
2.1
  1
2010.06.15
  7
STYLE3
100
AcDbText
  0
TEXT
  5
22F2
330
18
100
AcDbEntity
  8
0
  6
Continuous
100
AcDbText
 10
658.6552886204669
 20
3.966851960671871
 30
0.0
 40
2.399999999999999
  1
mm
  7
STYLE3
100
AcDbText
  0
LINE
  5
22F3
330
18
100
AcDbEntity
  8
外形線
100
AcDbLine
 10
666.645389620467
 20
10.08534596067187
 30
0.0
 11
666.645389620467
 21
0.4705679606718718
 31
0.0
  0
TEXT
  5
22F4
330
18
100
AcDbEntity
  8
0
  6
Continuous
100
AcDbText
 10
650.613240620467
 20
5.720945960671871
 30
0.0
 40
3.0
  1
単位
  7
STYLE3
100
AcDbText
  0
TEXT
  5
22F5
330
18
100
AcDbEntity
  8
0
  6
Continuous
100
AcDbText
 10
650.784961620467
 20
2.218708960671872
 30
0.0
 40
2.1
  1
Unit
  7
STYLE3
100
AcDbText
  0
LINE
  5
22F6
330
18
100
AcDbEntity
  8
外形線
100
AcDbLine
 10
649.155771620467
 20
10.08534596067187
 30
0.0
 11
649.155771620467
 21
0.4705679606718718
 31
0.0
  0
TEXT
  5
22F7
330
18
100
AcDbEntity
  8
0
  6
Continuous
100
AcDbText
 10
617.674462620467
 20
5.714990960671871
 30
0.0
 40
3.0
  1
三　　角　　法
  7
STYLE3
100
AcDbText
  0
TEXT
  5
22F8
330
18
100
AcDbEntity
  8
0
  6
Continuous
100
AcDbText
 10
615.051019620467
 20
2.218707960671871
 30
0.0
 40
2.1
  1
3RD Angle Projection
  7
STYLE3
100
AcDbText
  0
TEXT
  5
22F9
330
18
100
AcDbEntity
  8
0
  6
Continuous
100
AcDbText
 10
667.9311366204671
 20
5.429587960671871
 30
0.0
 40
3.0
  1
尺 度
  7
STYLE3
100
AcDbText
  0
TEXT
  5
22FA
330
18
100
AcDbEntity
  8
0
  6
Continuous
100
AcDbText
 10
668.3943526204671
 20
2.510065960671871
 30
0.0
 40
2.1
  1
Scale
  7
STYLE3
100
AcDbText
  0
LINE
  5
22FB
330
18
100
AcDbEntity
  8
外形線
100
AcDbLine
 10
613.8850446204671
 20
0.4705679606718718
 30
0.0
 11
613.8850446204671
 21
20.86555196067187
 31
0.0
  0
LINE
  5
22FC
330
18
100
AcDbEntity
  8
外形線
100
AcDbLine
 10
613.8850446204671
 20
20.86555196067187
 30
0.0
 11
754.676461620467
 21
20.86555196067187
 31
0.0
  0
LINE
  5
22FD
330
18
100
AcDbEntity
  8
外形線
100
AcDbLine
 10
613.8850446204671
 20
10.08534596067187
 30
0.0
 11
754.676461620467
 21
10.08534596067187
 31
0.0
  0
TEXT
  5
22FE
330
18
100
AcDbEntity
  8
0
  6
Continuous
100
AcDbText
 10
615.3425116204671
 20
11.98333596067187
 30
0.0
 40
2.1
  1
Design and specifications are subject to change without notice for future improvement.
  7
STYLE3
100
AcDbText
  0
TEXT
  5
22FF
330
18
100
AcDbEntity
  8
0
  6
Continuous
100
AcDbText
 10
615.634005620467
 20
15.91248396067187
 30
0.0
 40
3.5
  1
仕様及び外観は予告なく変更される場合がございますのでご了承下さい。
  7
STYLE3
100
AcDbText
  0
TEXT
  5
2300
330
18
100
AcDbEntity
  8
0
  6
Continuous
100
AcDbText
 10
717.256774620467
 20
6.00634796067187
 30
0.0
 40
3.0
  1
株式会社　尾崎製作所
  7
STYLE3
100
AcDbText
  0
TEXT
  5
2301
330
18
100
AcDbEntity
  8
0
  6
Continuous
100
AcDbText
 10
718.1312536204671
 20
2.218708960671872
 30
0.0
 40
2.1
  1
OZAKI MFG. CO., LTD.
  7
STYLE3
100
AcDbText
  0
ENDSEC
  0
SECTION
  2
OBJECTS
  0
DICTIONARY
  5
C
330
0
100
AcDbDictionary
281
     1
  3
ACAD_COLOR
350
22B2
  3
ACAD_GROUP
350
D
  3
ACAD_LAYOUT
350
22B3
  3
ACAD_MATERIAL
350
22B1
  3
ACAD_MLINESTYLE
350
1B
  3
ACAD_PLOTSETTINGS
350
22B4
  3
ACAD_PLOTSTYLENAME
350
22AF
  3
DRAWINGVARIABLESDICT
350
1F4B
  0
DICTIONARY
  5
22B2
102
{ACAD_REACTORS
330
C
102
}
330
C
100
AcDbDictionary
281
     1
  0
DICTIONARY
  5
D
102
{ACAD_REACTORS
330
C
102
}
330
C
100
AcDbDictionary
281
     1
  0
DICTIONARY
  5
22B3
102
{ACAD_REACTORS
330
C
102
}
330
C
100
AcDbDictionary
281
     1
  3
Model
350
22B5
  3
レイアウト1
350
22B6
  0
DICTIONARY
  5
22B1
102
{ACAD_REACTORS
330
C
102
}
330
C
100
AcDbDictionary
281
     1
  0
DICTIONARY
  5
1B
102
{ACAD_REACTORS
330
C
102
}
330
C
100
AcDbDictionary
281
     1
  3
STANDARD
350
1C
  0
DICTIONARY
  5
22B4
102
{ACAD_REACTORS
330
C
102
}
330
C
100
AcDbDictionary
281
     1
  0
ACDBDICTIONARYWDFLT
  5
22AF
102
{ACAD_REACTORS
330
C
102
}
330
C
100
AcDbDictionary
281
     1
  3
Normal
350
22B0
100
AcDbDictionaryWithDefault
340
22B0
  0
DICTIONARY
  5
1F4B
102
{ACAD_REACTORS
330
C
102
}
330
C
100
AcDbDictionary
281
     1
1001
DRAWINGVARIABLESXDATA
1000
POLARANG
1000
0.261799387799149410000000
1000
POLARMODE
1000
0
  0
LAYOUT
  5
22B5
102
{ACAD_REACTORS
330
22B3
102
}
330
22B3
100
AcDbPlotSettings
  1

  2
EPSON PX-101
  4

  6

 40
0.0
 41
0.0
 42
0.0
 43
0.0
 44
0.0
 45
0.0
 46
0.0
 47
0.0
 48
0.0
 49
0.0
140
0.0
141
0.0
142
1.0
143
1.0
 70
  1712
 72
     0
 73
     0
 74
     0
  7
AutoCad LT 98fukui.ctb
 75
     0
147
1.0
 76
     0
 77
     2
 78
   300
148
0.0
149
0.0
100
AcDbLayout
  1
Model
 70
     1
 71
     0
 10
0.0
 20
0.0
 11
12.0
 21
9.0
 12
0.0
 22
0.0
 32
0.0
 14
0.0
 24
0.0
 34
0.0
 15
0.0
 25
0.0
 35
0.0
146
0.0
 13
0.0
 23
0.0
 33
0.0
 16
1.0
 26
0.0
 36
0.0
 17
0.0
 27
1.0
 37
0.0
 76
     0
330
18
  0
LAYOUT
  5
22B6
102
{ACAD_REACTORS
330
22B3
102
}
330
22B3
100
AcDbPlotSettings
  1

  2
EPSON PX-101
  4

  6

 40
0.0
 41
0.0
 42
0.0
 43
0.0
 44
0.0
 45
0.0
 46
0.0
 47
0.0
 48
0.0
 49
0.0
140
0.0
141
0.0
142
1.0
143
1.0
 70
   688
 72
     0
 73
     0
 74
     5
  7
AutoCad LT 98fukui.ctb
 75
    16
147
1.0
 76
     0
 77
     2
 78
   300
148
0.0
149
0.0
100
AcDbLayout
  1
レイアウト1
 70
     1
 71
     1
 10
0.0
 20
0.0
 11
420.0
 21
297.0
 12
0.0
 22
0.0
 32
0.0
 14
1.000000000000000E+20
 24
1.000000000000000E+20
 34
1.000000000000000E+20
 15
-1.000000000000000E+20
 25
-1.000000000000000E+20
 35
-1.000000000000000E+20
146
0.0
 13
0.0
 23
0.0
 33
0.0
 16
1.0
 26
0.0
 36
0.0
 17
0.0
 27
1.0
 37
0.0
 76
     0
330
15
  0
MLINESTYLE
  5
1C
102
{ACAD_REACTORS
330
1B
102
}
330
1B
100
AcDbMlineStyle
  2
STANDARD
 70
     0
  3

 62
   256
 51
90.0
 52
90.0
 71
     2
 49
0.5
 62
   256
  6
BYLAYER
 49
-0.5
 62
   256
  6
BYLAYER
  0
ACDBPLACEHOLDER
  5
22B0
102
{ACAD_REACTORS
330
22AF
102
}
330
22AF
  0
ENDSEC
  0
EOF
