  0
SECTION
  2
HEADER
  9
$ACADVER
  1
AC1018
  9
$ACADMAINTVER
 70
     0
  9
$DWGCODEPAGE
  3
ANSI_932
  9
$INSBASE
 10
0.0
 20
0.0
 30
0.0
  9
$EXTMIN
 10
-0.2256263281402653
 20
-0.2181250469383258
 30
-0.0000000034919976
  9
$EXTMAX
 10
255.2260044711009
 20
194.9477639546938
 30
0.0000000023291237
  9
$LIMMIN
 10
0.0
 20
0.0
  9
$LIMMAX
 10
420.0
 20
297.0
  9
$ORTHOMODE
 70
     0
  9
$REGENMODE
 70
     1
  9
$FILLMODE
 70
     1
  9
$QTEXTMODE
 70
     0
  9
$MIRRTEXT
 70
     1
  9
$LTSCALE
 40
1.0
  9
$ATTMODE
 70
     1
  9
$TEXTSIZE
 40
3.0
  9
$TRACEWID
 40
1.0
  9
$TEXTSTYLE
  7
4
  9
$CLAYER
  8
文字
  9
$CELTYPE
  6
BYLAYER
  9
$CECOLOR
 62
   256
  9
$CELTSCALE
 40
1.0
  9
$DISPSILH
 70
     0
  9
$DIMSCALE
 40
1.0
  9
$DIMASZ
 40
2.5
  9
$DIMEXO
 40
0.0
  9
$DIMDLI
 40
3.75
  9
$DIMRND
 40
0.0
  9
$DIMDLE
 40
0.0
  9
$DIMEXE
 40
1.25
  9
$DIMTP
 40
0.0
  9
$DIMTM
 40
0.0
  9
$DIMTXT
 40
2.5
  9
$DIMCEN
 40
2.5
  9
$DIMTSZ
 40
0.0
  9
$DIMTOL
 70
     0
  9
$DIMLIM
 70
     0
  9
$DIMTIH
 70
     0
  9
$DIMTOH
 70
     0
  9
$DIMSE1
 70
     0
  9
$DIMSE2
 70
     0
  9
$DIMTAD
 70
     1
  9
$DIMZIN
 70
     8
  9
$DIMBLK
  1

  9
$DIMASO
 70
     1
  9
$DIMSHO
 70
     1
  9
$DIMPOST
  1

  9
$DIMAPOST
  1

  9
$DIMALT
 70
     0
  9
$DIMALTD
 70
     4
  9
$DIMALTF
 40
0.0394
  9
$DIMLFAC
 40
1.0
  9
$DIMTOFL
 70
     1
  9
$DIMTVP
 40
0.0
  9
$DIMTIX
 70
     0
  9
$DIMSOXD
 70
     0
  9
$DIMSAH
 70
     1
  9
$DIMBLK1
  1
OPEN
  9
$DIMBLK2
  1
OPEN
  9
$DIMSTYLE
  2
STYLE3
  9
$DIMCLRD
 70
     2
  9
$DIMCLRE
 70
     2
  9
$DIMCLRT
 70
     6
  9
$DIMTFAC
 40
1.0
  9
$DIMGAP
 40
0.625
  9
$DIMJUST
 70
     0
  9
$DIMSD1
 70
     0
  9
$DIMSD2
 70
     0
  9
$DIMTOLJ
 70
     1
  9
$DIMTZIN
 70
     0
  9
$DIMALTZ
 70
     0
  9
$DIMALTTZ
 70
     0
  9
$DIMUPT
 70
     0
  9
$DIMDEC
 70
     2
  9
$DIMTDEC
 70
     4
  9
$DIMALTU
 70
     8
  9
$DIMALTTD
 70
     4
  9
$DIMTXSTY
  7
STYLE3
  9
$DIMAUNIT
 70
     0
  9
$DIMADEC
 70
     0
  9
$DIMALTRND
 40
0.0
  9
$DIMAZIN
 70
     0
  9
$DIMDSEP
 70
    46
  9
$DIMATFIT
 70
     3
  9
$DIMFRAC
 70
     0
  9
$DIMLDRBLK
  1

  9
$DIMLUNIT
 70
     2
  9
$DIMLWD
 70
    -2
  9
$DIMLWE
 70
    -2
  9
$DIMTMOVE
 70
     0
  9
$LUNITS
 70
     2
  9
$LUPREC
 70
     4
  9
$SKETCHINC
 40
1.0
  9
$FILLETRAD
 40
0.0
  9
$AUNITS
 70
     0
  9
$AUPREC
 70
     0
  9
$MENU
  1
.
  9
$ELEVATION
 40
0.0
  9
$PELEVATION
 40
0.0
  9
$THICKNESS
 40
0.0
  9
$LIMCHECK
 70
     0
  9
$CHAMFERA
 40
0.5
  9
$CHAMFERB
 40
0.5
  9
$CHAMFERC
 40
20.0
  9
$CHAMFERD
 40
0.0
  9
$SKPOLY
 70
     0
  9
$TDCREATE
 40
2451464.356372338
  9
$TDUCREATE
 40
2451463.981372338
  9
$TDUPDATE
 40
2455379.371957824
  9
$TDUUPDATE
 40
2455378.996957824
  9
$TDINDWG
 40
0.5007715278
  9
$TDUSRTIMER
 40
0.5007715278
  9
$USRTIMER
 70
     1
  9
$ANGBASE
 50
0.0
  9
$ANGDIR
 70
     0
  9
$PDMODE
 70
     0
  9
$PDSIZE
 40
0.0
  9
$PLINEWID
 40
0.0
  9
$SPLFRAME
 70
     0
  9
$SPLINETYPE
 70
     6
  9
$SPLINESEGS
 70
     8
  9
$HANDSEED
  5
1430
  9
$SURFTAB1
 70
     6
  9
$SURFTAB2
 70
     6
  9
$SURFTYPE
 70
     6
  9
$SURFU
 70
     6
  9
$SURFV
 70
     6
  9
$UCSBASE
  2

  9
$UCSNAME
  2

  9
$UCSORG
 10
0.0
 20
0.0
 30
0.0
  9
$UCSXDIR
 10
1.0
 20
0.0
 30
0.0
  9
$UCSYDIR
 10
0.0
 20
1.0
 30
0.0
  9
$UCSORTHOREF
  2

  9
$UCSORTHOVIEW
 70
     0
  9
$UCSORGTOP
 10
0.0
 20
0.0
 30
0.0
  9
$UCSORGBOTTOM
 10
0.0
 20
0.0
 30
0.0
  9
$UCSORGLEFT
 10
0.0
 20
0.0
 30
0.0
  9
$UCSORGRIGHT
 10
0.0
 20
0.0
 30
0.0
  9
$UCSORGFRONT
 10
0.0
 20
0.0
 30
0.0
  9
$UCSORGBACK
 10
0.0
 20
0.0
 30
0.0
  9
$PUCSBASE
  2

  9
$PUCSNAME
  2

  9
$PUCSORG
 10
0.0
 20
0.0
 30
0.0
  9
$PUCSXDIR
 10
1.0
 20
0.0
 30
0.0
  9
$PUCSYDIR
 10
0.0
 20
1.0
 30
0.0
  9
$PUCSORTHOREF
  2

  9
$PUCSORTHOVIEW
 70
     0
  9
$PUCSORGTOP
 10
0.0
 20
0.0
 30
0.0
  9
$PUCSORGBOTTOM
 10
0.0
 20
0.0
 30
0.0
  9
$PUCSORGLEFT
 10
0.0
 20
0.0
 30
0.0
  9
$PUCSORGRIGHT
 10
0.0
 20
0.0
 30
0.0
  9
$PUCSORGFRONT
 10
0.0
 20
0.0
 30
0.0
  9
$PUCSORGBACK
 10
0.0
 20
0.0
 30
0.0
  9
$USERI1
 70
     0
  9
$USERI2
 70
     0
  9
$USERI3
 70
     0
  9
$USERI4
 70
     0
  9
$USERI5
 70
     0
  9
$USERR1
 40
0.0
  9
$USERR2
 40
0.0
  9
$USERR3
 40
0.0
  9
$USERR4
 40
0.0
  9
$USERR5
 40
0.0
  9
$WORLDVIEW
 70
     1
  9
$SHADEDGE
 70
     3
  9
$SHADEDIF
 70
    70
  9
$TILEMODE
 70
     1
  9
$MAXACTVP
 70
    48
  9
$PINSBASE
 10
0.0
 20
0.0
 30
0.0
  9
$PLIMCHECK
 70
     0
  9
$PEXTMIN
 10
-0.2
 20
-0.2
 30
0.0
  9
$PEXTMAX
 10
255.2
 20
195.2
 30
0.0
  9
$PLIMMIN
 10
0.0
 20
0.0
  9
$PLIMMAX
 10
420.0
 20
297.0
  9
$UNITMODE
 70
     0
  9
$VISRETAIN
 70
     1
  9
$PLINEGEN
 70
     0
  9
$PSLTSCALE
 70
     1
  9
$TREEDEPTH
 70
  3020
  9
$CMLSTYLE
  2
STANDARD
  9
$CMLJUST
 70
     0
  9
$CMLSCALE
 40
20.0
  9
$PROXYGRAPHICS
 70
     1
  9
$MEASUREMENT
 70
     1
  9
$CELWEIGHT
370
    -1
  9
$ENDCAPS
280
     0
  9
$JOINSTYLE
280
     0
  9
$LWDISPLAY
290
     0
  9
$INSUNITS
 70
     0
  9
$HYPERLINKBASE
  1

  9
$STYLESHEET
  1
AutoCAD LT 98.ctb
  9
$XEDIT
290
     1
  9
$CEPSNTYPE
380
     0
  9
$PSTYLEMODE
290
     1
  9
$FINGERPRINTGUID
  2
{3C8ABBD0-5F72-4152-B0B7-7DBCA4FD9661}
  9
$VERSIONGUID
  2
{803ECDD5-0C0F-49B1-8D9A-B852F359EB9A}
  9
$EXTNAMES
290
     1
  9
$PSVPSCALE
 40
0.0
  9
$OLESTARTUP
290
     0
  9
$SORTENTS
280
   127
  9
$INDEXCTL
280
     0
  9
$HIDETEXT
280
     0
  9
$XCLIPFRAME
290
     0
  9
$HALOGAP
280
     0
  9
$OBSCOLOR
 70
   257
  9
$OBSLTYPE
280
     0
  9
$INTERSECTIONDISPLAY
280
     0
  9
$INTERSECTIONCOLOR
 70
   257
  9
$DIMASSOC
280
     1
  9
$PROJECTNAME
  1

  0
ENDSEC
  0
SECTION
  2
CLASSES
  0
CLASS
  1
HATCH
  2
AcDbHatch
  3
ObjectDBX Classes
 90
        0
 91
       53
280
     0
281
     1
  0
CLASS
  1
DICTIONARYVAR
  2
AcDbDictionaryVar
  3
ObjectDBX Classes
 90
        0
 91
        2
280
     0
281
     0
  0
CLASS
  1
ACDBDICTIONARYWDFLT
  2
AcDbDictionaryWithDefault
  3
ObjectDBX Classes
 90
        0
 91
        1
280
     0
281
     0
  0
CLASS
  1
TABLESTYLE
  2
AcDbTableStyle
  3
ObjectDBX Classes
 90
     2047
 91
        1
280
     0
281
     0
  0
CLASS
  1
SORTENTSTABLE
  2
AcDbSortentsTable
  3
ObjectDBX Classes
 90
        0
 91
        1
280
     0
281
     0
  0
ENDSEC
  0
SECTION
  2
TABLES
  0
TABLE
  2
VPORT
  5
8
330
0
100
AcDbSymbolTable
 70
     3
  0
VPORT
  5
142F
330
8
100
AcDbSymbolTableRecord
100
AcDbViewportTableRecord
  2
*Active
 70
     0
 10
0.0
 20
0.0
 11
1.0
 21
1.0
 12
127.5001890714803
 22
97.36481945387778
 13
0.0
 23
0.0
 14
10.0
 24
10.0
 15
10.0
 25
10.0
 16
0.0
 26
0.0
 36
1.0
 17
0.0
 27
0.0
 37
0.0
 40
196.6500402487929
 41
1.530456852791878
 42
50.0
 43
0.0
 44
0.0
 50
0.0
 51
0.0
 71
     0
 72
   100
 73
     1
 74
     1
 75
     0
 76
     0
 77
     0
 78
     0
281
     0
 65
     1
110
0.0
120
0.0
130
0.0
111
1.0
121
0.0
131
0.0
112
0.0
122
1.0
132
0.0
 79
     0
146
0.0
  0
ENDTAB
  0
TABLE
  2
LTYPE
  5
5
330
0
100
AcDbSymbolTable
 70
    12
  0
LTYPE
  5
12
330
5
100
AcDbSymbolTableRecord
100
AcDbLinetypeTableRecord
  2
BYBLOCK
 70
     0
  3

 72
    65
 73
     0
 40
0.0
  0
LTYPE
  5
13
330
5
100
AcDbSymbolTableRecord
100
AcDbLinetypeTableRecord
  2
BYLAYER
 70
     0
  3

 72
    65
 73
     0
 40
0.0
  0
LTYPE
  5
14
330
5
100
AcDbSymbolTableRecord
100
AcDbLinetypeTableRecord
  2
CONTINUOUS
 70
     0
  3
Solid line
 72
    65
 73
     0
 40
0.0
  0
LTYPE
  5
22
330
5
100
AcDbSymbolTableRecord
100
AcDbLinetypeTableRecord
  2
CENTER2
 70
     0
  3
Center (.5x) ___ _ ___ _ ___ _ ___ _ ___ _ ___
 72
    65
 73
     4
 40
28.575
 49
19.05
 74
     0
 49
-3.174999999999999
 74
     0
 49
3.174999999999999
 74
     0
 49
-3.174999999999999
 74
     0
  0
LTYPE
  5
24
330
5
100
AcDbSymbolTableRecord
100
AcDbLinetypeTableRecord
  2
PHANTOM2
 70
     0
  3
Phantom (.5x) ___ _ _ ___ _ _ ___ _ _ ___ _ _
 72
    65
 73
     6
 40
31.75
 49
15.875
 74
     0
 49
-3.174999999999999
 74
     0
 49
3.174999999999999
 74
     0
 49
-3.174999999999999
 74
     0
 49
3.174999999999999
 74
     0
 49
-3.174999999999999
 74
     0
  0
ENDTAB
  0
TABLE
  2
LAYER
  5
2
330
0
100
AcDbSymbolTable
 70
    16
  0
LAYER
  5
E
330
2
100
AcDbSymbolTableRecord
100
AcDbLayerTableRecord
  2
0
 70
     0
 62
     7
  6
CONTINUOUS
370
    -3
390
1331
  0
LAYER
  5
25
330
2
100
AcDbSymbolTableRecord
100
AcDbLayerTableRecord
  2
外形線
 70
     0
 62
     7
  6
CONTINUOUS
370
    -3
390
1331
  0
LAYER
  5
27
330
2
100
AcDbSymbolTableRecord
100
AcDbLayerTableRecord
  2
中心線
 70
     0
 62
     4
  6
CENTER2
370
    -3
390
1331
  0
LAYER
  5
29
330
2
100
AcDbSymbolTableRecord
100
AcDbLayerTableRecord
  2
想像線
 70
     0
 62
     1
  6
PHANTOM2
370
    -3
390
1331
  0
LAYER
  5
2B
330
2
100
AcDbSymbolTableRecord
100
AcDbLayerTableRecord
  2
文字
 70
     0
 62
     6
  6
CONTINUOUS
370
    -3
390
1331
  0
LAYER
  5
2D
330
2
100
AcDbSymbolTableRecord
100
AcDbLayerTableRecord
  2
針
 70
     0
 62
     5
  6
CONTINUOUS
370
    -3
390
1331
  0
LAYER
  5
53
330
2
100
AcDbSymbolTableRecord
100
AcDbLayerTableRecord
  2
DEFPOINTS
 70
     0
 62
     7
  6
CONTINUOUS
290
     0
370
    -3
390
1331
  0
LAYER
  5
A5
330
2
100
AcDbSymbolTableRecord
100
AcDbLayerTableRecord
  2
C
 70
     0
 62
     7
  6
CONTINUOUS
370
    -3
390
1331
  0
LAYER
  5
37A
330
2
100
AcDbSymbolTableRecord
100
AcDbLayerTableRecord
  2
ROGO
 70
     0
 62
     6
  6
CONTINUOUS
370
    -3
390
1331
  0
ENDTAB
  0
TABLE
  2
STYLE
  5
3
330
0
100
AcDbSymbolTable
 70
     8
  0
STYLE
  5
F
330
3
100
AcDbSymbolTableRecord
100
AcDbTextStyleTableRecord
  2
STANDARD
 70
     0
 40
0.0
 41
1.0
 50
0.0
 71
     0
 42
2.5
  3
txt
  4

  0
STYLE
  5
3F
330
3
100
AcDbSymbolTableRecord
100
AcDbTextStyleTableRecord
  2
STYLE3
 70
     0
 40
0.0
 41
1.0
 50
0.0
 71
     0
 42
3.0
  3
romans.shx
  4
bigfont.shx
  0
STYLE
  5
BAF
330
3
100
AcDbSymbolTableRecord
100
AcDbTextStyleTableRecord
  2
4
 70
     0
 40
0.0
 41
1.0
 50
0.0
 71
     0
 42
3.0
  3
MS PGothic.ttf
  4

1001
ACAD
1000
MS PGothic
1071
    32818
  0
ENDTAB
  0
TABLE
  2
VIEW
  5
6
330
0
100
AcDbSymbolTable
 70
     0
  0
ENDTAB
  0
TABLE
  2
UCS
  5
7
330
0
100
AcDbSymbolTable
 70
     0
  0
ENDTAB
  0
TABLE
  2
APPID
  5
9
330
0
100
AcDbSymbolTable
 70
     2
  0
APPID
  5
10
330
9
100
AcDbSymbolTableRecord
100
AcDbRegAppTableRecord
  2
ACAD
 70
     0
  0
APPID
  5
1342
330
9
100
AcDbSymbolTableRecord
100
AcDbRegAppTableRecord
  2
ACAD_PSEXT
 70
     0
  0
ENDTAB
  0
TABLE
  2
DIMSTYLE
  5
A
330
0
100
AcDbSymbolTable
 70
     6
100
AcDbDimStyleTable
 71
     1
340
8F
  0
DIMSTYLE
105
1D
330
A
100
AcDbSymbolTableRecord
100
AcDbDimStyleTableRecord
  2
STANDARD
 70
     0
 41
2.5
 42
0.625
 43
3.75
 44
1.25
 73
     0
 74
     0
 77
     1
 78
     8
140
2.5
141
2.5
143
0.0394
147
0.625
171
     4
172
     1
273
     8
274
     4
277
     6
340
F
  0
DIMSTYLE
105
8F
102
{ACAD_REACTORS
330
8FC
330
909
330
920
330
92C
330
938
330
982
330
98E
330
99B
330
9A8
330
9B5
330
9FA
330
A06
330
A28
102
}
330
A
100
AcDbSymbolTableRecord
100
AcDbDimStyleTableRecord
  2
STYLE3
 70
     0
 41
2.5
 42
0.0
 43
3.75
 44
1.25
 73
     0
 74
     0
 77
     1
 78
     8
140
2.5
141
2.5
143
0.0394
147
0.625
171
     4
172
     1
173
     1
176
     2
177
     2
178
     6
271
     1
273
     8
274
     4
340
3F
341
45
343
45
344
45
  0
ENDTAB
  0
TABLE
  2
BLOCK_RECORD
  5
1
330
0
100
AcDbSymbolTable
 70
    26
  0
BLOCK_RECORD
  5
18
102
{ACAD_XDICTIONARY
360
1367
102
}
330
1
100
AcDbSymbolTableRecord
100
AcDbBlockTableRecord
  2
*MODEL_SPACE
340
1338
  0
BLOCK_RECORD
  5
15
330
1
100
AcDbSymbolTableRecord
100
AcDbBlockTableRecord
  2
*PAPER_SPACE
340
1339
  0
BLOCK_RECORD
  5
45
330
1
100
AcDbSymbolTableRecord
100
AcDbBlockTableRecord
  2
_OPEN
340
0
102
{BLKREFS
331
390
331
391
331
3B9
331
3CD
331
3CF
331
3D0
331
3D1
331
3D3
331
3E1
331
3E2
331
3F6
331
402
331
42A
331
43E
331
452
331
49B
331
4B3
331
4C3
331
E6B
331
E6C
331
E81
331
E8F
331
E98
331
E99
331
EA8
331
EAE
331
EB6
331
EEC
331
EF3
331
F39
331
F52
331
10E0
331
10FC
331
10FD
331
1109
331
1114
331
113C
331
1150
331
11AA
331
11C2
331
13B8
331
13B9
331
13C0
331
13C1
331
13C9
331
13CA
331
13D2
331
13D3
331
13DB
331
13DC
331
13E4
331
13E5
331
13EC
331
13ED
331
13F4
331
13F5
331
13FC
331
13FD
331
1404
331
1405
331
140C
331
140D
331
1415
331
1416
331
141E
331
141F
102
}
  0
BLOCK_RECORD
  5
8F0
330
1
100
AcDbSymbolTableRecord
100
AcDbBlockTableRecord
  2
*D4
340
0
  0
BLOCK_RECORD
  5
8FD
330
1
100
AcDbSymbolTableRecord
100
AcDbBlockTableRecord
  2
*D5
340
0
  0
BLOCK_RECORD
  5
915
330
1
100
AcDbSymbolTableRecord
100
AcDbBlockTableRecord
  2
*D6
340
0
  0
BLOCK_RECORD
  5
921
330
1
100
AcDbSymbolTableRecord
100
AcDbBlockTableRecord
  2
*D7
340
0
  0
BLOCK_RECORD
  5
92D
330
1
100
AcDbSymbolTableRecord
100
AcDbBlockTableRecord
  2
*D8
340
0
  0
BLOCK_RECORD
  5
977
330
1
100
AcDbSymbolTableRecord
100
AcDbBlockTableRecord
  2
*D9
340
0
  0
BLOCK_RECORD
  5
983
330
1
100
AcDbSymbolTableRecord
100
AcDbBlockTableRecord
  2
*D10
340
0
  0
BLOCK_RECORD
  5
98F
330
1
100
AcDbSymbolTableRecord
100
AcDbBlockTableRecord
  2
*D11
340
0
  0
BLOCK_RECORD
  5
99C
330
1
100
AcDbSymbolTableRecord
100
AcDbBlockTableRecord
  2
*D12
340
0
  0
BLOCK_RECORD
  5
9A9
330
1
100
AcDbSymbolTableRecord
100
AcDbBlockTableRecord
  2
*D13
340
0
  0
BLOCK_RECORD
  5
9EE
330
1
100
AcDbSymbolTableRecord
100
AcDbBlockTableRecord
  2
*D14
340
0
  0
BLOCK_RECORD
  5
9FB
330
1
100
AcDbSymbolTableRecord
100
AcDbBlockTableRecord
  2
*D15
340
0
  0
BLOCK_RECORD
  5
A1C
330
1
100
AcDbSymbolTableRecord
100
AcDbBlockTableRecord
  2
*D16
340
0
  0
ENDTAB
  0
ENDSEC
  0
SECTION
  2
BLOCKS
  0
BLOCK
  5
19
330
18
100
AcDbEntity
  8
0
100
AcDbBlockBegin
  2
*MODEL_SPACE
 70
     0
 10
0.0
 20
0.0
 30
0.0
  3
*MODEL_SPACE
  1

  0
ENDBLK
  5
1A
330
18
100
AcDbEntity
  8
0
100
AcDbBlockEnd
  0
BLOCK
  5
16
330
15
100
AcDbEntity
 67
     1
  8
0
100
AcDbBlockBegin
  2
*PAPER_SPACE
 70
     0
 10
0.0
 20
0.0
 30
0.0
  3
*PAPER_SPACE
  1

  0
ENDBLK
  5
17
330
15
100
AcDbEntity
 67
     1
  8
0
100
AcDbBlockEnd
  0
BLOCK
  5
46
330
45
100
AcDbEntity
  8
0
100
AcDbBlockBegin
  2
_OPEN
 70
     0
 10
0.0
 20
0.0
 30
0.0
  3
_OPEN
  1

  0
LINE
  5
47
330
45
100
AcDbEntity
  8
0
  6
ByBlock
 62
     0
100
AcDbLine
 10
-1.0
 20
0.1666666666666666
 30
0.0
 11
0.0
 21
0.0
 31
0.0
  0
LINE
  5
48
330
45
100
AcDbEntity
  8
0
  6
ByBlock
 62
     0
100
AcDbLine
 10
0.0
 20
0.0
 30
0.0
 11
-1.0
 21
-0.1666666666666666
 31
0.0
  0
LINE
  5
49
330
45
100
AcDbEntity
  8
0
  6
ByBlock
 62
     0
100
AcDbLine
 10
0.0
 20
0.0
 30
0.0
 11
-1.0
 21
0.0
 31
0.0
  0
ENDBLK
  5
4A
330
45
100
AcDbEntity
  8
0
100
AcDbBlockEnd
  0
BLOCK
  5
8F1
330
8F0
100
AcDbEntity
  8
0
100
AcDbBlockBegin
  2
*D4
 70
     1
 10
0.0
 20
0.0
 30
0.0
  3
*D4
  1

  0
LINE
  5
141B
330
8F0
100
AcDbEntity
  8
文字
 62
     2
370
    -2
100
AcDbLine
 10
55.87772740014973
 20
107.6584167243261
 30
0.0
 11
55.87772740014972
 21
25.72347342713772
 31
0.0
  0
LINE
  5
141C
330
8F0
100
AcDbEntity
  8
文字
 62
     2
370
    -2
100
AcDbLine
 10
105.8777274001497
 20
107.6584167243261
 30
0.0
 11
105.8777274001497
 21
25.72347342713772
 31
0.0
  0
LINE
  5
141D
330
8F0
100
AcDbEntity
  8
文字
 62
     2
370
    -2
100
AcDbLine
 10
58.37772740014972
 20
26.97347342713772
 30
0.0
 11
103.3777274001497
 21
26.97347342713772
 31
0.0
  0
INSERT
  5
141E
330
8F0
100
AcDbEntity
  8
文字
 62
     2
370
    -2
100
AcDbBlockReference
  2
_OPEN
 10
55.87772740014972
 20
26.97347342713772
 30
0.0
 41
2.5
 42
2.5
 43
2.5
 50
180.0
  0
INSERT
  5
141F
330
8F0
100
AcDbEntity
  8
文字
 62
     2
370
    -2
100
AcDbBlockReference
  2
_OPEN
 10
105.8777274001497
 20
26.97347342713772
 30
0.0
 41
2.5
 42
2.5
 43
2.5
  0
MTEXT
  5
1420
330
8F0
100
AcDbEntity
  8
文字
 62
     6
100
AcDbMText
 10
80.87772740014974
 20
28.84847342713772
 30
0.0
 40
2.5
 41
0.0
 71
     5
 72
     1
  1
\A1;50
  7
STYLE3
 73
     1
 44
1.0
  0
POINT
  5
1421
330
8F0
100
AcDbEntity
  8
DEFPOINTS
 62
     0
100
AcDbPoint
 10
55.87772740014973
 20
107.6584167243261
 30
0.0
  0
POINT
  5
1422
330
8F0
100
AcDbEntity
  8
DEFPOINTS
 62
     0
100
AcDbPoint
 10
105.8777274001497
 20
107.6584167243261
 30
0.0
  0
POINT
  5
1423
330
8F0
100
AcDbEntity
  8
DEFPOINTS
 62
     0
100
AcDbPoint
 10
105.8777274001497
 20
26.97347342713772
 30
0.0
  0
ENDBLK
  5
8FB
330
8F0
100
AcDbEntity
  8
0
100
AcDbBlockEnd
  0
BLOCK
  5
90A
330
8FD
100
AcDbEntity
  8
0
100
AcDbBlockBegin
  2
*D5
 70
     1
 10
0.0
 20
0.0
 30
0.0
  3
*D5
  1

  0
LINE
  5
1412
330
8FD
100
AcDbEntity
  8
文字
 62
     2
370
    -2
100
AcDbLine
 10
91.12772740014976
 20
152.1584167243261
 30
0.0
 11
120.2999434867442
 21
152.1584167243261
 31
0.0
  0
LINE
  5
1413
330
8FD
100
AcDbEntity
  8
文字
 62
     2
370
    -2
100
AcDbLine
 10
90.62772740014976
 20
141.6584167243261
 30
0.0
 11
120.2999434867442
 21
141.6584167243261
 31
0.0
  0
LINE
  5
1414
330
8FD
100
AcDbEntity
  8
文字
 62
     2
370
    -2
100
AcDbLine
 10
119.0499434867442
 20
149.6584167243261
 30
0.0
 11
119.0499434867442
 21
144.1584167243261
 31
0.0
  0
INSERT
  5
1415
330
8FD
100
AcDbEntity
  8
文字
 62
     2
370
    -2
100
AcDbBlockReference
  2
_OPEN
 10
119.0499434867442
 20
152.1584167243261
 30
0.0
 41
2.5
 42
2.5
 43
2.5
 50
90.0
  0
INSERT
  5
1416
330
8FD
100
AcDbEntity
  8
文字
 62
     2
370
    -2
100
AcDbBlockReference
  2
_OPEN
 10
119.0499434867442
 20
141.6584167243261
 30
0.0
 41
2.5
 42
2.5
 43
2.5
 50
270.0
  0
MTEXT
  5
1417
330
8FD
100
AcDbEntity
  8
文字
 62
     6
100
AcDbMText
 10
117.1749434867442
 20
146.9084167243261
 30
0.0
 40
2.5
 41
0.0
 71
     5
 72
     1
  1
\A1;10.5
  7
STYLE3
 11
0.0000000000000001
 21
1.0
 31
0.0
 73
     1
 44
1.0
  0
POINT
  5
1418
330
8FD
100
AcDbEntity
  8
DEFPOINTS
 62
     0
100
AcDbPoint
 10
91.12772740014976
 20
152.1584167243261
 30
0.0
  0
POINT
  5
1419
330
8FD
100
AcDbEntity
  8
DEFPOINTS
 62
     0
100
AcDbPoint
 10
90.62772740014976
 20
141.6584167243261
 30
0.0
  0
POINT
  5
141A
330
8FD
100
AcDbEntity
  8
DEFPOINTS
 62
     0
100
AcDbPoint
 10
119.0499434867442
 20
141.6584167243261
 30
0.0
  0
ENDBLK
  5
914
330
8FD
100
AcDbEntity
  8
0
100
AcDbBlockEnd
  0
BLOCK
  5
916
330
915
100
AcDbEntity
  8
0
100
AcDbBlockBegin
  2
*D6
 70
     1
 10
0.0
 20
0.0
 30
0.0
  3
*D6
  1

  0
LINE
  5
140A
330
915
100
AcDbEntity
  8
文字
 62
     2
370
    -2
100
AcDbLine
 10
110.2225050228306
 20
107.6584167243261
 30
0.0
 11
120.2999434867442
 21
107.6584167243261
 31
0.0
  0
LINE
  5
140B
330
915
100
AcDbEntity
  8
文字
 62
     2
370
    -2
100
AcDbLine
 10
119.0499434867442
 20
139.1584167243261
 30
0.0
 11
119.0499434867442
 21
110.1584167243261
 31
0.0
  0
INSERT
  5
140C
330
915
100
AcDbEntity
  8
文字
 62
     2
370
    -2
100
AcDbBlockReference
  2
_OPEN
 10
119.0499434867442
 20
141.6584167243261
 30
0.0
 41
2.5
 42
2.5
 43
2.5
 50
90.0
  0
INSERT
  5
140D
330
915
100
AcDbEntity
  8
文字
 62
     2
370
    -2
100
AcDbBlockReference
  2
_OPEN
 10
119.0499434867442
 20
107.6584167243261
 30
0.0
 41
2.5
 42
2.5
 43
2.5
 50
270.0
  0
MTEXT
  5
140E
330
915
100
AcDbEntity
  8
文字
 62
     6
100
AcDbMText
 10
117.1749434867442
 20
124.6584167243261
 30
0.0
 40
2.5
 41
0.0
 71
     5
 72
     1
  1
\A1;34
  7
STYLE3
 11
0.0000000000000001
 21
1.0
 31
0.0
 73
     1
 44
1.0
  0
POINT
  5
140F
330
915
100
AcDbEntity
  8
DEFPOINTS
 62
     0
100
AcDbPoint
 10
90.62772740014976
 20
141.6584167243261
 30
0.0
  0
POINT
  5
1410
330
915
100
AcDbEntity
  8
DEFPOINTS
 62
     0
100
AcDbPoint
 10
110.2225050228306
 20
107.6584167243261
 30
0.0
  0
POINT
  5
1411
330
915
100
AcDbEntity
  8
DEFPOINTS
 62
     0
100
AcDbPoint
 10
119.0499434867442
 20
107.6584167243261
 30
0.0
  0
ENDBLK
  5
91F
330
915
100
AcDbEntity
  8
0
100
AcDbBlockEnd
  0
BLOCK
  5
961
330
921
100
AcDbEntity
  8
0
100
AcDbBlockBegin
  2
*D7
 70
     1
 10
0.0
 20
0.0
 30
0.0
  3
*D7
  1

  0
LINE
  5
1402
330
921
100
AcDbEntity
  8
文字
 62
     2
370
    -2
100
AcDbLine
 10
89.91160472491843
 20
73.65651090657995
 30
0.0
 11
120.2999434867442
 21
73.65651090657994
 31
0.0
  0
LINE
  5
1403
330
921
100
AcDbEntity
  8
文字
 62
     2
370
    -2
100
AcDbLine
 10
119.0499434867442
 20
105.1584167243261
 30
0.0
 11
119.0499434867442
 21
76.15651090657994
 31
0.0
  0
INSERT
  5
1404
330
921
100
AcDbEntity
  8
文字
 62
     2
370
    -2
100
AcDbBlockReference
  2
_OPEN
 10
119.0499434867442
 20
107.6584167243261
 30
0.0
 41
2.5
 42
2.5
 43
2.5
 50
90.0
  0
INSERT
  5
1405
330
921
100
AcDbEntity
  8
文字
 62
     2
370
    -2
100
AcDbBlockReference
  2
_OPEN
 10
119.0499434867442
 20
73.65651090657994
 30
0.0
 41
2.5
 42
2.5
 43
2.5
 50
270.0
  0
MTEXT
  5
1406
330
921
100
AcDbEntity
  8
文字
 62
     6
100
AcDbMText
 10
117.1749434867442
 20
90.65746381545304
 30
0.0
 40
2.5
 41
0.0
 71
     5
 72
     1
  1
\A1;34
  7
STYLE3
 11
0.0000000000000001
 21
1.0
 31
0.0
 73
     1
 44
1.0
  0
POINT
  5
1407
330
921
100
AcDbEntity
  8
DEFPOINTS
 62
     0
100
AcDbPoint
 10
110.2225050228306
 20
107.6584167243261
 30
0.0
  0
POINT
  5
1408
330
921
100
AcDbEntity
  8
DEFPOINTS
 62
     0
100
AcDbPoint
 10
89.91160472491843
 20
73.65651090657995
 30
0.0
  0
POINT
  5
1409
330
921
100
AcDbEntity
  8
DEFPOINTS
 62
     0
100
AcDbPoint
 10
119.0499434867442
 20
73.65651090657994
 30
0.0
  0
ENDBLK
  5
96A
330
921
100
AcDbEntity
  8
0
100
AcDbBlockEnd
  0
BLOCK
  5
957
330
92D
100
AcDbEntity
  8
0
100
AcDbBlockBegin
  2
*D8
 70
     1
 10
0.0
 20
0.0
 30
0.0
  3
*D8
  1

  0
LINE
  5
13FA
330
92D
100
AcDbEntity
  8
文字
 62
     2
370
    -2
100
AcDbLine
 10
83.92772740014976
 20
52.45841672432613
 30
0.0
 11
120.2999434867442
 21
52.45841672432612
 31
0.0
  0
LINE
  5
13FB
330
92D
100
AcDbEntity
  8
文字
 62
     2
370
    -2
100
AcDbLine
 10
119.0499434867442
 20
71.15651090657994
 30
0.0
 11
119.0499434867442
 21
54.95841672432612
 31
0.0
  0
INSERT
  5
13FC
330
92D
100
AcDbEntity
  8
文字
 62
     2
370
    -2
100
AcDbBlockReference
  2
_OPEN
 10
119.0499434867442
 20
73.65651090657994
 30
0.0
 41
2.5
 42
2.5
 43
2.5
 50
90.0
  0
INSERT
  5
13FD
330
92D
100
AcDbEntity
  8
文字
 62
     2
370
    -2
100
AcDbBlockReference
  2
_OPEN
 10
119.0499434867442
 20
52.45841672432612
 30
0.0
 41
2.5
 42
2.5
 43
2.5
 50
270.0
  0
MTEXT
  5
13FE
330
92D
100
AcDbEntity
  8
文字
 62
     6
100
AcDbMText
 10
117.1749434867442
 20
63.05746381545305
 30
0.0
 40
2.5
 41
0.0
 71
     5
 72
     1
  1
\A1;21.2
  7
STYLE3
 11
0.0000000000000001
 21
1.0
 31
0.0
 73
     1
 44
1.0
  0
POINT
  5
13FF
330
92D
100
AcDbEntity
  8
DEFPOINTS
 62
     0
100
AcDbPoint
 10
89.91160472491843
 20
73.65651090657995
 30
0.0
  0
POINT
  5
1400
330
92D
100
AcDbEntity
  8
DEFPOINTS
 62
     0
100
AcDbPoint
 10
83.92772740014976
 20
52.45841672432613
 30
0.0
  0
POINT
  5
1401
330
92D
100
AcDbEntity
  8
DEFPOINTS
 62
     0
100
AcDbPoint
 10
119.0499434867442
 20
52.45841672432612
 30
0.0
  0
ENDBLK
  5
960
330
92D
100
AcDbEntity
  8
0
100
AcDbBlockEnd
  0
BLOCK
  5
978
330
977
100
AcDbEntity
  8
0
100
AcDbBlockBegin
  2
*D9
 70
     1
 10
0.0
 20
0.0
 30
0.0
  3
*D9
  1

  0
LINE
  5
13F2
330
977
100
AcDbEntity
  8
文字
 62
     2
370
    -2
100
AcDbLine
 10
82.87772740014977
 20
42.65841672432611
 30
0.0
 11
120.2999434867442
 21
42.6584167243261
 31
0.0
  0
LINE
  5
13F3
330
977
100
AcDbEntity
  8
文字
 62
     2
370
    -2
100
AcDbLine
 10
119.0499434867442
 20
49.95841672432612
 30
0.0
 11
119.0499434867442
 21
45.1584167243261
 31
0.0
  0
INSERT
  5
13F4
330
977
100
AcDbEntity
  8
文字
 62
     2
370
    -2
100
AcDbBlockReference
  2
_OPEN
 10
119.0499434867442
 20
52.45841672432612
 30
0.0
 41
2.5
 42
2.5
 43
2.5
 50
90.0
  0
INSERT
  5
13F5
330
977
100
AcDbEntity
  8
文字
 62
     2
370
    -2
100
AcDbBlockReference
  2
_OPEN
 10
119.0499434867442
 20
42.6584167243261
 30
0.0
 41
2.5
 42
2.5
 43
2.5
 50
270.0
  0
MTEXT
  5
13F6
330
977
100
AcDbEntity
  8
文字
 62
     6
100
AcDbMText
 10
117.1749434867442
 20
47.55841672432613
 30
0.0
 40
2.5
 41
0.0
 71
     5
 72
     1
  1
\A1;9.8
  7
STYLE3
 11
0.0000000000000001
 21
1.0
 31
0.0
 73
     1
 44
1.0
  0
POINT
  5
13F7
330
977
100
AcDbEntity
  8
DEFPOINTS
 62
     0
100
AcDbPoint
 10
83.92772740014976
 20
52.45841672432613
 30
0.0
  0
POINT
  5
13F8
330
977
100
AcDbEntity
  8
DEFPOINTS
 62
     0
100
AcDbPoint
 10
82.87772740014977
 20
42.65841672432611
 30
0.0
  0
POINT
  5
13F9
330
977
100
AcDbEntity
  8
DEFPOINTS
 62
     0
100
AcDbPoint
 10
119.0499434867442
 20
42.6584167243261
 30
0.0
  0
ENDBLK
  5
981
330
977
100
AcDbEntity
  8
0
100
AcDbBlockEnd
  0
BLOCK
  5
984
330
983
100
AcDbEntity
  8
0
100
AcDbBlockBegin
  2
*D10
 70
     1
 10
0.0
 20
0.0
 30
0.0
  3
*D10
  1

  0
LINE
  5
13EA
330
983
100
AcDbEntity
  8
文字
 62
     2
370
    -2
100
AcDbLine
 10
80.87772740014974
 20
33.65841672432612
 30
0.0
 11
120.2999434867442
 21
33.65841672432611
 31
0.0
  0
LINE
  5
13EB
330
983
100
AcDbEntity
  8
文字
 62
     2
370
    -2
100
AcDbLine
 10
119.0499434867442
 20
40.1584167243261
 30
0.0
 11
119.0499434867442
 21
36.15841672432611
 31
0.0
  0
INSERT
  5
13EC
330
983
100
AcDbEntity
  8
文字
 62
     2
370
    -2
100
AcDbBlockReference
  2
_OPEN
 10
119.0499434867442
 20
42.6584167243261
 30
0.0
 41
2.5
 42
2.5
 43
2.5
 50
90.0
  0
INSERT
  5
13ED
330
983
100
AcDbEntity
  8
文字
 62
     2
370
    -2
100
AcDbBlockReference
  2
_OPEN
 10
119.0499434867442
 20
33.65841672432611
 30
0.0
 41
2.5
 42
2.5
 43
2.5
 50
270.0
  0
MTEXT
  5
13EE
330
983
100
AcDbEntity
  8
文字
 62
     6
100
AcDbMText
 10
117.1749434867442
 20
38.15841672432613
 30
0.0
 40
2.5
 41
0.0
 71
     5
 72
     1
  1
\A1;9
  7
STYLE3
 11
0.0000000000000001
 21
1.0
 31
0.0
 73
     1
 44
1.0
  0
POINT
  5
13EF
330
983
100
AcDbEntity
  8
DEFPOINTS
 62
     0
100
AcDbPoint
 10
82.87772740014977
 20
42.65841672432611
 30
0.0
  0
POINT
  5
13F0
330
983
100
AcDbEntity
  8
DEFPOINTS
 62
     0
100
AcDbPoint
 10
80.87772740014974
 20
33.65841672432612
 30
0.0
  0
POINT
  5
13F1
330
983
100
AcDbEntity
  8
DEFPOINTS
 62
     0
100
AcDbPoint
 10
119.0499434867442
 20
33.65841672432611
 30
0.0
  0
ENDBLK
  5
98D
330
983
100
AcDbEntity
  8
0
100
AcDbBlockEnd
  0
BLOCK
  5
990
330
98F
100
AcDbEntity
  8
0
100
AcDbBlockBegin
  2
*D11
 70
     1
 10
0.0
 20
0.0
 30
0.0
  3
*D11
  1

  0
LINE
  5
13E1
330
98F
100
AcDbEntity
  8
文字
 62
     2
370
    -2
100
AcDbLine
 10
120.2999434867442
 20
107.6584167243261
 30
0.0
 11
127.9795760696304
 21
107.6584167243261
 31
0.0
  0
LINE
  5
13E2
330
98F
100
AcDbEntity
  8
文字
 62
     2
370
    -2
100
AcDbLine
 10
120.2999434867442
 20
33.65841672432612
 30
0.0
 11
127.9795760696304
 21
33.65841672432612
 31
0.0
  0
LINE
  5
13E3
330
98F
100
AcDbEntity
  8
文字
 62
     2
370
    -2
100
AcDbLine
 10
126.7295760696304
 20
105.1584167243261
 30
0.0
 11
126.7295760696304
 21
36.15841672432612
 31
0.0
  0
INSERT
  5
13E4
330
98F
100
AcDbEntity
  8
文字
 62
     2
370
    -2
100
AcDbBlockReference
  2
_OPEN
 10
126.7295760696304
 20
107.6584167243261
 30
0.0
 41
2.5
 42
2.5
 43
2.5
 50
90.0
  0
INSERT
  5
13E5
330
98F
100
AcDbEntity
  8
文字
 62
     2
370
    -2
100
AcDbBlockReference
  2
_OPEN
 10
126.7295760696304
 20
33.65841672432612
 30
0.0
 41
2.5
 42
2.5
 43
2.5
 50
270.0
  0
MTEXT
  5
13E6
330
98F
100
AcDbEntity
  8
文字
 62
     6
100
AcDbMText
 10
124.8545760696304
 20
70.65841672432613
 30
0.0
 40
2.5
 41
0.0
 71
     5
 72
     1
  1
\A1;74
  7
STYLE3
 11
0.0000000000000001
 21
1.0
 31
0.0
 73
     1
 44
1.0
  0
POINT
  5
13E7
330
98F
100
AcDbEntity
  8
DEFPOINTS
 62
     0
100
AcDbPoint
 10
120.2999434867442
 20
107.6584167243261
 30
0.0
  0
POINT
  5
13E8
330
98F
100
AcDbEntity
  8
DEFPOINTS
 62
     0
100
AcDbPoint
 10
120.2999434867442
 20
33.65841672432612
 30
0.0
  0
POINT
  5
13E9
330
98F
100
AcDbEntity
  8
DEFPOINTS
 62
     0
100
AcDbPoint
 10
126.7295760696304
 20
33.65841672432612
 30
0.0
  0
ENDBLK
  5
99A
330
98F
100
AcDbEntity
  8
0
100
AcDbBlockEnd
  0
BLOCK
  5
99D
330
99C
100
AcDbEntity
  8
0
100
AcDbBlockBegin
  2
*D12
 70
     1
 10
0.0
 20
0.0
 30
0.0
  3
*D12
  1

  0
LINE
  5
13D8
330
99C
100
AcDbEntity
  8
文字
 62
     2
370
    -2
100
AcDbLine
 10
82.9774656541212
 20
187.1584167243261
 30
0.0
 11
136.0764326400672
 21
187.1584167243261
 31
0.0
  0
LINE
  5
13D9
330
99C
100
AcDbEntity
  8
文字
 62
     2
370
    -2
100
AcDbLine
 10
127.9795760696304
 20
33.65841672432612
 30
0.0
 11
136.0764326400672
 21
33.65841672432612
 31
0.0
  0
LINE
  5
13DA
330
99C
100
AcDbEntity
  8
文字
 62
     2
370
    -2
100
AcDbLine
 10
134.8264326400672
 20
184.6584167243261
 30
0.0
 11
134.8264326400672
 21
36.15841672432612
 31
0.0
  0
INSERT
  5
13DB
330
99C
100
AcDbEntity
  8
文字
 62
     2
370
    -2
100
AcDbBlockReference
  2
_OPEN
 10
134.8264326400672
 20
187.1584167243261
 30
0.0
 41
2.5
 42
2.5
 43
2.5
 50
90.0
  0
INSERT
  5
13DC
330
99C
100
AcDbEntity
  8
文字
 62
     2
370
    -2
100
AcDbBlockReference
  2
_OPEN
 10
134.8264326400672
 20
33.65841672432612
 30
0.0
 41
2.5
 42
2.5
 43
2.5
 50
270.0
  0
MTEXT
  5
13DD
330
99C
100
AcDbEntity
  8
文字
 62
     6
100
AcDbMText
 10
132.9514326400672
 20
110.4084167243261
 30
0.0
 40
2.5
 41
0.0
 71
     5
 72
     1
  1
\A1;153.5
  7
STYLE3
 11
0.0000000000000001
 21
1.0
 31
0.0
 73
     1
 44
1.0
  0
POINT
  5
13DE
330
99C
100
AcDbEntity
  8
DEFPOINTS
 62
     0
100
AcDbPoint
 10
82.9774656541212
 20
187.1584167243261
 30
0.0
  0
POINT
  5
13DF
330
99C
100
AcDbEntity
  8
DEFPOINTS
 62
     0
100
AcDbPoint
 10
127.9795760696304
 20
33.65841672432612
 30
0.0
  0
POINT
  5
13E0
330
99C
100
AcDbEntity
  8
DEFPOINTS
 62
     0
100
AcDbPoint
 10
134.8264326400672
 20
33.65841672432612
 30
0.0
  0
ENDBLK
  5
9A7
330
99C
100
AcDbEntity
  8
0
100
AcDbBlockEnd
  0
BLOCK
  5
E29
330
9A9
100
AcDbEntity
  8
0
100
AcDbBlockBegin
  2
*D13
 70
     1
 10
0.0
 20
0.0
 30
0.0
  3
*D13
  1

  0
LINE
  5
13CF
330
9A9
100
AcDbEntity
  8
文字
 62
     2
370
    -2
100
AcDbLine
 10
179.0730083335336
 20
130.6584167243261
 30
0.0
 11
193.6709209006061
 21
130.6584167243261
 31
0.0
  0
LINE
  5
13D0
330
9A9
100
AcDbEntity
  8
文字
 62
     2
370
    -2
100
AcDbLine
 10
179.0730083335336
 20
84.65841672432611
 30
0.0
 11
193.6709209006061
 21
84.65841672432611
 31
0.0
  0
LINE
  5
13D1
330
9A9
100
AcDbEntity
  8
文字
 62
     2
370
    -2
100
AcDbLine
 10
192.4209209006061
 20
128.1584167243261
 30
0.0
 11
192.4209209006061
 21
87.15841672432611
 31
0.0
  0
INSERT
  5
13D2
330
9A9
100
AcDbEntity
  8
文字
 62
     2
370
    -2
100
AcDbBlockReference
  2
_OPEN
 10
192.4209209006061
 20
130.6584167243261
 30
0.0
 41
2.5
 42
2.5
 43
2.5
 50
90.0
  0
INSERT
  5
13D3
330
9A9
100
AcDbEntity
  8
文字
 62
     2
370
    -2
100
AcDbBlockReference
  2
_OPEN
 10
192.4209209006061
 20
84.65841672432611
 30
0.0
 41
2.5
 42
2.5
 43
2.5
 50
270.0
  0
MTEXT
  5
13D4
330
9A9
100
AcDbEntity
  8
文字
 62
     6
100
AcDbMText
 10
190.5459209006061
 20
107.6584167243261
 30
0.0
 40
2.5
 41
0.0
 71
     5
 72
     1
  1
\A1;φ46
  7
STYLE3
 11
0.0000000000000001
 21
1.0
 31
0.0
 73
     1
 44
1.0
  0
POINT
  5
13D5
330
9A9
100
AcDbEntity
  8
DEFPOINTS
 62
     0
100
AcDbPoint
 10
179.0730083335336
 20
130.6584167243261
 30
0.0
  0
POINT
  5
13D6
330
9A9
100
AcDbEntity
  8
DEFPOINTS
 62
     0
100
AcDbPoint
 10
179.0730083335336
 20
84.65841672432611
 30
0.0
  0
POINT
  5
13D7
330
9A9
100
AcDbEntity
  8
DEFPOINTS
 62
     0
100
AcDbPoint
 10
192.4209209006061
 20
84.65841672432611
 30
0.0
  0
ENDBLK
  5
E33
330
9A9
100
AcDbEntity
  8
0
100
AcDbBlockEnd
  0
BLOCK
  5
B24
330
9EE
100
AcDbEntity
  8
0
100
AcDbBlockBegin
  2
*D14
 70
     1
 10
0.0
 20
0.0
 30
0.0
  3
*D14
  1

  0
LINE
  5
13C6
330
9EE
100
AcDbEntity
  8
外形線
 62
     2
370
    -2
100
AcDbLine
 10
157.5730083335336
 20
107.5784167243261
 30
0.0
 11
157.5730083335336
 21
29.69022310336726
 31
0.0
  0
LINE
  5
13C7
330
9EE
100
AcDbEntity
  8
外形線
 62
     2
370
    -2
100
AcDbLine
 10
169.0730083335336
 20
32.32647997755254
 30
0.0
 11
169.0730083335336
 21
29.69022310336726
 31
0.0
  0
LINE
  5
13C8
330
9EE
100
AcDbEntity
  8
外形線
 62
     2
370
    -2
100
AcDbLine
 10
160.0730083335336
 20
30.94022310336726
 30
0.0
 11
166.5730083335336
 21
30.94022310336726
 31
0.0
  0
INSERT
  5
13C9
330
9EE
100
AcDbEntity
  8
外形線
 62
     2
370
    -2
100
AcDbBlockReference
  2
_OPEN
 10
157.5730083335336
 20
30.94022310336726
 30
0.0
 41
2.5
 42
2.5
 43
2.5
 50
180.0
  0
INSERT
  5
13CA
330
9EE
100
AcDbEntity
  8
外形線
 62
     2
370
    -2
100
AcDbBlockReference
  2
_OPEN
 10
169.0730083335336
 20
30.94022310336726
 30
0.0
 41
2.5
 42
2.5
 43
2.5
  0
MTEXT
  5
13CB
330
9EE
100
AcDbEntity
  8
外形線
 62
     6
100
AcDbMText
 10
163.3230083335336
 20
32.81522310336726
 30
0.0
 40
2.5
 41
0.0
 71
     5
 72
     1
  1
\A1;11.5
  7
STYLE3
 73
     1
 44
1.0
  0
POINT
  5
13CC
330
9EE
100
AcDbEntity
  8
DEFPOINTS
 62
     0
100
AcDbPoint
 10
157.5730083335336
 20
107.5784167243261
 30
0.0
  0
POINT
  5
13CD
330
9EE
100
AcDbEntity
  8
DEFPOINTS
 62
     0
100
AcDbPoint
 10
169.0730083335336
 20
32.32647997755254
 30
0.0
  0
POINT
  5
13CE
330
9EE
100
AcDbEntity
  8
DEFPOINTS
 62
     0
100
AcDbPoint
 10
169.0730083335336
 20
30.94022310336726
 30
0.0
  0
ENDBLK
  5
B2E
330
9EE
100
AcDbEntity
  8
0
100
AcDbBlockEnd
  0
BLOCK
  5
B2F
330
9FB
100
AcDbEntity
  8
0
100
AcDbBlockBegin
  2
*D15
 70
     1
 10
0.0
 20
0.0
 30
0.0
  3
*D15
  1

  0
LINE
  5
13BE
330
9FB
100
AcDbEntity
  8
外形線
 62
     2
370
    -2
100
AcDbLine
 10
179.0730083335336
 20
84.65841672432611
 30
0.0
 11
179.0730083335336
 21
29.69022310336726
 31
0.0
  0
LINE
  5
13BF
330
9FB
100
AcDbEntity
  8
外形線
 62
     2
370
    -2
100
AcDbLine
 10
171.5730083335336
 20
30.94022310336726
 30
0.0
 11
176.5730083335336
 21
30.94022310336726
 31
0.0
  0
INSERT
  5
13C0
330
9FB
100
AcDbEntity
  8
外形線
 62
     2
370
    -2
100
AcDbBlockReference
  2
_OPEN
 10
169.0730083335336
 20
30.94022310336726
 30
0.0
 41
2.5
 42
2.5
 43
2.5
 50
180.0
  0
INSERT
  5
13C1
330
9FB
100
AcDbEntity
  8
外形線
 62
     2
370
    -2
100
AcDbBlockReference
  2
_OPEN
 10
179.0730083335336
 20
30.94022310336726
 30
0.0
 41
2.5
 42
2.5
 43
2.5
  0
MTEXT
  5
13C2
330
9FB
100
AcDbEntity
  8
外形線
 62
     6
100
AcDbMText
 10
174.0730083335336
 20
32.81522310336726
 30
0.0
 40
2.5
 41
0.0
 71
     5
 72
     1
  1
\A1;10
  7
STYLE3
 73
     1
 44
1.0
  0
POINT
  5
13C3
330
9FB
100
AcDbEntity
  8
DEFPOINTS
 62
     0
100
AcDbPoint
 10
169.0730083335336
 20
32.32647997755254
 30
0.0
  0
POINT
  5
13C4
330
9FB
100
AcDbEntity
  8
DEFPOINTS
 62
     0
100
AcDbPoint
 10
179.0730083335336
 20
84.65841672432611
 30
0.0
  0
POINT
  5
13C5
330
9FB
100
AcDbEntity
  8
DEFPOINTS
 62
     0
100
AcDbPoint
 10
179.0730083335336
 20
30.94022310336726
 30
0.0
  0
ENDBLK
  5
B38
330
9FB
100
AcDbEntity
  8
0
100
AcDbBlockEnd
  0
BLOCK
  5
B39
330
A1C
100
AcDbEntity
  8
0
100
AcDbBlockBegin
  2
*D16
 70
     1
 10
0.0
 20
0.0
 30
0.0
  3
*D16
  1

  0
LINE
  5
13B5
330
A1C
100
AcDbEntity
  8
外形線
 62
     2
370
    -2
100
AcDbLine
 10
154.0730083335336
 20
87.29659973350601
 30
0.0
 11
154.0730083335336
 21
25.21222699200592
 31
0.0
  0
LINE
  5
13B6
330
A1C
100
AcDbEntity
  8
外形線
 62
     2
370
    -2
100
AcDbLine
 10
179.0730083335336
 20
29.69022310336726
 30
0.0
 11
179.0730083335336
 21
25.21222699200592
 31
0.0
  0
LINE
  5
13B7
330
A1C
100
AcDbEntity
  8
外形線
 62
     2
370
    -2
100
AcDbLine
 10
156.5730083335336
 20
26.46222699200592
 30
0.0
 11
176.5730083335336
 21
26.46222699200592
 31
0.0
  0
INSERT
  5
13B8
330
A1C
100
AcDbEntity
  8
外形線
 62
     2
370
    -2
100
AcDbBlockReference
  2
_OPEN
 10
154.0730083335336
 20
26.46222699200592
 30
0.0
 41
2.5
 42
2.5
 43
2.5
 50
180.0
  0
INSERT
  5
13B9
330
A1C
100
AcDbEntity
  8
外形線
 62
     2
370
    -2
100
AcDbBlockReference
  2
_OPEN
 10
179.0730083335336
 20
26.46222699200592
 30
0.0
 41
2.5
 42
2.5
 43
2.5
  0
MTEXT
  5
13BA
330
A1C
100
AcDbEntity
  8
外形線
 62
     6
100
AcDbMText
 10
166.5730083335336
 20
28.33722699200592
 30
0.0
 40
2.5
 41
0.0
 71
     5
 72
     1
  1
\A1;25
  7
STYLE3
 73
     1
 44
1.0
  0
POINT
  5
13BB
330
A1C
100
AcDbEntity
  8
DEFPOINTS
 62
     0
100
AcDbPoint
 10
154.0730083335336
 20
87.29659973350601
 30
0.0
  0
POINT
  5
13BC
330
A1C
100
AcDbEntity
  8
DEFPOINTS
 62
     0
100
AcDbPoint
 10
179.0730083335336
 20
29.69022310336726
 30
0.0
  0
POINT
  5
13BD
330
A1C
100
AcDbEntity
  8
DEFPOINTS
 62
     0
100
AcDbPoint
 10
179.0730083335336
 20
26.46222699200592
 30
0.0
  0
ENDBLK
  5
B43
330
A1C
100
AcDbEntity
  8
0
100
AcDbBlockEnd
  0
ENDSEC
  0
SECTION
  2
ENTITIES
  0
LWPOLYLINE
  5
26C
330
18
100
AcDbEntity
  8
C
100
AcDbPolyline
 90
        5
 70
     0
 43
0.4
 10
0.0
 20
194.7274940416472
 10
255.0
 20
194.7274940416472
 10
255.0
 20
0.0
 10
0.0
 20
0.0
 10
0.0
 20
194.7274940416472
  0
LINE
  5
310
330
18
100
AcDbEntity
  8
中心線
100
AcDbLine
 10
51.53294898502327
 20
107.6584167243261
 30
0.0
 11
110.2225050228306
 21
107.6584167243261
 31
0.0
  0
LINE
  5
311
330
18
100
AcDbEntity
  8
中心線
100
AcDbLine
 10
80.87772740014974
 20
191.4505854684082
 30
0.0
 11
80.87772740014974
 21
32.22541784893991
 31
0.0
  0
LINE
  5
312
330
18
100
AcDbEntity
  8
外形線
100
AcDbLine
 10
80.87772740014974
 20
73.49841672432612
 30
0.0
 11
89.71604424210296
 21
73.49841672432612
 31
0.0
  0
ARC
  5
31B
330
18
100
AcDbEntity
  8
外形線
100
AcDbCircle
 10
-42.12227259985025
 20
107.6584167243261
 30
0.0
 40
148.0
100
AcDbArc
 50
351.2395006156553
 51
9.343863756487888
  0
LINE
  5
32D
330
18
100
AcDbEntity
  8
外形線
100
AcDbLine
 10
103.0694071929997
 20
83.90034721402765
 30
0.0
 11
94.87984061377691
 21
81.62950110285894
 31
0.0
  0
ARC
  5
32E
330
18
100
AcDbEntity
  8
外形線
100
AcDbCircle
 10
102.6686023552998
 20
85.34580751513468
 30
0.0
 40
1.5
100
AcDbArc
 50
285.4979099969276
 51
351.2395006156553
  0
LINE
  5
330
330
18
100
AcDbEntity
  8
外形線
100
AcDbLine
 10
90.6162454801119
 20
76.94483443081612
 30
0.0
 11
89.91160472491845
 21
73.65651090657995
 31
0.0
  0
ARC
  5
331
330
18
100
AcDbEntity
  8
外形線
100
AcDbCircle
 10
96.7003966620949
 20
75.69006325123905
 30
0.0
 40
6.212193358091993
100
AcDbArc
 50
107.04134573567
 51
168.346927233681
  0
ARC
  5
332
330
18
100
AcDbEntity
  8
外形線
100
AcDbCircle
 10
89.71604424210296
 20
73.69841672432612
 30
0.0
 40
0.2
100
AcDbArc
 50
270.0
 51
347.9052429229879
  0
LINE
  5
342
330
18
100
AcDbEntity
  8
外形線
100
AcDbLine
 10
80.87772740014974
 20
141.6584167243261
 30
0.0
 11
90.70830198247316
 21
141.6584167243261
 31
0.0
  0
LINE
  5
344
330
18
100
AcDbEntity
  8
外形線
100
AcDbLine
 10
102.8013784549299
 20
132.8983467277257
 30
0.0
 11
95.68131119555818
 21
134.6973683110606
 31
0.0
  0
ARC
  5
345
330
18
100
AcDbEntity
  8
外形線
100
AcDbCircle
 10
102.4339227212201
 20
131.4440509243336
 30
0.0
 40
1.5
100
AcDbArc
 50
9.343863756487762
 51
75.81991026419892
  0
LINE
  5
347
330
18
100
AcDbEntity
  8
外形線
100
AcDbLine
 10
91.23277058740464
 20
139.5281576007967
 30
0.0
 11
90.9055807672396
 21
141.4912965217872
 31
0.0
  0
ARC
  5
348
330
18
100
AcDbEntity
  8
外形線
100
AcDbCircle
 10
97.15113413039752
 20
140.5145515246289
 30
0.0
 40
6.0
100
AcDbArc
 50
189.4623222080256
 51
255.8199102641987
  0
ARC
  5
34A
330
18
100
AcDbEntity
  8
外形線
100
AcDbCircle
 10
90.70830198247316
 20
141.4584167243261
 30
0.0
 40
0.2
100
AcDbArc
 50
9.462322208025469
 51
90.0
  0
LINE
  5
34B
330
18
100
AcDbEntity
  8
中心線
100
AcDbLine
 10
93.37772740014974
 20
135.9353383712018
 30
0.0
 11
93.37772740014974
 21
129.3814950774504
 31
0.0
  0
LINE
  5
34D
330
18
100
AcDbEntity
  8
中心線
100
AcDbLine
 10
90.10080575327402
 20
132.6584167243261
 30
0.0
 11
96.65464904702549
 21
132.6584167243261
 31
0.0
  0
CIRCLE
  5
34E
330
18
100
AcDbEntity
  8
外形線
100
AcDbCircle
 10
93.37772740014974
 20
84.15841672432611
 30
0.0
 40
2.0
  0
CIRCLE
  5
34F
330
18
100
AcDbEntity
  8
外形線
100
AcDbCircle
 10
93.37772740014974
 20
132.6584167243261
 30
0.0
 40
2.0
  0
LINE
  5
353
330
18
100
AcDbEntity
  8
中心線
100
AcDbLine
 10
93.37772740014974
 20
87.43533837120185
 30
0.0
 11
93.37772740014974
 21
80.88149507745038
 31
0.0
  0
LINE
  5
354
330
18
100
AcDbEntity
  8
中心線
100
AcDbLine
 10
90.10080575327402
 20
84.15841672432611
 30
0.0
 11
96.65464904702549
 21
84.15841672432611
 31
0.0
  0
LINE
  5
355
330
18
100
AcDbEntity
  8
外形線
100
AcDbLine
 10
89.87772740014975
 20
139.6584167243261
 30
0.0
 11
89.87772740014975
 21
132.6584167243261
 31
0.0
  0
LINE
  5
356
330
18
100
AcDbEntity
  8
外形線
100
AcDbLine
 10
80.87772740014974
 20
140.6584167243261
 30
0.0
 11
88.87772740014975
 21
140.6584167243261
 31
0.0
  0
LINE
  5
357
330
18
100
AcDbEntity
  8
外形線
100
AcDbLine
 10
80.87772740014974
 20
131.6584167243261
 30
0.0
 11
88.87772740014975
 21
131.6584167243261
 31
0.0
  0
ARC
  5
358
330
18
100
AcDbEntity
  8
外形線
100
AcDbCircle
 10
88.87772740014975
 20
132.6584167243261
 30
0.0
 40
1.0
100
AcDbArc
 50
270.0000000000002
 51
0.0
  0
ARC
  5
359
330
18
100
AcDbEntity
  8
外形線
100
AcDbCircle
 10
88.87772740014975
 20
139.6584167243261
 30
0.0
 40
1.0
100
AcDbArc
 50
0.0
 51
90.00000000000019
  0
LINE
  5
35A
330
18
100
AcDbEntity
  8
外形線
100
AcDbLine
 10
71.87772740014972
 20
139.6584167243261
 30
0.0
 11
71.87772740014972
 21
132.6584167243261
 31
0.0
  0
LINE
  5
35B
330
18
100
AcDbEntity
  8
中心線
100
AcDbLine
 10
68.37772740014973
 20
135.9353383712018
 30
0.0
 11
68.37772740014973
 21
129.3814950774504
 31
0.0
  0
CIRCLE
  5
35C
330
18
100
AcDbEntity
  8
外形線
100
AcDbCircle
 10
68.37772740014973
 20
132.6584167243261
 30
0.0
 40
2.0
  0
ARC
  5
35D
330
18
100
AcDbEntity
  8
外形線
100
AcDbCircle
 10
64.60432066990197
 20
140.5145515246289
 30
0.0
 40
6.0
100
AcDbArc
 50
284.1800897358013
 51
350.5376777919744
  0
LINE
  5
35E
330
18
100
AcDbEntity
  8
外形線
100
AcDbLine
 10
58.95407634536957
 20
132.8983467277257
 30
0.0
 11
66.07414360474127
 21
134.6973683110606
 31
0.0
  0
ARC
  5
35F
330
18
100
AcDbEntity
  8
外形線
100
AcDbCircle
 10
203.8777274001497
 20
107.6584167243261
 30
0.0
 40
148.0
100
AcDbArc
 50
170.6561362435121
 51
188.7604993843447
  0
LINE
  5
360
330
18
100
AcDbEntity
  8
外形線
100
AcDbLine
 10
58.68604760729974
 20
83.90034721402765
 30
0.0
 11
66.87561418652257
 21
81.62950110285894
 31
0.0
  0
LINE
  5
361
330
18
100
AcDbEntity
  8
外形線
100
AcDbLine
 10
80.87772740014973
 20
73.49841672432612
 30
0.0
 11
72.03941055819652
 21
73.49841672432612
 31
0.0
  0
LINE
  5
362
330
18
100
AcDbEntity
  8
外形線
100
AcDbLine
 10
71.13920932018757
 20
76.94483443081612
 30
0.0
 11
71.84385007538105
 21
73.65651090657995
 31
0.0
  0
ARC
  5
363
330
18
100
AcDbEntity
  8
外形線
100
AcDbCircle
 10
72.03941055819652
 20
73.69841672432612
 30
0.0
 40
0.2
100
AcDbArc
 50
192.0947570770122
 51
270.0
  0
LINE
  5
364
330
18
100
AcDbEntity
  8
中心線
100
AcDbLine
 10
71.65464904702545
 20
84.15841672432611
 30
0.0
 11
65.10080575327399
 21
84.15841672432611
 31
0.0
  0
CIRCLE
  5
365
330
18
100
AcDbEntity
  8
外形線
100
AcDbCircle
 10
68.37772740014973
 20
84.15841672432611
 30
0.0
 40
2.0
  0
ARC
  5
366
330
18
100
AcDbEntity
  8
外形線
100
AcDbCircle
 10
65.05505813820457
 20
75.69006325123905
 30
0.0
 40
6.212193358092002
100
AcDbArc
 50
11.65307276631892
 51
72.95865426432995
  0
LINE
  5
367
330
18
100
AcDbEntity
  8
中心線
100
AcDbLine
 10
68.37772740014973
 20
87.43533837120185
 30
0.0
 11
68.37772740014973
 21
80.88149507745038
 31
0.0
  0
ARC
  5
368
330
18
100
AcDbEntity
  8
外形線
100
AcDbCircle
 10
59.08685244499963
 20
85.34580751513468
 30
0.0
 40
1.5
100
AcDbArc
 50
188.7604993843447
 51
254.5020900030724
  0
LINE
  5
369
330
18
100
AcDbEntity
  8
外形線
100
AcDbLine
 10
80.87772740014969
 20
131.6584167243261
 30
0.0
 11
72.87772740014972
 21
131.6584167243261
 31
0.0
  0
LINE
  5
36A
330
18
100
AcDbEntity
  8
中心線
100
AcDbLine
 10
71.65464904702545
 20
132.6584167243261
 30
0.0
 11
65.10080575327399
 21
132.6584167243261
 31
0.0
  0
ARC
  5
36B
330
18
100
AcDbEntity
  8
外形線
100
AcDbCircle
 10
72.87772740014972
 20
132.6584167243261
 30
0.0
 40
1.0
100
AcDbArc
 50
180.0
 51
269.9999999999998
  0
ARC
  5
36C
330
18
100
AcDbEntity
  8
外形線
100
AcDbCircle
 10
59.32153207907939
 20
131.4440509243336
 30
0.0
 40
1.5
100
AcDbArc
 50
104.1800897358011
 51
170.6561362435122
  0
LINE
  5
36D
330
18
100
AcDbEntity
  8
外形線
100
AcDbLine
 10
80.87772740014974
 20
140.6584167243261
 30
0.0
 11
72.87772740014972
 21
140.6584167243261
 31
0.0
  0
LINE
  5
36E
330
18
100
AcDbEntity
  8
外形線
100
AcDbLine
 10
80.87772740014974
 20
141.6584167243261
 30
0.0
 11
71.04715281782631
 21
141.6584167243261
 31
0.0
  0
ARC
  5
36F
330
18
100
AcDbEntity
  8
外形線
100
AcDbCircle
 10
72.87772740014972
 20
139.6584167243261
 30
0.0
 40
1.0
100
AcDbArc
 50
89.99999999999982
 51
180.0
  0
LINE
  5
370
330
18
100
AcDbEntity
  8
外形線
100
AcDbLine
 10
70.52268421289483
 20
139.5281576007967
 30
0.0
 11
70.84987403305991
 21
141.4912965217872
 31
0.0
  0
ARC
  5
371
330
18
100
AcDbEntity
  8
外形線
100
AcDbCircle
 10
71.04715281782631
 20
141.4584167243261
 30
0.0
 40
0.2
100
AcDbArc
 50
90.0
 51
170.5376777919745
  0
POINT
  5
4F6
330
18
100
AcDbEntity
  8
DEFPOINTS
  6
ByBlock
 62
     0
100
AcDbPoint
 10
76.21898458830435
 20
90.27175185112293
 30
0.0
  0
POINT
  5
4F7
330
18
100
AcDbEntity
  8
DEFPOINTS
  6
ByBlock
 62
     0
100
AcDbPoint
 10
76.21898458830435
 20
90.27175185112287
 30
0.0
  0
LINE
  5
632
330
18
100
AcDbEntity
  8
外形線
100
AcDbLine
 10
92.46955722005379
 20
131.7502465442301
 30
0.0
 11
94.28589758024575
 21
133.5665869044221
 31
0.0
  0
LINE
  5
634
330
18
100
AcDbEntity
  8
外形線
100
AcDbLine
 10
94.28589758024571
 20
131.7502465442301
 30
0.0
 11
92.46955722005376
 21
133.5665869044221
 31
0.0
  0
LINE
  5
635
330
18
100
AcDbEntity
  8
外形線
100
AcDbLine
 10
69.28589758024571
 20
131.7502465442301
 30
0.0
 11
67.46955722005373
 21
133.5665869044221
 31
0.0
  0
LINE
  5
636
330
18
100
AcDbEntity
  8
外形線
100
AcDbLine
 10
67.46955722005373
 20
131.7502465442301
 30
0.0
 11
69.28589758024571
 21
133.5665869044221
 31
0.0
  0
LINE
  5
637
330
18
100
AcDbEntity
  8
外形線
100
AcDbLine
 10
69.28589758024571
 20
83.25024654423012
 30
0.0
 11
67.46955722005373
 21
85.06658690442208
 31
0.0
  0
LINE
  5
638
330
18
100
AcDbEntity
  8
外形線
100
AcDbLine
 10
67.46955722005373
 20
83.25024654423012
 30
0.0
 11
69.28589758024571
 21
85.06658690442208
 31
0.0
  0
LINE
  5
639
330
18
100
AcDbEntity
  8
外形線
100
AcDbLine
 10
94.28589758024571
 20
83.25024654423012
 30
0.0
 11
92.46955722005376
 21
85.06658690442208
 31
0.0
  0
LINE
  5
63A
330
18
100
AcDbEntity
  8
外形線
100
AcDbLine
 10
92.46955722005379
 20
83.25024654423012
 30
0.0
 11
94.28589758024575
 21
85.06658690442208
 31
0.0
  0
LINE
  5
641
330
18
100
AcDbEntity
  8
中心線
 48
0.5
100
AcDbLine
 10
103.9963542707664
 20
152.9927079835517
 30
0.0
 11
97.63054622712118
 21
129.235188933437
 31
0.0
  0
LINE
  5
644
330
18
100
AcDbEntity
  8
外形線
100
AcDbLine
 10
102.5519620143245
 20
136.0110527809825
 30
0.0
 11
101.7866168429336
 21
133.1547457160243
 31
0.0
  0
LINE
  5
645
330
18
100
AcDbEntity
  8
外形線
100
AcDbLine
 10
96.75640705659013
 20
137.5639670515977
 30
0.0
 11
95.96883795736587
 21
134.6247191588215
 31
0.0
  0
LINE
  5
64D
330
18
100
AcDbEntity
  8
外形線
100
AcDbLine
 10
103.5178878406136
 20
135.75223373588
 30
0.0
 11
103.7767068857161
 21
136.7181595621691
 31
0.0
  0
LINE
  5
64F
330
18
100
AcDbEntity
  8
外形線
100
AcDbLine
 10
99.65418453545732
 20
136.7875099162901
 30
0.0
 11
103.5178878406136
 21
135.75223373588
 31
0.0
  0
LINE
  5
650
330
18
100
AcDbEntity
  8
外形線
100
AcDbLine
 10
99.91300358055983
 20
137.7534357425792
 30
0.0
 11
104.2596697988606
 21
136.5887500396179
 31
0.0
  0
LINE
  5
651
330
18
100
AcDbEntity
  8
外形線
100
AcDbLine
 10
100.6894607158674
 20
140.6512132214464
 30
0.0
 11
105.0361269341681
 21
139.4865275184851
 31
0.0
  0
LINE
  5
652
330
18
100
AcDbEntity
  8
外形線
100
AcDbLine
 10
100.9482797609699
 20
141.6171390477354
 30
0.0
 11
105.2949459792706
 21
140.4524533447741
 31
0.0
  0
LINE
  5
653
330
18
100
AcDbEntity
  8
外形線
100
AcDbLine
 10
102.7600130766875
 20
148.3786198317589
 30
0.0
 11
106.6237163818438
 21
147.3433436513489
 31
0.0
  0
LINE
  5
654
330
18
100
AcDbEntity
  8
外形線
100
AcDbLine
 10
106.6237163818438
 20
147.3433436513489
 30
0.0
 11
106.9772697724371
 21
146.7309712156531
 31
0.0
  0
LINE
  5
658
330
18
100
AcDbEntity
  8
外形線
100
AcDbLine
 10
104.2596697988606
 20
136.5887500396179
 30
0.0
 11
105.0361269341681
 21
139.4865275184851
 31
0.0
  0
LINE
  5
659
330
18
100
AcDbEntity
  8
外形線
100
AcDbLine
 10
105.2949459792706
 20
140.4524533447741
 30
0.0
 11
106.9772697724371
 21
146.7309712156531
 31
0.0
  0
LINE
  5
65A
330
18
100
AcDbEntity
  8
外形線
100
AcDbLine
 10
104.5531640210237
 20
139.6159370410363
 30
0.0
 11
104.8119830661262
 21
140.5818628673254
 31
0.0
  0
LINE
  5
65B
330
18
100
AcDbEntity
  8
外形線
100
AcDbLine
 10
106.9772697724371
 20
146.7309712156531
 30
0.0
 11
102.6306035541363
 21
147.8956569186144
 31
0.0
  0
LINE
  5
65C
330
18
100
AcDbEntity
  8
外形線
100
AcDbLine
 10
103.2937439725715
 20
136.8475690847204
 30
0.0
 11
104.0702011078791
 21
139.7453465635876
 31
0.0
  0
LINE
  5
65D
330
18
100
AcDbEntity
  8
外形線
100
AcDbLine
 10
102.3278181462825
 20
137.1063881298229
 30
0.0
 11
103.10427528159
 21
140.0041656086901
 31
0.0
  0
LINE
  5
65E
330
18
100
AcDbEntity
  8
外形線
100
AcDbLine
 10
101.3618923199934
 20
137.3652071749254
 30
0.0
 11
102.1383494553009
 21
140.2629846537926
 31
0.0
  0
LINE
  5
65F
330
18
100
AcDbEntity
  8
外形線
100
AcDbLine
 10
100.3959664937043
 20
137.6240262200279
 30
0.0
 11
101.1724236290118
 21
140.5218036988951
 31
0.0
  0
LINE
  5
660
330
18
100
AcDbEntity
  8
外形線
100
AcDbLine
 10
104.3290201529816
 20
140.7112723898767
 30
0.0
 11
106.011343946148
 21
146.9897902607556
 31
0.0
  0
LINE
  5
661
330
18
100
AcDbEntity
  8
外形線
100
AcDbLine
 10
103.3630943266925
 20
140.9700914349792
 30
0.0
 11
105.045418119859
 21
147.2486093058581
 31
0.0
  0
LINE
  5
662
330
18
100
AcDbEntity
  8
外形線
100
AcDbLine
 10
102.3971685004035
 20
141.2289104800817
 30
0.0
 11
104.0794922935699
 21
147.5074283509607
 31
0.0
  0
LINE
  5
663
330
18
100
AcDbEntity
  8
外形線
100
AcDbLine
 10
101.4312426741144
 20
141.4877295251843
 30
0.0
 11
103.1135664672808
 21
147.7662473960632
 31
0.0
  0
LINE
  5
668
330
18
100
AcDbEntity
  8
外形線
100
AcDbLine
 10
96.60161354266916
 20
142.7818247506968
 30
0.0
 11
98.28393733583547
 21
149.0603426215758
 31
0.0
  0
LINE
  5
669
330
18
100
AcDbEntity
  8
外形線
100
AcDbLine
 10
98.28393733583547
 20
149.0603426215758
 30
0.0
 11
102.6306035541363
 21
147.8956569186144
 31
0.0
  0
LINE
  5
66A
330
18
100
AcDbEntity
  8
外形線
100
AcDbLine
 10
102.7600130766875
 20
148.3786198317589
 30
0.0
 11
98.8963097715313
 21
149.413896012169
 31
0.0
  0
LINE
  5
66B
330
18
100
AcDbEntity
  8
外形線
100
AcDbLine
 10
98.8963097715313
 20
149.413896012169
 30
0.0
 11
98.28393733583547
 21
149.0603426215758
 31
0.0
  0
LINE
  5
66C
330
18
100
AcDbEntity
  8
外形線
100
AcDbLine
 10
99.65418453545732
 20
136.7875099162901
 30
0.0
 11
95.79048123030105
 21
137.8227860967002
 31
0.0
  0
LINE
  5
66D
330
18
100
AcDbEntity
  8
外形線
100
AcDbLine
 10
100.9482797609699
 20
141.6171390477354
 30
0.0
 11
96.60161354266916
 21
142.7818247506968
 31
0.0
  0
LINE
  5
66E
330
18
100
AcDbEntity
  8
外形線
100
AcDbLine
 10
100.6894607158674
 20
140.6512132214464
 30
0.0
 11
96.34279449756665
 21
141.8158989244077
 31
0.0
  0
LINE
  5
66F
330
18
100
AcDbEntity
  8
外形線
100
AcDbLine
 10
99.91300358055983
 20
137.7534357425792
 30
0.0
 11
95.56633736225904
 21
138.9181214455405
 31
0.0
  0
LINE
  5
674
330
18
100
AcDbEntity
  8
外形線
100
AcDbLine
 10
95.56633736225904
 20
138.9181214455405
 30
0.0
 11
96.34279449756665
 21
141.8158989244077
 31
0.0
  0
LINE
  5
675
330
18
100
AcDbEntity
  8
外形線
100
AcDbLine
 10
96.82575741071113
 20
141.6864894018565
 30
0.0
 11
97.08457645581365
 21
142.6524152281456
 31
0.0
  0
LINE
  5
676
330
18
100
AcDbEntity
  8
外形線
100
AcDbLine
 10
95.79048123030105
 20
137.8227860967002
 30
0.0
 11
96.04930027540355
 21
138.7887119229893
 31
0.0
  0
LINE
  5
679
330
18
100
AcDbEntity
  8
外形線
100
AcDbLine
 10
56.46050882102883
 20
140.4524533447741
 30
0.0
 11
54.77818502786238
 21
146.7309712156531
 31
0.0
  0
LINE
  5
67A
330
18
100
AcDbEntity
  8
外形線
100
AcDbLine
 10
61.29013795247408
 20
141.7465485702868
 30
0.0
 11
59.60781415930774
 21
148.0250664411657
 31
0.0
  0
LINE
  5
67B
330
18
100
AcDbEntity
  8
外形線
100
AcDbLine
 10
62.25606377876312
 20
142.0053676153893
 30
0.0
 11
60.57373998559683
 21
148.2838854862682
 31
0.0
  0
LINE
  5
67C
330
18
100
AcDbEntity
  8
外形線
100
AcDbLine
 10
63.22198960505222
 20
142.2641866604918
 30
0.0
 11
61.53966581188587
 21
148.5427045313707
 31
0.0
  0
LINE
  5
67D
330
18
100
AcDbEntity
  8
外形線
100
AcDbLine
 10
64.18791543134131
 20
142.5230057055943
 30
0.0
 11
62.50559163817496
 21
148.8015235764732
 31
0.0
  0
LINE
  5
67E
330
18
100
AcDbEntity
  8
外形線
100
AcDbLine
 10
65.15384125763034
 20
142.7818247506968
 30
0.0
 11
63.471517464464
 21
149.0603426215758
 31
0.0
  0
LINE
  5
67F
330
18
100
AcDbEntity
  8
外形線
100
AcDbLine
 10
61.06599408443213
 20
140.6512132214464
 30
0.0
 11
56.71932786613138
 21
139.486527518485
 31
0.0
  0
LINE
  5
680
330
18
100
AcDbEntity
  8
外形線
100
AcDbLine
 10
60.80717503932965
 20
141.6171390477353
 30
0.0
 11
56.46050882102883
 21
140.4524533447741
 31
0.0
  0
LINE
  5
681
330
18
100
AcDbEntity
  8
外形線
100
AcDbLine
 10
62.10127026484219
 20
136.7875099162901
 30
0.0
 11
58.23756695968592
 21
135.75223373588
 31
0.0
  0
LINE
  5
682
330
18
100
AcDbEntity
  8
外形線
100
AcDbLine
 10
61.8424512197397
 20
137.7534357425792
 30
0.0
 11
57.49578500143889
 21
136.5887500396179
 31
0.0
  0
LINE
  5
684
330
18
100
AcDbEntity
  8
外形線
100
AcDbLine
 10
57.49578500143889
 20
136.5887500396179
 30
0.0
 11
56.71932786613138
 21
139.486527518485
 31
0.0
  0
LINE
  5
685
330
18
100
AcDbEntity
  8
外形線
100
AcDbLine
 10
59.20349278597502
 20
136.0110527809825
 30
0.0
 11
59.96883795736588
 21
133.1547457160243
 31
0.0
  0
LINE
  5
686
330
18
100
AcDbEntity
  8
外形線
100
AcDbLine
 10
58.23756695968592
 20
135.75223373588
 30
0.0
 11
57.97874791458338
 21
136.7181595621691
 31
0.0
  0
LINE
  5
687
330
18
100
AcDbEntity
  8
外形線
100
AcDbLine
 10
57.20229077927587
 20
139.6159370410363
 30
0.0
 11
56.94347173417333
 21
140.5818628673253
 31
0.0
  0
LINE
  5
688
330
18
100
AcDbEntity
  8
外形線
100
AcDbLine
 10
63.29133995917328
 20
138.1416643102329
 30
0.0
 11
62.51488282386566
 21
141.0394417891001
 31
0.0
  0
LINE
  5
689
330
18
100
AcDbEntity
  8
外形線
100
AcDbLine
 10
64.25726578546232
 20
138.4004833553354
 30
0.0
 11
63.48080865015475
 21
141.2982608342026
 31
0.0
  0
LINE
  5
68A
330
18
100
AcDbEntity
  8
外形線
100
AcDbLine
 10
65.22319161175142
 20
138.659302400438
 30
0.0
 11
64.4467344764438
 21
141.5570798793052
 31
0.0
  0
LINE
  5
68B
330
18
100
AcDbEntity
  8
外形線
100
AcDbLine
 10
66.18911743804045
 20
138.9181214455405
 30
0.0
 11
65.41266030273289
 21
141.8158989244077
 31
0.0
  0
LINE
  5
68C
330
18
100
AcDbEntity
  8
外形線
100
AcDbLine
 10
62.32541413288419
 20
137.8828452651304
 30
0.0
 11
61.54895699757663
 21
140.7806227439976
 31
0.0
  0
LINE
  5
68D
330
18
100
AcDbEntity
  8
外形線
100
AcDbLine
 10
62.10127026484219
 20
136.7875099162901
 30
0.0
 11
65.96497356999845
 21
137.8227860967002
 31
0.0
  0
LINE
  5
68E
330
18
100
AcDbEntity
  8
外形線
100
AcDbLine
 10
61.8424512197397
 20
137.7534357425792
 30
0.0
 11
66.18911743804045
 21
138.9181214455405
 31
0.0
  0
LINE
  5
68F
330
18
100
AcDbEntity
  8
外形線
100
AcDbLine
 10
64.99904774370941
 20
137.5639670515977
 30
0.0
 11
65.78661684293365
 21
134.6247191588215
 31
0.0
  0
LINE
  5
691
330
18
100
AcDbEntity
  8
外形線
100
AcDbLine
 10
65.96497356999845
 20
137.8227860967002
 30
0.0
 11
65.70615452489596
 21
138.7887119229893
 31
0.0
  0
LINE
  5
692
330
18
100
AcDbEntity
  8
外形線
100
AcDbLine
 10
60.80717503932965
 20
141.6171390477353
 30
0.0
 11
65.15384125763034
 21
142.7818247506968
 31
0.0
  0
LINE
  5
693
330
18
100
AcDbEntity
  8
外形線
100
AcDbLine
 10
61.06599408443213
 20
140.6512132214464
 30
0.0
 11
65.41266030273289
 21
141.8158989244077
 31
0.0
  0
LINE
  5
694
330
18
100
AcDbEntity
  8
外形線
100
AcDbLine
 10
64.9296973895884
 20
141.6864894018565
 30
0.0
 11
64.67087834448586
 21
142.6524152281455
 31
0.0
  0
LINE
  5
695
330
18
100
AcDbEntity
  8
外形線
100
AcDbLine
 10
58.99544172361197
 20
148.3786198317589
 30
0.0
 11
55.13173841845571
 21
147.3433436513488
 31
0.0
  0
LINE
  5
696
330
18
100
AcDbEntity
  8
外形線
100
AcDbLine
 10
54.77818502786238
 20
146.7309712156531
 30
0.0
 11
59.12485124616319
 21
147.8956569186144
 31
0.0
  0
LINE
  5
697
330
18
100
AcDbEntity
  8
外形線
100
AcDbLine
 10
55.13173841845571
 20
147.3433436513488
 30
0.0
 11
54.77818502786238
 21
146.7309712156531
 31
0.0
  0
LINE
  5
698
330
18
100
AcDbEntity
  8
外形線
100
AcDbLine
 10
63.471517464464
 20
149.0603426215758
 30
0.0
 11
59.12485124616319
 21
147.8956569186144
 31
0.0
  0
LINE
  5
699
330
18
100
AcDbEntity
  8
外形線
100
AcDbLine
 10
58.99544172361197
 20
148.3786198317589
 30
0.0
 11
62.85914502876824
 21
149.413896012169
 31
0.0
  0
LINE
  5
69A
330
18
100
AcDbEntity
  8
外形線
100
AcDbLine
 10
62.85914502876824
 20
149.413896012169
 30
0.0
 11
63.471517464464
 21
149.0603426215758
 31
0.0
  0
LINE
  5
69C
330
18
100
AcDbEntity
  8
外形線
100
AcDbLine
 10
78.6777274001497
 20
42.65841672432611
 30
0.0
 11
83.07772740014973
 21
42.65841672432611
 31
0.0
  0
LINE
  5
69D
330
18
100
AcDbEntity
  8
外形線
100
AcDbLine
 10
82.87772740014975
 20
52.45841672432611
 30
0.0
 11
82.87772740014975
 21
42.65841672432611
 31
0.0
  0
LINE
  5
69E
330
18
100
AcDbEntity
  8
外形線
100
AcDbLine
 10
78.87772740014975
 20
52.45841672432611
 30
0.0
 11
78.87772740014975
 21
42.65841672432611
 31
0.0
  0
LINE
  5
701
330
18
100
AcDbEntity
  8
外形線
100
AcDbLine
 10
78.6777274001497
 20
42.65841672432611
 30
0.0
 11
78.6777274001497
 21
42.15841672432611
 31
0.0
  0
LINE
  5
702
330
18
100
AcDbEntity
  8
外形線
100
AcDbLine
 10
83.07772740014973
 20
42.65841672432611
 30
0.0
 11
83.07772740014973
 21
42.15841672432611
 31
0.0
  0
LINE
  5
704
330
18
100
AcDbEntity
  8
外形線
100
AcDbLine
 10
78.37772740014969
 20
40.05841672432615
 30
0.0
 11
83.37772740014981
 21
40.05841672432615
 31
0.0
  0
LINE
  5
705
330
18
100
AcDbEntity
  8
外形線
100
AcDbLine
 10
78.37772740014969
 20
41.25841672432613
 30
0.0
 11
83.37772740014981
 21
41.25841672432613
 31
0.0
  0
LINE
  5
706
330
18
100
AcDbEntity
  8
外形線
100
AcDbLine
 10
78.37772740014969
 20
42.15841672432614
 30
0.0
 11
83.37772740014981
 21
42.15841672432614
 31
0.0
  0
LINE
  5
707
330
18
100
AcDbEntity
  8
外形線
100
AcDbLine
 10
78.37772740014969
 20
39.15841672432615
 30
0.0
 11
83.37772740014981
 21
39.15841672432615
 31
0.0
  0
LINE
  5
708
330
18
100
AcDbEntity
  8
外形線
100
AcDbLine
 10
83.37772740014981
 20
39.15841672432615
 30
0.0
 11
82.1777274001497
 21
34.65841672432615
 31
0.0
  0
LINE
  5
709
330
18
100
AcDbEntity
  8
外形線
100
AcDbLine
 10
78.37772740014969
 20
39.15841672432615
 30
0.0
 11
79.5777274001498
 21
34.65841672432615
 31
0.0
  0
POINT
  5
70A
330
18
100
AcDbEntity
  8
DEFPOINTS
  6
ByBlock
 62
     0
100
AcDbPoint
 10
80.87772740014974
 20
33.65841672432612
 30
0.0
  0
LINE
  5
70B
330
18
100
AcDbEntity
  8
外形線
100
AcDbLine
 10
79.5777274001498
 20
34.65841672432612
 30
0.0
 11
82.1777274001497
 21
34.65841672432615
 31
0.0
  0
ARC
  5
70C
330
18
100
AcDbEntity
  8
外形線
100
AcDbCircle
 10
80.87772740014974
 20
34.80841672432612
 30
0.0
 40
1.149999999999999
100
AcDbArc
 50
187.494717453927
 51
352.5052825460744
  0
LINE
  5
711
330
18
100
AcDbEntity
  8
中心線
100
AcDbLine
 10
78.37772740014964
 20
41.53534121498068
 30
0.0
 11
78.73746021319568
 21
42.15841672432617
 31
0.0
  0
LINE
  5
712
330
18
100
AcDbEntity
  8
中心線
100
AcDbLine
 10
80.44177500367373
 20
41.25841672432625
 30
0.0
 11
79.92215976140307
 21
42.15841672432617
 31
0.0
  0
LINE
  5
713
330
18
100
AcDbEntity
  8
中心線
100
AcDbLine
 10
79.28707446529455
 20
41.25841672432622
 30
0.0
 11
78.76745922302394
 21
42.15841672432617
 31
0.0
  0
LINE
  5
714
330
18
100
AcDbEntity
  8
中心線
100
AcDbLine
 10
79.86442473448414
 20
41.25841672432625
 30
0.0
 11
79.34480949221352
 21
42.15841672432617
 31
0.0
  0
LINE
  5
715
330
18
100
AcDbEntity
  8
中心線
100
AcDbLine
 10
79.3725455093043
 20
41.2584167243262
 30
0.0
 11
79.89216075157492
 21
42.15841672432617
 31
0.0
  0
LINE
  5
716
330
18
100
AcDbEntity
  8
中心線
100
AcDbLine
 10
78.7951952401147
 20
41.25841672432622
 30
0.0
 11
79.31481048238532
 21
42.15841672432617
 31
0.0
  0
LINE
  5
717
330
18
100
AcDbEntity
  8
中心線
100
AcDbLine
 10
79.94989577849395
 20
41.25841672432625
 30
0.0
 11
80.46951102076457
 21
42.15841672432617
 31
0.0
  0
LINE
  5
718
330
18
100
AcDbEntity
  8
中心線
100
AcDbLine
 10
78.70972419610501
 20
41.2584167243262
 30
0.0
 11
78.37772740014964
 21
41.8334520428709
 31
0.0
  0
LINE
  5
719
330
18
100
AcDbEntity
  8
中心線
100
AcDbLine
 10
80.87772740014964
 20
41.50332502394834
 30
0.0
 11
80.49951003059266
 21
42.15841672432617
 31
0.0
  0
LINE
  5
71A
330
18
100
AcDbEntity
  8
中心線
100
AcDbLine
 10
80.52724604768343
 20
41.25841672432616
 30
0.0
 11
80.87772740014964
 21
41.86546823390313
 31
0.0
  0
LINE
  5
71B
330
18
100
AcDbEntity
  8
中心線
100
AcDbLine
 10
78.70972419610513
 20
39.15841672432615
 30
0.0
 11
78.37772740014975
 21
39.73345204287085
 31
0.0
  0
LINE
  5
71C
330
18
100
AcDbEntity
  8
中心線
100
AcDbLine
 10
79.86442473448426
 20
39.1584167243262
 30
0.0
 11
79.34480949221364
 21
40.05841672432612
 31
0.0
  0
LINE
  5
71D
330
18
100
AcDbEntity
  8
中心線
100
AcDbLine
 10
80.87772740014974
 20
39.4033250239483
 30
0.0
 11
80.49951003059277
 21
40.05841672432612
 31
0.0
  0
LINE
  5
71E
330
18
100
AcDbEntity
  8
中心線
100
AcDbLine
 10
79.94989577849406
 20
39.1584167243262
 30
0.0
 11
80.46951102076468
 21
40.05841672432612
 31
0.0
  0
LINE
  5
71F
330
18
100
AcDbEntity
  8
中心線
100
AcDbLine
 10
78.79519524011482
 20
39.15841672432618
 30
0.0
 11
79.31481048238544
 21
40.05841672432612
 31
0.0
  0
LINE
  5
720
330
18
100
AcDbEntity
  8
中心線
100
AcDbLine
 10
80.44177500367386
 20
39.1584167243262
 30
0.0
 11
79.92215976140318
 21
40.05841672432612
 31
0.0
  0
LINE
  5
721
330
18
100
AcDbEntity
  8
中心線
100
AcDbLine
 10
79.28707446529466
 20
39.15841672432618
 30
0.0
 11
78.76745922302404
 21
40.05841672432612
 31
0.0
  0
LINE
  5
722
330
18
100
AcDbEntity
  8
中心線
100
AcDbLine
 10
78.37772740014975
 20
39.43534121498064
 30
0.0
 11
78.73746021319579
 21
40.05841672432612
 31
0.0
  0
LINE
  5
723
330
18
100
AcDbEntity
  8
中心線
100
AcDbLine
 10
79.37254550930441
 20
39.15841672432615
 30
0.0
 11
79.89216075157504
 21
40.05841672432612
 31
0.0
  0
LINE
  5
724
330
18
100
AcDbEntity
  8
中心線
100
AcDbLine
 10
80.52724604768355
 20
39.15841672432612
 30
0.0
 11
80.87772740014974
 21
39.76546823390308
 31
0.0
  0
ARC
  5
725
330
18
100
AcDbEntity
  8
外形線
100
AcDbCircle
 10
78.01717227260337
 20
40.65841672432608
 30
0.0
 40
0.7
100
AcDbArc
 50
301.0027191338767
 51
58.99728086613252
  0
LINE
  5
726
330
18
100
AcDbEntity
  8
外形線
100
AcDbLine
 10
78.37772740014969
 20
40.05841672432615
 30
0.0
 11
78.37772740014969
 21
39.15841672432615
 31
0.0
  0
LINE
  5
727
330
18
100
AcDbEntity
  8
外形線
100
AcDbLine
 10
78.37772740014969
 20
42.15841672432614
 30
0.0
 11
78.37772740014969
 21
41.25841672432616
 31
0.0
  0
ARC
  5
72C
330
18
100
AcDbEntity
  8
外形線
100
AcDbCircle
 10
83.73828252769612
 20
40.65841672432608
 30
0.0
 40
0.7
100
AcDbArc
 50
121.0027191338674
 51
238.9972808661233
  0
LINE
  5
72D
330
18
100
AcDbEntity
  8
外形線
100
AcDbLine
 10
83.37772740014981
 20
40.05841672432615
 30
0.0
 11
83.37772740014981
 21
39.15841672432615
 31
0.0
  0
LINE
  5
72E
330
18
100
AcDbEntity
  8
外形線
100
AcDbLine
 10
83.37772740014981
 20
42.15841672432614
 30
0.0
 11
83.37772740014981
 21
41.25841672432616
 31
0.0
  0
LINE
  5
730
330
18
100
AcDbEntity
  8
外形線
100
AcDbLine
 10
76.97772740014972
 20
54.45841672432613
 30
0.0
 11
84.77772740014968
 21
54.45841672432613
 31
0.0
  0
LINE
  5
731
330
18
100
AcDbEntity
  8
外形線
100
AcDbLine
 10
77.82772740014974
 20
52.4584167243261
 30
0.0
 11
83.92772740014976
 21
52.45841672432613
 31
0.0
  0
LINE
  5
732
330
18
100
AcDbEntity
  8
外形線
100
AcDbLine
 10
77.6277274001497
 20
53.25841672432611
 30
0.0
 11
84.12772740014981
 21
53.25841672432614
 31
0.0
  0
LINE
  5
736
330
18
100
AcDbEntity
  8
外形線
100
AcDbLine
 10
77.6277274001497
 20
53.25841672432611
 30
0.0
 11
77.62772740014975
 21
52.65841672432609
 31
0.0
  0
LINE
  5
73F
330
18
100
AcDbEntity
  8
外形線
100
AcDbLine
 10
77.62772740014975
 20
52.65841672432609
 30
0.0
 11
77.82772740014974
 21
52.4584167243261
 31
0.0
  0
LINE
  5
741
330
18
100
AcDbEntity
  8
外形線
100
AcDbLine
 10
78.87772740014975
 20
52.45841672432615
 30
0.0
 11
78.87772740014975
 21
46.45841672432616
 31
0.0
  0
ARC
  5
742
330
18
100
AcDbEntity
  8
外形線
100
AcDbCircle
 10
77.17772740014954
 20
53.79460698906427
 30
0.0
 40
0.7
100
AcDbArc
 50
310.0052008848602
 51
71.49566077351135
  0
LINE
  5
743
330
18
100
AcDbEntity
  8
外形線
100
AcDbLine
 10
76.97772740014963
 20
57.45841672432613
 30
0.0
 11
76.97772740014972
 21
54.45841672432613
 31
0.0
  0
LINE
  5
745
330
18
100
AcDbEntity
  8
外形線
100
AcDbLine
 10
84.12772740014981
 20
53.25841672432614
 30
0.0
 11
84.12772740014975
 21
52.65841672432611
 31
0.0
  0
LINE
  5
74E
330
18
100
AcDbEntity
  8
外形線
 48
0.5
100
AcDbLine
 10
83.92772740014976
 20
52.45841672432613
 30
0.0
 11
84.12772740014975
 21
52.65841672432611
 31
0.0
  0
LINE
  5
750
330
18
100
AcDbEntity
  8
外形線
100
AcDbLine
 10
82.87772740014963
 20
52.45841672432615
 30
0.0
 11
82.87772740014963
 21
46.45841672432616
 31
0.0
  0
LINE
  5
751
330
18
100
AcDbEntity
  8
外形線
100
AcDbLine
 10
84.77772740014959
 20
57.45841672432608
 30
0.0
 11
84.77772740014968
 21
54.45841672432613
 31
0.0
  0
ARC
  5
752
330
18
100
AcDbEntity
  8
外形線
100
AcDbCircle
 10
84.57772740014986
 20
53.79460698906427
 30
0.0
 40
0.7
100
AcDbArc
 50
108.5043392264886
 51
229.9947991151398
  0
LINE
  5
759
330
18
100
AcDbEntity
  8
外形線
100
AcDbLine
 10
80.87772740014969
 20
152.1584167243261
 30
0.0
 11
91.12772740014975
 21
152.1584167243261
 31
0.0
  0
LINE
  5
767
330
18
100
AcDbEntity
  8
中心線
 48
0.5
100
AcDbLine
 10
57.75910052953307
 20
152.9927079835517
 30
0.0
 11
64.12490857317831
 21
129.235188933437
 31
0.0
  0
LINE
  5
771
330
18
100
AcDbEntity
  8
外形線
100
AcDbLine
 10
71.12772740014975
 20
142.1584167243261
 30
0.0
 11
90.62772740014976
 21
142.1584167243261
 31
0.0
  0
LINE
  5
772
330
18
100
AcDbEntity
  8
外形線
100
AcDbLine
 10
91.12772740014975
 20
152.1584167243261
 30
0.0
 11
91.12772740014975
 21
144.6584167243261
 31
0.0
  0
LINE
  5
773
330
18
100
AcDbEntity
  8
外形線
100
AcDbLine
 10
81.37772740014975
 20
144.658416724326
 30
0.0
 11
82.87772740014975
 21
144.6584167243261
 31
0.0
  0
LINE
  5
774
330
18
100
AcDbEntity
  8
外形線
100
AcDbLine
 10
81.37772740014975
 20
152.1584167243261
 30
0.0
 11
81.37772740014975
 21
144.6584167243261
 31
0.0
  0
LINE
  5
775
330
18
100
AcDbEntity
  8
外形線
100
AcDbLine
 10
82.87772740014975
 20
152.1584167243261
 30
0.0
 11
82.87772740014975
 21
144.6584167243261
 31
0.0
  0
LINE
  5
776
330
18
100
AcDbEntity
  8
外形線
100
AcDbLine
 10
83.87772740014975
 20
152.1584167243261
 30
0.0
 11
83.87772740014979
 21
144.6584167243261
 31
0.0
  0
LINE
  5
777
330
18
100
AcDbEntity
  8
外形線
100
AcDbLine
 10
85.37772740014975
 20
152.1584167243261
 30
0.0
 11
85.37772740014975
 21
144.6584167243261
 31
0.0
  0
LINE
  5
778
330
18
100
AcDbEntity
  8
外形線
100
AcDbLine
 10
86.37772740014975
 20
152.1584167243261
 30
0.0
 11
86.37772740014975
 21
144.6584167243261
 31
0.0
  0
LINE
  5
779
330
18
100
AcDbEntity
  8
外形線
100
AcDbLine
 10
87.87772740014975
 20
152.1584167243261
 30
0.0
 11
87.87772740014981
 21
144.6584167243261
 31
0.0
  0
LINE
  5
77A
330
18
100
AcDbEntity
  8
外形線
100
AcDbLine
 10
88.87772740014975
 20
152.1584167243261
 30
0.0
 11
88.87772740014975
 21
144.6584167243261
 31
0.0
  0
LINE
  5
77C
330
18
100
AcDbEntity
  8
外形線
100
AcDbLine
 10
80.87772740014981
 20
152.1584167243261
 30
0.0
 11
70.62772740014975
 21
152.1584167243261
 31
0.0
  0
LINE
  5
77D
330
18
100
AcDbEntity
  8
外形線
100
AcDbLine
 10
80.37772740014975
 20
144.658416724326
 30
0.0
 11
78.87772740014975
 21
144.658416724326
 31
0.0
  0
LINE
  5
77E
330
18
100
AcDbEntity
  8
外形線
100
AcDbLine
 10
76.37772740014975
 20
152.1584167243261
 30
0.0
 11
76.37772740014975
 21
144.6584167243261
 31
0.0
  0
LINE
  5
77F
330
18
100
AcDbEntity
  8
外形線
100
AcDbLine
 10
77.87772740014975
 20
152.1584167243261
 30
0.0
 11
77.87772740014972
 21
144.6584167243261
 31
0.0
  0
LINE
  5
780
330
18
100
AcDbEntity
  8
外形線
100
AcDbLine
 10
78.87772740014975
 20
152.1584167243261
 30
0.0
 11
78.87772740014975
 21
144.6584167243261
 31
0.0
  0
LINE
  5
781
330
18
100
AcDbEntity
  8
外形線
100
AcDbLine
 10
80.37772740014975
 20
152.1584167243261
 30
0.0
 11
80.37772740014975
 21
144.6584167243261
 31
0.0
  0
LINE
  5
782
330
18
100
AcDbEntity
  8
外形線
100
AcDbLine
 10
72.87772740014975
 20
152.1584167243261
 30
0.0
 11
72.87772740014975
 21
144.6584167243261
 31
0.0
  0
LINE
  5
783
330
18
100
AcDbEntity
  8
外形線
100
AcDbLine
 10
73.87772740014975
 20
152.1584167243261
 30
0.0
 11
73.8777274001497
 21
144.6584167243261
 31
0.0
  0
LINE
  5
784
330
18
100
AcDbEntity
  8
外形線
100
AcDbLine
 10
75.37772740014975
 20
152.1584167243261
 30
0.0
 11
75.37772740014975
 21
144.6584167243261
 31
0.0
  0
LINE
  5
785
330
18
100
AcDbEntity
  8
外形線
100
AcDbLine
 10
70.62772740014975
 20
152.1584167243261
 30
0.0
 11
70.62772740014975
 21
144.6584167243261
 31
0.0
  0
LINE
  5
786
330
18
100
AcDbEntity
  8
外形線
100
AcDbLine
 10
88.87772740014979
 20
144.6584167243261
 30
0.0
 11
91.12772740014975
 21
144.6584167243261
 31
0.0
  0
LINE
  5
787
330
18
100
AcDbEntity
  8
外形線
100
AcDbLine
 10
86.37772740014975
 20
144.6584167243261
 30
0.0
 11
87.87772740014981
 21
144.6584167243261
 31
0.0
  0
LINE
  5
788
330
18
100
AcDbEntity
  8
外形線
100
AcDbLine
 10
83.87772740014979
 20
144.6584167243261
 30
0.0
 11
85.37772740014975
 21
144.6584167243261
 31
0.0
  0
LINE
  5
789
330
18
100
AcDbEntity
  8
外形線
100
AcDbLine
 10
77.87772740014972
 20
144.658416724326
 30
0.0
 11
76.37772740014975
 21
144.6584167243261
 31
0.0
  0
LINE
  5
78A
330
18
100
AcDbEntity
  8
外形線
100
AcDbLine
 10
75.37772740014975
 20
144.6584167243261
 30
0.0
 11
73.8777274001497
 21
144.6584167243261
 31
0.0
  0
LINE
  5
78B
330
18
100
AcDbEntity
  8
外形線
100
AcDbLine
 10
72.87772740014975
 20
144.6584167243261
 30
0.0
 11
70.62772740014975
 21
144.6584167243261
 31
0.0
  0
LINE
  5
78C
330
18
100
AcDbEntity
  8
外形線
100
AcDbLine
 10
90.62772740014976
 20
144.6584167243261
 30
0.0
 11
90.62772740014976
 21
141.6584167243261
 31
0.0
  0
LINE
  5
78D
330
18
100
AcDbEntity
  8
外形線
100
AcDbLine
 10
71.12772740014975
 20
144.6584167243263
 30
0.0
 11
71.12772740014975
 21
141.658416724326
 31
0.0
  0
LINE
  5
7A8
330
18
100
AcDbEntity
  8
想像線
 48
0.3
100
AcDbLine
 10
80.87772740014974
 20
167.1584167243261
 30
0.0
 11
87.87772740014975
 21
167.1584167243261
 31
0.0
  0
LINE
  5
7A9
330
18
100
AcDbEntity
  8
想像線
 48
0.3
100
AcDbLine
 10
80.87772740014953
 20
187.1584167243261
 30
0.0
 11
82.9774656541212
 21
187.1584167243261
 31
0.0
  0
LINE
  5
7AA
330
18
100
AcDbEntity
  8
想像線
 48
0.3
100
AcDbLine
 10
87.87772740014975
 20
167.1584167243261
 30
0.0
 11
89.87772740014975
 21
152.1584167243261
 31
0.0
  0
LINE
  5
7AC
330
18
100
AcDbEntity
  8
想像線
 48
0.3
100
AcDbLine
 10
83.9719711070426
 20
186.2631015088441
 30
0.0
 11
85.87772740014974
 21
168.1584167243261
 31
0.0
  0
ARC
  5
7AD
330
18
100
AcDbEntity
  8
想像線
 48
0.3
100
AcDbCircle
 10
86.87772740014976
 20
168.1584167243261
 30
0.0
 40
1.0
100
AcDbArc
 50
180.0
 51
270.0
  0
ARC
  5
7AF
330
18
100
AcDbEntity
  8
想像線
 48
0.3
100
AcDbCircle
 10
82.9774656541212
 20
186.1584167243261
 30
0.0
 40
1.0
100
AcDbArc
 50
6.009005957494516
 51
90.0000000000003
  0
LINE
  5
7B0
330
18
100
AcDbEntity
  8
想像線
 48
0.3
100
AcDbLine
 10
73.87772740014975
 20
167.1584167243261
 30
0.0
 11
71.87772740014975
 21
152.1584167243261
 31
0.0
  0
LINE
  5
7B1
330
18
100
AcDbEntity
  8
想像線
 48
0.3
100
AcDbLine
 10
77.7834836932569
 20
186.2631015088441
 30
0.0
 11
75.87772740014975
 21
168.1584167243261
 31
0.0
  0
LINE
  5
7B2
330
18
100
AcDbEntity
  8
想像線
 48
0.3
100
AcDbLine
 10
80.87772740014974
 20
167.1584167243261
 30
0.0
 11
73.87772740014975
 21
167.1584167243261
 31
0.0
  0
ARC
  5
7B3
330
18
100
AcDbEntity
  8
想像線
 48
0.3
100
AcDbCircle
 10
74.87772740014975
 20
168.1584167243261
 30
0.0
 40
1.0
100
AcDbArc
 50
270.0
 51
0.000000000000007
  0
ARC
  5
7B4
330
18
100
AcDbEntity
  8
想像線
 48
0.3
100
AcDbCircle
 10
78.7779891461783
 20
186.1584167243261
 30
0.0
 40
1.0
100
AcDbArc
 50
89.99999999999969
 51
173.9909940425054
  0
LINE
  5
7B5
330
18
100
AcDbEntity
  8
想像線
 48
0.3
100
AcDbLine
 10
80.87772740014997
 20
187.1584167243261
 30
0.0
 11
78.7779891461783
 21
187.1584167243261
 31
0.0
  0
CIRCLE
  5
7B7
330
18
100
AcDbEntity
  8
想像線
 48
0.3
100
AcDbCircle
 10
80.87772740014974
 20
161.6584167243261
 30
0.0
 40
4.5
  0
LINE
  5
7E3
330
18
100
AcDbEntity
  8
外形線
100
AcDbLine
 10
76.87772740014975
 20
57.45841672432613
 30
0.0
 11
84.87772740014975
 21
57.4584167243261
 31
0.0
  0
LINE
  5
7E4
330
18
100
AcDbEntity
  8
外形線
100
AcDbLine
 10
84.87772740014975
 20
57.4584167243261
 30
0.0
 11
84.87772740014975
 21
73.49841672432612
 31
0.0
  0
LINE
  5
7E5
330
18
100
AcDbEntity
  8
外形線
100
AcDbLine
 10
76.87772740014975
 20
57.4584167243261
 30
0.0
 11
76.87772740014975
 21
73.49841672432612
 31
0.0
  0
LINE
  5
7F4
330
18
100
AcDbEntity
  8
外形線
100
AcDbLine
 10
162.5730083335336
 20
141.6584167243261
 30
0.0
 11
162.5730083335336
 21
73.4984167243261
 31
0.0
  0
LINE
  5
7F5
330
18
100
AcDbEntity
  8
中心線
 48
0.8
100
AcDbLine
 10
152.433249114397
 20
107.6584167243261
 30
0.0
 11
185.0768908052702
 21
107.6584167243261
 31
0.0
  0
LINE
  5
7F6
330
18
100
AcDbEntity
  8
外形線
100
AcDbLine
 10
160.5730083335336
 20
141.6584167243261
 30
0.0
 11
164.5730083335336
 21
141.6584167243262
 31
0.0
  0
LINE
  5
7F7
330
18
100
AcDbEntity
  8
外形線
100
AcDbLine
 10
160.5730083335336
 20
73.49841672432612
 30
0.0
 11
178.0730083335336
 21
73.49841672432612
 31
0.0
  0
ARC
  5
7FA
330
18
100
AcDbEntity
  8
外形線
100
AcDbCircle
 10
352.6474083335337
 20
107.5784167243261
 30
0.0
 40
195.0744000000001
100
AcDbArc
 50
169.9386497180784
 51
184.7877421798614
  0
LINE
  5
802
330
18
100
AcDbEntity
  8
外形線
100
AcDbLine
 10
163.0730083335336
 20
141.6584167243261
 30
0.0
 11
163.0730083335335
 21
73.4984167243261
 31
0.0
  0
LINE
  5
804
330
18
100
AcDbEntity
  8
外形線
100
AcDbLine
 10
178.0730083335336
 20
141.6584167243261
 30
0.0
 11
178.0730083335336
 21
73.49841672432612
 31
0.0
  0
LINE
  5
805
330
18
100
AcDbEntity
  8
外形線
100
AcDbLine
 10
163.0730083335336
 20
132.4590157731275
 30
0.0
 11
178.0730083335336
 21
132.4590157731275
 31
0.0
  0
LINE
  5
806
330
18
100
AcDbEntity
  8
外形線
100
AcDbLine
 10
163.0730083335335
 20
84.34930567887365
 30
0.0
 11
178.0730083335336
 21
84.34930567887372
 31
0.0
  0
LINE
  5
810
330
18
100
AcDbEntity
  8
中心線
 48
0.8
100
AcDbLine
 10
169.0730083335336
 20
151.392777658581
 30
0.0
 11
169.0730083335336
 21
32.32647997755254
 31
0.0
  0
LINE
  5
811
330
18
100
AcDbEntity
  8
外形線
100
AcDbLine
 10
179.0730083335336
 20
130.6584167243261
 30
0.0
 11
179.0730083335336
 21
84.65841672432611
 31
0.0
  0
ELLIPSE
  5
82A
330
18
100
AcDbEntity
  8
外形線
100
AcDbEllipse
 10
169.0730083335336
 20
148.3786198317589
 30
0.0
 11
-4.0
 21
0.0
 31
0.0
210
0.0
220
0.0
230
1.0
 40
0.258819045102527
 41
0.0
 42
6.283185307179586
  0
ELLIPSE
  5
830
330
18
100
AcDbEntity
  8
外形線
100
AcDbEllipse
 10
169.0730083335336
 20
147.8956569186144
 30
0.0
 11
-4.5
 21
0.0
 31
0.0
210
0.0
220
0.0
230
1.0
 40
0.2588190451025222
 41
0.0
 42
3.141592653589793
  0
LINE
  5
831
330
18
100
AcDbEntity
  8
外形線
100
AcDbLine
 10
164.5730083335336
 20
147.8956569186144
 30
0.0
 11
165.1118011135468
 21
148.5224536953756
 31
0.0
  0
LINE
  5
832
330
18
100
AcDbEntity
  8
外形線
100
AcDbLine
 10
173.5730083335336
 20
147.8956569186144
 30
0.0
 11
173.0342155535203
 21
148.5224536953756
 31
0.0
  0
LINE
  5
835
330
18
100
AcDbEntity
  8
外形線
100
AcDbLine
 10
173.5730083335336
 20
147.8956569186146
 30
0.0
 11
173.5730083335336
 21
141.6171390477354
 31
0.0
  0
LINE
  5
836
330
18
100
AcDbEntity
  8
外形線
100
AcDbLine
 10
164.5730083335336
 20
147.8956569186139
 30
0.0
 11
164.5730083335336
 21
141.6171390477354
 31
0.0
  0
ELLIPSE
  5
837
330
18
100
AcDbEntity
  8
外形線
100
AcDbEllipse
 10
169.0730083335336
 20
141.6171390477354
 30
0.0
 11
-4.499999999999971
 21
0.0000000000000284
 31
0.0
210
0.0
220
0.0
230
1.0
 40
0.2588190451024986
 41
0.0
 42
3.141592653589793
  0
LINE
  5
838
330
18
100
AcDbEntity
  8
外形線
100
AcDbLine
 10
173.5730083335335
 20
141.6584167243261
 30
0.0
 11
178.0730083335336
 21
141.6584167243261
 31
0.0
  0
LINE
  5
84A
330
18
100
AcDbEntity
  8
外形線
100
AcDbLine
 10
173.0730083335336
 20
141.083569917296
 30
0.0
 11
173.0730083335336
 21
140.4635880010943
 31
0.0
  0
LINE
  5
84D
330
18
100
AcDbEntity
  8
外形線
100
AcDbLine
 10
165.0730083335336
 20
141.0835699172956
 30
0.0
 11
165.0730083335336
 21
140.4635880010939
 31
0.0
  0
LINE
  5
852
330
18
100
AcDbEntity
  8
外形線
100
AcDbLine
 10
173.5730083335336
 20
140.3744581853992
 30
0.0
 11
173.5730083335336
 21
137.7534357425794
 31
0.0
  0
LINE
  5
853
330
18
100
AcDbEntity
  8
外形線
100
AcDbLine
 10
164.5730083335336
 20
140.3744581853985
 30
0.0
 11
164.5730083335336
 21
137.7534357425787
 31
0.0
  0
ELLIPSE
  5
855
330
18
100
AcDbEntity
  8
外形線
100
AcDbEllipse
 10
169.0730083335336
 20
140.3744581853989
 30
0.0
 11
-4.5
 21
0.0
 31
0.0
210
0.0
220
0.0
230
1.0
 40
0.2588190451025159
 41
-0.4758822496603723
 42
3.617474903250253
  0
ELLIPSE
  5
857
330
18
100
AcDbEntity
  8
外形線
100
AcDbEllipse
 10
169.0730083335336
 20
137.7534357425792
 30
0.0
 11
-4.5
 21
0.0
 31
0.0
210
0.0
220
0.0
230
1.0
 40
0.2588190451025159
 41
0.0
 42
3.141592653589793
  0
ELLIPSE
  5
85B
330
18
100
AcDbEntity
  8
外形線
100
AcDbEllipse
 10
169.0730083335336
 20
140.9971571315337
 30
0.0
 11
-4.5
 21
0.0
 31
0.0
210
0.0
220
0.0
230
1.0
 40
0.2588190451025159
 41
0.4758822496604608
 42
2.66571040392942
  0
ELLIPSE
  5
861
330
18
100
AcDbEntity
  8
外形線
100
AcDbEllipse
 10
169.0730083335336
 20
133.5421394861147
 30
0.0
 11
-3.0
 21
0.0
 31
0.0
210
0.0
220
0.0
230
1.0
 40
0.2449955737995519
 41
0.0
 42
3.141592653589793
  0
LINE
  5
862
330
18
100
AcDbEntity
  8
外形線
100
AcDbLine
 10
172.0730083335336
 20
136.8853302744981
 30
0.0
 11
172.0730083335336
 21
133.5421394861148
 31
0.0
  0
LINE
  5
863
330
18
100
AcDbEntity
  8
外形線
100
AcDbLine
 10
166.0730083335336
 20
136.8853302744978
 30
0.0
 11
166.0730083335336
 21
133.5421394861144
 31
0.0
  0
ARC
  5
865
330
18
100
AcDbEntity
  8
外形線
100
AcDbCircle
 10
351.7396750002003
 20
107.6584167243261
 30
0.0
 40
193.0666666666667
100
AcDbArc
 50
172.6196122596948
 51
186.9342863464043
  0
ARC
  5
866
330
18
100
AcDbEntity
  8
外形線
100
AcDbCircle
 10
171.2721508149109
 20
135.8592444836806
 30
0.0
 40
11.51317676456242
100
AcDbArc
 50
172.7049379092088
 51
197.1775465671375
  0
ARC
  5
867
330
18
100
AcDbEntity
  8
外形線
100
AcDbCircle
 10
171.9463126486806
 20
80.78070065215673
 30
0.0
 40
12.38628383968187
100
AcDbArc
 50
163.2551965685733
 51
186.0197151914278
  0
LINE
  5
86A
330
18
100
AcDbEntity
  8
外形線
100
AcDbLine
 10
178.0730083335336
 20
130.6584167243261
 30
0.0
 11
179.0730083335336
 21
130.6584167243261
 31
0.0
  0
LINE
  5
86B
330
18
100
AcDbEntity
  8
外形線
100
AcDbLine
 10
178.0730083335336
 20
84.65841672432611
 30
0.0
 11
179.0730083335336
 21
84.65841672432611
 31
0.0
  0
LINE
  5
86C
330
18
100
AcDbEntity
  8
外形線
100
AcDbLine
 10
172.9730083335334
 20
57.45841672432608
 30
0.0
 11
172.9730083335335
 21
54.45841672432613
 31
0.0
  0
LINE
  5
86D
330
18
100
AcDbEntity
  8
外形線
100
AcDbLine
 10
165.1730083335335
 20
57.45841672432613
 30
0.0
 11
165.1730083335335
 21
54.45841672432613
 31
0.0
  0
LINE
  5
86E
330
18
100
AcDbEntity
  8
外形線
100
AcDbLine
 10
172.5730083335333
 20
44.40841672432614
 30
0.0
 11
171.5513222866234
 21
45.21341672432614
 31
0.0
  0
LINE
  5
86F
330
18
100
AcDbEntity
  8
外形線
100
AcDbLine
 10
165.5730083335338
 20
44.40841672432614
 30
0.0
 11
166.5946943804438
 21
45.21341672432614
 31
0.0
  0
LINE
  5
870
330
18
100
AcDbEntity
  8
外形線
100
AcDbLine
 10
167.0730083335336
 20
52.45841672432611
 30
0.0
 11
167.0730083335336
 21
42.65841672432611
 31
0.0
  0
LINE
  5
871
330
18
100
AcDbEntity
  8
外形線
100
AcDbLine
 10
171.0730083335336
 20
52.45841672432611
 30
0.0
 11
171.0730083335336
 21
42.65841672432611
 31
0.0
  0
LINE
  5
872
330
18
100
AcDbEntity
  8
外形線
100
AcDbLine
 10
166.5322088708822
 20
43.65264988685112
 30
0.0
 11
165.5730083335338
 21
44.40841672432614
 31
0.0
  0
LINE
  5
873
330
18
100
AcDbEntity
  8
外形線
100
AcDbLine
 10
171.5730083335336
 20
40.05841672432615
 30
0.0
 11
171.5730083335336
 21
39.15841672432615
 31
0.0
  0
LINE
  5
874
330
18
100
AcDbEntity
  8
外形線
100
AcDbLine
 10
166.5730083335335
 20
40.05841672432615
 30
0.0
 11
166.5730083335335
 21
39.15841672432615
 31
0.0
  0
LINE
  5
875
330
18
100
AcDbEntity
  8
中心線
100
AcDbLine
 10
168.7225269810674
 20
39.15841672432612
 30
0.0
 11
169.0730083335336
 21
39.76546823390308
 31
0.0
  0
LINE
  5
876
330
18
100
AcDbEntity
  8
中心線
100
AcDbLine
 10
167.5678264426883
 20
39.15841672432615
 30
0.0
 11
168.0874416849589
 21
40.05841672432612
 31
0.0
  0
LINE
  5
877
330
18
100
AcDbEntity
  8
中心線
100
AcDbLine
 10
167.4823553986785
 20
39.15841672432618
 30
0.0
 11
166.9627401564079
 21
40.05841672432612
 31
0.0
  0
LINE
  5
878
330
18
100
AcDbEntity
  8
中心線
100
AcDbLine
 10
168.6370559370577
 20
39.1584167243262
 30
0.0
 11
168.117440694787
 21
40.05841672432612
 31
0.0
  0
LINE
  5
879
330
18
100
AcDbEntity
  8
中心線
100
AcDbLine
 10
166.9904761734987
 20
39.15841672432618
 30
0.0
 11
167.5100914157693
 21
40.05841672432612
 31
0.0
  0
LINE
  5
87A
330
18
100
AcDbEntity
  8
中心線
100
AcDbLine
 10
168.1451767118779
 20
39.1584167243262
 30
0.0
 11
168.6647919541485
 21
40.05841672432612
 31
0.0
  0
LINE
  5
87B
330
18
100
AcDbEntity
  8
中心線
100
AcDbLine
 10
168.0597056678681
 20
39.1584167243262
 30
0.0
 11
167.5400904255975
 21
40.05841672432612
 31
0.0
  0
LINE
  5
87C
330
18
100
AcDbEntity
  8
中心線
100
AcDbLine
 10
166.905005129489
 20
39.15841672432615
 30
0.0
 11
166.5730083335336
 21
39.73345204287085
 31
0.0
  0
ARC
  5
87D
330
18
100
AcDbEntity
  8
外形線
100
AcDbCircle
 10
169.0730083335336
 20
34.80841672432612
 30
0.0
 40
1.149999999999999
100
AcDbArc
 50
187.494717453927
 51
352.5052825460744
  0
LINE
  5
87E
330
18
100
AcDbEntity
  8
外形線
100
AcDbLine
 10
167.7730083335336
 20
34.65841672432612
 30
0.0
 11
170.3730083335335
 21
34.65841672432615
 31
0.0
  0
LINE
  5
87F
330
18
100
AcDbEntity
  8
外形線
100
AcDbLine
 10
166.5730083335335
 20
39.15841672432615
 30
0.0
 11
171.5730083335336
 21
39.15841672432615
 31
0.0
  0
POINT
  5
880
330
18
100
AcDbEntity
  8
DEFPOINTS
  6
ByBlock
 62
     0
100
AcDbPoint
 10
169.0730083335336
 20
33.65841672432612
 30
0.0
  0
LINE
  5
881
330
18
100
AcDbEntity
  8
外形線
100
AcDbLine
 10
166.5730083335335
 20
39.15841672432615
 30
0.0
 11
167.7730083335336
 21
34.65841672432615
 31
0.0
  0
LINE
  5
882
330
18
100
AcDbEntity
  8
外形線
100
AcDbLine
 10
171.5730083335336
 20
39.15841672432615
 30
0.0
 11
170.3730083335335
 21
34.65841672432615
 31
0.0
  0
LINE
  5
883
330
18
100
AcDbEntity
  8
外形線
100
AcDbLine
 10
166.5730083335335
 20
42.15841672432614
 30
0.0
 11
171.5730083335336
 21
42.15841672432614
 31
0.0
  0
LINE
  5
884
330
18
100
AcDbEntity
  8
外形線
100
AcDbLine
 10
166.5730083335335
 20
41.25841672432613
 30
0.0
 11
171.5730083335336
 21
41.25841672432613
 31
0.0
  0
LINE
  5
885
330
18
100
AcDbEntity
  8
外形線
100
AcDbLine
 10
166.5730083335335
 20
40.05841672432615
 30
0.0
 11
171.5730083335336
 21
40.05841672432615
 31
0.0
  0
LINE
  5
886
330
18
100
AcDbEntity
  8
外形線
100
AcDbLine
 10
166.1730083335336
 20
40.95841672432621
 30
0.0
 11
171.9730083335336
 21
40.95841672432621
 31
0.0
  0
LINE
  5
887
330
18
100
AcDbEntity
  8
外形線
100
AcDbLine
 10
166.8730083335335
 20
42.65841672432611
 30
0.0
 11
171.2730083335336
 21
42.65841672432611
 31
0.0
  0
LINE
  5
888
330
18
100
AcDbEntity
  8
外形線
100
AcDbLine
 10
166.5730083335335
 20
42.15841672432614
 30
0.0
 11
166.5730083335335
 21
41.25841672432616
 31
0.0
  0
ARC
  5
889
330
18
100
AcDbEntity
  8
外形線
100
AcDbCircle
 10
166.2124532059872
 20
40.65841672432608
 30
0.0
 40
0.7
100
AcDbArc
 50
301.0027191338767
 51
58.99728086613252
  0
LINE
  5
88A
330
18
100
AcDbEntity
  8
中心線
100
AcDbLine
 10
166.5730083335336
 20
39.43534121498064
 30
0.0
 11
166.9327411465796
 21
40.05841672432612
 31
0.0
  0
LINE
  5
88B
330
18
100
AcDbEntity
  8
中心線
100
AcDbLine
 10
169.0730083335336
 20
39.4033250239483
 30
0.0
 11
168.6947909639766
 21
40.05841672432612
 31
0.0
  0
LINE
  5
88C
330
18
100
AcDbEntity
  8
中心線
100
AcDbLine
 10
168.7225269810673
 20
41.25841672432616
 30
0.0
 11
169.0730083335335
 21
41.86546823390313
 31
0.0
  0
LINE
  5
88D
330
18
100
AcDbEntity
  8
中心線
100
AcDbLine
 10
169.0730083335335
 20
41.50332502394834
 30
0.0
 11
168.6947909639765
 21
42.15841672432617
 31
0.0
  0
LINE
  5
88E
330
18
100
AcDbEntity
  8
中心線
100
AcDbLine
 10
166.9050051294888
 20
41.2584167243262
 30
0.0
 11
166.5730083335335
 21
41.8334520428709
 31
0.0
  0
LINE
  5
88F
330
18
100
AcDbEntity
  8
中心線
100
AcDbLine
 10
168.1451767118778
 20
41.25841672432625
 30
0.0
 11
168.6647919541484
 21
42.15841672432617
 31
0.0
  0
LINE
  5
890
330
18
100
AcDbEntity
  8
中心線
100
AcDbLine
 10
166.9904761734985
 20
41.25841672432622
 30
0.0
 11
167.5100914157692
 21
42.15841672432617
 31
0.0
  0
LINE
  5
891
330
18
100
AcDbEntity
  8
中心線
100
AcDbLine
 10
167.5678264426881
 20
41.2584167243262
 30
0.0
 11
168.0874416849587
 21
42.15841672432617
 31
0.0
  0
LINE
  5
892
330
18
100
AcDbEntity
  8
中心線
100
AcDbLine
 10
168.059705667868
 20
41.25841672432625
 30
0.0
 11
167.5400904255974
 21
42.15841672432617
 31
0.0
  0
LINE
  5
893
330
18
100
AcDbEntity
  8
中心線
100
AcDbLine
 10
167.4823553986784
 20
41.25841672432622
 30
0.0
 11
166.9627401564078
 21
42.15841672432617
 31
0.0
  0
LINE
  5
894
330
18
100
AcDbEntity
  8
中心線
100
AcDbLine
 10
168.6370559370576
 20
41.25841672432625
 30
0.0
 11
168.1174406947869
 21
42.15841672432617
 31
0.0
  0
LINE
  5
895
330
18
100
AcDbEntity
  8
中心線
100
AcDbLine
 10
166.5730083335335
 20
41.53534121498068
 30
0.0
 11
166.9327411465795
 21
42.15841672432617
 31
0.0
  0
LINE
  5
896
330
18
100
AcDbEntity
  8
外形線
 48
0.5
100
AcDbLine
 10
166.1730083335336
 20
42.95841672432618
 30
0.0
 11
166.1730083335336
 21
40.95841672432621
 31
0.0
  0
LINE
  5
897
330
18
100
AcDbEntity
  8
外形線
100
AcDbLine
 10
166.1730083335336
 20
42.95841672432618
 30
0.0
 11
166.5322088708822
 21
43.65264988685112
 31
0.0
  0
LINE
  5
898
330
18
100
AcDbEntity
  8
外形線
100
AcDbLine
 10
166.8730083335335
 20
42.65841672432611
 30
0.0
 11
166.8730083335335
 21
42.15841672432611
 31
0.0
  0
LINE
  5
899
330
18
100
AcDbEntity
  8
外形線
100
AcDbLine
 10
171.5730083335336
 20
42.15841672432614
 30
0.0
 11
171.5730083335336
 21
41.25841672432616
 31
0.0
  0
ARC
  5
89A
330
18
100
AcDbEntity
  8
外形線
100
AcDbCircle
 10
171.93356346108
 20
40.65841672432608
 30
0.0
 40
0.7
100
AcDbArc
 50
121.0027191338674
 51
238.9972808661233
  0
LINE
  5
89B
330
18
100
AcDbEntity
  8
外形線
 48
0.5
100
AcDbLine
 10
171.9730083335335
 20
42.95841672432618
 30
0.0
 11
171.9730083335336
 21
40.95841672432621
 31
0.0
  0
LINE
  5
89C
330
18
100
AcDbEntity
  8
外形線
100
AcDbLine
 10
171.613807796185
 20
43.65264988685112
 30
0.0
 11
172.5730083335333
 21
44.40841672432614
 31
0.0
  0
LINE
  5
89D
330
18
100
AcDbEntity
  8
外形線
100
AcDbLine
 10
171.9730083335336
 20
42.95841672432618
 30
0.0
 11
171.613807796185
 21
43.65264988685112
 31
0.0
  0
LINE
  5
89E
330
18
100
AcDbEntity
  8
外形線
100
AcDbLine
 10
171.2730083335336
 20
42.65841672432611
 30
0.0
 11
171.2730083335336
 21
42.15841672432611
 31
0.0
  0
ARC
  5
89F
330
18
100
AcDbEntity
  8
外形線
100
AcDbCircle
 10
165.3730083335334
 20
53.79460698906427
 30
0.0
 40
0.7
100
AcDbArc
 50
310.0052008848602
 51
71.49566077351135
  0
LINE
  5
8A0
330
18
100
AcDbEntity
  8
外形線
100
AcDbLine
 10
165.5730083335338
 20
46.01841672432615
 30
0.0
 11
166.5946943804438
 21
46.82341672432616
 31
0.0
  0
LINE
  5
8A1
330
18
100
AcDbEntity
  8
外形線
100
AcDbLine
 10
165.5730083335338
 20
47.62841672432614
 30
0.0
 11
166.5946943804438
 21
48.43341672432615
 31
0.0
  0
LINE
  5
8A2
330
18
100
AcDbEntity
  8
外形線
100
AcDbLine
 10
166.5946943804438
 20
46.82341672432613
 30
0.0
 11
165.5730083335338
 21
47.62841672432614
 31
0.0
  0
LINE
  5
8A3
330
18
100
AcDbEntity
  8
外形線
100
AcDbLine
 10
165.5730083335338
 20
49.23841672432615
 30
0.0
 11
166.5946943804438
 21
50.04341672432616
 31
0.0
  0
LINE
  5
8A4
330
18
100
AcDbEntity
  8
外形線
100
AcDbLine
 10
166.5946943804438
 20
48.43341672432615
 30
0.0
 11
165.5730083335338
 21
49.23841672432615
 31
0.0
  0
LINE
  5
8A5
330
18
100
AcDbEntity
  8
外形線
100
AcDbLine
 10
165.5730083335338
 20
50.84841672432614
 30
0.0
 11
166.5946943804438
 21
51.65341672432615
 31
0.0
  0
LINE
  5
8A6
330
18
100
AcDbEntity
  8
外形線
100
AcDbLine
 10
166.5946943804438
 20
50.04341672432613
 30
0.0
 11
165.5730083335338
 21
50.84841672432614
 31
0.0
  0
LINE
  5
8A7
330
18
100
AcDbEntity
  8
外形線
100
AcDbLine
 10
166.5946943804438
 20
51.65341672432615
 30
0.0
 11
165.5730083335338
 21
52.45841672432615
 31
0.0
  0
LINE
  5
8A8
330
18
100
AcDbEntity
  8
外形線
100
AcDbLine
 10
165.1730083335335
 20
54.45841672432613
 30
0.0
 11
172.9730083335335
 21
54.45841672432613
 31
0.0
  0
LINE
  5
8A9
330
18
100
AcDbEntity
  8
外形線
100
AcDbLine
 10
166.5946943804438
 20
45.21341672432614
 30
0.0
 11
165.5730083335338
 21
46.01841672432615
 31
0.0
  0
LINE
  5
8AA
330
18
100
AcDbEntity
  8
外形線
 48
0.5
100
AcDbLine
 10
165.5730083335337
 20
54.45841672432621
 30
0.0
 11
165.5730083335338
 21
52.45841672432618
 31
0.0
  0
LINE
  5
8AB
330
18
100
AcDbEntity
  8
外形線
100
AcDbLine
 10
171.0730083335335
 20
52.45841672432615
 30
0.0
 11
171.0730083335335
 21
46.45841672432616
 31
0.0
  0
LINE
  5
8AC
330
18
100
AcDbEntity
  8
外形線
100
AcDbLine
 10
172.5730083335333
 20
50.84841672432614
 30
0.0
 11
171.5513222866234
 21
51.65341672432615
 31
0.0
  0
LINE
  5
8AD
330
18
100
AcDbEntity
  8
外形線
100
AcDbLine
 10
167.0730083335336
 20
52.45841672432615
 30
0.0
 11
167.0730083335336
 21
46.45841672432616
 31
0.0
  0
LINE
  5
8AE
330
18
100
AcDbEntity
  8
外形線
100
AcDbLine
 10
171.5513222866234
 20
50.04341672432613
 30
0.0
 11
172.5730083335333
 21
50.84841672432614
 31
0.0
  0
LINE
  5
8AF
330
18
100
AcDbEntity
  8
外形線
100
AcDbLine
 10
171.5513222866234
 20
48.43341672432615
 30
0.0
 11
172.5730083335333
 21
49.23841672432615
 31
0.0
  0
LINE
  5
8B0
330
18
100
AcDbEntity
  8
外形線
100
AcDbLine
 10
172.5730083335333
 20
49.23841672432615
 30
0.0
 11
171.5513222866234
 21
50.04341672432616
 31
0.0
  0
LINE
  5
8B1
330
18
100
AcDbEntity
  8
外形線
100
AcDbLine
 10
171.5513222866234
 20
46.82341672432613
 30
0.0
 11
172.5730083335333
 21
47.62841672432614
 31
0.0
  0
LINE
  5
8B2
330
18
100
AcDbEntity
  8
外形線
100
AcDbLine
 10
172.5730083335333
 20
47.62841672432614
 30
0.0
 11
171.5513222866234
 21
48.43341672432615
 31
0.0
  0
LINE
  5
8B3
330
18
100
AcDbEntity
  8
外形線
100
AcDbLine
 10
172.5730083335333
 20
46.01841672432615
 30
0.0
 11
171.5513222866234
 21
46.82341672432616
 31
0.0
  0
LINE
  5
8B4
330
18
100
AcDbEntity
  8
外形線
100
AcDbLine
 10
171.5513222866234
 20
45.21341672432614
 30
0.0
 11
172.5730083335333
 21
46.01841672432615
 31
0.0
  0
LINE
  5
8B5
330
18
100
AcDbEntity
  8
外形線
100
AcDbLine
 10
165.8230083335335
 20
53.25841672432611
 30
0.0
 11
172.3230083335336
 21
53.25841672432614
 31
0.0
  0
LINE
  5
8B6
330
18
100
AcDbEntity
  8
外形線
100
AcDbLine
 10
166.0230083335336
 20
52.4584167243261
 30
0.0
 11
172.1230083335336
 21
52.45841672432613
 31
0.0
  0
LINE
  5
8B7
330
18
100
AcDbEntity
  8
外形線
100
AcDbLine
 10
165.8230083335336
 20
52.65841672432609
 30
0.0
 11
166.0230083335336
 21
52.4584167243261
 31
0.0
  0
LINE
  5
8B8
330
18
100
AcDbEntity
  8
外形線
100
AcDbLine
 10
165.8230083335335
 20
53.25841672432611
 30
0.0
 11
165.8230083335336
 21
52.65841672432609
 31
0.0
  0
ARC
  5
8B9
330
18
100
AcDbEntity
  8
外形線
100
AcDbCircle
 10
172.7730083335337
 20
53.79460698906427
 30
0.0
 40
0.7
100
AcDbArc
 50
108.5043392264886
 51
229.9947991151398
  0
LINE
  5
8BA
330
18
100
AcDbEntity
  8
外形線
 48
0.5
100
AcDbLine
 10
172.1230083335336
 20
52.45841672432613
 30
0.0
 11
172.3230083335336
 21
52.65841672432611
 31
0.0
  0
LINE
  5
8BB
330
18
100
AcDbEntity
  8
外形線
100
AcDbLine
 10
171.5513222866234
 20
51.65341672432615
 30
0.0
 11
172.5730083335333
 21
52.45841672432615
 31
0.0
  0
LINE
  5
8BC
330
18
100
AcDbEntity
  8
外形線
100
AcDbLine
 10
172.3230083335336
 20
53.25841672432614
 30
0.0
 11
172.3230083335336
 21
52.65841672432611
 31
0.0
  0
LINE
  5
8BD
330
18
100
AcDbEntity
  8
外形線
 48
0.5
100
AcDbLine
 10
172.5730083335336
 20
54.4584167243261
 30
0.0
 11
172.5730083335336
 21
52.45841672432604
 31
0.0
  0
LINE
  5
8BE
330
18
100
AcDbEntity
  8
外形線
100
AcDbLine
 10
165.0730083335336
 20
57.4584167243261
 30
0.0
 11
165.0730083335336
 21
73.49841672432612
 31
0.0
  0
LINE
  5
8BF
330
18
100
AcDbEntity
  8
外形線
100
AcDbLine
 10
173.0730083335336
 20
57.4584167243261
 30
0.0
 11
173.0730083335336
 21
73.49841672432612
 31
0.0
  0
LINE
  5
8C0
330
18
100
AcDbEntity
  8
外形線
100
AcDbLine
 10
165.0730083335336
 20
57.45841672432613
 30
0.0
 11
173.0730083335336
 21
57.4584167243261
 31
0.0
  0
LINE
  5
8C1
330
18
100
AcDbEntity
  8
外形線
100
AcDbLine
 10
165.1730083335335
 20
56.95841672432613
 30
0.0
 11
172.9730083335334
 21
56.9584167243261
 31
0.0
  0
DIMENSION
  5
8FC
330
18
100
AcDbEntity
  8
文字
100
AcDbDimension
  2
*D4
 10
105.8777274001497
 20
26.97347342713772
 30
0.0
 11
80.87772740014974
 21
28.84847342713772
 31
0.0
 70
    32
 71
     5
 42
50.00000000000003
  3
STYLE3
100
AcDbAlignedDimension
 13
55.87772740014973
 23
107.6584167243261
 33
0.0
 14
105.8777274001497
 24
107.6584167243261
 34
0.0
100
AcDbRotatedDimension
1001
ACAD
1000
DSTYLE
1002
{
1070
   271
1070
     2
1002
}
  0
DIMENSION
  5
909
330
18
100
AcDbEntity
  8
文字
100
AcDbDimension
  2
*D5
 10
119.0499434867442
 20
141.6584167243261
 30
0.0
 11
117.1749434867442
 21
146.9084167243261
 31
0.0
 70
    32
 71
     5
 42
10.5
  3
STYLE3
100
AcDbAlignedDimension
 13
91.12772740014976
 23
152.1584167243261
 33
0.0
 14
90.62772740014976
 24
141.6584167243261
 34
0.0
 50
90.0
100
AcDbRotatedDimension
1001
ACAD
1000
DSTYLE
1002
{
1070
   271
1070
     2
1002
}
  0
DIMENSION
  5
920
330
18
100
AcDbEntity
  8
文字
100
AcDbDimension
  2
*D6
 10
119.0499434867442
 20
107.6584167243261
 30
0.0
 11
117.1749434867442
 21
124.6584167243261
 31
0.0
 70
    32
 71
     5
 42
34.00000000000003
  3
STYLE3
100
AcDbAlignedDimension
 13
90.62772740014976
 23
141.6584167243261
 33
0.0
 14
110.2225050228306
 24
107.6584167243261
 34
0.0
 50
90.0
100
AcDbRotatedDimension
1001
ACAD
1000
DSTYLE
1002
{
1070
    75
1070
     1
1070
   271
1070
     2
1070
   279
1070
     1
1002
}
  0
DIMENSION
  5
92C
330
18
100
AcDbEntity
  8
文字
100
AcDbDimension
  2
*D7
 10
119.0499434867442
 20
73.65651090657994
 30
0.0
 11
117.1749434867442
 21
90.65746381545304
 31
0.0
 70
    32
 71
     5
 42
34.00190581774618
  3
STYLE3
100
AcDbAlignedDimension
 13
110.2225050228306
 23
107.6584167243261
 33
0.0
 14
89.91160472491843
 24
73.65651090657995
 34
0.0
 50
90.0
100
AcDbRotatedDimension
1001
ACAD
1000
DSTYLE
1002
{
1070
    75
1070
     1
1070
   271
1070
     2
1070
   279
1070
     1
1002
}
  0
DIMENSION
  5
938
330
18
100
AcDbEntity
  8
文字
100
AcDbDimension
  2
*D8
 10
119.0499434867442
 20
52.45841672432612
 30
0.0
 11
117.1749434867442
 21
63.05746381545305
 31
0.0
 70
    32
 71
     5
 42
21.19809418225382
  3
STYLE3
100
AcDbAlignedDimension
 13
89.91160472491843
 23
73.65651090657995
 33
0.0
 14
83.92772740014976
 24
52.45841672432613
 34
0.0
 50
90.0
100
AcDbRotatedDimension
1001
ACAD
1000
DSTYLE
1002
{
1070
    75
1070
     1
1070
   271
1070
     2
1070
   279
1070
     1
1002
}
  0
DIMENSION
  5
982
330
18
100
AcDbEntity
  8
文字
100
AcDbDimension
  2
*D9
 10
119.0499434867442
 20
42.6584167243261
 30
0.0
 11
117.1749434867442
 21
47.55841672432613
 31
0.0
 70
    32
 71
     5
 42
9.800000000000011
  3
STYLE3
100
AcDbAlignedDimension
 13
83.92772740014976
 23
52.45841672432613
 33
0.0
 14
82.87772740014977
 24
42.65841672432611
 34
0.0
 50
90.0
100
AcDbRotatedDimension
1001
ACAD
1000
DSTYLE
1002
{
1070
    75
1070
     1
1070
   271
1070
     2
1070
   279
1070
     1
1002
}
  0
DIMENSION
  5
98E
330
18
100
AcDbEntity
  8
文字
100
AcDbDimension
  2
*D10
 10
119.0499434867442
 20
33.65841672432611
 30
0.0
 11
117.1749434867442
 21
38.15841672432613
 31
0.0
 70
    32
 71
     5
 42
9.0
  3
STYLE3
100
AcDbAlignedDimension
 13
82.87772740014977
 23
42.65841672432611
 33
0.0
 14
80.87772740014974
 24
33.65841672432612
 34
0.0
 50
90.0
100
AcDbRotatedDimension
1001
ACAD
1000
DSTYLE
1002
{
1070
    75
1070
     1
1070
   271
1070
     2
1070
   279
1070
     1
1002
}
  0
DIMENSION
  5
99B
330
18
100
AcDbEntity
  8
文字
100
AcDbDimension
  2
*D11
 10
126.7295760696304
 20
33.65841672432612
 30
0.0
 11
124.8545760696304
 21
70.65841672432613
 31
0.0
 70
    32
 71
     5
 42
73.99999999999998
  3
STYLE3
100
AcDbAlignedDimension
 13
120.2999434867442
 23
107.6584167243261
 33
0.0
 14
120.2999434867442
 24
33.65841672432612
 34
0.0
 50
90.0
100
AcDbRotatedDimension
1001
ACAD
1000
DSTYLE
1002
{
1070
   271
1070
     2
1002
}
  0
DIMENSION
  5
9A8
330
18
100
AcDbEntity
  8
文字
100
AcDbDimension
  2
*D12
 10
134.8264326400672
 20
33.65841672432612
 30
0.0
 11
132.9514326400672
 21
110.4084167243261
 31
0.0
 70
    32
 71
     5
 42
153.4999999999999
  3
STYLE3
100
AcDbAlignedDimension
 13
82.9774656541212
 23
187.1584167243261
 33
0.0
 14
127.9795760696304
 24
33.65841672432612
 34
0.0
 50
90.0
100
AcDbRotatedDimension
1001
ACAD
1000
DSTYLE
1002
{
1070
   271
1070
     2
1002
}
  0
DIMENSION
  5
9B5
330
18
100
AcDbEntity
  8
文字
100
AcDbDimension
  2
*D13
 10
192.4209209006061
 20
84.65841672432611
 30
0.0
 11
190.5459209006061
 21
107.6584167243261
 31
0.0
 70
    32
  1
φ46
 71
     5
 42
45.99999999999998
  3
STYLE3
100
AcDbAlignedDimension
 13
179.0730083335336
 23
130.6584167243261
 33
0.0
 14
179.0730083335336
 24
84.65841672432611
 34
0.0
 50
90.0
100
AcDbRotatedDimension
1001
ACAD
1000
DSTYLE
1002
{
1070
   271
1070
     2
1002
}
  0
CIRCLE
  5
9C5
330
18
100
AcDbEntity
  8
外形線
100
AcDbCircle
 10
98.36931091298389
 20
89.79659973350601
 30
0.0
 40
3.0
  0
CIRCLE
  5
9C6
330
18
100
AcDbEntity
  8
外形線
100
AcDbCircle
 10
98.36931091298389
 20
89.79659973350601
 30
0.0
 40
2.5
  0
LINE
  5
9C7
330
18
100
AcDbEntity
  8
中心線
100
AcDbLine
 10
98.36931091298389
 20
93.628571313562
 30
0.0
 11
98.36931091298389
 21
85.96462815345002
 31
0.0
  0
LINE
  5
9C8
330
18
100
AcDbEntity
  8
中心線
100
AcDbLine
 10
94.5373393329279
 20
89.79659973350601
 30
0.0
 11
102.2012824930399
 21
89.79659973350601
 31
0.0
  0
LINE
  5
9C9
330
18
100
AcDbEntity
  8
中心線
100
AcDbLine
 10
152.9684486677198
 20
89.79659973350601
 30
0.0
 11
162.2685024843141
 21
89.79659973350601
 31
0.0
  0
LINE
  5
9CA
330
18
100
AcDbEntity
  8
外形線
100
AcDbLine
 10
154.5730083335335
 20
92.796599733506
 30
0.0
 11
157.0730083335336
 21
92.79659973350598
 31
0.0
  0
LINE
  5
9CB
330
18
100
AcDbEntity
  8
外形線
100
AcDbLine
 10
154.5730083335335
 20
86.79659973350601
 30
0.0
 11
157.0730083335336
 21
86.79659973350601
 31
0.0
  0
LINE
  5
9CC
330
18
100
AcDbEntity
  8
外形線
100
AcDbLine
 10
154.0730083335336
 20
92.29659973350599
 30
0.0
 11
154.0730083335336
 21
87.29659973350601
 31
0.0
  0
LINE
  5
9CD
330
18
100
AcDbEntity
  8
外形線
100
AcDbLine
 10
154.5730083335335
 20
86.79659973350601
 30
0.0
 11
154.0730083335336
 21
87.29659973350601
 31
0.0
  0
LINE
  5
9CE
330
18
100
AcDbEntity
  8
外形線
100
AcDbLine
 10
154.0730083335336
 20
92.29659973350599
 30
0.0
 11
154.5730083335335
 21
92.796599733506
 31
0.0
  0
LINE
  5
9CF
330
18
100
AcDbEntity
  8
外形線
100
AcDbLine
 10
154.5730083335335
 20
92.796599733506
 30
0.0
 11
154.5730083335335
 21
86.79659973350601
 31
0.0
  0
LINE
  5
9D0
330
18
100
AcDbEntity
  8
外形線
100
AcDbLine
 10
157.0730083335336
 20
92.79659973350598
 30
0.0
 11
157.0730083335336
 21
86.79659973350601
 31
0.0
  0
LINE
  5
9D1
330
18
100
AcDbEntity
  8
外形線
100
AcDbLine
 10
158.0730083335336
 20
91.79659973350604
 30
0.0
 11
158.0730083335336
 21
87.79659973350602
 31
0.0
  0
LINE
  5
9D4
330
18
100
AcDbEntity
  8
外形線
100
AcDbLine
 10
157.0730083335336
 20
92.79659973350598
 30
0.0
 11
158.0730083335336
 21
91.79659973350604
 31
0.0
  0
LINE
  5
9D5
330
18
100
AcDbEntity
  8
外形線
100
AcDbLine
 10
158.0730083335336
 20
87.79659973350602
 30
0.0
 11
157.0730083335336
 21
86.79659973350601
 31
0.0
  0
LINE
  5
9D6
330
18
100
AcDbEntity
  8
外形線
100
AcDbLine
 10
158.0730083335336
 20
91.29659973350602
 30
0.0
 11
159.3675649568348
 21
91.29659973350602
 31
0.0
  0
LINE
  5
9D7
330
18
100
AcDbEntity
  8
外形線
100
AcDbLine
 10
158.0730083335336
 20
88.29659973350603
 30
0.0
 11
159.6463179557887
 21
88.29659973350601
 31
0.0
  0
ARC
  5
9D8
330
18
100
AcDbEntity
  8
外形線
100
AcDbCircle
 10
352.6474083335337
 20
107.5784167243261
 30
0.0
 40
195.0744000000001
100
AcDbArc
 50
185.6725722186489
 51
190.0613502819215
  0
LINE
  5
9DA
330
18
100
AcDbEntity
  8
外形線
100
AcDbLine
 10
172.7773742782041
 20
147.2343920898845
 30
0.0
 11
172.7773742782041
 21
140.9558742190055
 31
0.0
  0
LINE
  5
9DB
330
18
100
AcDbEntity
  8
外形線
100
AcDbLine
 10
171.7773742782041
 20
146.9647569200757
 30
0.0
 11
171.7773742782041
 21
140.6862390491968
 31
0.0
  0
LINE
  5
9DC
330
18
100
AcDbEntity
  8
外形線
100
AcDbLine
 10
170.7773742782041
 20
146.8177404818588
 30
0.0
 11
170.7773742782041
 21
140.5392226109799
 31
0.0
  0
LINE
  5
9DD
330
18
100
AcDbEntity
  8
外形線
100
AcDbLine
 10
169.7773742782041
 20
146.7453272763983
 30
0.0
 11
169.7773742782041
 21
140.4668094055194
 31
0.0
  0
LINE
  5
9DE
330
18
100
AcDbEntity
  8
外形線
100
AcDbLine
 10
172.8829830081715
 20
139.7546909744753
 30
0.0
 11
172.8829830081715
 21
137.1336685316555
 31
0.0
  0
LINE
  5
9DF
330
18
100
AcDbEntity
  8
外形線
100
AcDbLine
 10
171.8829830081715
 20
139.4647527845936
 30
0.0
 11
171.8829830081715
 21
136.8437303417738
 31
0.0
  0
LINE
  5
9E0
330
18
100
AcDbEntity
  8
外形線
100
AcDbLine
 10
170.8829830081715
 20
139.3081365451059
 30
0.0
 11
170.8829830081715
 21
136.6871141022861
 31
0.0
  0
LINE
  5
9E1
330
18
100
AcDbEntity
  8
外形線
100
AcDbLine
 10
169.8829830081715
 20
139.2287945486169
 30
0.0
 11
169.8829830081715
 21
136.6077721057971
 31
0.0
  0
LINE
  5
9EB
330
18
100
AcDbEntity
  8
外形線
100
AcDbLine
 10
154.5730083335335
 20
91.79659973350601
 30
0.0
 11
157.0730083335336
 21
91.79659973350599
 31
0.0
  0
LINE
  5
9EC
330
18
100
AcDbEntity
  8
外形線
100
AcDbLine
 10
154.5730083335335
 20
90.79659973350599
 30
0.0
 11
157.0730083335336
 21
90.79659973350599
 31
0.0
  0
LINE
  5
9ED
330
18
100
AcDbEntity
  8
外形線
100
AcDbLine
 10
154.5730083335335
 20
89.79659973350599
 30
0.0
 11
157.0730083335336
 21
89.79659973350598
 31
0.0
  0
DIMENSION
  5
9FA
330
18
100
AcDbEntity
  8
外形線
100
AcDbDimension
  2
*D14
 10
169.0730083335336
 20
30.94022310336726
 30
0.0
 11
163.3230083335336
 21
32.81522310336726
 31
0.0
 70
    32
 71
     5
 42
11.5
  3
STYLE3
100
AcDbAlignedDimension
 13
157.5730083335336
 23
107.5784167243261
 33
0.0
 14
169.0730083335336
 24
32.32647997755254
 34
0.0
100
AcDbRotatedDimension
1001
ACAD
1000
DSTYLE
1002
{
1070
   271
1070
     2
1002
}
  0
DIMENSION
  5
A06
330
18
100
AcDbEntity
  8
外形線
100
AcDbDimension
  2
*D15
 10
179.0730083335336
 20
30.94022310336726
 30
0.0
 11
174.0730083335336
 21
32.81522310336726
 31
0.0
 70
    32
 71
     5
 42
10.0
  3
STYLE3
100
AcDbAlignedDimension
 13
169.0730083335336
 23
32.32647997755254
 33
0.0
 14
179.0730083335336
 24
84.65841672432611
 34
0.0
100
AcDbRotatedDimension
1001
ACAD
1000
DSTYLE
1002
{
1070
    75
1070
     1
1070
   271
1070
     2
1070
   279
1070
     1
1002
}
  0
DIMENSION
  5
A28
330
18
100
AcDbEntity
  8
外形線
100
AcDbDimension
  2
*D16
 10
179.0730083335336
 20
26.46222699200592
 30
0.0
 11
166.5730083335336
 21
28.33722699200592
 31
0.0
 70
    32
 71
     5
 42
25.00000000000003
  3
STYLE3
100
AcDbAlignedDimension
 13
154.0730083335336
 23
87.29659973350601
 33
0.0
 14
179.0730083335336
 24
29.69022310336726
 34
0.0
100
AcDbRotatedDimension
1001
ACAD
1000
DSTYLE
1002
{
1070
   271
1070
     2
1002
}
  0
LINE
  5
A68
330
18
100
AcDbEntity
  8
想像線
 48
0.3
100
AcDbLine
 10
82.57772740014976
 20
189.712561621671
 30
0.0
 11
82.57772740014976
 21
187.1584167243261
 31
0.0
  0
LINE
  5
A69
330
18
100
AcDbEntity
  8
想像線
 48
0.3
100
AcDbLine
 10
79.17772740014973
 20
189.712561621671
 30
0.0
 11
79.17772740014976
 21
187.1584167243261
 31
0.0
  0
ARC
  5
A6D
330
18
100
AcDbEntity
  8
想像線
 48
0.3
100
AcDbCircle
 10
80.02772740014973
 20
191.1848048081046
 30
0.0
 40
1.700000000000002
100
AcDbArc
 50
240.0000000000004
 51
299.9999999999996
  0
ARC
  5
A6E
330
18
100
AcDbEntity
  8
想像線
 48
0.3
100
AcDbCircle
 10
80.02772740014973
 20
188.2403184352375
 30
0.0
 40
1.700000000000002
100
AcDbArc
 50
60.0000000000004
 51
119.9999999999996
  0
ARC
  5
A6F
330
18
100
AcDbEntity
  8
想像線
 48
0.3
100
AcDbCircle
 10
81.72772740014977
 20
188.2403184352375
 30
0.0
 40
1.700000000000002
100
AcDbArc
 50
60.0000000000004
 51
119.9999999999996
  0
LINE
  5
AC9
330
18
100
AcDbEntity
  8
想像線
 48
0.3
100
AcDbLine
 10
77.20256653018816
 20
161.135253715512
 30
0.0
 11
83.90359266939094
 21
161.135253715512
 31
0.0
  0
LINE
  5
ACA
330
18
100
AcDbEntity
  8
想像線
 48
0.3
100
AcDbLine
 10
83.26528613430298
 20
162.1252110835971
 30
0.0
 11
83.89974364989502
 21
162.1252110835971
 31
0.0
  0
LINE
  5
ACB
330
18
100
AcDbEntity
  8
想像線
 48
0.3
100
AcDbLine
 10
83.89974364989502
 20
162.1252110835971
 30
0.0
 11
83.78220614068538
 21
161.8894912757982
 31
0.0
  0
LINE
  5
ACC
330
18
100
AcDbEntity
  8
想像線
 48
0.3
100
AcDbLine
 10
84.03243430145819
 20
162.1252110835971
 30
0.0
 11
83.5882880913166
 21
161.2344821580552
 31
0.0
  0
LINE
  5
ACF
330
18
100
AcDbEntity
  8
想像線
 48
0.3
100
AcDbLine
 10
80.01608042541272
 20
161.612289149648
 30
0.0
 11
80.42025955480324
 21
161.612289149648
 31
0.0
  0
LINE
  5
AD0
330
18
100
AcDbEntity
  8
想像線
 48
0.3
100
AcDbLine
 10
80.03508788099493
 20
162.1252110835971
 30
0.0
 11
80.40125209922104
 21
162.1252110835971
 31
0.0
  0
LINE
  5
AD1
330
18
100
AcDbEntity
  8
想像線
 48
0.3
100
AcDbLine
 10
77.70763478751579
 20
161.2344821580552
 30
0.0
 11
83.5882880913166
 21
161.2344821580552
 31
0.0
  0
SPLINE
  5
AD4
330
18
100
AcDbEntity
  8
想像線
 48
0.3
100
AcDbSpline
210
0.0
220
0.0
230
1.0
 70
     8
 71
     3
 72
    18
 73
    14
 74
     0
 42
0.0000000001
 43
0.0000000001
 40
0.1087402787915014
 40
0.1087402787915014
 40
0.1087402787915014
 40
0.1087402787915014
 40
0.5992371417938475
 40
1.083176791562496
 40
1.448211145705696
 40
1.714037220764907
 40
2.164002567013297
 40
2.740236056362883
 40
3.395137510199602
 40
4.071816045172726
 40
4.784906178399433
 40
5.506895915094292
 40
6.060470601257719
 40
6.060470601257719
 40
6.060470601257719
 40
6.060470601257719
 10
78.47036039682286
 20
162.1252110835972
 30
0.0
 10
78.49528425698988
 20
162.1160769065129
 30
0.0
 10
78.54429677089814
 20
162.0967658603083
 30
0.0
 10
78.6041151667832
 20
162.0526916718938
 30
0.0
 10
78.63673753700803
 20
162.0018116227118
 30
0.0
 10
78.66811660490679
 20
161.9516784444156
 30
0.0
 10
78.67250804817885
 20
161.8797539211739
 30
0.0
 10
78.66531456741954
 20
161.78882389122
 30
0.0
 10
78.61887410551037
 20
161.693947788378
 30
0.0
 10
78.54433443276136
 20
161.610965436212
 30
0.0
 10
78.45178822725145
 20
161.5445474437588
 30
0.0
 10
78.35419506132841
 20
161.4924110300526
 30
0.0
 10
78.28443543889253
 20
161.4918915512668
 30
0.0
 10
78.25416087148943
 20
161.4916661057301
 30
0.0
  0
LINE
  5
AD5
330
18
100
AcDbEntity
  8
想像線
 48
0.3
100
AcDbLine
 10
77.69238822921375
 20
162.1252110835971
 30
0.0
 11
77.20256653018816
 21
161.135253715512
 31
0.0
  0
LINE
  5
AD6
330
18
100
AcDbEntity
  8
想像線
 48
0.3
100
AcDbLine
 10
78.92996705001596
 20
162.1252110835971
 30
0.0
 11
78.61649488699928
 21
161.4916661057301
 31
0.0
  0
LINE
  5
AD7
330
18
100
AcDbEntity
  8
想像線
 48
0.3
100
AcDbLine
 10
79.54519433578759
 20
161.6367850606392
 30
0.0
 11
79.47339082651945
 21
161.4916661057301
 31
0.0
  0
LINE
  5
AD8
330
18
100
AcDbEntity
  8
想像線
 48
0.3
100
AcDbLine
 10
80.03508788099493
 20
162.1252110835971
 30
0.0
 11
79.57822628465198
 21
161.4916661057301
 31
0.0
  0
LINE
  5
AD9
330
18
100
AcDbEntity
  8
想像線
 48
0.3
100
AcDbLine
 10
80.01608042541272
 20
161.612289149648
 30
0.0
 11
79.9290968041621
 21
161.4916661057302
 31
0.0
  0
LINE
  5
ADA
330
18
100
AcDbEntity
  8
想像線
 48
0.3
100
AcDbLine
 10
78.25416087163853
 20
161.4916661057301
 30
0.0
 11
77.82399210079223
 21
161.4916661057301
 31
0.0
  0
LINE
  5
ADB
330
18
100
AcDbEntity
  8
想像線
 48
0.3
100
AcDbLine
 10
77.82399210079225
 20
161.4916661057301
 30
0.0
 11
77.70763478751579
 21
161.2344821580552
 31
0.0
  0
LINE
  5
ADC
330
18
100
AcDbEntity
  8
想像線
 48
0.3
100
AcDbLine
 10
78.61649488699928
 20
161.4916661057301
 30
0.0
 11
79.47339082651945
 21
161.4916661057301
 31
0.0
  0
LINE
  5
ADD
330
18
100
AcDbEntity
  8
想像線
 48
0.3
100
AcDbLine
 10
79.578226284652
 20
161.4916661057301
 30
0.0
 11
79.9290968041621
 21
161.4916661057301
 31
0.0
  0
LINE
  5
ADE
330
18
100
AcDbEntity
  8
想像線
 48
0.3
100
AcDbLine
 10
77.69238822921375
 20
162.1252110835971
 30
0.0
 11
78.47036039682286
 21
162.1252110835971
 31
0.0
  0
LINE
  5
ADF
330
18
100
AcDbEntity
  8
想像線
 48
0.3
100
AcDbLine
 10
78.19565779519487
 20
161.8802174234236
 30
0.0
 11
77.99978373866688
 21
161.8802174234236
 31
0.0
  0
LINE
  5
AE0
330
18
100
AcDbEntity
  8
想像線
 48
0.3
100
AcDbLine
 10
78.16124434894669
 20
161.7117305797608
 30
0.0
 11
77.92355551125118
 21
161.7117305797608
 31
0.0
  0
LINE
  5
AE1
330
18
100
AcDbEntity
  8
想像線
 48
0.3
100
AcDbLine
 10
77.99978373866688
 20
161.8802174234236
 30
0.0
 11
77.92355551125118
 21
161.7117305797608
 31
0.0
  0
LINE
  5
AE2
330
18
100
AcDbEntity
  8
想像線
 48
0.3
100
AcDbLine
 10
78.92996705001593
 20
162.1252110835971
 30
0.0
 11
79.78686298953608
 21
162.1252110835972
 31
0.0
  0
SPLINE
  5
AE3
330
18
100
AcDbEntity
  8
想像線
 48
0.3
100
AcDbSpline
210
0.0
220
0.0
230
1.0
 70
     8
 71
     3
 72
    15
 73
    11
 74
     9
 42
0.0000000001
 43
0.0000000001
 44
0.0000000001
 40
0.0
 40
0.0
 40
0.0
 40
0.0
 40
0.0742852038590909
 40
0.1081551708376181
 40
0.1465998381500646
 40
0.1727901329955084
 40
0.2142103559253779
 40
0.2390199379856283
 40
0.2815850509457101
 40
0.295773430987964
 40
0.295773430987964
 40
0.295773430987964
 40
0.295773430987964
 10
78.19565779519487
 20
161.8802174234236
 30
0.0
 10
78.22355787720607
 20
161.8803452206918
 30
0.0
 10
78.26417886199907
 20
161.8805312864851
 30
0.0
 10
78.28639186324003
 20
161.8302830108245
 30
0.0
 10
78.27643493696425
 20
161.7979309599345
 30
0.0
 10
78.26391826913307
 20
161.7647154870759
 30
0.0
 10
78.24179848223734
 20
161.7421450723079
 30
0.0
 10
78.21211048827317
 20
161.72040595804
 30
0.0
 10
78.18405391524949
 20
161.7177743409146
 30
0.0
 10
78.1658062639542
 20
161.7129393324545
 30
0.0
 10
78.16124434894668
 20
161.7117305797608
 30
0.0
 11
78.19565779519487
 21
161.8802174234236
 31
0.0
 11
78.26792609168136
 21
161.8630248426014
 31
0.0
 11
78.28169150975748
 21
161.8320783092201
 31
0.0
 11
78.2748088996615
 21
161.79425474351
 31
0.0
 11
78.26448488557549
 21
161.7701851303589
 31
0.0
 11
78.23695404942323
 21
161.7392385969776
 31
0.0
 11
78.21630602125115
 21
161.7254845323199
 31
0.0
 11
78.1750097670228
 21
161.7151690959253
 31
0.0
 11
78.16124434894668
 21
161.7117305797608
 31
0.0
  0
LINE
  5
AE4
330
18
100
AcDbEntity
  8
想像線
 48
0.3
100
AcDbLine
 10
79.78686298953608
 20
162.1252110835971
 30
0.0
 11
79.71505586828977
 21
161.9800848286758
 31
0.0
  0
LINE
  5
AE5
330
18
100
AcDbEntity
  8
想像線
 48
0.3
100
AcDbLine
 10
79.26469301575787
 20
161.9800848286758
 30
0.0
 11
79.2085487701066
 21
161.8666141315454
 31
0.0
  0
LINE
  5
AE6
330
18
100
AcDbEntity
  8
想像線
 48
0.3
100
AcDbLine
 10
79.26469301575787
 20
161.9800848286758
 30
0.0
 11
79.71505586828977
 21
161.9800848286758
 31
0.0
  0
LINE
  5
AE7
330
18
100
AcDbEntity
  8
想像線
 48
0.3
100
AcDbLine
 10
79.2085487701066
 20
161.8666141315454
 30
0.0
 11
79.65891162263853
 21
161.8666141315454
 31
0.0
  0
LINE
  5
AE8
330
18
100
AcDbEntity
  8
想像線
 48
0.3
100
AcDbLine
 10
79.09483148325569
 20
161.6367850606392
 30
0.0
 11
79.54519433578759
 21
161.6367850606392
 31
0.0
  0
LINE
  5
AE9
330
18
100
AcDbEntity
  8
想像線
 48
0.3
100
AcDbLine
 10
79.15097810578439
 20
161.7502605615735
 30
0.0
 11
79.60134095831631
 21
161.7502605615735
 31
0.0
  0
LINE
  5
AEA
330
18
100
AcDbEntity
  8
想像線
 48
0.3
100
AcDbLine
 10
79.65891162263853
 20
161.8666141315454
 30
0.0
 11
79.60134095831631
 21
161.7502605615735
 31
0.0
  0
LINE
  5
AEB
330
18
100
AcDbEntity
  8
想像線
 48
0.3
100
AcDbLine
 10
79.15097810578439
 20
161.7502605615735
 30
0.0
 11
79.09483148325566
 21
161.6367850606392
 31
0.0
  0
SPLINE
  5
AEE
330
18
100
AcDbEntity
  8
想像線
 48
0.3
100
AcDbSpline
210
0.0
220
0.0
230
1.0
 70
     8
 71
     3
 72
    26
 73
    22
 74
    20
 42
0.0000000001
 43
0.0000000001
 44
0.0000000001
 40
0.0
 40
0.0
 40
0.0
 40
0.0
 40
0.114932317294985
 40
0.1918706042691379
 40
0.2473493747924701
 40
0.2887735776222223
 40
0.3425029428083393
 40
0.3817201414616345
 40
0.4525372615105442
 40
0.5101813791203331
 40
0.5493886155681816
 40
0.5878333183075883
 40
0.6566034173989694
 40
0.7052320855072738
 40
0.7314223803527119
 40
0.7686249205309493
 40
0.7954897095398233
 40
0.8344079193476495
 40
0.8564322597495637
 40
0.9043596949373485
 40
0.9262437781858603
 40
0.9262437781858603
 40
0.9262437781858603
 40
0.9262437781858603
 10
83.2652861343028
 20
162.1252110835971
 30
0.0
 10
83.22627633001038
 20
162.1228836917783
 30
0.0
 10
83.16115248235668
 20
162.1189982913516
 30
0.0
 10
83.08964689379976
 20
162.0755594142163
 30
0.0
 10
83.03725771345636
 20
162.0503059599669
 30
0.0
 10
82.99989381357066
 20
162.0159760403675
 30
0.0
 10
82.97250592349238
 20
161.9805157411745
 30
0.0
 10
82.93797834651549
 20
161.9382650546875
 30
0.0
 10
82.90982209411735
 20
161.889065839994
 30
0.0
 10
82.8954838264998
 20
161.8348397283475
 30
0.0
 10
82.88278312512902
 20
161.7916212027355
 30
0.0
 10
82.87336407237093
 20
161.7434597960735
 30
0.0
 10
82.87576054604254
 20
161.6914285345816
 30
0.0
 10
82.87919240601805
 20
161.6431045626316
 30
0.0
 10
82.89451482629074
 20
161.6086084817502
 30
0.0
 10
82.91196434891304
 20
161.5840496492594
 30
0.0
 10
82.93333105039403
 20
161.5570008179803
 30
0.0
 10
82.95671089432827
 20
161.5390864646117
 30
0.0
 10
82.97604793365735
 20
161.5066334096688
 30
0.0
 10
83.00989676868061
 20
161.5024921658051
 30
0.0
 10
83.03141243484606
 20
161.4942498545205
 30
0.0
 10
83.03815703287312
 20
161.4916661057301
 30
0.0
 11
83.2652861343028
 21
162.1252110835971
 31
0.0
 11
83.15172158358794
 21
162.1075325548199
 31
0.0
 11
83.08289449320737
 21
162.0731475052742
 31
0.0
 11
83.03471562888304
 21
162.0456394880574
 31
0.0
 11
83.00374358662489
 21
162.0181313587418
 31
0.0
 11
82.96933014037671
 21
161.9768692768673
 31
0.0
 11
82.94524070821454
 21
161.945922743486
 31
0.0
 11
82.91082706408216
 21
161.8840295646247
 31
0.0
 11
82.89362043990012
 21
161.8290134180924
 31
0.0
 11
82.88329642581411
 21
161.7911898523822
 31
0.0
 11
82.87641361783393
 21
161.7533662866721
 31
0.0
 11
82.87641361783393
 21
161.6845961875807
 31
0.0
 11
82.88329642581411
 21
161.6364570733773
 31
0.0
 11
82.89362043990012
 21
161.6123874602262
 31
0.0
 11
82.91426846807221
 21
161.5814409268449
 31
0.0
 11
82.93147529013843
 21
161.5608098298582
 31
0.0
 11
82.95900592840645
 21
161.5333018126414
 31
0.0
 11
82.97277134648259
 21
161.5161092318192
 31
0.0
 11
83.01750900470105
 21
161.4989167630957
 31
0.0
 11
83.03815703287312
 21
161.4916661057301
 31
0.0
  0
SPLINE
  5
AEF
330
18
100
AcDbEntity
  8
想像線
 48
0.3
100
AcDbSpline
210
0.0
220
0.0
230
1.0
 70
     8
 71
     3
 72
    26
 73
    22
 74
    20
 42
0.0000000001
 43
0.0000000001
 44
0.0000000001
 40
0.0
 40
0.0
 40
0.0
 40
0.0
 40
0.114932317294985
 40
0.1918706042691252
 40
0.2473493747924838
 40
0.2887735776222254
 40
0.3425029428083424
 40
0.3817201414616376
 40
0.4525372615105473
 40
0.5101813791203319
 40
0.549388615568188
 40
0.5878333183075948
 40
0.6566034173989759
 40
0.7052320855072802
 40
0.7314223803527296
 40
0.7686249205309512
 40
0.7954897095398343
 40
0.8344079193476304
 40
0.8564322597495534
 40
0.9043596949373249
 40
0.9262437781858595
 40
0.9262437781858595
 40
0.9262437781858595
 40
0.9262437781858595
 10
81.22394786158208
 20
162.1252110835971
 30
0.0
 10
81.18493805728968
 20
162.1228836917783
 30
0.0
 10
81.119814209636
 20
162.1189982913516
 30
0.0
 10
81.04830862107903
 20
162.0755594142164
 30
0.0
 10
80.99591944073564
 20
162.0503059599668
 30
0.0
 10
80.95855554084996
 20
162.0159760403675
 30
0.0
 10
80.93116765077164
 20
161.9805157411744
 30
0.0
 10
80.8966400737948
 20
161.9382650546875
 30
0.0
 10
80.86848382139661
 20
161.889065839994
 30
0.0
 10
80.85414555377914
 20
161.8348397283476
 30
0.0
 10
80.84144485240829
 20
161.7916212027354
 30
0.0
 10
80.83202579965023
 20
161.7434597960735
 30
0.0
 10
80.83442227332183
 20
161.6914285345816
 30
0.0
 10
80.83785413329733
 20
161.6431045626316
 30
0.0
 10
80.85317655357005
 20
161.6086084817502
 30
0.0
 10
80.8706260761923
 20
161.5840496492594
 30
0.0
 10
80.89199277767333
 20
161.5570008179803
 30
0.0
 10
80.91537262160754
 20
161.5390864646117
 30
0.0
 10
80.93470966093667
 20
161.5066334096688
 30
0.0
 10
80.96855849595991
 20
161.5024921658052
 30
0.0
 10
80.99007416212534
 20
161.4942498545205
 30
0.0
 10
80.99681876015242
 20
161.4916661057301
 30
0.0
 11
81.22394786158208
 21
162.1252110835971
 31
0.0
 11
81.11038331086723
 21
162.1075325548199
 31
0.0
 11
81.04155622048665
 21
162.0731475052742
 31
0.0
 11
80.99337735616233
 21
162.0456394880574
 31
0.0
 11
80.96240531390419
 21
162.0181313587418
 31
0.0
 11
80.92799186765601
 21
161.9768692768673
 31
0.0
 11
80.90390243549384
 21
161.945922743486
 31
0.0
 11
80.86948879136144
 21
161.8840295646247
 31
0.0
 11
80.85228216717942
 21
161.8290134180924
 31
0.0
 11
80.84195815309339
 21
161.7911898523822
 31
0.0
 11
80.83507534511321
 21
161.7533662866721
 31
0.0
 11
80.83507534511321
 21
161.6845961875807
 31
0.0
 11
80.84195815309339
 21
161.6364570733773
 31
0.0
 11
80.85228216717942
 21
161.6123874602262
 31
0.0
 11
80.87293019535149
 21
161.5814409268449
 31
0.0
 11
80.89013701741773
 21
161.5608098298582
 31
0.0
 11
80.91766765568573
 21
161.5333018126414
 31
0.0
 11
80.93143307376189
 21
161.5161092318192
 31
0.0
 11
80.97617073198033
 21
161.4989167630957
 31
0.0
 11
80.99681876015242
 21
161.4916661057301
 31
0.0
  0
LINE
  5
AF0
330
18
100
AcDbEntity
  8
想像線
 48
0.3
100
AcDbLine
 10
80.40125209922104
 20
162.1252110835971
 30
0.0
 11
80.85811369556399
 21
161.4916661057301
 31
0.0
  0
LINE
  5
AF1
330
18
100
AcDbEntity
  8
想像線
 48
0.3
100
AcDbLine
 10
80.42025955480324
 20
161.612289149648
 30
0.0
 11
80.50724317605389
 21
161.4916661057302
 31
0.0
  0
LINE
  5
AF2
330
18
100
AcDbEntity
  8
想像線
 48
0.3
100
AcDbLine
 10
81.66003565413133
 20
161.7273834173207
 30
0.0
 11
81.5424993896118
 21
161.4916661057301
 31
0.0
  0
LINE
  5
AF3
330
18
100
AcDbEntity
  8
想像線
 48
0.3
100
AcDbLine
 10
83.70137392685203
 20
161.7273834173207
 30
0.0
 11
83.5838376623325
 21
161.4916661057301
 31
0.0
  0
ARC
  5
AF4
330
18
100
AcDbEntity
  8
想像線
 48
0.3
100
AcDbCircle
 10
82.19254240282481
 20
161.8084385946636
 30
0.0
 40
0.3170399864842043
100
AcDbArc
 50
92.3538081120337
 51
270.0
  0
ARC
  5
AF5
330
18
100
AcDbEntity
  8
想像線
 48
0.3
100
AcDbCircle
 10
82.43570419054112
 20
161.8081710971129
 30
0.0
 40
0.3170399864842043
100
AcDbArc
 50
273.3290215232082
 51
90.0000000000006
  0
LINE
  5
AF6
330
18
100
AcDbEntity
  8
想像線
 48
0.3
100
AcDbLine
 10
80.99681876015239
 20
161.4916661057301
 30
0.0
 11
81.5424993896118
 21
161.4916661057301
 31
0.0
  0
LINE
  5
AF7
330
18
100
AcDbEntity
  8
想像線
 48
0.3
100
AcDbLine
 10
80.85811369556399
 20
161.4916661057301
 30
0.0
 11
80.50724317605389
 21
161.4916661057301
 31
0.0
  0
LINE
  5
AF8
330
18
100
AcDbEntity
  8
想像線
 48
0.3
100
AcDbLine
 10
82.17952152402281
 20
161.4916661057301
 30
0.0
 11
82.45411460769219
 21
161.4916661057301
 31
0.0
  0
LINE
  5
AF9
330
18
100
AcDbEntity
  8
想像線
 48
0.3
100
AcDbLine
 10
82.1795215240226
 20
161.4916661057301
 30
0.0
 11
82.45411460769242
 21
161.4916661057301
 31
0.0
  0
LINE
  5
AFA
330
18
100
AcDbEntity
  8
想像線
 48
0.3
100
AcDbLine
 10
83.03815703287307
 20
161.4916661057301
 30
0.0
 11
83.5838376623325
 21
161.4916661057301
 31
0.0
  0
LINE
  5
AFB
330
18
100
AcDbEntity
  8
想像線
 48
0.3
100
AcDbLine
 10
80.21816999010798
 20
161.8925333851383
 30
0.0
 11
80.1078246737226
 21
161.7395139114361
 31
0.0
  0
LINE
  5
AFC
330
18
100
AcDbEntity
  8
想像線
 48
0.3
100
AcDbLine
 10
80.1078246737226
 20
161.7395139114361
 30
0.0
 11
80.32851530649336
 21
161.7395139114361
 31
0.0
  0
LINE
  5
AFD
330
18
100
AcDbEntity
  8
想像線
 48
0.3
100
AcDbLine
 10
80.21816999010798
 20
161.8925333851383
 30
0.0
 11
80.32851530649336
 21
161.7395139114361
 31
0.0
  0
SPLINE
  5
AFE
330
18
100
AcDbEntity
  8
想像線
 48
0.3
100
AcDbSpline
210
0.0
220
0.0
230
1.0
 70
     8
 71
     3
 72
    16
 73
    12
 74
    10
 42
0.0000000001
 43
0.0000000001
 44
0.0000000001
 40
0.0
 40
0.0
 40
0.0
 40
0.0
 40
0.0605929757058536
 40
0.0901882747025431
 40
0.104782650590779
 40
0.1201627461789808
 40
0.1421869990747607
 40
0.1622411782446313
 40
0.1831572199081235
 40
0.2182244751044609
 40
0.252933729554985
 40
0.252933729554985
 40
0.252933729554985
 40
0.252933729554985
 10
81.34439502239287
 20
161.8894912757982
 30
0.0
 10
81.3238754928332
 20
161.8863629350849
 30
0.0
 10
81.29333365284045
 20
161.881706625532
 30
0.0
 10
81.26571464639718
 20
161.8598437238995
 30
0.0
 10
81.25013944439317
 20
161.8468367527004
 30
0.0
 10
81.24484069128177
 20
161.8296118306163
 30
0.0
 10
81.23060990439368
 20
161.8163857345972
 30
0.0
 10
81.21887968814538
 20
161.7982088213125
 30
0.0
 10
81.21607877840501
 20
161.7732425364946
 30
0.0
 10
81.21813471028174
 20
161.7382061606334
 30
0.0
 10
81.24270018516119
 20
161.7309786377293
 30
0.0
 10
81.25491990384023
 20
161.7273834173207
 30
0.0
 11
81.34439502239287
 21
161.8894912757982
 31
0.0
 11
81.28589214398251
 21
161.8737140161314
 31
0.0
 11
81.26180271182036
 21
161.8565215474079
 31
0.0
 11
81.25147869773433
 21
161.8462059989146
 31
0.0
 11
81.24459588975415
 21
161.8324519342568
 31
0.0
 11
81.23083047167805
 21
161.8152594655334
 31
0.0
 11
81.220506457592
 21
161.7980668847112
 31
0.0
 11
81.21706505360192
 21
161.7774358998232
 31
0.0
 11
81.22394786158208
 21
161.7430507381788
 31
0.0
 11
81.25491990384023
 21
161.7273834173207
 31
0.0
  0
LINE
  5
AFF
330
18
100
AcDbEntity
  8
想像線
 48
0.3
100
AcDbLine
 10
81.8584053771743
 20
162.1252110835971
 30
0.0
 11
81.74086786796468
 21
161.8894912757982
 31
0.0
  0
LINE
  5
B00
330
18
100
AcDbEntity
  8
想像線
 48
0.3
100
AcDbLine
 10
81.34439502239287
 20
161.8894912757982
 30
0.0
 11
81.74086786796468
 21
161.8894912757982
 31
0.0
  0
LINE
  5
B01
330
18
100
AcDbEntity
  8
想像線
 48
0.3
100
AcDbLine
 10
81.2549199038402
 20
161.7273834173207
 30
0.0
 11
81.66003565413133
 21
161.7273834173207
 31
0.0
  0
LINE
  5
B02
330
18
100
AcDbEntity
  8
想像線
 48
0.3
100
AcDbLine
 10
81.22394786158228
 20
162.1252110835972
 30
0.0
 11
81.8584053771743
 21
162.1252110835972
 31
0.0
  0
LINE
  5
B03
330
18
100
AcDbEntity
  8
想像線
 48
0.3
100
AcDbLine
 10
82.31867927926122
 20
161.8691229730963
 30
0.0
 11
82.34163853808002
 21
161.8659138884528
 31
0.0
  0
LINE
  5
B04
330
18
100
AcDbEntity
  8
想像線
 48
0.3
100
AcDbLine
 10
82.39675298363648
 20
161.8047689379527
 30
0.0
 11
82.38832183133737
 21
161.744448619457
 31
0.0
  0
LINE
  5
B05
330
18
100
AcDbEntity
  8
想像線
 48
0.3
100
AcDbLine
 10
82.23742148564241
 20
161.7667444045947
 30
0.0
 11
82.24585263794153
 21
161.8270647230903
 31
0.0
  0
LINE
  5
B06
330
18
100
AcDbEntity
  8
想像線
 48
0.3
100
AcDbLine
 10
82.29678402972007
 20
161.7124743467865
 30
0.0
 11
82.31974328853889
 21
161.709265262143
 31
0.0
  0
ARC
  5
B07
330
18
100
AcDbEntity
  8
想像線
 48
0.3
100
AcDbCircle
 10
82.3303153998008
 20
161.8002956812954
 30
0.0
 40
0.0665880062101451
100
AcDbArc
 50
3.851923331663601
 51
80.20940670206341
  0
ARC
  5
B08
330
18
100
AcDbEntity
  8
想像線
 48
0.3
100
AcDbCircle
 10
82.30974382471694
 20
161.800514105723
 30
0.0
 40
0.0691882867988374
100
AcDbArc
 50
82.57970078354313
 51
157.4341870372611
  0
ARC
  5
B09
330
18
100
AcDbEntity
  8
想像線
 48
0.3
100
AcDbCircle
 10
82.3006025653656
 20
161.7762526720233
 30
0.0
 40
0.0638925346537704
100
AcDbArc
 50
188.5583509056651
 51
266.5736774635929
  0
ARC
  5
B0A
330
18
100
AcDbEntity
  8
想像線
 48
0.3
100
AcDbCircle
 10
82.33348567743238
 20
161.7669064235348
 30
0.0
 40
0.0592567020605202
100
AcDbArc
 50
256.5902863289752
 51
337.7287536965499
  0
LINE
  5
B0B
330
18
100
AcDbEntity
  8
想像線
 48
0.3
100
AcDbLine
 10
82.17952152402267
 20
162.1252110835971
 30
0.0
 11
82.35906379678699
 21
162.1252110835971
 31
0.0
  0
LINE
  5
B0C
330
18
100
AcDbEntity
  8
想像線
 48
0.3
100
AcDbLine
 10
82.1795215240226
 20
162.1252110835971
 30
0.0
 11
82.43570419054112
 21
162.1252110835971
 31
0.0
  0
SPLINE
  5
B0D
330
18
100
AcDbEntity
  8
想像線
 48
0.3
100
AcDbSpline
210
0.0
220
0.0
230
1.0
 70
     8
 71
     3
 72
    16
 73
    12
 74
    10
 42
0.0000000001
 43
0.0000000001
 44
0.0000000001
 40
0.0
 40
0.0
 40
0.0
 40
0.0
 40
0.0605929757058462
 40
0.0901882747025473
 40
0.104782650590763
 40
0.1201627461789648
 40
0.1421869990747448
 40
0.1622411782446227
 40
0.1831572199081429
 40
0.2182244751044497
 40
0.2529337295549865
 40
0.2529337295549865
 40
0.2529337295549865
 40
0.2529337295549865
 10
83.38573329511358
 20
161.8894912757982
 30
0.0
 10
83.36521376555392
 20
161.8863629350849
 30
0.0
 10
83.33467192556117
 20
161.881706625532
 30
0.0
 10
83.30705291911787
 20
161.8598437238995
 30
0.0
 10
83.29147771711388
 20
161.8468367527004
 30
0.0
 10
83.28617896400251
 20
161.8296118306163
 30
0.0
 10
83.2719481771144
 20
161.8163857345971
 30
0.0
 10
83.26021796086607
 20
161.7982088213125
 30
0.0
 10
83.25741705112575
 20
161.7732425364945
 30
0.0
 10
83.25947298300246
 20
161.7382061606335
 30
0.0
 10
83.28403845788191
 20
161.7309786377293
 30
0.0
 10
83.29625817656094
 20
161.7273834173207
 30
0.0
 11
83.38573329511358
 21
161.8894912757982
 31
0.0
 11
83.32723041670323
 21
161.8737140161314
 31
0.0
 11
83.30314098454106
 21
161.8565215474079
 31
0.0
 11
83.29281697045505
 21
161.8462059989146
 31
0.0
 11
83.28593416247487
 21
161.8324519342568
 31
0.0
 11
83.27216874439876
 21
161.8152594655334
 31
0.0
 11
83.2618447303127
 21
161.7980668847112
 31
0.0
 11
83.25840332632262
 21
161.7774358998232
 31
0.0
 11
83.26528613430278
 21
161.7430507381788
 31
0.0
 11
83.29625817656094
 21
161.7273834173207
 31
0.0
  0
LINE
  5
B0E
330
18
100
AcDbEntity
  8
想像線
 48
0.3
100
AcDbLine
 10
83.29625817656092
 20
161.7273834173207
 30
0.0
 11
83.70137392685206
 21
161.7273834173207
 31
0.0
  0
LINE
  5
B0F
330
18
100
AcDbEntity
  8
想像線
 48
0.3
100
AcDbLine
 10
83.38573329511357
 20
161.8894912757982
 30
0.0
 11
83.78220614068538
 21
161.8894912757982
 31
0.0
  0
LINE
  5
B10
330
18
100
AcDbEntity
  8
想像線
 48
0.3
100
AcDbLine
 10
84.27923867848463
 20
161.6302323995546
 30
0.0
 11
84.52605103667158
 21
161.135253715512
 31
0.0
  0
LINE
  5
B11
330
18
100
AcDbEntity
  8
想像線
 48
0.3
100
AcDbLine
 10
84.03243430145819
 20
161.3936437813864
 30
0.0
 11
84.16127593352541
 21
161.135253715512
 31
0.0
  0
LINE
  5
B12
330
18
100
AcDbEntity
  8
想像線
 48
0.3
100
AcDbLine
 10
84.03243430145819
 20
161.3936437813864
 30
0.0
 11
83.90359266939094
 21
161.135253715512
 31
0.0
  0
LINE
  5
B13
330
18
100
AcDbEntity
  8
想像線
 48
0.3
100
AcDbLine
 10
84.16127593352541
 20
161.135253715512
 30
0.0
 11
84.52605103667158
 21
161.135253715512
 31
0.0
  0
LINE
  5
B14
330
18
100
AcDbEntity
  8
想像線
 48
0.3
100
AcDbLine
 10
84.27923867848463
 20
161.6302323995546
 30
0.0
 11
84.87889723499847
 21
162.1252110835971
 31
0.0
  0
LINE
  5
B15
330
18
100
AcDbEntity
  8
想像線
 48
0.3
100
AcDbLine
 10
84.51412213185234
 20
162.1252110835971
 30
0.0
 11
84.87889723499847
 21
162.1252110835971
 31
0.0
  0
LINE
  5
B16
330
18
100
AcDbEntity
  8
想像線
 48
0.3
100
AcDbLine
 10
84.03243430145819
 20
162.1252110835971
 30
0.0
 11
84.3972173857648
 21
162.1252110835971
 31
0.0
  0
LINE
  5
B17
330
18
100
AcDbEntity
  8
想像線
 48
0.3
100
AcDbLine
 10
84.3972173857648
 20
162.1252110835971
 30
0.0
 11
84.34332361170069
 21
162.0171278840349
 31
0.0
  0
LINE
  5
B18
330
18
100
AcDbEntity
  8
想像線
 48
0.3
100
AcDbLine
 10
84.34332361170069
 20
162.0171278840349
 30
0.0
 11
84.51412213185234
 21
162.1252110835971
 31
0.0
  0
LINE
  5
B92
102
{ACAD_REACTORS
330
BA8
102
}
330
18
100
AcDbEntity
  8
針
100
AcDbLine
 10
75.98284683674077
 20
88.78211050034172
 30
0.0
 11
75.67866520456039
 21
88.86361572303684
 31
0.0
  0
CIRCLE
  5
B93
102
{ACAD_REACTORS
330
BA8
102
}
330
18
100
AcDbEntity
  8
針
100
AcDbCircle
 10
80.87772740014974
 20
107.6584167243261
 30
0.0
 40
1.9
  0
CIRCLE
  5
B94
330
18
100
AcDbEntity
  8
針
100
AcDbCircle
 10
80.87772740014974
 20
107.6584167243261
 30
0.0
 40
1.5
  0
CIRCLE
  5
B95
330
18
100
AcDbEntity
  8
針
100
AcDbCircle
 10
80.87772740014973
 20
107.6584167243261
 30
0.0
 40
0.0000000000000568
  0
CIRCLE
  5
B96
330
18
100
AcDbEntity
  8
針
100
AcDbCircle
 10
80.87772740014974
 20
107.6584167243261
 30
0.0
 40
0.475
  0
ARC
  5
B97
102
{ACAD_REACTORS
330
BA8
102
}
330
18
100
AcDbEntity
  8
針
100
AcDbCircle
 10
83.55303448363732
 20
103.7334667871879
 30
0.0
 40
3.0
100
AcDbArc
 50
135.5277208229603
 51
165.0
  0
ARC
  5
B98
102
{ACAD_REACTORS
330
BA8
102
}
330
18
100
AcDbEntity
  8
針
100
AcDbCircle
 10
76.5983685343559
 20
105.5969639119261
 30
0.0
 40
3.0
100
AcDbArc
 50
345.0
 51
14.47227917703957
  0
POINT
  5
B99
330
18
100
AcDbEntity
  8
DEFPOINTS
  6
ByBlock
 62
     0
100
AcDbPoint
 10
80.87772740014978
 20
107.6584167243261
 30
0.0
  0
POINT
  5
B9A
330
18
100
AcDbEntity
  8
DEFPOINTS
  6
ByBlock
 62
     0
100
AcDbPoint
 10
80.87772740014978
 20
107.6584167243261
 30
0.0
  0
LINE
  5
B9C
102
{ACAD_REACTORS
330
BA8
102
}
330
18
100
AcDbEntity
  8
針
100
AcDbLine
 10
75.98284683674077
 20
88.78211050034172
 30
0.0
 11
80.65525700477019
 21
104.5099239224954
 31
0.0
  0
LINE
  5
B9D
102
{ACAD_REACTORS
330
BA8
102
}
330
18
100
AcDbEntity
  8
針
100
AcDbLine
 10
75.67866520456039
 20
88.86361572303684
 30
0.0
 11
79.49614601322313
 21
104.8205067766186
 31
0.0
  0
HATCH
  5
BA8
330
18
100
AcDbEntity
  8
針
100
AcDbHatch
 10
0.0
 20
0.0
 30
0.0
210
0.0
220
0.0
230
1.0
  2
SOLID
 70
     1
 71
     1
 91
        1
 92
        7
 72
     1
 73
     1
 93
        6
 10
75.67866520456039
 20
88.86361572303684
 42
0.0
 10
75.98284683674077
 20
88.78211050034172
 42
0.0
 10
80.65525700477019
 20
104.5099239224954
 42
-0.1293106770632744
 10
81.41226604566549
 20
105.8351590803135
 42
-0.2805221108582043
 10
79.50317453182226
 20
106.346698609725
 42
-0.1293106770632774
 10
79.49614601322313
 20
104.8205067766186
 42
0.0
 97
        6
330
B92
330
B9C
330
B97
330
B93
330
B98
330
B9D
 75
     0
 76
     1
 47
0.0534153898818126
 98
        1
 10
78.35250518652291
 20
98.575843006917
450
        0
451
        0
460
0.0
461
0.0
452
        0
462
0.0
453
        0
470

  0
LINE
  5
BAA
330
18
100
AcDbEntity
  8
想像線
 48
0.3
100
AcDbLine
 10
85.84391126789284
 20
167.1584167243261
 30
0.0
 11
85.84391126789284
 21
152.1584167243261
 31
0.0
  0
LINE
  5
BAB
330
18
100
AcDbEntity
  8
外形線
100
AcDbLine
 10
71.87772740014972
 20
136.1584167243261
 30
0.0
 11
89.87772740014975
 21
136.1584167243261
 31
0.0
  0
TEXT
  5
BAC
330
18
100
AcDbEntity
  8
文字
100
AcDbText
 10
76.39556253062846
 20
136.882027118303
 30
0.0
 40
1.7
  1
SIGNAL
 41
1.3
  7
4
100
AcDbText
  0
TEXT
  5
BAE
330
18
100
AcDbEntity
  8
文字
100
AcDbText
 10
73.30060825208022
 20
133.8515014436368
 30
0.0
 40
1.7
  1
INDICATOR
 41
1.199999999999999
  7
4
100
AcDbText
  0
LINE
  5
C55
330
18
100
AcDbEntity
  8
文字
100
AcDbLine
 10
71.98833299170684
 20
135.9809669136005
 30
0.0
 11
71.98833299170684
 21
135.9809669136005
 31
0.0
  0
LINE
  5
C56
330
18
100
AcDbEntity
  8
文字
100
AcDbLine
 10
72.30583299170683
 20
135.9809669136005
 30
0.0
 11
72.30583299170683
 21
135.9809669136005
 31
0.0
  0
LINE
  5
C57
330
18
100
AcDbEntity
  8
文字
100
AcDbLine
 10
72.62333299170683
 20
135.9809669136005
 30
0.0
 11
72.62333299170683
 21
135.9809669136005
 31
0.0
  0
LINE
  5
C58
330
18
100
AcDbEntity
  8
文字
100
AcDbLine
 10
72.94083299170686
 20
135.9809669136005
 30
0.0
 11
72.94083299170686
 21
135.9809669136005
 31
0.0
  0
LINE
  5
C59
330
18
100
AcDbEntity
  8
文字
100
AcDbLine
 10
73.25833299170685
 20
135.9809669136005
 30
0.0
 11
73.25833299170685
 21
135.9809669136005
 31
0.0
  0
LINE
  5
C5A
330
18
100
AcDbEntity
  8
文字
100
AcDbLine
 10
73.57583299170684
 20
135.9809669136005
 30
0.0
 11
73.57583299170684
 21
135.9809669136005
 31
0.0
  0
LINE
  5
C5B
330
18
100
AcDbEntity
  8
文字
100
AcDbLine
 10
73.89333299170687
 20
135.9809669136005
 30
0.0
 11
73.89333299170687
 21
135.9809669136005
 31
0.0
  0
LINE
  5
C5C
330
18
100
AcDbEntity
  8
文字
100
AcDbLine
 10
74.21083299170686
 20
135.9809669136005
 30
0.0
 11
74.21083299170686
 21
135.9809669136005
 31
0.0
  0
LINE
  5
C5D
330
18
100
AcDbEntity
  8
文字
100
AcDbLine
 10
74.52833299170686
 20
135.9809669136005
 30
0.0
 11
74.52833299170686
 21
135.9809669136005
 31
0.0
  0
LINE
  5
C5E
330
18
100
AcDbEntity
  8
文字
100
AcDbLine
 10
74.84583299170686
 20
135.9809669136005
 30
0.0
 11
74.84583299170686
 21
135.9809669136005
 31
0.0
  0
LINE
  5
C5F
330
18
100
AcDbEntity
  8
文字
100
AcDbLine
 10
75.16333299170685
 20
135.9809669136005
 30
0.0
 11
75.16333299170685
 21
135.9809669136005
 31
0.0
  0
LINE
  5
C60
330
18
100
AcDbEntity
  8
文字
100
AcDbLine
 10
75.48083299170688
 20
135.9809669136005
 30
0.0
 11
75.48083299170688
 21
135.9809669136005
 31
0.0
  0
LINE
  5
C61
330
18
100
AcDbEntity
  8
文字
100
AcDbLine
 10
75.79833299170687
 20
135.9809669136005
 30
0.0
 11
75.79833299170687
 21
135.9809669136005
 31
0.0
  0
LINE
  5
C62
330
18
100
AcDbEntity
  8
文字
100
AcDbLine
 10
76.11583299170686
 20
135.9809669136005
 30
0.0
 11
76.11583299170686
 21
135.9809669136005
 31
0.0
  0
LINE
  5
C63
330
18
100
AcDbEntity
  8
文字
100
AcDbLine
 10
76.43333299170689
 20
135.9809669136005
 30
0.0
 11
76.43333299170689
 21
135.9809669136005
 31
0.0
  0
LINE
  5
C64
330
18
100
AcDbEntity
  8
文字
100
AcDbLine
 10
76.75083299170688
 20
135.9809669136005
 30
0.0
 11
76.75083299170688
 21
135.9809669136005
 31
0.0
  0
LINE
  5
C65
330
18
100
AcDbEntity
  8
文字
100
AcDbLine
 10
77.06833299170688
 20
135.9809669136005
 30
0.0
 11
77.06833299170688
 21
135.9809669136005
 31
0.0
  0
LINE
  5
C66
330
18
100
AcDbEntity
  8
文字
100
AcDbLine
 10
77.38583299170688
 20
135.9809669136005
 30
0.0
 11
77.38583299170688
 21
135.9809669136005
 31
0.0
  0
LINE
  5
C67
330
18
100
AcDbEntity
  8
文字
100
AcDbLine
 10
77.70333299170687
 20
135.9809669136005
 30
0.0
 11
77.70333299170687
 21
135.9809669136005
 31
0.0
  0
LINE
  5
C68
330
18
100
AcDbEntity
  8
文字
100
AcDbLine
 10
78.02083299170689
 20
135.9809669136005
 30
0.0
 11
78.02083299170689
 21
135.9809669136005
 31
0.0
  0
LINE
  5
C69
330
18
100
AcDbEntity
  8
文字
100
AcDbLine
 10
78.33833299170689
 20
135.9809669136005
 30
0.0
 11
78.33833299170689
 21
135.9809669136005
 31
0.0
  0
LINE
  5
C6A
330
18
100
AcDbEntity
  8
文字
100
AcDbLine
 10
78.65583299170689
 20
135.9809669136005
 30
0.0
 11
78.65583299170689
 21
135.9809669136005
 31
0.0
  0
LINE
  5
C6B
330
18
100
AcDbEntity
  8
文字
100
AcDbLine
 10
78.97333299170691
 20
135.9809669136005
 30
0.0
 11
78.97333299170691
 21
135.9809669136005
 31
0.0
  0
LINE
  5
C6C
330
18
100
AcDbEntity
  8
文字
100
AcDbLine
 10
79.29083299170691
 20
135.9809669136005
 30
0.0
 11
79.29083299170691
 21
135.9809669136005
 31
0.0
  0
LINE
  5
C6D
330
18
100
AcDbEntity
  8
文字
100
AcDbLine
 10
79.6083329917069
 20
135.9809669136005
 30
0.0
 11
79.6083329917069
 21
135.9809669136005
 31
0.0
  0
LINE
  5
C6E
330
18
100
AcDbEntity
  8
文字
100
AcDbLine
 10
79.92583299170689
 20
135.9809669136005
 30
0.0
 11
79.92583299170689
 21
135.9809669136005
 31
0.0
  0
LINE
  5
C6F
330
18
100
AcDbEntity
  8
文字
100
AcDbLine
 10
80.2433329917069
 20
135.9809669136005
 30
0.0
 11
80.2433329917069
 21
135.9809669136005
 31
0.0
  0
LINE
  5
C70
330
18
100
AcDbEntity
  8
文字
100
AcDbLine
 10
80.56083299170692
 20
135.9809669136005
 30
0.0
 11
80.56083299170692
 21
135.9809669136005
 31
0.0
  0
LINE
  5
C71
330
18
100
AcDbEntity
  8
文字
100
AcDbLine
 10
80.87833299170682
 20
135.9809669136005
 30
0.0
 11
80.87833299170682
 21
135.9809669136005
 31
0.0
  0
LINE
  5
C72
330
18
100
AcDbEntity
  8
文字
100
AcDbLine
 10
81.19583299170685
 20
135.9809669136005
 30
0.0
 11
81.19583299170685
 21
135.9809669136005
 31
0.0
  0
LINE
  5
C73
330
18
100
AcDbEntity
  8
文字
100
AcDbLine
 10
81.51333299170685
 20
135.9809669136005
 30
0.0
 11
81.51333299170685
 21
135.9809669136005
 31
0.0
  0
LINE
  5
C74
330
18
100
AcDbEntity
  8
文字
100
AcDbLine
 10
81.83083299170684
 20
135.9809669136005
 30
0.0
 11
81.83083299170684
 21
135.9809669136005
 31
0.0
  0
LINE
  5
C75
330
18
100
AcDbEntity
  8
文字
100
AcDbLine
 10
82.14833299170686
 20
135.9809669136005
 30
0.0
 11
82.14833299170686
 21
135.9809669136005
 31
0.0
  0
LINE
  5
C76
330
18
100
AcDbEntity
  8
文字
100
AcDbLine
 10
82.46583299170685
 20
135.9809669136005
 30
0.0
 11
82.46583299170685
 21
135.9809669136005
 31
0.0
  0
LINE
  5
C77
330
18
100
AcDbEntity
  8
文字
100
AcDbLine
 10
82.78333299170686
 20
135.9809669136005
 30
0.0
 11
82.78333299170686
 21
135.9809669136005
 31
0.0
  0
LINE
  5
C78
330
18
100
AcDbEntity
  8
文字
100
AcDbLine
 10
83.10083299170685
 20
135.9809669136005
 30
0.0
 11
83.10083299170685
 21
135.9809669136005
 31
0.0
  0
LINE
  5
C79
330
18
100
AcDbEntity
  8
文字
100
AcDbLine
 10
83.41833299170685
 20
135.9809669136005
 30
0.0
 11
83.41833299170685
 21
135.9809669136005
 31
0.0
  0
LINE
  5
C7A
330
18
100
AcDbEntity
  8
文字
100
AcDbLine
 10
83.73583299170688
 20
135.9809669136005
 30
0.0
 11
83.73583299170688
 21
135.9809669136005
 31
0.0
  0
LINE
  5
C7B
330
18
100
AcDbEntity
  8
文字
100
AcDbLine
 10
84.05333299170687
 20
135.9809669136005
 30
0.0
 11
84.05333299170687
 21
135.9809669136005
 31
0.0
  0
LINE
  5
C7C
330
18
100
AcDbEntity
  8
文字
100
AcDbLine
 10
84.37083299170685
 20
135.9809669136005
 30
0.0
 11
84.37083299170685
 21
135.9809669136005
 31
0.0
  0
LINE
  5
C7D
330
18
100
AcDbEntity
  8
文字
100
AcDbLine
 10
84.68833299170688
 20
135.9809669136005
 30
0.0
 11
84.68833299170688
 21
135.9809669136005
 31
0.0
  0
LINE
  5
C7E
330
18
100
AcDbEntity
  8
文字
100
AcDbLine
 10
85.00583299170688
 20
135.9809669136005
 30
0.0
 11
85.00583299170688
 21
135.9809669136005
 31
0.0
  0
LINE
  5
C7F
330
18
100
AcDbEntity
  8
文字
100
AcDbLine
 10
85.32333299170687
 20
135.9809669136005
 30
0.0
 11
85.32333299170687
 21
135.9809669136005
 31
0.0
  0
LINE
  5
C80
330
18
100
AcDbEntity
  8
文字
100
AcDbLine
 10
85.64083299170688
 20
135.9809669136005
 30
0.0
 11
85.64083299170688
 21
135.9809669136005
 31
0.0
  0
LINE
  5
C81
330
18
100
AcDbEntity
  8
文字
100
AcDbLine
 10
85.95833299170687
 20
135.9809669136005
 30
0.0
 11
85.95833299170687
 21
135.9809669136005
 31
0.0
  0
LINE
  5
C82
330
18
100
AcDbEntity
  8
文字
100
AcDbLine
 10
86.27583299170689
 20
135.9809669136005
 30
0.0
 11
86.27583299170689
 21
135.9809669136005
 31
0.0
  0
LINE
  5
C83
330
18
100
AcDbEntity
  8
文字
100
AcDbLine
 10
86.59333299170688
 20
135.9809669136005
 30
0.0
 11
86.59333299170688
 21
135.9809669136005
 31
0.0
  0
LINE
  5
C84
330
18
100
AcDbEntity
  8
文字
100
AcDbLine
 10
86.91083299170689
 20
135.9809669136005
 30
0.0
 11
86.91083299170689
 21
135.9809669136005
 31
0.0
  0
LINE
  5
C85
330
18
100
AcDbEntity
  8
文字
100
AcDbLine
 10
87.22833299170691
 20
135.9809669136005
 30
0.0
 11
87.22833299170691
 21
135.9809669136005
 31
0.0
  0
LINE
  5
C86
330
18
100
AcDbEntity
  8
文字
100
AcDbLine
 10
87.5458329917069
 20
135.9809669136005
 30
0.0
 11
87.5458329917069
 21
135.9809669136005
 31
0.0
  0
LINE
  5
C87
330
18
100
AcDbEntity
  8
文字
100
AcDbLine
 10
87.8633329917069
 20
135.9809669136005
 30
0.0
 11
87.8633329917069
 21
135.9809669136005
 31
0.0
  0
LINE
  5
C88
330
18
100
AcDbEntity
  8
文字
100
AcDbLine
 10
88.18083299170689
 20
135.9809669136005
 30
0.0
 11
88.18083299170689
 21
135.9809669136005
 31
0.0
  0
LINE
  5
C89
330
18
100
AcDbEntity
  8
文字
100
AcDbLine
 10
88.49833299170688
 20
135.9809669136005
 30
0.0
 11
88.49833299170688
 21
135.9809669136005
 31
0.0
  0
LINE
  5
C8A
330
18
100
AcDbEntity
  8
文字
100
AcDbLine
 10
88.81583299170689
 20
135.9809669136005
 30
0.0
 11
88.81583299170689
 21
135.9809669136005
 31
0.0
  0
LINE
  5
C8B
330
18
100
AcDbEntity
  8
文字
100
AcDbLine
 10
89.13333299170687
 20
135.9809669136005
 30
0.0
 11
89.13333299170687
 21
135.9809669136005
 31
0.0
  0
LINE
  5
C8C
330
18
100
AcDbEntity
  8
文字
100
AcDbLine
 10
89.45083299170688
 20
135.9809669136005
 30
0.0
 11
89.45083299170688
 21
135.9809669136005
 31
0.0
  0
LINE
  5
C8D
330
18
100
AcDbEntity
  8
文字
100
AcDbLine
 10
89.76833299170687
 20
135.9809669136005
 30
0.0
 11
89.76833299170687
 21
135.9809669136005
 31
0.0
  0
LINE
  5
C8E
330
18
100
AcDbEntity
  8
文字
100
AcDbLine
 10
72.14708299170684
 20
135.6634669136005
 30
0.0
 11
72.14708299170684
 21
135.6634669136005
 31
0.0
  0
LINE
  5
C8F
330
18
100
AcDbEntity
  8
文字
100
AcDbLine
 10
72.46458299170683
 20
135.6634669136005
 30
0.0
 11
72.46458299170683
 21
135.6634669136005
 31
0.0
  0
LINE
  5
C90
330
18
100
AcDbEntity
  8
文字
100
AcDbLine
 10
72.78208299170683
 20
135.6634669136005
 30
0.0
 11
72.78208299170683
 21
135.6634669136005
 31
0.0
  0
LINE
  5
C91
330
18
100
AcDbEntity
  8
文字
100
AcDbLine
 10
73.09958299170685
 20
135.6634669136005
 30
0.0
 11
73.09958299170685
 21
135.6634669136005
 31
0.0
  0
LINE
  5
C92
330
18
100
AcDbEntity
  8
文字
100
AcDbLine
 10
88.65708299170682
 20
135.6634669136005
 30
0.0
 11
88.65708299170682
 21
135.6634669136005
 31
0.0
  0
LINE
  5
C93
330
18
100
AcDbEntity
  8
文字
100
AcDbLine
 10
88.97458299170683
 20
135.6634669136005
 30
0.0
 11
88.97458299170683
 21
135.6634669136005
 31
0.0
  0
LINE
  5
C94
330
18
100
AcDbEntity
  8
文字
100
AcDbLine
 10
89.29208299170682
 20
135.6634669136005
 30
0.0
 11
89.29208299170682
 21
135.6634669136005
 31
0.0
  0
LINE
  5
C95
330
18
100
AcDbEntity
  8
文字
100
AcDbLine
 10
89.60958299170682
 20
135.6634669136005
 30
0.0
 11
89.60958299170682
 21
135.6634669136005
 31
0.0
  0
LINE
  5
C96
330
18
100
AcDbEntity
  8
文字
100
AcDbLine
 10
71.98833299170684
 20
135.3459669136005
 30
0.0
 11
71.98833299170684
 21
135.3459669136005
 31
0.0
  0
LINE
  5
C97
330
18
100
AcDbEntity
  8
文字
100
AcDbLine
 10
72.30583299170683
 20
135.3459669136005
 30
0.0
 11
72.30583299170683
 21
135.3459669136005
 31
0.0
  0
LINE
  5
C98
330
18
100
AcDbEntity
  8
文字
100
AcDbLine
 10
72.62333299170683
 20
135.3459669136005
 30
0.0
 11
72.62333299170683
 21
135.3459669136005
 31
0.0
  0
LINE
  5
C99
330
18
100
AcDbEntity
  8
文字
100
AcDbLine
 10
72.94083299170686
 20
135.3459669136005
 30
0.0
 11
72.94083299170686
 21
135.3459669136005
 31
0.0
  0
LINE
  5
C9A
330
18
100
AcDbEntity
  8
文字
100
AcDbLine
 10
88.49833299170683
 20
135.3459669136005
 30
0.0
 11
88.49833299170683
 21
135.3459669136005
 31
0.0
  0
LINE
  5
C9B
330
18
100
AcDbEntity
  8
文字
100
AcDbLine
 10
88.81583299170683
 20
135.3459669136005
 30
0.0
 11
88.81583299170683
 21
135.3459669136005
 31
0.0
  0
LINE
  5
C9C
330
18
100
AcDbEntity
  8
文字
100
AcDbLine
 10
89.13333299170682
 20
135.3459669136005
 30
0.0
 11
89.13333299170682
 21
135.3459669136005
 31
0.0
  0
LINE
  5
C9D
330
18
100
AcDbEntity
  8
文字
100
AcDbLine
 10
89.45083299170681
 20
135.3459669136005
 30
0.0
 11
89.45083299170681
 21
135.3459669136005
 31
0.0
  0
LINE
  5
C9E
330
18
100
AcDbEntity
  8
文字
100
AcDbLine
 10
89.76833299170682
 20
135.3459669136005
 30
0.0
 11
89.76833299170682
 21
135.3459669136005
 31
0.0
  0
LINE
  5
C9F
330
18
100
AcDbEntity
  8
文字
100
AcDbLine
 10
72.14708299170684
 20
135.0284669136005
 30
0.0
 11
72.14708299170684
 21
135.0284669136005
 31
0.0
  0
LINE
  5
CA0
330
18
100
AcDbEntity
  8
文字
100
AcDbLine
 10
72.46458299170683
 20
135.0284669136005
 30
0.0
 11
72.46458299170683
 21
135.0284669136005
 31
0.0
  0
LINE
  5
CA1
330
18
100
AcDbEntity
  8
文字
100
AcDbLine
 10
72.78208299170685
 20
135.0284669136005
 30
0.0
 11
72.78208299170685
 21
135.0284669136005
 31
0.0
  0
LINE
  5
CA2
330
18
100
AcDbEntity
  8
文字
100
AcDbLine
 10
73.09958299170685
 20
135.0284669136005
 30
0.0
 11
73.09958299170685
 21
135.0284669136005
 31
0.0
  0
LINE
  5
CA3
330
18
100
AcDbEntity
  8
文字
100
AcDbLine
 10
88.65708299170682
 20
135.0284669136005
 30
0.0
 11
88.65708299170682
 21
135.0284669136005
 31
0.0
  0
LINE
  5
CA4
330
18
100
AcDbEntity
  8
文字
100
AcDbLine
 10
88.97458299170683
 20
135.0284669136005
 30
0.0
 11
88.97458299170683
 21
135.0284669136005
 31
0.0
  0
LINE
  5
CA5
330
18
100
AcDbEntity
  8
文字
100
AcDbLine
 10
89.29208299170682
 20
135.0284669136005
 30
0.0
 11
89.29208299170682
 21
135.0284669136005
 31
0.0
  0
LINE
  5
CA6
330
18
100
AcDbEntity
  8
文字
100
AcDbLine
 10
89.60958299170682
 20
135.0284669136005
 30
0.0
 11
89.60958299170682
 21
135.0284669136005
 31
0.0
  0
LINE
  5
CA7
330
18
100
AcDbEntity
  8
文字
100
AcDbLine
 10
71.98833299170684
 20
134.7109669136006
 30
0.0
 11
71.98833299170684
 21
134.7109669136006
 31
0.0
  0
LINE
  5
CA8
330
18
100
AcDbEntity
  8
文字
100
AcDbLine
 10
72.30583299170683
 20
134.7109669136006
 30
0.0
 11
72.30583299170683
 21
134.7109669136006
 31
0.0
  0
LINE
  5
CA9
330
18
100
AcDbEntity
  8
文字
100
AcDbLine
 10
72.62333299170686
 20
134.7109669136006
 30
0.0
 11
72.62333299170686
 21
134.7109669136006
 31
0.0
  0
LINE
  5
CAA
330
18
100
AcDbEntity
  8
文字
100
AcDbLine
 10
72.94083299170686
 20
134.7109669136006
 30
0.0
 11
72.94083299170686
 21
134.7109669136006
 31
0.0
  0
LINE
  5
CAB
330
18
100
AcDbEntity
  8
文字
100
AcDbLine
 10
88.49833299170683
 20
134.7109669136006
 30
0.0
 11
88.49833299170683
 21
134.7109669136006
 31
0.0
  0
LINE
  5
CAC
330
18
100
AcDbEntity
  8
文字
100
AcDbLine
 10
88.81583299170683
 20
134.7109669136006
 30
0.0
 11
88.81583299170683
 21
134.7109669136006
 31
0.0
  0
LINE
  5
CAD
330
18
100
AcDbEntity
  8
文字
100
AcDbLine
 10
89.13333299170682
 20
134.7109669136006
 30
0.0
 11
89.13333299170682
 21
134.7109669136006
 31
0.0
  0
LINE
  5
CAE
330
18
100
AcDbEntity
  8
文字
100
AcDbLine
 10
89.45083299170681
 20
134.7109669136006
 30
0.0
 11
89.45083299170681
 21
134.7109669136006
 31
0.0
  0
LINE
  5
CAF
330
18
100
AcDbEntity
  8
文字
100
AcDbLine
 10
89.76833299170682
 20
134.7109669136006
 30
0.0
 11
89.76833299170682
 21
134.7109669136006
 31
0.0
  0
LINE
  5
CB0
330
18
100
AcDbEntity
  8
文字
100
AcDbLine
 10
72.14708299170684
 20
134.3934669136006
 30
0.0
 11
72.14708299170684
 21
134.3934669136006
 31
0.0
  0
LINE
  5
CB1
330
18
100
AcDbEntity
  8
文字
100
AcDbLine
 10
72.46458299170686
 20
134.3934669136006
 30
0.0
 11
72.46458299170686
 21
134.3934669136006
 31
0.0
  0
LINE
  5
CB2
330
18
100
AcDbEntity
  8
文字
100
AcDbLine
 10
72.78208299170685
 20
134.3934669136006
 30
0.0
 11
72.78208299170685
 21
134.3934669136006
 31
0.0
  0
LINE
  5
CB3
330
18
100
AcDbEntity
  8
文字
100
AcDbLine
 10
73.09958299170685
 20
134.3934669136006
 30
0.0
 11
73.09958299170685
 21
134.3934669136006
 31
0.0
  0
LINE
  5
CB4
330
18
100
AcDbEntity
  8
文字
100
AcDbLine
 10
88.65708299170682
 20
134.3934669136006
 30
0.0
 11
88.65708299170682
 21
134.3934669136006
 31
0.0
  0
LINE
  5
CB5
330
18
100
AcDbEntity
  8
文字
100
AcDbLine
 10
88.97458299170683
 20
134.3934669136006
 30
0.0
 11
88.97458299170683
 21
134.3934669136006
 31
0.0
  0
LINE
  5
CB6
330
18
100
AcDbEntity
  8
文字
100
AcDbLine
 10
89.29208299170682
 20
134.3934669136006
 30
0.0
 11
89.29208299170682
 21
134.3934669136006
 31
0.0
  0
LINE
  5
CB7
330
18
100
AcDbEntity
  8
文字
100
AcDbLine
 10
89.60958299170682
 20
134.3934669136006
 30
0.0
 11
89.60958299170682
 21
134.3934669136006
 31
0.0
  0
LINE
  5
CB8
330
18
100
AcDbEntity
  8
文字
100
AcDbLine
 10
71.98833299170684
 20
134.0759669136005
 30
0.0
 11
71.98833299170684
 21
134.0759669136005
 31
0.0
  0
LINE
  5
CB9
330
18
100
AcDbEntity
  8
文字
100
AcDbLine
 10
72.30583299170683
 20
134.0759669136005
 30
0.0
 11
72.30583299170683
 21
134.0759669136005
 31
0.0
  0
LINE
  5
CBA
330
18
100
AcDbEntity
  8
文字
100
AcDbLine
 10
72.62333299170683
 20
134.0759669136005
 30
0.0
 11
72.62333299170683
 21
134.0759669136005
 31
0.0
  0
LINE
  5
CBB
330
18
100
AcDbEntity
  8
文字
100
AcDbLine
 10
72.94083299170686
 20
134.0759669136005
 30
0.0
 11
72.94083299170686
 21
134.0759669136005
 31
0.0
  0
LINE
  5
CBC
330
18
100
AcDbEntity
  8
文字
100
AcDbLine
 10
88.49833299170683
 20
134.0759669136005
 30
0.0
 11
88.49833299170683
 21
134.0759669136005
 31
0.0
  0
LINE
  5
CBD
330
18
100
AcDbEntity
  8
文字
100
AcDbLine
 10
88.81583299170683
 20
134.0759669136005
 30
0.0
 11
88.81583299170683
 21
134.0759669136005
 31
0.0
  0
LINE
  5
CBE
330
18
100
AcDbEntity
  8
文字
100
AcDbLine
 10
89.13333299170682
 20
134.0759669136005
 30
0.0
 11
89.13333299170682
 21
134.0759669136005
 31
0.0
  0
LINE
  5
CBF
330
18
100
AcDbEntity
  8
文字
100
AcDbLine
 10
89.45083299170681
 20
134.0759669136005
 30
0.0
 11
89.45083299170681
 21
134.0759669136005
 31
0.0
  0
LINE
  5
CC0
330
18
100
AcDbEntity
  8
文字
100
AcDbLine
 10
89.76833299170682
 20
134.0759669136005
 30
0.0
 11
89.76833299170682
 21
134.0759669136005
 31
0.0
  0
LINE
  5
CC1
330
18
100
AcDbEntity
  8
文字
100
AcDbLine
 10
72.14708299170684
 20
133.7584669136005
 30
0.0
 11
72.14708299170684
 21
133.7584669136005
 31
0.0
  0
LINE
  5
CC2
330
18
100
AcDbEntity
  8
文字
100
AcDbLine
 10
72.46458299170683
 20
133.7584669136005
 30
0.0
 11
72.46458299170683
 21
133.7584669136005
 31
0.0
  0
LINE
  5
CC3
330
18
100
AcDbEntity
  8
文字
100
AcDbLine
 10
72.78208299170683
 20
133.7584669136005
 30
0.0
 11
72.78208299170683
 21
133.7584669136005
 31
0.0
  0
LINE
  5
CC4
330
18
100
AcDbEntity
  8
文字
100
AcDbLine
 10
73.09958299170685
 20
133.7584669136005
 30
0.0
 11
73.09958299170685
 21
133.7584669136005
 31
0.0
  0
LINE
  5
CC5
330
18
100
AcDbEntity
  8
文字
100
AcDbLine
 10
88.65708299170682
 20
133.7584669136005
 30
0.0
 11
88.65708299170682
 21
133.7584669136005
 31
0.0
  0
LINE
  5
CC6
330
18
100
AcDbEntity
  8
文字
100
AcDbLine
 10
88.97458299170683
 20
133.7584669136005
 30
0.0
 11
88.97458299170683
 21
133.7584669136005
 31
0.0
  0
LINE
  5
CC7
330
18
100
AcDbEntity
  8
文字
100
AcDbLine
 10
89.29208299170682
 20
133.7584669136005
 30
0.0
 11
89.29208299170682
 21
133.7584669136005
 31
0.0
  0
LINE
  5
CC8
330
18
100
AcDbEntity
  8
文字
100
AcDbLine
 10
89.60958299170682
 20
133.7584669136005
 30
0.0
 11
89.60958299170682
 21
133.7584669136005
 31
0.0
  0
LINE
  5
CC9
330
18
100
AcDbEntity
  8
文字
100
AcDbLine
 10
71.98833299170684
 20
133.4409669136005
 30
0.0
 11
71.98833299170684
 21
133.4409669136005
 31
0.0
  0
LINE
  5
CCA
330
18
100
AcDbEntity
  8
文字
100
AcDbLine
 10
72.30583299170683
 20
133.4409669136005
 30
0.0
 11
72.30583299170683
 21
133.4409669136005
 31
0.0
  0
LINE
  5
CCB
330
18
100
AcDbEntity
  8
文字
100
AcDbLine
 10
72.62333299170683
 20
133.4409669136005
 30
0.0
 11
72.62333299170683
 21
133.4409669136005
 31
0.0
  0
LINE
  5
CCC
330
18
100
AcDbEntity
  8
文字
100
AcDbLine
 10
72.94083299170686
 20
133.4409669136005
 30
0.0
 11
72.94083299170686
 21
133.4409669136005
 31
0.0
  0
LINE
  5
CCD
330
18
100
AcDbEntity
  8
文字
100
AcDbLine
 10
88.49833299170683
 20
133.4409669136005
 30
0.0
 11
88.49833299170683
 21
133.4409669136005
 31
0.0
  0
LINE
  5
CCE
330
18
100
AcDbEntity
  8
文字
100
AcDbLine
 10
88.81583299170683
 20
133.4409669136005
 30
0.0
 11
88.81583299170683
 21
133.4409669136005
 31
0.0
  0
LINE
  5
CCF
330
18
100
AcDbEntity
  8
文字
100
AcDbLine
 10
89.13333299170682
 20
133.4409669136005
 30
0.0
 11
89.13333299170682
 21
133.4409669136005
 31
0.0
  0
LINE
  5
CD0
330
18
100
AcDbEntity
  8
文字
100
AcDbLine
 10
89.45083299170681
 20
133.4409669136005
 30
0.0
 11
89.45083299170681
 21
133.4409669136005
 31
0.0
  0
LINE
  5
CD1
330
18
100
AcDbEntity
  8
文字
100
AcDbLine
 10
89.76833299170682
 20
133.4409669136005
 30
0.0
 11
89.76833299170682
 21
133.4409669136005
 31
0.0
  0
LINE
  5
CD2
330
18
100
AcDbEntity
  8
文字
100
AcDbLine
 10
72.14708299170684
 20
133.1234669136005
 30
0.0
 11
72.14708299170684
 21
133.1234669136005
 31
0.0
  0
LINE
  5
CD3
330
18
100
AcDbEntity
  8
文字
100
AcDbLine
 10
72.46458299170683
 20
133.1234669136005
 30
0.0
 11
72.46458299170683
 21
133.1234669136005
 31
0.0
  0
LINE
  5
CD4
330
18
100
AcDbEntity
  8
文字
100
AcDbLine
 10
72.78208299170685
 20
133.1234669136005
 30
0.0
 11
72.78208299170685
 21
133.1234669136005
 31
0.0
  0
LINE
  5
CD5
330
18
100
AcDbEntity
  8
文字
100
AcDbLine
 10
73.09958299170685
 20
133.1234669136005
 30
0.0
 11
73.09958299170685
 21
133.1234669136005
 31
0.0
  0
LINE
  5
CD6
330
18
100
AcDbEntity
  8
文字
100
AcDbLine
 10
73.41708299170685
 20
133.1234669136005
 30
0.0
 11
73.41708299170685
 21
133.1234669136005
 31
0.0
  0
LINE
  5
CD7
330
18
100
AcDbEntity
  8
文字
100
AcDbLine
 10
73.73458299170687
 20
133.1234669136005
 30
0.0
 11
73.73458299170687
 21
133.1234669136005
 31
0.0
  0
LINE
  5
CD8
330
18
100
AcDbEntity
  8
文字
100
AcDbLine
 10
74.05208299170687
 20
133.1234669136005
 30
0.0
 11
74.05208299170687
 21
133.1234669136005
 31
0.0
  0
LINE
  5
CD9
330
18
100
AcDbEntity
  8
文字
100
AcDbLine
 10
74.36958299170687
 20
133.1234669136005
 30
0.0
 11
74.36958299170687
 21
133.1234669136005
 31
0.0
  0
LINE
  5
CDA
330
18
100
AcDbEntity
  8
文字
100
AcDbLine
 10
74.68708299170685
 20
133.1234669136005
 30
0.0
 11
74.68708299170685
 21
133.1234669136005
 31
0.0
  0
LINE
  5
CDB
330
18
100
AcDbEntity
  8
文字
100
AcDbLine
 10
75.00458299170685
 20
133.1234669136005
 30
0.0
 11
75.00458299170685
 21
133.1234669136005
 31
0.0
  0
LINE
  5
CDC
330
18
100
AcDbEntity
  8
文字
100
AcDbLine
 10
75.32208299170688
 20
133.1234669136005
 30
0.0
 11
75.32208299170688
 21
133.1234669136005
 31
0.0
  0
LINE
  5
CDD
330
18
100
AcDbEntity
  8
文字
100
AcDbLine
 10
75.63958299170687
 20
133.1234669136005
 30
0.0
 11
75.63958299170687
 21
133.1234669136005
 31
0.0
  0
LINE
  5
CDE
330
18
100
AcDbEntity
  8
文字
100
AcDbLine
 10
75.95708299170687
 20
133.1234669136005
 30
0.0
 11
75.95708299170687
 21
133.1234669136005
 31
0.0
  0
LINE
  5
CDF
330
18
100
AcDbEntity
  8
文字
100
AcDbLine
 10
76.27458299170689
 20
133.1234669136005
 30
0.0
 11
76.27458299170689
 21
133.1234669136005
 31
0.0
  0
LINE
  5
CE0
330
18
100
AcDbEntity
  8
文字
100
AcDbLine
 10
76.59208299170689
 20
133.1234669136005
 30
0.0
 11
76.59208299170689
 21
133.1234669136005
 31
0.0
  0
LINE
  5
CE1
330
18
100
AcDbEntity
  8
文字
100
AcDbLine
 10
76.90958299170688
 20
133.1234669136005
 30
0.0
 11
76.90958299170688
 21
133.1234669136005
 31
0.0
  0
LINE
  5
CE2
330
18
100
AcDbEntity
  8
文字
100
AcDbLine
 10
77.22708299170688
 20
133.1234669136005
 30
0.0
 11
77.22708299170688
 21
133.1234669136005
 31
0.0
  0
LINE
  5
CE3
330
18
100
AcDbEntity
  8
文字
100
AcDbLine
 10
77.54458299170687
 20
133.1234669136005
 30
0.0
 11
77.54458299170687
 21
133.1234669136005
 31
0.0
  0
LINE
  5
CE4
330
18
100
AcDbEntity
  8
文字
100
AcDbLine
 10
77.8620829917069
 20
133.1234669136005
 30
0.0
 11
77.8620829917069
 21
133.1234669136005
 31
0.0
  0
LINE
  5
CE5
330
18
100
AcDbEntity
  8
文字
100
AcDbLine
 10
78.17958299170689
 20
133.1234669136005
 30
0.0
 11
78.17958299170689
 21
133.1234669136005
 31
0.0
  0
LINE
  5
CE6
330
18
100
AcDbEntity
  8
文字
100
AcDbLine
 10
78.49708299170689
 20
133.1234669136005
 30
0.0
 11
78.49708299170689
 21
133.1234669136005
 31
0.0
  0
LINE
  5
CE7
330
18
100
AcDbEntity
  8
文字
100
AcDbLine
 10
78.81458299170692
 20
133.1234669136005
 30
0.0
 11
78.81458299170692
 21
133.1234669136005
 31
0.0
  0
LINE
  5
CE8
330
18
100
AcDbEntity
  8
文字
100
AcDbLine
 10
79.1320829917069
 20
133.1234669136005
 30
0.0
 11
79.1320829917069
 21
133.1234669136005
 31
0.0
  0
LINE
  5
CE9
330
18
100
AcDbEntity
  8
文字
100
AcDbLine
 10
79.4495829917069
 20
133.1234669136005
 30
0.0
 11
79.4495829917069
 21
133.1234669136005
 31
0.0
  0
LINE
  5
CEA
330
18
100
AcDbEntity
  8
文字
100
AcDbLine
 10
79.7670829917069
 20
133.1234669136005
 30
0.0
 11
79.7670829917069
 21
133.1234669136005
 31
0.0
  0
LINE
  5
CEB
330
18
100
AcDbEntity
  8
文字
100
AcDbLine
 10
80.08458299170689
 20
133.1234669136005
 30
0.0
 11
80.08458299170689
 21
133.1234669136005
 31
0.0
  0
LINE
  5
CEC
330
18
100
AcDbEntity
  8
文字
100
AcDbLine
 10
80.40208299170691
 20
133.1234669136005
 30
0.0
 11
80.40208299170691
 21
133.1234669136005
 31
0.0
  0
LINE
  5
CED
330
18
100
AcDbEntity
  8
文字
100
AcDbLine
 10
80.71958299170692
 20
133.1234669136005
 30
0.0
 11
80.71958299170692
 21
133.1234669136005
 31
0.0
  0
LINE
  5
CEE
330
18
100
AcDbEntity
  8
文字
100
AcDbLine
 10
81.03708299170685
 20
133.1234669136005
 30
0.0
 11
81.03708299170685
 21
133.1234669136005
 31
0.0
  0
LINE
  5
CEF
330
18
100
AcDbEntity
  8
文字
100
AcDbLine
 10
81.35458299170684
 20
133.1234669136005
 30
0.0
 11
81.35458299170684
 21
133.1234669136005
 31
0.0
  0
LINE
  5
CF0
330
18
100
AcDbEntity
  8
文字
100
AcDbLine
 10
81.67208299170685
 20
133.1234669136005
 30
0.0
 11
81.67208299170685
 21
133.1234669136005
 31
0.0
  0
LINE
  5
CF1
330
18
100
AcDbEntity
  8
文字
100
AcDbLine
 10
81.98958299170687
 20
133.1234669136005
 30
0.0
 11
81.98958299170687
 21
133.1234669136005
 31
0.0
  0
LINE
  5
CF2
330
18
100
AcDbEntity
  8
文字
100
AcDbLine
 10
82.30708299170686
 20
133.1234669136005
 30
0.0
 11
82.30708299170686
 21
133.1234669136005
 31
0.0
  0
LINE
  5
CF3
330
18
100
AcDbEntity
  8
文字
100
AcDbLine
 10
82.62458299170686
 20
133.1234669136005
 30
0.0
 11
82.62458299170686
 21
133.1234669136005
 31
0.0
  0
LINE
  5
CF4
330
18
100
AcDbEntity
  8
文字
100
AcDbLine
 10
82.94208299170685
 20
133.1234669136005
 30
0.0
 11
82.94208299170685
 21
133.1234669136005
 31
0.0
  0
LINE
  5
CF5
330
18
100
AcDbEntity
  8
文字
100
AcDbLine
 10
83.25958299170684
 20
133.1234669136005
 30
0.0
 11
83.25958299170684
 21
133.1234669136005
 31
0.0
  0
LINE
  5
CF6
330
18
100
AcDbEntity
  8
文字
100
AcDbLine
 10
83.57708299170687
 20
133.1234669136005
 30
0.0
 11
83.57708299170687
 21
133.1234669136005
 31
0.0
  0
LINE
  5
CF7
330
18
100
AcDbEntity
  8
文字
100
AcDbLine
 10
83.89458299170687
 20
133.1234669136005
 30
0.0
 11
83.89458299170687
 21
133.1234669136005
 31
0.0
  0
LINE
  5
CF8
330
18
100
AcDbEntity
  8
文字
100
AcDbLine
 10
84.21208299170686
 20
133.1234669136005
 30
0.0
 11
84.21208299170686
 21
133.1234669136005
 31
0.0
  0
LINE
  5
CF9
330
18
100
AcDbEntity
  8
文字
100
AcDbLine
 10
84.52958299170688
 20
133.1234669136005
 30
0.0
 11
84.52958299170688
 21
133.1234669136005
 31
0.0
  0
LINE
  5
CFA
330
18
100
AcDbEntity
  8
文字
100
AcDbLine
 10
84.84708299170689
 20
133.1234669136005
 30
0.0
 11
84.84708299170689
 21
133.1234669136005
 31
0.0
  0
LINE
  5
CFB
330
18
100
AcDbEntity
  8
文字
100
AcDbLine
 10
85.16458299170688
 20
133.1234669136005
 30
0.0
 11
85.16458299170688
 21
133.1234669136005
 31
0.0
  0
LINE
  5
CFC
330
18
100
AcDbEntity
  8
文字
100
AcDbLine
 10
85.48208299170687
 20
133.1234669136005
 30
0.0
 11
85.48208299170687
 21
133.1234669136005
 31
0.0
  0
LINE
  5
CFD
330
18
100
AcDbEntity
  8
文字
100
AcDbLine
 10
85.79958299170687
 20
133.1234669136005
 30
0.0
 11
85.79958299170687
 21
133.1234669136005
 31
0.0
  0
LINE
  5
CFE
330
18
100
AcDbEntity
  8
文字
100
AcDbLine
 10
86.1170829917069
 20
133.1234669136005
 30
0.0
 11
86.1170829917069
 21
133.1234669136005
 31
0.0
  0
LINE
  5
CFF
330
18
100
AcDbEntity
  8
文字
100
AcDbLine
 10
86.43458299170688
 20
133.1234669136005
 30
0.0
 11
86.43458299170688
 21
133.1234669136005
 31
0.0
  0
LINE
  5
D00
330
18
100
AcDbEntity
  8
文字
100
AcDbLine
 10
86.75208299170689
 20
133.1234669136005
 30
0.0
 11
86.75208299170689
 21
133.1234669136005
 31
0.0
  0
LINE
  5
D01
330
18
100
AcDbEntity
  8
文字
100
AcDbLine
 10
87.06958299170691
 20
133.1234669136005
 30
0.0
 11
87.06958299170691
 21
133.1234669136005
 31
0.0
  0
LINE
  5
D02
330
18
100
AcDbEntity
  8
文字
100
AcDbLine
 10
87.3870829917069
 20
133.1234669136005
 30
0.0
 11
87.3870829917069
 21
133.1234669136005
 31
0.0
  0
LINE
  5
D03
330
18
100
AcDbEntity
  8
文字
100
AcDbLine
 10
87.70458299170689
 20
133.1234669136005
 30
0.0
 11
87.70458299170689
 21
133.1234669136005
 31
0.0
  0
LINE
  5
D04
330
18
100
AcDbEntity
  8
文字
100
AcDbLine
 10
88.0220829917069
 20
133.1234669136005
 30
0.0
 11
88.0220829917069
 21
133.1234669136005
 31
0.0
  0
LINE
  5
D05
330
18
100
AcDbEntity
  8
文字
100
AcDbLine
 10
88.33958299170689
 20
133.1234669136005
 30
0.0
 11
88.33958299170689
 21
133.1234669136005
 31
0.0
  0
LINE
  5
D06
330
18
100
AcDbEntity
  8
文字
100
AcDbLine
 10
88.65708299170689
 20
133.1234669136005
 30
0.0
 11
88.65708299170689
 21
133.1234669136005
 31
0.0
  0
LINE
  5
D07
330
18
100
AcDbEntity
  8
文字
100
AcDbLine
 10
88.97458299170688
 20
133.1234669136005
 30
0.0
 11
88.97458299170688
 21
133.1234669136005
 31
0.0
  0
LINE
  5
D08
330
18
100
AcDbEntity
  8
文字
100
AcDbLine
 10
89.29208299170687
 20
133.1234669136005
 30
0.0
 11
89.29208299170687
 21
133.1234669136005
 31
0.0
  0
LINE
  5
D09
330
18
100
AcDbEntity
  8
文字
100
AcDbLine
 10
89.60958299170687
 20
133.1234669136005
 30
0.0
 11
89.60958299170687
 21
133.1234669136005
 31
0.0
  0
LINE
  5
D0A
330
18
100
AcDbEntity
  8
文字
100
AcDbLine
 10
71.98833299170684
 20
132.8059669136006
 30
0.0
 11
71.98833299170684
 21
132.8059669136006
 31
0.0
  0
LINE
  5
D0B
330
18
100
AcDbEntity
  8
文字
100
AcDbLine
 10
72.30583299170683
 20
132.8059669136006
 30
0.0
 11
72.30583299170683
 21
132.8059669136006
 31
0.0
  0
LINE
  5
D0C
330
18
100
AcDbEntity
  8
文字
100
AcDbLine
 10
72.62333299170686
 20
132.8059669136006
 30
0.0
 11
72.62333299170686
 21
132.8059669136006
 31
0.0
  0
LINE
  5
D0D
330
18
100
AcDbEntity
  8
文字
100
AcDbLine
 10
72.94083299170686
 20
132.8059669136006
 30
0.0
 11
72.94083299170686
 21
132.8059669136006
 31
0.0
  0
LINE
  5
D0E
330
18
100
AcDbEntity
  8
文字
100
AcDbLine
 10
73.25833299170685
 20
132.8059669136006
 30
0.0
 11
73.25833299170685
 21
132.8059669136006
 31
0.0
  0
LINE
  5
D0F
330
18
100
AcDbEntity
  8
文字
100
AcDbLine
 10
73.57583299170688
 20
132.8059669136006
 30
0.0
 11
73.57583299170688
 21
132.8059669136006
 31
0.0
  0
LINE
  5
D10
330
18
100
AcDbEntity
  8
文字
100
AcDbLine
 10
73.89333299170687
 20
132.8059669136006
 30
0.0
 11
73.89333299170687
 21
132.8059669136006
 31
0.0
  0
LINE
  5
D11
330
18
100
AcDbEntity
  8
文字
100
AcDbLine
 10
74.21083299170686
 20
132.8059669136006
 30
0.0
 11
74.21083299170686
 21
132.8059669136006
 31
0.0
  0
LINE
  5
D12
330
18
100
AcDbEntity
  8
文字
100
AcDbLine
 10
74.52833299170686
 20
132.8059669136006
 30
0.0
 11
74.52833299170686
 21
132.8059669136006
 31
0.0
  0
LINE
  5
D13
330
18
100
AcDbEntity
  8
文字
100
AcDbLine
 10
74.84583299170686
 20
132.8059669136006
 30
0.0
 11
74.84583299170686
 21
132.8059669136006
 31
0.0
  0
LINE
  5
D14
330
18
100
AcDbEntity
  8
文字
100
AcDbLine
 10
75.16333299170688
 20
132.8059669136006
 30
0.0
 11
75.16333299170688
 21
132.8059669136006
 31
0.0
  0
LINE
  5
D15
330
18
100
AcDbEntity
  8
文字
100
AcDbLine
 10
75.48083299170688
 20
132.8059669136006
 30
0.0
 11
75.48083299170688
 21
132.8059669136006
 31
0.0
  0
LINE
  5
D16
330
18
100
AcDbEntity
  8
文字
100
AcDbLine
 10
75.79833299170687
 20
132.8059669136006
 30
0.0
 11
75.79833299170687
 21
132.8059669136006
 31
0.0
  0
LINE
  5
D17
330
18
100
AcDbEntity
  8
文字
100
AcDbLine
 10
76.11583299170689
 20
132.8059669136006
 30
0.0
 11
76.11583299170689
 21
132.8059669136006
 31
0.0
  0
LINE
  5
D18
330
18
100
AcDbEntity
  8
文字
100
AcDbLine
 10
76.43333299170689
 20
132.8059669136006
 30
0.0
 11
76.43333299170689
 21
132.8059669136006
 31
0.0
  0
LINE
  5
D19
330
18
100
AcDbEntity
  8
文字
100
AcDbLine
 10
76.75083299170688
 20
132.8059669136006
 30
0.0
 11
76.75083299170688
 21
132.8059669136006
 31
0.0
  0
LINE
  5
D1A
330
18
100
AcDbEntity
  8
文字
100
AcDbLine
 10
77.06833299170688
 20
132.8059669136006
 30
0.0
 11
77.06833299170688
 21
132.8059669136006
 31
0.0
  0
LINE
  5
D1B
330
18
100
AcDbEntity
  8
文字
100
AcDbLine
 10
77.38583299170688
 20
132.8059669136006
 30
0.0
 11
77.38583299170688
 21
132.8059669136006
 31
0.0
  0
LINE
  5
D1C
330
18
100
AcDbEntity
  8
文字
100
AcDbLine
 10
77.7033329917069
 20
132.8059669136006
 30
0.0
 11
77.7033329917069
 21
132.8059669136006
 31
0.0
  0
LINE
  5
D1D
330
18
100
AcDbEntity
  8
文字
100
AcDbLine
 10
78.02083299170689
 20
132.8059669136006
 30
0.0
 11
78.02083299170689
 21
132.8059669136006
 31
0.0
  0
LINE
  5
D1E
330
18
100
AcDbEntity
  8
文字
100
AcDbLine
 10
78.33833299170689
 20
132.8059669136006
 30
0.0
 11
78.33833299170689
 21
132.8059669136006
 31
0.0
  0
LINE
  5
D1F
330
18
100
AcDbEntity
  8
文字
100
AcDbLine
 10
78.65583299170691
 20
132.8059669136006
 30
0.0
 11
78.65583299170691
 21
132.8059669136006
 31
0.0
  0
LINE
  5
D20
330
18
100
AcDbEntity
  8
文字
100
AcDbLine
 10
78.97333299170691
 20
132.8059669136006
 30
0.0
 11
78.97333299170691
 21
132.8059669136006
 31
0.0
  0
LINE
  5
D21
330
18
100
AcDbEntity
  8
文字
100
AcDbLine
 10
79.29083299170691
 20
132.8059669136006
 30
0.0
 11
79.29083299170691
 21
132.8059669136006
 31
0.0
  0
LINE
  5
D22
330
18
100
AcDbEntity
  8
文字
100
AcDbLine
 10
79.6083329917069
 20
132.8059669136006
 30
0.0
 11
79.6083329917069
 21
132.8059669136006
 31
0.0
  0
LINE
  5
D23
330
18
100
AcDbEntity
  8
文字
100
AcDbLine
 10
79.92583299170689
 20
132.8059669136006
 30
0.0
 11
79.92583299170689
 21
132.8059669136006
 31
0.0
  0
LINE
  5
D24
330
18
100
AcDbEntity
  8
文字
100
AcDbLine
 10
80.24333299170692
 20
132.8059669136006
 30
0.0
 11
80.24333299170692
 21
132.8059669136006
 31
0.0
  0
LINE
  5
D25
330
18
100
AcDbEntity
  8
文字
100
AcDbLine
 10
80.56083299170692
 20
132.8059669136006
 30
0.0
 11
80.56083299170692
 21
132.8059669136006
 31
0.0
  0
LINE
  5
D26
330
18
100
AcDbEntity
  8
文字
100
AcDbLine
 10
80.87833299170686
 20
132.8059669136006
 30
0.0
 11
80.87833299170686
 21
132.8059669136006
 31
0.0
  0
LINE
  5
D27
330
18
100
AcDbEntity
  8
文字
100
AcDbLine
 10
81.19583299170685
 20
132.8059669136006
 30
0.0
 11
81.19583299170685
 21
132.8059669136006
 31
0.0
  0
LINE
  5
D28
330
18
100
AcDbEntity
  8
文字
100
AcDbLine
 10
81.51333299170685
 20
132.8059669136006
 30
0.0
 11
81.51333299170685
 21
132.8059669136006
 31
0.0
  0
LINE
  5
D29
330
18
100
AcDbEntity
  8
文字
100
AcDbLine
 10
81.83083299170688
 20
132.8059669136006
 30
0.0
 11
81.83083299170688
 21
132.8059669136006
 31
0.0
  0
LINE
  5
D2A
330
18
100
AcDbEntity
  8
文字
100
AcDbLine
 10
82.14833299170686
 20
132.8059669136006
 30
0.0
 11
82.14833299170686
 21
132.8059669136006
 31
0.0
  0
LINE
  5
D2B
330
18
100
AcDbEntity
  8
文字
100
AcDbLine
 10
82.46583299170685
 20
132.8059669136006
 30
0.0
 11
82.46583299170685
 21
132.8059669136006
 31
0.0
  0
LINE
  5
D2C
330
18
100
AcDbEntity
  8
文字
100
AcDbLine
 10
82.78333299170686
 20
132.8059669136006
 30
0.0
 11
82.78333299170686
 21
132.8059669136006
 31
0.0
  0
LINE
  5
D2D
330
18
100
AcDbEntity
  8
文字
100
AcDbLine
 10
83.10083299170685
 20
132.8059669136006
 30
0.0
 11
83.10083299170685
 21
132.8059669136006
 31
0.0
  0
LINE
  5
D2E
330
18
100
AcDbEntity
  8
文字
100
AcDbLine
 10
83.41833299170687
 20
132.8059669136006
 30
0.0
 11
83.41833299170687
 21
132.8059669136006
 31
0.0
  0
LINE
  5
D2F
330
18
100
AcDbEntity
  8
文字
100
AcDbLine
 10
83.73583299170688
 20
132.8059669136006
 30
0.0
 11
83.73583299170688
 21
132.8059669136006
 31
0.0
  0
LINE
  5
D30
330
18
100
AcDbEntity
  8
文字
100
AcDbLine
 10
84.05333299170687
 20
132.8059669136006
 30
0.0
 11
84.05333299170687
 21
132.8059669136006
 31
0.0
  0
LINE
  5
D31
330
18
100
AcDbEntity
  8
文字
100
AcDbLine
 10
84.37083299170689
 20
132.8059669136006
 30
0.0
 11
84.37083299170689
 21
132.8059669136006
 31
0.0
  0
LINE
  5
D32
330
18
100
AcDbEntity
  8
文字
100
AcDbLine
 10
84.68833299170688
 20
132.8059669136006
 30
0.0
 11
84.68833299170688
 21
132.8059669136006
 31
0.0
  0
LINE
  5
D33
330
18
100
AcDbEntity
  8
文字
100
AcDbLine
 10
85.00583299170688
 20
132.8059669136006
 30
0.0
 11
85.00583299170688
 21
132.8059669136006
 31
0.0
  0
LINE
  5
D34
330
18
100
AcDbEntity
  8
文字
100
AcDbLine
 10
85.32333299170687
 20
132.8059669136006
 30
0.0
 11
85.32333299170687
 21
132.8059669136006
 31
0.0
  0
LINE
  5
D35
330
18
100
AcDbEntity
  8
文字
100
AcDbLine
 10
85.64083299170688
 20
132.8059669136006
 30
0.0
 11
85.64083299170688
 21
132.8059669136006
 31
0.0
  0
LINE
  5
D36
330
18
100
AcDbEntity
  8
文字
100
AcDbLine
 10
85.9583329917069
 20
132.8059669136006
 30
0.0
 11
85.9583329917069
 21
132.8059669136006
 31
0.0
  0
LINE
  5
D37
330
18
100
AcDbEntity
  8
文字
100
AcDbLine
 10
86.27583299170689
 20
132.8059669136006
 30
0.0
 11
86.27583299170689
 21
132.8059669136006
 31
0.0
  0
LINE
  5
D38
330
18
100
AcDbEntity
  8
文字
100
AcDbLine
 10
86.59333299170688
 20
132.8059669136006
 30
0.0
 11
86.59333299170688
 21
132.8059669136006
 31
0.0
  0
LINE
  5
D39
330
18
100
AcDbEntity
  8
文字
100
AcDbLine
 10
86.9108329917069
 20
132.8059669136006
 30
0.0
 11
86.9108329917069
 21
132.8059669136006
 31
0.0
  0
LINE
  5
D3A
330
18
100
AcDbEntity
  8
文字
100
AcDbLine
 10
87.22833299170691
 20
132.8059669136006
 30
0.0
 11
87.22833299170691
 21
132.8059669136006
 31
0.0
  0
LINE
  5
D3B
330
18
100
AcDbEntity
  8
文字
100
AcDbLine
 10
87.5458329917069
 20
132.8059669136006
 30
0.0
 11
87.5458329917069
 21
132.8059669136006
 31
0.0
  0
LINE
  5
D3C
330
18
100
AcDbEntity
  8
文字
100
AcDbLine
 10
87.8633329917069
 20
132.8059669136006
 30
0.0
 11
87.8633329917069
 21
132.8059669136006
 31
0.0
  0
LINE
  5
D3D
330
18
100
AcDbEntity
  8
文字
100
AcDbLine
 10
88.18083299170689
 20
132.8059669136006
 30
0.0
 11
88.18083299170689
 21
132.8059669136006
 31
0.0
  0
LINE
  5
D3E
330
18
100
AcDbEntity
  8
文字
100
AcDbLine
 10
88.49833299170688
 20
132.8059669136006
 30
0.0
 11
88.49833299170688
 21
132.8059669136006
 31
0.0
  0
LINE
  5
D3F
330
18
100
AcDbEntity
  8
文字
100
AcDbLine
 10
88.81583299170689
 20
132.8059669136006
 30
0.0
 11
88.81583299170689
 21
132.8059669136006
 31
0.0
  0
LINE
  5
D40
330
18
100
AcDbEntity
  8
文字
100
AcDbLine
 10
89.13333299170687
 20
132.8059669136006
 30
0.0
 11
89.13333299170687
 21
132.8059669136006
 31
0.0
  0
LINE
  5
D41
330
18
100
AcDbEntity
  8
文字
100
AcDbLine
 10
89.45083299170688
 20
132.8059669136006
 30
0.0
 11
89.45083299170688
 21
132.8059669136006
 31
0.0
  0
LINE
  5
D42
330
18
100
AcDbEntity
  8
文字
100
AcDbLine
 10
89.76833299170687
 20
132.8059669136006
 30
0.0
 11
89.76833299170687
 21
132.8059669136006
 31
0.0
  0
LINE
  5
D43
330
18
100
AcDbEntity
  8
文字
100
AcDbLine
 10
72.14708299170684
 20
132.4884669136006
 30
0.0
 11
72.14708299170684
 21
132.4884669136006
 31
0.0
  0
LINE
  5
D44
330
18
100
AcDbEntity
  8
文字
100
AcDbLine
 10
72.46458299170686
 20
132.4884669136006
 30
0.0
 11
72.46458299170686
 21
132.4884669136006
 31
0.0
  0
LINE
  5
D45
330
18
100
AcDbEntity
  8
文字
100
AcDbLine
 10
72.78208299170685
 20
132.4884669136006
 30
0.0
 11
72.78208299170685
 21
132.4884669136006
 31
0.0
  0
LINE
  5
D46
330
18
100
AcDbEntity
  8
文字
100
AcDbLine
 10
73.09958299170685
 20
132.4884669136006
 30
0.0
 11
73.09958299170685
 21
132.4884669136006
 31
0.0
  0
LINE
  5
D47
330
18
100
AcDbEntity
  8
文字
100
AcDbLine
 10
73.41708299170687
 20
132.4884669136006
 30
0.0
 11
73.41708299170687
 21
132.4884669136006
 31
0.0
  0
LINE
  5
D48
330
18
100
AcDbEntity
  8
文字
100
AcDbLine
 10
73.73458299170687
 20
132.4884669136006
 30
0.0
 11
73.73458299170687
 21
132.4884669136006
 31
0.0
  0
LINE
  5
D49
330
18
100
AcDbEntity
  8
文字
100
AcDbLine
 10
74.05208299170687
 20
132.4884669136006
 30
0.0
 11
74.05208299170687
 21
132.4884669136006
 31
0.0
  0
LINE
  5
D4A
330
18
100
AcDbEntity
  8
文字
100
AcDbLine
 10
74.36958299170687
 20
132.4884669136006
 30
0.0
 11
74.36958299170687
 21
132.4884669136006
 31
0.0
  0
LINE
  5
D4B
330
18
100
AcDbEntity
  8
文字
100
AcDbLine
 10
74.68708299170685
 20
132.4884669136006
 30
0.0
 11
74.68708299170685
 21
132.4884669136006
 31
0.0
  0
LINE
  5
D4C
330
18
100
AcDbEntity
  8
文字
100
AcDbLine
 10
75.00458299170688
 20
132.4884669136006
 30
0.0
 11
75.00458299170688
 21
132.4884669136006
 31
0.0
  0
LINE
  5
D4D
330
18
100
AcDbEntity
  8
文字
100
AcDbLine
 10
75.32208299170688
 20
132.4884669136006
 30
0.0
 11
75.32208299170688
 21
132.4884669136006
 31
0.0
  0
LINE
  5
D4E
330
18
100
AcDbEntity
  8
文字
100
AcDbLine
 10
75.63958299170687
 20
132.4884669136006
 30
0.0
 11
75.63958299170687
 21
132.4884669136006
 31
0.0
  0
LINE
  5
D4F
330
18
100
AcDbEntity
  8
文字
100
AcDbLine
 10
75.9570829917069
 20
132.4884669136006
 30
0.0
 11
75.9570829917069
 21
132.4884669136006
 31
0.0
  0
LINE
  5
D50
330
18
100
AcDbEntity
  8
文字
100
AcDbLine
 10
76.27458299170689
 20
132.4884669136006
 30
0.0
 11
76.27458299170689
 21
132.4884669136006
 31
0.0
  0
LINE
  5
D51
330
18
100
AcDbEntity
  8
文字
100
AcDbLine
 10
76.59208299170689
 20
132.4884669136006
 30
0.0
 11
76.59208299170689
 21
132.4884669136006
 31
0.0
  0
LINE
  5
D52
330
18
100
AcDbEntity
  8
文字
100
AcDbLine
 10
76.90958299170688
 20
132.4884669136006
 30
0.0
 11
76.90958299170688
 21
132.4884669136006
 31
0.0
  0
LINE
  5
D53
330
18
100
AcDbEntity
  8
文字
100
AcDbLine
 10
77.22708299170688
 20
132.4884669136006
 30
0.0
 11
77.22708299170688
 21
132.4884669136006
 31
0.0
  0
LINE
  5
D54
330
18
100
AcDbEntity
  8
文字
100
AcDbLine
 10
77.5445829917069
 20
132.4884669136006
 30
0.0
 11
77.5445829917069
 21
132.4884669136006
 31
0.0
  0
LINE
  5
D55
330
18
100
AcDbEntity
  8
文字
100
AcDbLine
 10
77.8620829917069
 20
132.4884669136006
 30
0.0
 11
77.8620829917069
 21
132.4884669136006
 31
0.0
  0
LINE
  5
D56
330
18
100
AcDbEntity
  8
文字
100
AcDbLine
 10
78.17958299170689
 20
132.4884669136006
 30
0.0
 11
78.17958299170689
 21
132.4884669136006
 31
0.0
  0
LINE
  5
D57
330
18
100
AcDbEntity
  8
文字
100
AcDbLine
 10
78.49708299170692
 20
132.4884669136006
 30
0.0
 11
78.49708299170692
 21
132.4884669136006
 31
0.0
  0
LINE
  5
D58
330
18
100
AcDbEntity
  8
文字
100
AcDbLine
 10
78.81458299170692
 20
132.4884669136006
 30
0.0
 11
78.81458299170692
 21
132.4884669136006
 31
0.0
  0
LINE
  5
D59
330
18
100
AcDbEntity
  8
文字
100
AcDbLine
 10
79.1320829917069
 20
132.4884669136006
 30
0.0
 11
79.1320829917069
 21
132.4884669136006
 31
0.0
  0
LINE
  5
D5A
330
18
100
AcDbEntity
  8
文字
100
AcDbLine
 10
79.4495829917069
 20
132.4884669136006
 30
0.0
 11
79.4495829917069
 21
132.4884669136006
 31
0.0
  0
LINE
  5
D5B
330
18
100
AcDbEntity
  8
文字
100
AcDbLine
 10
79.7670829917069
 20
132.4884669136006
 30
0.0
 11
79.7670829917069
 21
132.4884669136006
 31
0.0
  0
LINE
  5
D5C
330
18
100
AcDbEntity
  8
文字
100
AcDbLine
 10
80.08458299170692
 20
132.4884669136006
 30
0.0
 11
80.08458299170692
 21
132.4884669136006
 31
0.0
  0
LINE
  5
D5D
330
18
100
AcDbEntity
  8
文字
100
AcDbLine
 10
80.40208299170691
 20
132.4884669136006
 30
0.0
 11
80.40208299170691
 21
132.4884669136006
 31
0.0
  0
LINE
  5
D5E
330
18
100
AcDbEntity
  8
文字
100
AcDbLine
 10
80.71958299170692
 20
132.4884669136006
 30
0.0
 11
80.71958299170692
 21
132.4884669136006
 31
0.0
  0
LINE
  5
D5F
330
18
100
AcDbEntity
  8
文字
100
AcDbLine
 10
81.03708299170685
 20
132.4884669136006
 30
0.0
 11
81.03708299170685
 21
132.4884669136006
 31
0.0
  0
LINE
  5
D60
330
18
100
AcDbEntity
  8
文字
100
AcDbLine
 10
81.35458299170684
 20
132.4884669136006
 30
0.0
 11
81.35458299170684
 21
132.4884669136006
 31
0.0
  0
LINE
  5
D61
330
18
100
AcDbEntity
  8
文字
100
AcDbLine
 10
81.67208299170685
 20
132.4884669136006
 30
0.0
 11
81.67208299170685
 21
132.4884669136006
 31
0.0
  0
LINE
  5
D62
330
18
100
AcDbEntity
  8
文字
100
AcDbLine
 10
81.98958299170687
 20
132.4884669136006
 30
0.0
 11
81.98958299170687
 21
132.4884669136006
 31
0.0
  0
LINE
  5
D63
330
18
100
AcDbEntity
  8
文字
100
AcDbLine
 10
82.30708299170686
 20
132.4884669136006
 30
0.0
 11
82.30708299170686
 21
132.4884669136006
 31
0.0
  0
LINE
  5
D64
330
18
100
AcDbEntity
  8
文字
100
AcDbLine
 10
82.62458299170686
 20
132.4884669136006
 30
0.0
 11
82.62458299170686
 21
132.4884669136006
 31
0.0
  0
LINE
  5
D65
330
18
100
AcDbEntity
  8
文字
100
AcDbLine
 10
82.94208299170685
 20
132.4884669136006
 30
0.0
 11
82.94208299170685
 21
132.4884669136006
 31
0.0
  0
LINE
  5
D66
330
18
100
AcDbEntity
  8
文字
100
AcDbLine
 10
83.25958299170684
 20
132.4884669136006
 30
0.0
 11
83.25958299170684
 21
132.4884669136006
 31
0.0
  0
LINE
  5
D67
330
18
100
AcDbEntity
  8
文字
100
AcDbLine
 10
83.57708299170687
 20
132.4884669136006
 30
0.0
 11
83.57708299170687
 21
132.4884669136006
 31
0.0
  0
LINE
  5
D68
330
18
100
AcDbEntity
  8
文字
100
AcDbLine
 10
83.89458299170687
 20
132.4884669136006
 30
0.0
 11
83.89458299170687
 21
132.4884669136006
 31
0.0
  0
LINE
  5
D69
330
18
100
AcDbEntity
  8
文字
100
AcDbLine
 10
84.21208299170686
 20
132.4884669136006
 30
0.0
 11
84.21208299170686
 21
132.4884669136006
 31
0.0
  0
LINE
  5
D6A
330
18
100
AcDbEntity
  8
文字
100
AcDbLine
 10
84.52958299170688
 20
132.4884669136006
 30
0.0
 11
84.52958299170688
 21
132.4884669136006
 31
0.0
  0
LINE
  5
D6B
330
18
100
AcDbEntity
  8
文字
100
AcDbLine
 10
84.84708299170689
 20
132.4884669136006
 30
0.0
 11
84.84708299170689
 21
132.4884669136006
 31
0.0
  0
LINE
  5
D6C
330
18
100
AcDbEntity
  8
文字
100
AcDbLine
 10
85.16458299170688
 20
132.4884669136006
 30
0.0
 11
85.16458299170688
 21
132.4884669136006
 31
0.0
  0
LINE
  5
D6D
330
18
100
AcDbEntity
  8
文字
100
AcDbLine
 10
85.48208299170687
 20
132.4884669136006
 30
0.0
 11
85.48208299170687
 21
132.4884669136006
 31
0.0
  0
LINE
  5
D6E
330
18
100
AcDbEntity
  8
文字
100
AcDbLine
 10
85.79958299170687
 20
132.4884669136006
 30
0.0
 11
85.79958299170687
 21
132.4884669136006
 31
0.0
  0
LINE
  5
D6F
330
18
100
AcDbEntity
  8
文字
100
AcDbLine
 10
86.1170829917069
 20
132.4884669136006
 30
0.0
 11
86.1170829917069
 21
132.4884669136006
 31
0.0
  0
LINE
  5
D70
330
18
100
AcDbEntity
  8
文字
100
AcDbLine
 10
86.43458299170688
 20
132.4884669136006
 30
0.0
 11
86.43458299170688
 21
132.4884669136006
 31
0.0
  0
LINE
  5
D71
330
18
100
AcDbEntity
  8
文字
100
AcDbLine
 10
86.75208299170689
 20
132.4884669136006
 30
0.0
 11
86.75208299170689
 21
132.4884669136006
 31
0.0
  0
LINE
  5
D72
330
18
100
AcDbEntity
  8
文字
100
AcDbLine
 10
87.06958299170691
 20
132.4884669136006
 30
0.0
 11
87.06958299170691
 21
132.4884669136006
 31
0.0
  0
LINE
  5
D73
330
18
100
AcDbEntity
  8
文字
100
AcDbLine
 10
87.3870829917069
 20
132.4884669136006
 30
0.0
 11
87.3870829917069
 21
132.4884669136006
 31
0.0
  0
LINE
  5
D74
330
18
100
AcDbEntity
  8
文字
100
AcDbLine
 10
87.70458299170689
 20
132.4884669136006
 30
0.0
 11
87.70458299170689
 21
132.4884669136006
 31
0.0
  0
LINE
  5
D75
330
18
100
AcDbEntity
  8
文字
100
AcDbLine
 10
88.0220829917069
 20
132.4884669136006
 30
0.0
 11
88.0220829917069
 21
132.4884669136006
 31
0.0
  0
LINE
  5
D76
330
18
100
AcDbEntity
  8
文字
100
AcDbLine
 10
88.33958299170689
 20
132.4884669136006
 30
0.0
 11
88.33958299170689
 21
132.4884669136006
 31
0.0
  0
LINE
  5
D77
330
18
100
AcDbEntity
  8
文字
100
AcDbLine
 10
88.65708299170689
 20
132.4884669136006
 30
0.0
 11
88.65708299170689
 21
132.4884669136006
 31
0.0
  0
LINE
  5
D78
330
18
100
AcDbEntity
  8
文字
100
AcDbLine
 10
88.97458299170688
 20
132.4884669136006
 30
0.0
 11
88.97458299170688
 21
132.4884669136006
 31
0.0
  0
LINE
  5
D79
330
18
100
AcDbEntity
  8
文字
100
AcDbLine
 10
89.29208299170687
 20
132.4884669136006
 30
0.0
 11
89.29208299170687
 21
132.4884669136006
 31
0.0
  0
LINE
  5
D7A
330
18
100
AcDbEntity
  8
文字
100
AcDbLine
 10
89.60958299170687
 20
132.4884669136006
 30
0.0
 11
89.60958299170687
 21
132.4884669136006
 31
0.0
  0
LINE
  5
D7B
330
18
100
AcDbEntity
  8
文字
100
AcDbLine
 10
72.30583299170683
 20
132.1709669136005
 30
0.0
 11
72.30583299170683
 21
132.1709669136005
 31
0.0
  0
LINE
  5
D7C
330
18
100
AcDbEntity
  8
文字
100
AcDbLine
 10
72.62333299170683
 20
132.1709669136005
 30
0.0
 11
72.62333299170683
 21
132.1709669136005
 31
0.0
  0
LINE
  5
D7D
330
18
100
AcDbEntity
  8
文字
100
AcDbLine
 10
72.94083299170683
 20
132.1709669136005
 30
0.0
 11
72.94083299170683
 21
132.1709669136005
 31
0.0
  0
LINE
  5
D7E
330
18
100
AcDbEntity
  8
文字
100
AcDbLine
 10
73.25833299170685
 20
132.1709669136005
 30
0.0
 11
73.25833299170685
 21
132.1709669136005
 31
0.0
  0
LINE
  5
D7F
330
18
100
AcDbEntity
  8
文字
100
AcDbLine
 10
73.57583299170684
 20
132.1709669136005
 30
0.0
 11
73.57583299170684
 21
132.1709669136005
 31
0.0
  0
LINE
  5
D80
330
18
100
AcDbEntity
  8
文字
100
AcDbLine
 10
73.89333299170684
 20
132.1709669136005
 30
0.0
 11
73.89333299170684
 21
132.1709669136005
 31
0.0
  0
LINE
  5
D81
330
18
100
AcDbEntity
  8
文字
100
AcDbLine
 10
74.21083299170686
 20
132.1709669136005
 30
0.0
 11
74.21083299170686
 21
132.1709669136005
 31
0.0
  0
LINE
  5
D82
330
18
100
AcDbEntity
  8
文字
100
AcDbLine
 10
74.52833299170686
 20
132.1709669136005
 30
0.0
 11
74.52833299170686
 21
132.1709669136005
 31
0.0
  0
LINE
  5
D83
330
18
100
AcDbEntity
  8
文字
100
AcDbLine
 10
74.84583299170686
 20
132.1709669136005
 30
0.0
 11
74.84583299170686
 21
132.1709669136005
 31
0.0
  0
LINE
  5
D84
330
18
100
AcDbEntity
  8
文字
100
AcDbLine
 10
75.16333299170685
 20
132.1709669136005
 30
0.0
 11
75.16333299170685
 21
132.1709669136005
 31
0.0
  0
LINE
  5
D85
330
18
100
AcDbEntity
  8
文字
100
AcDbLine
 10
75.48083299170684
 20
132.1709669136005
 30
0.0
 11
75.48083299170684
 21
132.1709669136005
 31
0.0
  0
LINE
  5
D86
330
18
100
AcDbEntity
  8
文字
100
AcDbLine
 10
75.79833299170687
 20
132.1709669136005
 30
0.0
 11
75.79833299170687
 21
132.1709669136005
 31
0.0
  0
LINE
  5
D87
330
18
100
AcDbEntity
  8
文字
100
AcDbLine
 10
76.11583299170686
 20
132.1709669136005
 30
0.0
 11
76.11583299170686
 21
132.1709669136005
 31
0.0
  0
LINE
  5
D88
330
18
100
AcDbEntity
  8
文字
100
AcDbLine
 10
76.43333299170686
 20
132.1709669136005
 30
0.0
 11
76.43333299170686
 21
132.1709669136005
 31
0.0
  0
LINE
  5
D89
330
18
100
AcDbEntity
  8
文字
100
AcDbLine
 10
76.75083299170688
 20
132.1709669136005
 30
0.0
 11
76.75083299170688
 21
132.1709669136005
 31
0.0
  0
LINE
  5
D8A
330
18
100
AcDbEntity
  8
文字
100
AcDbLine
 10
77.06833299170688
 20
132.1709669136005
 30
0.0
 11
77.06833299170688
 21
132.1709669136005
 31
0.0
  0
LINE
  5
D8B
330
18
100
AcDbEntity
  8
文字
100
AcDbLine
 10
77.38583299170688
 20
132.1709669136005
 30
0.0
 11
77.38583299170688
 21
132.1709669136005
 31
0.0
  0
LINE
  5
D8C
330
18
100
AcDbEntity
  8
文字
100
AcDbLine
 10
77.70333299170687
 20
132.1709669136005
 30
0.0
 11
77.70333299170687
 21
132.1709669136005
 31
0.0
  0
LINE
  5
D8D
330
18
100
AcDbEntity
  8
文字
100
AcDbLine
 10
78.02083299170686
 20
132.1709669136005
 30
0.0
 11
78.02083299170686
 21
132.1709669136005
 31
0.0
  0
LINE
  5
D8E
330
18
100
AcDbEntity
  8
文字
100
AcDbLine
 10
78.33833299170689
 20
132.1709669136005
 30
0.0
 11
78.33833299170689
 21
132.1709669136005
 31
0.0
  0
LINE
  5
D8F
330
18
100
AcDbEntity
  8
文字
100
AcDbLine
 10
78.65583299170689
 20
132.1709669136005
 30
0.0
 11
78.65583299170689
 21
132.1709669136005
 31
0.0
  0
LINE
  5
D90
330
18
100
AcDbEntity
  8
文字
100
AcDbLine
 10
78.97333299170688
 20
132.1709669136005
 30
0.0
 11
78.97333299170688
 21
132.1709669136005
 31
0.0
  0
LINE
  5
D91
330
18
100
AcDbEntity
  8
文字
100
AcDbLine
 10
79.29083299170691
 20
132.1709669136005
 30
0.0
 11
79.29083299170691
 21
132.1709669136005
 31
0.0
  0
LINE
  5
D92
330
18
100
AcDbEntity
  8
文字
100
AcDbLine
 10
79.6083329917069
 20
132.1709669136005
 30
0.0
 11
79.6083329917069
 21
132.1709669136005
 31
0.0
  0
LINE
  5
D93
330
18
100
AcDbEntity
  8
文字
100
AcDbLine
 10
79.92583299170689
 20
132.1709669136005
 30
0.0
 11
79.92583299170689
 21
132.1709669136005
 31
0.0
  0
LINE
  5
D94
330
18
100
AcDbEntity
  8
文字
100
AcDbLine
 10
80.2433329917069
 20
132.1709669136005
 30
0.0
 11
80.2433329917069
 21
132.1709669136005
 31
0.0
  0
LINE
  5
D95
330
18
100
AcDbEntity
  8
文字
100
AcDbLine
 10
80.56083299170689
 20
132.1709669136005
 30
0.0
 11
80.56083299170689
 21
132.1709669136005
 31
0.0
  0
LINE
  5
D96
330
18
100
AcDbEntity
  8
文字
100
AcDbLine
 10
80.87833299170682
 20
132.1709669136005
 30
0.0
 11
80.87833299170682
 21
132.1709669136005
 31
0.0
  0
LINE
  5
D97
330
18
100
AcDbEntity
  8
文字
100
AcDbLine
 10
81.19583299170683
 20
132.1709669136005
 30
0.0
 11
81.19583299170683
 21
132.1709669136005
 31
0.0
  0
LINE
  5
D98
330
18
100
AcDbEntity
  8
文字
100
AcDbLine
 10
81.51333299170685
 20
132.1709669136005
 30
0.0
 11
81.51333299170685
 21
132.1709669136005
 31
0.0
  0
LINE
  5
D99
330
18
100
AcDbEntity
  8
文字
100
AcDbLine
 10
81.83083299170684
 20
132.1709669136005
 30
0.0
 11
81.83083299170684
 21
132.1709669136005
 31
0.0
  0
LINE
  5
D9A
330
18
100
AcDbEntity
  8
文字
100
AcDbLine
 10
82.14833299170683
 20
132.1709669136005
 30
0.0
 11
82.14833299170683
 21
132.1709669136005
 31
0.0
  0
LINE
  5
D9B
330
18
100
AcDbEntity
  8
文字
100
AcDbLine
 10
82.46583299170685
 20
132.1709669136005
 30
0.0
 11
82.46583299170685
 21
132.1709669136005
 31
0.0
  0
LINE
  5
D9C
330
18
100
AcDbEntity
  8
文字
100
AcDbLine
 10
82.78333299170686
 20
132.1709669136005
 30
0.0
 11
82.78333299170686
 21
132.1709669136005
 31
0.0
  0
LINE
  5
D9D
330
18
100
AcDbEntity
  8
文字
100
AcDbLine
 10
83.10083299170685
 20
132.1709669136005
 30
0.0
 11
83.10083299170685
 21
132.1709669136005
 31
0.0
  0
LINE
  5
D9E
330
18
100
AcDbEntity
  8
文字
100
AcDbLine
 10
83.41833299170685
 20
132.1709669136005
 30
0.0
 11
83.41833299170685
 21
132.1709669136005
 31
0.0
  0
LINE
  5
D9F
330
18
100
AcDbEntity
  8
文字
100
AcDbLine
 10
83.73583299170684
 20
132.1709669136005
 30
0.0
 11
83.73583299170684
 21
132.1709669136005
 31
0.0
  0
LINE
  5
DA0
330
18
100
AcDbEntity
  8
文字
100
AcDbLine
 10
84.05333299170687
 20
132.1709669136005
 30
0.0
 11
84.05333299170687
 21
132.1709669136005
 31
0.0
  0
LINE
  5
DA1
330
18
100
AcDbEntity
  8
文字
100
AcDbLine
 10
84.37083299170685
 20
132.1709669136005
 30
0.0
 11
84.37083299170685
 21
132.1709669136005
 31
0.0
  0
LINE
  5
DA2
330
18
100
AcDbEntity
  8
文字
100
AcDbLine
 10
84.68833299170686
 20
132.1709669136005
 30
0.0
 11
84.68833299170686
 21
132.1709669136005
 31
0.0
  0
LINE
  5
DA3
330
18
100
AcDbEntity
  8
文字
100
AcDbLine
 10
85.00583299170688
 20
132.1709669136005
 30
0.0
 11
85.00583299170688
 21
132.1709669136005
 31
0.0
  0
LINE
  5
DA4
330
18
100
AcDbEntity
  8
文字
100
AcDbLine
 10
85.32333299170687
 20
132.1709669136005
 30
0.0
 11
85.32333299170687
 21
132.1709669136005
 31
0.0
  0
LINE
  5
DA5
330
18
100
AcDbEntity
  8
文字
100
AcDbLine
 10
85.64083299170688
 20
132.1709669136005
 30
0.0
 11
85.64083299170688
 21
132.1709669136005
 31
0.0
  0
LINE
  5
DA6
330
18
100
AcDbEntity
  8
文字
100
AcDbLine
 10
85.95833299170687
 20
132.1709669136005
 30
0.0
 11
85.95833299170687
 21
132.1709669136005
 31
0.0
  0
LINE
  5
DA7
330
18
100
AcDbEntity
  8
文字
100
AcDbLine
 10
86.27583299170686
 20
132.1709669136005
 30
0.0
 11
86.27583299170686
 21
132.1709669136005
 31
0.0
  0
LINE
  5
DA8
330
18
100
AcDbEntity
  8
文字
100
AcDbLine
 10
86.59333299170688
 20
132.1709669136005
 30
0.0
 11
86.59333299170688
 21
132.1709669136005
 31
0.0
  0
LINE
  5
DA9
330
18
100
AcDbEntity
  8
文字
100
AcDbLine
 10
86.91083299170689
 20
132.1709669136005
 30
0.0
 11
86.91083299170689
 21
132.1709669136005
 31
0.0
  0
LINE
  5
DAA
330
18
100
AcDbEntity
  8
文字
100
AcDbLine
 10
87.22833299170687
 20
132.1709669136005
 30
0.0
 11
87.22833299170687
 21
132.1709669136005
 31
0.0
  0
LINE
  5
DAB
330
18
100
AcDbEntity
  8
文字
100
AcDbLine
 10
87.5458329917069
 20
132.1709669136005
 30
0.0
 11
87.5458329917069
 21
132.1709669136005
 31
0.0
  0
LINE
  5
DAC
330
18
100
AcDbEntity
  8
文字
100
AcDbLine
 10
87.8633329917069
 20
132.1709669136005
 30
0.0
 11
87.8633329917069
 21
132.1709669136005
 31
0.0
  0
LINE
  5
DAD
330
18
100
AcDbEntity
  8
文字
100
AcDbLine
 10
88.18083299170689
 20
132.1709669136005
 30
0.0
 11
88.18083299170689
 21
132.1709669136005
 31
0.0
  0
LINE
  5
DAE
330
18
100
AcDbEntity
  8
文字
100
AcDbLine
 10
88.49833299170688
 20
132.1709669136005
 30
0.0
 11
88.49833299170688
 21
132.1709669136005
 31
0.0
  0
LINE
  5
DAF
330
18
100
AcDbEntity
  8
文字
100
AcDbLine
 10
88.81583299170689
 20
132.1709669136005
 30
0.0
 11
88.81583299170689
 21
132.1709669136005
 31
0.0
  0
LINE
  5
DB0
330
18
100
AcDbEntity
  8
文字
100
AcDbLine
 10
89.13333299170687
 20
132.1709669136005
 30
0.0
 11
89.13333299170687
 21
132.1709669136005
 31
0.0
  0
LINE
  5
DB1
330
18
100
AcDbEntity
  8
文字
100
AcDbLine
 10
89.45083299170688
 20
132.1709669136005
 30
0.0
 11
89.45083299170688
 21
132.1709669136005
 31
0.0
  0
LINE
  5
DB2
330
18
100
AcDbEntity
  8
文字
100
AcDbLine
 10
72.46458299170683
 20
131.8534669136005
 30
0.0
 11
72.46458299170683
 21
131.8534669136005
 31
0.0
  0
LINE
  5
DB3
330
18
100
AcDbEntity
  8
文字
100
AcDbLine
 10
72.78208299170683
 20
131.8534669136005
 30
0.0
 11
72.78208299170683
 21
131.8534669136005
 31
0.0
  0
LINE
  5
DB4
330
18
100
AcDbEntity
  8
文字
100
AcDbLine
 10
73.09958299170685
 20
131.8534669136005
 30
0.0
 11
73.09958299170685
 21
131.8534669136005
 31
0.0
  0
LINE
  5
DB5
330
18
100
AcDbEntity
  8
文字
100
AcDbLine
 10
73.41708299170685
 20
131.8534669136005
 30
0.0
 11
73.41708299170685
 21
131.8534669136005
 31
0.0
  0
LINE
  5
DB6
330
18
100
AcDbEntity
  8
文字
100
AcDbLine
 10
73.73458299170684
 20
131.8534669136005
 30
0.0
 11
73.73458299170684
 21
131.8534669136005
 31
0.0
  0
LINE
  5
DB7
330
18
100
AcDbEntity
  8
文字
100
AcDbLine
 10
74.05208299170687
 20
131.8534669136005
 30
0.0
 11
74.05208299170687
 21
131.8534669136005
 31
0.0
  0
LINE
  5
DB8
330
18
100
AcDbEntity
  8
文字
100
AcDbLine
 10
74.36958299170687
 20
131.8534669136005
 30
0.0
 11
74.36958299170687
 21
131.8534669136005
 31
0.0
  0
LINE
  5
DB9
330
18
100
AcDbEntity
  8
文字
100
AcDbLine
 10
74.68708299170685
 20
131.8534669136005
 30
0.0
 11
74.68708299170685
 21
131.8534669136005
 31
0.0
  0
LINE
  5
DBA
330
18
100
AcDbEntity
  8
文字
100
AcDbLine
 10
75.00458299170685
 20
131.8534669136005
 30
0.0
 11
75.00458299170685
 21
131.8534669136005
 31
0.0
  0
LINE
  5
DBB
330
18
100
AcDbEntity
  8
文字
100
AcDbLine
 10
75.32208299170685
 20
131.8534669136005
 30
0.0
 11
75.32208299170685
 21
131.8534669136005
 31
0.0
  0
LINE
  5
DBC
330
18
100
AcDbEntity
  8
文字
100
AcDbLine
 10
75.63958299170687
 20
131.8534669136005
 30
0.0
 11
75.63958299170687
 21
131.8534669136005
 31
0.0
  0
LINE
  5
DBD
330
18
100
AcDbEntity
  8
文字
100
AcDbLine
 10
75.95708299170687
 20
131.8534669136005
 30
0.0
 11
75.95708299170687
 21
131.8534669136005
 31
0.0
  0
LINE
  5
DBE
330
18
100
AcDbEntity
  8
文字
100
AcDbLine
 10
76.27458299170687
 20
131.8534669136005
 30
0.0
 11
76.27458299170687
 21
131.8534669136005
 31
0.0
  0
LINE
  5
DBF
330
18
100
AcDbEntity
  8
文字
100
AcDbLine
 10
76.59208299170689
 20
131.8534669136005
 30
0.0
 11
76.59208299170689
 21
131.8534669136005
 31
0.0
  0
LINE
  5
DC0
330
18
100
AcDbEntity
  8
文字
100
AcDbLine
 10
76.90958299170688
 20
131.8534669136005
 30
0.0
 11
76.90958299170688
 21
131.8534669136005
 31
0.0
  0
LINE
  5
DC1
330
18
100
AcDbEntity
  8
文字
100
AcDbLine
 10
77.22708299170688
 20
131.8534669136005
 30
0.0
 11
77.22708299170688
 21
131.8534669136005
 31
0.0
  0
LINE
  5
DC2
330
18
100
AcDbEntity
  8
文字
100
AcDbLine
 10
77.54458299170687
 20
131.8534669136005
 30
0.0
 11
77.54458299170687
 21
131.8534669136005
 31
0.0
  0
LINE
  5
DC3
330
18
100
AcDbEntity
  8
文字
100
AcDbLine
 10
77.86208299170687
 20
131.8534669136005
 30
0.0
 11
77.86208299170687
 21
131.8534669136005
 31
0.0
  0
LINE
  5
DC4
330
18
100
AcDbEntity
  8
文字
100
AcDbLine
 10
78.17958299170689
 20
131.8534669136005
 30
0.0
 11
78.17958299170689
 21
131.8534669136005
 31
0.0
  0
LINE
  5
DC5
330
18
100
AcDbEntity
  8
文字
100
AcDbLine
 10
78.49708299170689
 20
131.8534669136005
 30
0.0
 11
78.49708299170689
 21
131.8534669136005
 31
0.0
  0
LINE
  5
DC6
330
18
100
AcDbEntity
  8
文字
100
AcDbLine
 10
78.81458299170688
 20
131.8534669136005
 30
0.0
 11
78.81458299170688
 21
131.8534669136005
 31
0.0
  0
LINE
  5
DC7
330
18
100
AcDbEntity
  8
文字
100
AcDbLine
 10
79.1320829917069
 20
131.8534669136005
 30
0.0
 11
79.1320829917069
 21
131.8534669136005
 31
0.0
  0
LINE
  5
DC8
330
18
100
AcDbEntity
  8
文字
100
AcDbLine
 10
79.4495829917069
 20
131.8534669136005
 30
0.0
 11
79.4495829917069
 21
131.8534669136005
 31
0.0
  0
LINE
  5
DC9
330
18
100
AcDbEntity
  8
文字
100
AcDbLine
 10
79.7670829917069
 20
131.8534669136005
 30
0.0
 11
79.7670829917069
 21
131.8534669136005
 31
0.0
  0
LINE
  5
DCA
330
18
100
AcDbEntity
  8
文字
100
AcDbLine
 10
80.08458299170689
 20
131.8534669136005
 30
0.0
 11
80.08458299170689
 21
131.8534669136005
 31
0.0
  0
LINE
  5
DCB
330
18
100
AcDbEntity
  8
文字
100
AcDbLine
 10
80.40208299170689
 20
131.8534669136005
 30
0.0
 11
80.40208299170689
 21
131.8534669136005
 31
0.0
  0
LINE
  5
DCC
330
18
100
AcDbEntity
  8
文字
100
AcDbLine
 10
80.71958299170692
 20
131.8534669136005
 30
0.0
 11
80.71958299170692
 21
131.8534669136005
 31
0.0
  0
LINE
  5
DCD
330
18
100
AcDbEntity
  8
文字
100
AcDbLine
 10
81.03708299170682
 20
131.8534669136005
 30
0.0
 11
81.03708299170682
 21
131.8534669136005
 31
0.0
  0
LINE
  5
DCE
330
18
100
AcDbEntity
  8
文字
100
AcDbLine
 10
81.35458299170684
 20
131.8534669136005
 30
0.0
 11
81.35458299170684
 21
131.8534669136005
 31
0.0
  0
LINE
  5
DCF
330
18
100
AcDbEntity
  8
文字
100
AcDbLine
 10
81.67208299170685
 20
131.8534669136005
 30
0.0
 11
81.67208299170685
 21
131.8534669136005
 31
0.0
  0
LINE
  5
DD0
330
18
100
AcDbEntity
  8
文字
100
AcDbLine
 10
81.98958299170683
 20
131.8534669136005
 30
0.0
 11
81.98958299170683
 21
131.8534669136005
 31
0.0
  0
LINE
  5
DD1
330
18
100
AcDbEntity
  8
文字
100
AcDbLine
 10
82.30708299170686
 20
131.8534669136005
 30
0.0
 11
82.30708299170686
 21
131.8534669136005
 31
0.0
  0
LINE
  5
DD2
330
18
100
AcDbEntity
  8
文字
100
AcDbLine
 10
82.62458299170686
 20
131.8534669136005
 30
0.0
 11
82.62458299170686
 21
131.8534669136005
 31
0.0
  0
LINE
  5
DD3
330
18
100
AcDbEntity
  8
文字
100
AcDbLine
 10
82.94208299170685
 20
131.8534669136005
 30
0.0
 11
82.94208299170685
 21
131.8534669136005
 31
0.0
  0
LINE
  5
DD4
330
18
100
AcDbEntity
  8
文字
100
AcDbLine
 10
83.25958299170684
 20
131.8534669136005
 30
0.0
 11
83.25958299170684
 21
131.8534669136005
 31
0.0
  0
LINE
  5
DD5
330
18
100
AcDbEntity
  8
文字
100
AcDbLine
 10
83.57708299170685
 20
131.8534669136005
 30
0.0
 11
83.57708299170685
 21
131.8534669136005
 31
0.0
  0
LINE
  5
DD6
330
18
100
AcDbEntity
  8
文字
100
AcDbLine
 10
83.89458299170687
 20
131.8534669136005
 30
0.0
 11
83.89458299170687
 21
131.8534669136005
 31
0.0
  0
LINE
  5
DD7
330
18
100
AcDbEntity
  8
文字
100
AcDbLine
 10
84.21208299170686
 20
131.8534669136005
 30
0.0
 11
84.21208299170686
 21
131.8534669136005
 31
0.0
  0
LINE
  5
DD8
330
18
100
AcDbEntity
  8
文字
100
AcDbLine
 10
84.52958299170687
 20
131.8534669136005
 30
0.0
 11
84.52958299170687
 21
131.8534669136005
 31
0.0
  0
LINE
  5
DD9
330
18
100
AcDbEntity
  8
文字
100
AcDbLine
 10
84.84708299170689
 20
131.8534669136005
 30
0.0
 11
84.84708299170689
 21
131.8534669136005
 31
0.0
  0
LINE
  5
DDA
330
18
100
AcDbEntity
  8
文字
100
AcDbLine
 10
85.16458299170688
 20
131.8534669136005
 30
0.0
 11
85.16458299170688
 21
131.8534669136005
 31
0.0
  0
LINE
  5
DDB
330
18
100
AcDbEntity
  8
文字
100
AcDbLine
 10
85.48208299170687
 20
131.8534669136005
 30
0.0
 11
85.48208299170687
 21
131.8534669136005
 31
0.0
  0
LINE
  5
DDC
330
18
100
AcDbEntity
  8
文字
100
AcDbLine
 10
85.79958299170687
 20
131.8534669136005
 30
0.0
 11
85.79958299170687
 21
131.8534669136005
 31
0.0
  0
LINE
  5
DDD
330
18
100
AcDbEntity
  8
文字
100
AcDbLine
 10
86.11708299170686
 20
131.8534669136005
 30
0.0
 11
86.11708299170686
 21
131.8534669136005
 31
0.0
  0
LINE
  5
DDE
330
18
100
AcDbEntity
  8
文字
100
AcDbLine
 10
86.43458299170688
 20
131.8534669136005
 30
0.0
 11
86.43458299170688
 21
131.8534669136005
 31
0.0
  0
LINE
  5
DDF
330
18
100
AcDbEntity
  8
文字
100
AcDbLine
 10
86.75208299170689
 20
131.8534669136005
 30
0.0
 11
86.75208299170689
 21
131.8534669136005
 31
0.0
  0
LINE
  5
DE0
330
18
100
AcDbEntity
  8
文字
100
AcDbLine
 10
87.06958299170688
 20
131.8534669136005
 30
0.0
 11
87.06958299170688
 21
131.8534669136005
 31
0.0
  0
LINE
  5
DE1
330
18
100
AcDbEntity
  8
文字
100
AcDbLine
 10
87.3870829917069
 20
131.8534669136005
 30
0.0
 11
87.3870829917069
 21
131.8534669136005
 31
0.0
  0
LINE
  5
DE2
330
18
100
AcDbEntity
  8
文字
100
AcDbLine
 10
87.70458299170689
 20
131.8534669136005
 30
0.0
 11
87.70458299170689
 21
131.8534669136005
 31
0.0
  0
LINE
  5
DE3
330
18
100
AcDbEntity
  8
文字
100
AcDbLine
 10
88.0220829917069
 20
131.8534669136005
 30
0.0
 11
88.0220829917069
 21
131.8534669136005
 31
0.0
  0
LINE
  5
DE4
330
18
100
AcDbEntity
  8
文字
100
AcDbLine
 10
88.33958299170689
 20
131.8534669136005
 30
0.0
 11
88.33958299170689
 21
131.8534669136005
 31
0.0
  0
LINE
  5
DE5
330
18
100
AcDbEntity
  8
文字
100
AcDbLine
 10
88.65708299170689
 20
131.8534669136005
 30
0.0
 11
88.65708299170689
 21
131.8534669136005
 31
0.0
  0
LINE
  5
DE6
330
18
100
AcDbEntity
  8
文字
100
AcDbLine
 10
88.97458299170688
 20
131.8534669136005
 30
0.0
 11
88.97458299170688
 21
131.8534669136005
 31
0.0
  0
LINE
  5
DE7
330
18
100
AcDbEntity
  8
文字
100
AcDbLine
 10
89.29208299170687
 20
131.8534669136005
 30
0.0
 11
89.29208299170687
 21
131.8534669136005
 31
0.0
  0
LINE
  5
DE8
330
18
100
AcDbEntity
  8
文字
100
AcDbLine
 10
73.73458299170687
 20
133.4542089691011
 30
0.0
 11
73.73458299170687
 21
133.4542089691011
 31
0.0
  0
LINE
  5
DE9
330
18
100
AcDbEntity
  8
文字
100
AcDbLine
 10
73.41708299170685
 20
133.4542089691011
 30
0.0
 11
73.41708299170685
 21
133.4542089691011
 31
0.0
  0
LINE
  5
DEA
330
18
100
AcDbEntity
  8
文字
100
AcDbLine
 10
73.09958299170685
 20
133.4542089691011
 30
0.0
 11
73.09958299170685
 21
133.4542089691011
 31
0.0
  0
LINE
  5
DEB
330
18
100
AcDbEntity
  8
文字
100
AcDbLine
 10
77.8620829917069
 20
133.4542089691011
 30
0.0
 11
77.8620829917069
 21
133.4542089691011
 31
0.0
  0
LINE
  5
DEC
330
18
100
AcDbEntity
  8
文字
100
AcDbLine
 10
77.54458299170687
 20
133.4542089691011
 30
0.0
 11
77.54458299170687
 21
133.4542089691011
 31
0.0
  0
LINE
  5
DED
330
18
100
AcDbEntity
  8
文字
100
AcDbLine
 10
77.22708299170688
 20
133.4542089691011
 30
0.0
 11
77.22708299170688
 21
133.4542089691011
 31
0.0
  0
LINE
  5
DEE
330
18
100
AcDbEntity
  8
文字
100
AcDbLine
 10
76.90958299170688
 20
133.4542089691011
 30
0.0
 11
76.90958299170688
 21
133.4542089691011
 31
0.0
  0
LINE
  5
DEF
330
18
100
AcDbEntity
  8
文字
100
AcDbLine
 10
76.59208299170689
 20
133.4542089691011
 30
0.0
 11
76.59208299170689
 21
133.4542089691011
 31
0.0
  0
LINE
  5
DF0
330
18
100
AcDbEntity
  8
文字
100
AcDbLine
 10
76.27458299170689
 20
133.4542089691011
 30
0.0
 11
76.27458299170689
 21
133.4542089691011
 31
0.0
  0
LINE
  5
DF1
330
18
100
AcDbEntity
  8
文字
100
AcDbLine
 10
75.95708299170687
 20
133.4542089691011
 30
0.0
 11
75.95708299170687
 21
133.4542089691011
 31
0.0
  0
LINE
  5
DF2
330
18
100
AcDbEntity
  8
文字
100
AcDbLine
 10
75.63958299170687
 20
133.4542089691011
 30
0.0
 11
75.63958299170687
 21
133.4542089691011
 31
0.0
  0
LINE
  5
DF3
330
18
100
AcDbEntity
  8
文字
100
AcDbLine
 10
75.32208299170688
 20
133.4542089691011
 30
0.0
 11
75.32208299170688
 21
133.4542089691011
 31
0.0
  0
LINE
  5
DF4
330
18
100
AcDbEntity
  8
文字
100
AcDbLine
 10
75.00458299170685
 20
133.4542089691011
 30
0.0
 11
75.00458299170685
 21
133.4542089691011
 31
0.0
  0
LINE
  5
DF5
330
18
100
AcDbEntity
  8
文字
100
AcDbLine
 10
74.68708299170685
 20
133.4542089691011
 30
0.0
 11
74.68708299170685
 21
133.4542089691011
 31
0.0
  0
LINE
  5
DF6
330
18
100
AcDbEntity
  8
文字
100
AcDbLine
 10
74.36958299170687
 20
133.4542089691011
 30
0.0
 11
74.36958299170687
 21
133.4542089691011
 31
0.0
  0
LINE
  5
DF7
330
18
100
AcDbEntity
  8
文字
100
AcDbLine
 10
74.05208299170687
 20
133.4542089691011
 30
0.0
 11
74.05208299170687
 21
133.4542089691011
 31
0.0
  0
LINE
  5
DF8
330
18
100
AcDbEntity
  8
文字
100
AcDbLine
 10
81.98958299170687
 20
133.4542089691011
 30
0.0
 11
81.98958299170687
 21
133.4542089691011
 31
0.0
  0
LINE
  5
DF9
330
18
100
AcDbEntity
  8
文字
100
AcDbLine
 10
81.67208299170685
 20
133.4542089691011
 30
0.0
 11
81.67208299170685
 21
133.4542089691011
 31
0.0
  0
LINE
  5
DFA
330
18
100
AcDbEntity
  8
文字
100
AcDbLine
 10
81.35458299170684
 20
133.4542089691011
 30
0.0
 11
81.35458299170684
 21
133.4542089691011
 31
0.0
  0
LINE
  5
DFB
330
18
100
AcDbEntity
  8
文字
100
AcDbLine
 10
81.03708299170685
 20
133.4542089691011
 30
0.0
 11
81.03708299170685
 21
133.4542089691011
 31
0.0
  0
LINE
  5
DFC
330
18
100
AcDbEntity
  8
文字
100
AcDbLine
 10
80.71958299170692
 20
133.4542089691011
 30
0.0
 11
80.71958299170692
 21
133.4542089691011
 31
0.0
  0
LINE
  5
DFD
330
18
100
AcDbEntity
  8
文字
100
AcDbLine
 10
80.40208299170691
 20
133.4542089691011
 30
0.0
 11
80.40208299170691
 21
133.4542089691011
 31
0.0
  0
LINE
  5
DFE
330
18
100
AcDbEntity
  8
文字
100
AcDbLine
 10
80.08458299170689
 20
133.4542089691011
 30
0.0
 11
80.08458299170689
 21
133.4542089691011
 31
0.0
  0
LINE
  5
DFF
330
18
100
AcDbEntity
  8
文字
100
AcDbLine
 10
79.7670829917069
 20
133.4542089691011
 30
0.0
 11
79.7670829917069
 21
133.4542089691011
 31
0.0
  0
LINE
  5
E00
330
18
100
AcDbEntity
  8
文字
100
AcDbLine
 10
79.4495829917069
 20
133.4542089691011
 30
0.0
 11
79.4495829917069
 21
133.4542089691011
 31
0.0
  0
LINE
  5
E01
330
18
100
AcDbEntity
  8
文字
100
AcDbLine
 10
79.1320829917069
 20
133.4542089691011
 30
0.0
 11
79.1320829917069
 21
133.4542089691011
 31
0.0
  0
LINE
  5
E02
330
18
100
AcDbEntity
  8
文字
100
AcDbLine
 10
78.81458299170692
 20
133.4542089691011
 30
0.0
 11
78.81458299170692
 21
133.4542089691011
 31
0.0
  0
LINE
  5
E03
330
18
100
AcDbEntity
  8
文字
100
AcDbLine
 10
78.49708299170689
 20
133.4542089691011
 30
0.0
 11
78.49708299170689
 21
133.4542089691011
 31
0.0
  0
LINE
  5
E04
330
18
100
AcDbEntity
  8
文字
100
AcDbLine
 10
78.17958299170689
 20
133.4542089691011
 30
0.0
 11
78.17958299170689
 21
133.4542089691011
 31
0.0
  0
LINE
  5
E05
330
18
100
AcDbEntity
  8
文字
100
AcDbLine
 10
86.1170829917069
 20
133.4542089691011
 30
0.0
 11
86.1170829917069
 21
133.4542089691011
 31
0.0
  0
LINE
  5
E06
330
18
100
AcDbEntity
  8
文字
100
AcDbLine
 10
85.79958299170687
 20
133.4542089691011
 30
0.0
 11
85.79958299170687
 21
133.4542089691011
 31
0.0
  0
LINE
  5
E07
330
18
100
AcDbEntity
  8
文字
100
AcDbLine
 10
85.48208299170687
 20
133.4542089691011
 30
0.0
 11
85.48208299170687
 21
133.4542089691011
 31
0.0
  0
LINE
  5
E08
330
18
100
AcDbEntity
  8
文字
100
AcDbLine
 10
85.16458299170688
 20
133.4542089691011
 30
0.0
 11
85.16458299170688
 21
133.4542089691011
 31
0.0
  0
LINE
  5
E09
330
18
100
AcDbEntity
  8
文字
100
AcDbLine
 10
84.84708299170689
 20
133.4542089691011
 30
0.0
 11
84.84708299170689
 21
133.4542089691011
 31
0.0
  0
LINE
  5
E0A
330
18
100
AcDbEntity
  8
文字
100
AcDbLine
 10
84.52958299170688
 20
133.4542089691011
 30
0.0
 11
84.52958299170688
 21
133.4542089691011
 31
0.0
  0
LINE
  5
E0B
330
18
100
AcDbEntity
  8
文字
100
AcDbLine
 10
84.21208299170686
 20
133.4542089691011
 30
0.0
 11
84.21208299170686
 21
133.4542089691011
 31
0.0
  0
LINE
  5
E0C
330
18
100
AcDbEntity
  8
文字
100
AcDbLine
 10
83.89458299170687
 20
133.4542089691011
 30
0.0
 11
83.89458299170687
 21
133.4542089691011
 31
0.0
  0
LINE
  5
E0D
330
18
100
AcDbEntity
  8
文字
100
AcDbLine
 10
83.57708299170687
 20
133.4542089691011
 30
0.0
 11
83.57708299170687
 21
133.4542089691011
 31
0.0
  0
LINE
  5
E0E
330
18
100
AcDbEntity
  8
文字
100
AcDbLine
 10
83.25958299170684
 20
133.4542089691011
 30
0.0
 11
83.25958299170684
 21
133.4542089691011
 31
0.0
  0
LINE
  5
E0F
330
18
100
AcDbEntity
  8
文字
100
AcDbLine
 10
82.94208299170685
 20
133.4542089691011
 30
0.0
 11
82.94208299170685
 21
133.4542089691011
 31
0.0
  0
LINE
  5
E10
330
18
100
AcDbEntity
  8
文字
100
AcDbLine
 10
82.62458299170686
 20
133.4542089691011
 30
0.0
 11
82.62458299170686
 21
133.4542089691011
 31
0.0
  0
LINE
  5
E11
330
18
100
AcDbEntity
  8
文字
100
AcDbLine
 10
82.30708299170686
 20
133.4542089691011
 30
0.0
 11
82.30708299170686
 21
133.4542089691011
 31
0.0
  0
LINE
  5
E12
330
18
100
AcDbEntity
  8
文字
100
AcDbLine
 10
88.33958299170689
 20
133.4542089691011
 30
0.0
 11
88.33958299170689
 21
133.4542089691011
 31
0.0
  0
LINE
  5
E13
330
18
100
AcDbEntity
  8
文字
100
AcDbLine
 10
88.0220829917069
 20
133.4542089691011
 30
0.0
 11
88.0220829917069
 21
133.4542089691011
 31
0.0
  0
LINE
  5
E14
330
18
100
AcDbEntity
  8
文字
100
AcDbLine
 10
87.70458299170689
 20
133.4542089691011
 30
0.0
 11
87.70458299170689
 21
133.4542089691011
 31
0.0
  0
LINE
  5
E15
330
18
100
AcDbEntity
  8
文字
100
AcDbLine
 10
87.3870829917069
 20
133.4542089691011
 30
0.0
 11
87.3870829917069
 21
133.4542089691011
 31
0.0
  0
LINE
  5
E16
330
18
100
AcDbEntity
  8
文字
100
AcDbLine
 10
87.06958299170691
 20
133.4542089691011
 30
0.0
 11
87.06958299170691
 21
133.4542089691011
 31
0.0
  0
LINE
  5
E17
330
18
100
AcDbEntity
  8
文字
100
AcDbLine
 10
86.75208299170689
 20
133.4542089691011
 30
0.0
 11
86.75208299170689
 21
133.4542089691011
 31
0.0
  0
LINE
  5
E18
330
18
100
AcDbEntity
  8
文字
100
AcDbLine
 10
86.43458299170688
 20
133.4542089691011
 30
0.0
 11
86.43458299170688
 21
133.4542089691011
 31
0.0
  0
LINE
  5
E19
330
18
100
AcDbEntity
  8
文字
100
AcDbLine
 10
88.24371831572596
 20
133.4409669136005
 30
0.0
 11
88.24371831572596
 21
133.4409669136005
 31
0.0
  0
LINE
  5
E1A
330
18
100
AcDbEntity
  8
文字
100
AcDbLine
 10
88.24371831572596
 20
134.0759669136005
 30
0.0
 11
88.24371831572596
 21
134.0759669136005
 31
0.0
  0
LINE
  5
E1B
330
18
100
AcDbEntity
  8
文字
100
AcDbLine
 10
88.24371831572596
 20
134.7109669136006
 30
0.0
 11
88.24371831572596
 21
134.7109669136006
 31
0.0
  0
LINE
  5
E1C
330
18
100
AcDbEntity
  8
文字
100
AcDbLine
 10
88.24371831572596
 20
135.3459669136005
 30
0.0
 11
88.24371831572596
 21
135.3459669136005
 31
0.0
  0
CIRCLE
  5
F5F
330
18
100
AcDbEntity
  8
外形線
100
AcDbCircle
 10
80.87772740014974
 20
107.6584167243261
 30
0.0
 40
1.5
  0
POINT
  5
FBA
330
18
100
AcDbEntity
  8
DEFPOINTS
  6
ByBlock
 62
     0
100
AcDbPoint
 10
80.87772740014974
 20
92.60380683146379
 30
0.0
  0
POINT
  5
FD1
330
18
100
AcDbEntity
  8
DEFPOINTS
  6
ByBlock
 62
     0
100
AcDbPoint
 10
80.87772740014974
 20
94.92359065091534
 30
0.0
  0
POINT
  5
1008
330
18
100
AcDbEntity
  8
DEFPOINTS
  6
ByBlock
 62
     0
100
AcDbPoint
 10
80.36469718516128
 20
106.2488777931472
 30
0.0
  0
POINT
  5
1009
330
18
100
AcDbEntity
  8
DEFPOINTS
  6
ByBlock
 62
     0
100
AcDbPoint
 10
80.36469718516128
 20
106.2488777931472
 30
0.0
  0
POINT
  5
100A
330
18
100
AcDbEntity
  8
DEFPOINTS
  6
ByBlock
 62
     0
100
AcDbPoint
 10
80.12361017100872
 20
106.3617644175327
 30
0.0
  0
POINT
  5
100B
330
18
100
AcDbEntity
  8
DEFPOINTS
  6
ByBlock
 62
     0
100
AcDbPoint
 10
81.3907576151382
 20
106.2488777931472
 30
0.0
  0
POINT
  5
100C
330
18
100
AcDbEntity
  8
DEFPOINTS
  6
ByBlock
 62
     0
100
AcDbPoint
 10
80.87772740014973
 20
107.6584167243261
 30
0.0
  0
POINT
  5
100D
330
18
100
AcDbEntity
  8
DEFPOINTS
  6
ByBlock
 62
     0
100
AcDbPoint
 10
80.87772740014974
 20
107.6584167243261
 30
0.0
  0
ARC
  5
11D9
330
18
100
AcDbEntity
  8
外形線
100
AcDbCircle
 10
80.87772740014974
 20
107.6584167243261
 30
0.0
 40
22.5
100
AcDbArc
 50
318.4069712187898
 51
310.3930287812101
  0
TEXT
  5
11DC
330
18
100
AcDbEntity
  8
文字
100
AcDbText
 10
78.21050854499794
 20
87.84818025129879
 30
0.0
 40
1.0
  1
E
 50
355.2277330305983
  7
STYLE3
100
AcDbText
  0
LINE
  5
11DD
102
{ACAD_REACTORS
330
11E3
102
}
330
18
100
AcDbEntity
  8
ROGO
 62
     4
100
AcDbLine
 10
77.07721552235728
 20
98.47683262055909
 30
0.0
 11
78.43065625969757
 21
98.47683262055909
 31
0.0
  0
LINE
  5
11DE
102
{ACAD_REACTORS
330
11E3
102
}
330
18
100
AcDbEntity
  8
ROGO
 62
     4
100
AcDbLine
 10
78.10102449713309
 20
99.24827494631536
 30
0.0
 11
78.81235874799068
 21
99.24827494631536
 31
0.0
  0
LINE
  5
11DF
102
{ACAD_REACTORS
330
11E3
102
}
330
18
100
AcDbEntity
  8
ROGO
 62
     4
100
AcDbLine
 10
78.0123463908111
 20
99.06905147598742
 30
0.0
 11
78.72368064166875
 21
99.06905147598742
 31
0.0
  0
LINE
  5
11E0
102
{ACAD_REACTORS
330
11E3
102
}
330
18
100
AcDbEntity
  8
ROGO
 62
     4
100
AcDbLine
 10
77.83273343961656
 20
98.70604353903338
 30
0.0
 11
78.54406769047409
 21
98.70604353903338
 31
0.0
  0
LINE
  5
11E1
102
{ACAD_REACTORS
330
11E3
102
}
330
18
100
AcDbEntity
  8
ROGO
 62
     4
100
AcDbLine
 10
77.92141530014323
 20
98.88527459682144
 30
0.0
 11
78.63274955100076
 21
98.88527459682144
 31
0.0
  0
LINE
  5
11E2
102
{ACAD_REACTORS
330
11E3
102
}
330
18
100
AcDbEntity
  8
ROGO
 62
     4
100
AcDbLine
 10
77.57233514643496
 20
99.47749739493389
 30
0.0
 11
78.92577588377537
 21
99.47749739493389
 31
0.0
  0
HATCH
  5
11E3
330
18
100
AcDbEntity
  8
ROGO
 62
     4
100
AcDbHatch
 10
0.0
 20
0.0
 30
0.0
210
0.0
220
0.0
230
1.0
  2
SOLID
 70
     1
 71
     1
 91
        1
 92
        1
 93
       12
 72
     1
 10
77.57233514643496
 20
99.47749739493389
 11
78.92577588377537
 21
99.47749739493389
 72
     1
 10
78.92577588377537
 20
99.47749739493389
 11
78.81235874799068
 21
99.24827494631536
 72
     1
 10
78.81235874799068
 20
99.24827494631536
 11
78.10102449713309
 21
99.24827494631536
 72
     1
 10
78.10102449713309
 20
99.24827494631536
 11
78.0123463908111
 21
99.06905147598742
 72
     1
 10
78.0123463908111
 20
99.06905147598742
 11
78.72368064166875
 21
99.06905147598742
 72
     1
 10
78.72368064166875
 20
99.06905147598742
 11
78.63274955100076
 21
98.88527459682144
 72
     1
 10
78.63274955100076
 20
98.88527459682144
 11
77.92141530014323
 21
98.88527459682144
 72
     1
 10
77.92141530014323
 20
98.88527459682144
 11
77.83273343961645
 21
98.70604353903338
 72
     1
 10
77.83273343961656
 20
98.70604353903338
 11
78.54406769047409
 21
98.70604353903338
 72
     1
 10
78.54406769047409
 20
98.70604353903338
 11
78.43065625969757
 21
98.47683262055909
 72
     1
 10
78.43065625969757
 20
98.47683262055909
 11
77.07721552235728
 21
98.47683262055909
 72
     1
 10
77.07721552235728
 20
98.47683262055909
 11
77.57233514643496
 21
99.47749739493389
 97
       12
330
11E2
330
124A
330
11DE
330
1217
330
11DF
330
124B
330
11E1
330
1218
330
11E0
330
124C
330
11DD
330
1216
 75
     0
 76
     1
 98
        1
 10
22.21026258989491
 20
30.28600589896689
450
        0
451
        0
460
0.0
461
0.0
452
        0
462
0.0
453
        0
470

  0
LINE
  5
11E4
102
{ACAD_REACTORS
330
120C
330
1266
102
}
330
18
100
AcDbEntity
  8
ROGO
 62
     4
100
AcDbLine
 10
74.84395924288367
 20
97.9138902305133
 30
0.0
 11
85.4280235854668
 21
97.9138902305133
 31
0.0
  0
LINE
  5
11E5
330
18
100
AcDbEntity
  8
ROGO
 62
     4
100
AcDbLine
 10
75.63082972366686
 20
98.07061849849413
 30
0.0
 11
84.93000971825836
 21
98.07061849849413
 31
0.0
  0
HATCH
  5
11E6
330
18
100
AcDbEntity
  8
ROGO
 62
     4
100
AcDbHatch
 10
0.0
 20
0.0
 30
0.0
210
0.0
220
0.0
230
1.0
  2
SOLID
 70
     1
 71
     0
 91
        1
 92
        7
 72
     0
 73
     1
 93
        4
 10
75.64169899525949
 20
98.07061849849411
 10
75.57079068102916
 20
97.91389023051328
 10
84.85185994199127
 20
97.9138902305133
 10
84.93000971825837
 20
98.07061849849413
 97
        0
 75
     0
 76
     1
 47
0.0514683685270805
 98
        1
 10
81.50651356496746
 20
98.02916639041853
450
        0
451
        0
460
0.0
461
0.0
452
        0
462
0.0
453
        0
470

  0
LINE
  5
11E7
330
18
100
AcDbEntity
  8
外形線
100
AcDbLine
 10
58.40856286817189
 20
108.8359757397923
 30
0.0
 11
61.90376623981285
 21
108.6527998929421
 31
0.0
  0
LINE
  5
11E8
330
18
100
AcDbEntity
  8
外形線
100
AcDbLine
 10
58.40856286817182
 20
106.4808577088599
 30
0.0
 11
61.90376623981285
 21
106.6640335557102
 31
0.0
  0
LINE
  5
11E9
330
18
100
AcDbEntity
  8
外形線
100
AcDbLine
 10
58.37772740014975
 20
107.6584167243261
 30
0.0
 11
62.87772740014975
 21
107.6584167243261
 31
0.0
  0
LINE
  5
11EA
330
18
100
AcDbEntity
  8
外形線
100
AcDbLine
 10
58.8694063836391
 20
102.9804036809266
 30
0.0
 11
62.29292298620743
 21
103.7080945987888
 31
0.0
  0
LINE
  5
11EB
330
18
100
AcDbEntity
  8
外形線
100
AcDbLine
 10
58.65473973675915
 20
104.1386412609209
 30
0.0
 11
62.11164892884216
 21
104.6861618885618
 31
0.0
  0
LINE
  5
11EC
330
18
100
AcDbEntity
  8
外形線
100
AcDbLine
 10
58.50098475436363
 20
105.306526300804
 30
0.0
 11
61.98181138815255
 21
105.6723759222408
 31
0.0
  0
LINE
  5
11ED
330
18
100
AcDbEntity
  8
外形線
100
AcDbLine
 10
59.1443963086457
 20
101.8349882095193
 30
0.0
 11
63.4910625269465
 21
102.9996739124806
 31
0.0
  0
TEXT
  5
11EE
330
18
100
AcDbEntity
  8
文字
100
AcDbText
 10
70.9649035824753
 20
93.24929507186437
 30
0.0
 40
2.0
  1
50
  7
STYLE3
100
AcDbText
  0
LINE
  5
11EF
330
18
100
AcDbEntity
  8
外形線
100
AcDbLine
 10
64.15696882690838
 20
92.60297808125182
 30
0.0
 11
66.75797571607915
 21
94.9449352035079
 31
0.0
  0
LINE
  5
11F0
330
18
100
AcDbEntity
  8
外形線
100
AcDbLine
 10
64.96782482345247
 20
91.74851414762878
 30
0.0
 11
68.1498053387919
 21
94.93049466296822
 31
0.0
  0
LINE
  5
11F1
330
18
100
AcDbEntity
  8
外形線
100
AcDbLine
 10
63.39194326736794
 20
93.49870792570483
 30
0.0
 11
66.1119541324673
 21
95.70132929437932
 31
0.0
  0
LINE
  5
11F2
330
18
100
AcDbEntity
  8
外形線
100
AcDbLine
 10
62.67484502671345
 20
94.43324854774557
 30
0.0
 11
65.5064045070257
 21
96.49049693076921
 31
0.0
  0
LINE
  5
11F3
330
18
100
AcDbEntity
  8
外形線
100
AcDbLine
 10
68.62334911231164
 20
88.78832894555404
 30
0.0
 11
70.52958573486421
 21
91.72367593336304
 31
0.0
  0
LINE
  5
11F4
330
18
100
AcDbEntity
  8
外形線
100
AcDbLine
 10
67.65255922356914
 20
89.45553435088976
 30
0.0
 11
69.70980760659273
 21
92.28709383120213
 31
0.0
  0
LINE
  5
11F5
330
18
100
AcDbEntity
  8
外形線
100
AcDbLine
 10
66.71801860152846
 20
90.17263259154431
 30
0.0
 11
68.92063997020284
 21
92.89264345664362
 31
0.0
  0
LINE
  5
11F6
330
18
100
AcDbEntity
  8
外形線
100
AcDbLine
 10
65.82228875707551
 20
90.93765815108469
 30
0.0
 11
68.16424587933147
 21
93.53866504025559
 31
0.0
  0
LINE
  5
11F7
330
18
100
AcDbEntity
  8
外形線
100
AcDbLine
 10
71.72615293094418
 20
87.10364392736762
 30
0.0
 11
73.14973118170951
 21
90.30105302911664
 31
0.0
  0
LINE
  5
11F8
330
18
100
AcDbEntity
  8
外形線
100
AcDbLine
 10
73.9248450267134
 20
86.25964510768511
 30
0.0
 11
75.00640450702565
 21
89.58834291471822
 31
0.0
  0
LINE
  5
11F9
330
18
100
AcDbEntity
  8
外形線
100
AcDbLine
 10
75.05429888534303
 20
85.92508563282212
 30
0.0
 11
76.21898458830435
 21
90.27175185112293
 31
0.0
  0
LINE
  5
11FA
330
18
100
AcDbEntity
  8
外形線
100
AcDbLine
 10
72.81444853538051
 20
86.65285712813902
 30
0.0
 11
74.06873635878901
 21
89.92038862087936
 31
0.0
  0
POINT
  5
11FB
330
18
100
AcDbEntity
  8
DEFPOINTS
  6
ByBlock
 62
     0
100
AcDbPoint
 10
75.05429888534306
 20
85.92508563282214
 30
0.0
  0
LINE
  5
11FC
330
18
100
AcDbEntity
  8
外形線
100
AcDbLine
 10
69.62772740014975
 20
88.17284513917622
 30
0.0
 11
71.87772740014975
 21
92.06995945620622
 31
0.0
  0
LINE
  5
11FD
330
18
100
AcDbEntity
  8
外形線
100
AcDbLine
 10
70.66294115600999
 20
87.61076993008776
 30
0.0
 11
72.25190790509839
 21
90.72929276474708
 31
0.0
  0
POINT
  5
11FE
330
18
100
AcDbEntity
  8
DEFPOINTS
  6
ByBlock
 62
     0
100
AcDbPoint
 10
75.00640450702565
 20
89.58834291471822
 30
0.0
  0
POINT
  5
11FF
330
18
100
AcDbEntity
  8
DEFPOINTS
  6
ByBlock
 62
     0
100
AcDbPoint
 10
76.21898458830435
 20
90.27175185112296
 30
0.0
  0
POINT
  5
1200
330
18
100
AcDbEntity
  8
DEFPOINTS
  6
ByBlock
 62
     0
100
AcDbPoint
 10
76.21898458830435
 20
90.27175185112289
 30
0.0
  0
TEXT
  5
1201
330
18
100
AcDbEntity
  8
文字
100
AcDbText
 10
77.32095114332747
 20
87.93965176133912
 30
0.0
 40
1.0
  1
J
 50
356.2879572464873
  7
STYLE3
100
AcDbText
  0
TEXT
  5
1202
330
18
100
AcDbEntity
  8
文字
100
AcDbText
 10
65.68268520290814
 20
98.62146846392631
 30
0.0
 40
2.0
  1
40
  7
STYLE3
100
AcDbText
  0
LINE
  5
1203
330
18
100
AcDbEntity
  8
外形線
100
AcDbLine
 10
62.00763962137774
 20
95.40403843648801
 30
0.0
 11
64.94298660918673
 21
97.31027505904064
 31
0.0
  0
LINE
  5
1204
330
18
100
AcDbEntity
  8
外形線
100
AcDbLine
 10
61.39215581499991
 20
96.40841672432618
 30
0.0
 11
65.28927013202985
 21
98.65841672432617
 31
0.0
  0
LINE
  5
1205
330
18
100
AcDbEntity
  8
外形線
100
AcDbLine
 10
60.83008060591146
 20
97.44363048018625
 30
0.0
 11
63.94860344057076
 21
99.03259722927471
 31
0.0
  0
LINE
  5
1206
330
18
100
AcDbEntity
  8
外形線
100
AcDbLine
 10
59.87216780396273
 20
99.59513785955687
 30
0.0
 11
63.13969929670292
 21
100.8494256829654
 31
0.0
  0
LINE
  5
1207
330
18
100
AcDbEntity
  8
外形線
100
AcDbLine
 10
59.4789557835088
 20
100.7055343508897
 30
0.0
 11
62.80765359054186
 21
101.7870938312019
 31
0.0
  0
LINE
  5
1208
330
18
100
AcDbEntity
  8
外形線
100
AcDbLine
 10
60.32295460319119
 20
98.50684225512049
 30
0.0
 11
63.52036370494033
 21
99.93042050588593
 31
0.0
  0
TEXT
  5
1209
330
18
100
AcDbEntity
  8
文字
100
AcDbText
 10
63.67642426584279
 20
106.7264069073085
 30
0.0
 40
2.0
  1
30
  7
STYLE3
100
AcDbText
  0
LINE
  5
120A
102
{ACAD_REACTORS
330
120C
102
}
330
18
100
AcDbEntity
  8
ROGO
 62
     4
100
AcDbLine
 10
75.61761752613524
 20
99.47749739493389
 30
0.0
 11
74.84395924288367
 21
97.91389023051323
 31
0.0
  0
LINE
  5
120B
102
{ACAD_REACTORS
330
120C
102
}
330
18
100
AcDbEntity
  8
ROGO
 62
     4
100
AcDbLine
 10
75.82548178685965
 20
98.47683262055909
 30
0.0
 11
75.57079068102916
 21
97.9138902305133
 31
0.0
  0
HATCH
  5
120C
330
18
100
AcDbEntity
  8
ROGO
 62
     4
100
AcDbHatch
 10
0.0
 20
0.0
 30
0.0
210
0.0
220
0.0
230
1.0
  2
SOLID
 70
     1
 71
     1
 91
        2
 92
        5
 93
        6
 72
     1
 10
74.8439592428837
 20
97.9138902305133
 11
75.57079068102918
 21
97.9138902305133
 72
     1
 10
75.57079068102918
 20
97.9138902305133
 11
75.82548178685964
 21
98.47683262055909
 72
     1
 10
75.82548178685964
 20
98.47683262055909
 11
76.50492010759558
 21
98.47683262055909
 72
     4
 94
        3
 73
     0
 74
     0
 95
       18
 96
       14
 40
0.108740278791501
 40
0.108740278791501
 40
0.108740278791501
 40
0.108740278791501
 40
0.6623149649549278
 40
1.384304701649787
 40
2.097394834876493
 40
2.774073369849618
 40
3.428974823686337
 40
4.005208313035923
 40
4.455173659284313
 40
4.720999734343524
 40
5.086034088486724
 40
5.569973738255373
 40
6.060470601257719
 40
6.060470601257719
 40
6.060470601257719
 40
6.060470601257719
 10
76.50492010759575
 20
98.47683262055916
 10
76.55273785411424
 20
98.47718870483873
 10
76.662921028607
 20
98.47800920557695
 10
76.81706642754568
 20
98.56035706481442
 10
76.96324030799781
 20
98.6652622376979
 10
77.08097342469699
 20
98.79633030643521
 10
77.1543247035512
 20
98.94618418794449
 10
77.16568658479468
 20
99.08980536889675
 10
77.15875043543741
 20
99.20340793751627
 10
77.10918816441335
 20
99.28259174813906
 10
77.05766213566874
 20
99.36295521831647
 10
76.96318082224507
 20
99.43256904108563
 10
76.8857670664978
 20
99.46307024363392
 10
76.84640059721488
 20
99.47749739493389
 72
     1
 10
76.84640059721488
 20
99.47749739493389
 11
75.61761752613524
 21
99.47749739493389
 72
     1
 10
75.61761752613524
 20
99.47749739493389
 11
74.8439592428837
 21
97.9138902305133
 97
        6
330
1214
330
1211
330
120A
330
11E4
330
120B
330
1212
 92
       20
 93
        4
 72
     1
 10
75.98273912634375
 20
98.82441767757478
 11
76.10313926311812
 21
99.09053745642063
 72
     1
 10
76.10313926311812
 20
99.09053745642063
 11
76.41251630094325
 21
99.09053745642063
 72
     4
 94
        3
 73
     0
 74
     0
 95
       15
 96
       11
 40
0.0
 40
0.0
 40
0.0
 40
0.0
 40
0.1173311909271291
 40
0.1708277603084772
 40
0.2315499279304583
 40
0.2729166917718413
 40
0.3383386578210342
 40
0.3775246283551124
 40
0.4447549129354287
 40
0.4671650220984683
 40
0.4671650220984683
 40
0.4671650220984683
 40
0.4671650220984683
 10
76.41251630094325
 20
99.09053745642063
 10
76.45658362093808
 20
99.09073930826867
 10
76.52074321497295
 20
99.09103319345677
 10
76.55582796609786
 20
99.01166759009289
 10
76.54010130779692
 20
98.96056852240961
 10
76.52033161656941
 20
98.90810570632709
 10
76.48539409463087
 20
98.87245643154733
 10
76.43850282278807
 20
98.83812017029676
 10
76.39418833006018
 20
98.83396361212176
 10
76.36536672701038
 20
98.82632686521532
 10
76.35816132279888
 20
98.82441767757478
 72
     1
 10
76.35816132279889
 20
98.82441767757478
 11
75.98273912634375
 21
98.82441767757478
 97
        4
330
1210
330
1219
330
1215
330
1213
 75
     0
 76
     1
 47
0.0514683685270805
 98
        2
 10
75.62418518100696
 20
98.99117407024972
 10
75.62418518100696
 20
98.99117407024972
450
        0
451
        0
460
0.0
461
0.0
452
        0
462
0.0
453
        0
470

  0
POINT
  5
120E
330
18
100
AcDbEntity
  8
DEFPOINTS
  6
ByBlock
 62
     0
100
AcDbPoint
 10
74.84395924288367
 20
97.91389023051323
 30
0.0
  0
LINE
  5
1210
102
{ACAD_REACTORS
330
120C
102
}
330
18
100
AcDbEntity
  8
ROGO
 62
     4
100
AcDbLine
 10
76.10313926311812
 20
99.09053745642063
 30
0.0
 11
75.98273912634375
 21
98.82441767757478
 31
0.0
  0
LINE
  5
1211
102
{ACAD_REACTORS
330
120C
102
}
330
18
100
AcDbEntity
  8
ROGO
 62
     4
100
AcDbLine
 10
75.61761752613524
 20
99.47749739493389
 30
0.0
 11
76.84640059721482
 21
99.47749739493389
 31
0.0
  0
LINE
  5
1212
102
{ACAD_REACTORS
330
120C
102
}
330
18
100
AcDbEntity
  8
ROGO
 62
     4
100
AcDbLine
 10
76.50492010783136
 20
98.47683262055909
 30
0.0
 11
75.82548178685965
 21
98.47683262055909
 31
0.0
  0
LINE
  5
1213
102
{ACAD_REACTORS
330
120C
102
}
330
18
100
AcDbEntity
  8
ROGO
 62
     4
100
AcDbLine
 10
76.35816132279893
 20
98.82441767757478
 30
0.0
 11
75.98273912634375
 21
98.82441767757478
 31
0.0
  0
SPLINE
  5
1214
102
{ACAD_REACTORS
330
120C
102
}
330
18
100
AcDbEntity
  8
ROGO
 62
     4
100
AcDbSpline
210
0.0
220
0.0
230
1.0
 70
     8
 71
     3
 72
    18
 73
    14
 74
     0
 42
0.0000000001
 43
0.0000000001
 40
0.1087402787915014
 40
0.1087402787915014
 40
0.1087402787915014
 40
0.1087402787915014
 40
0.5992371417938475
 40
1.083176791562496
 40
1.448211145705696
 40
1.714037220764907
 40
2.164002567013297
 40
2.740236056362883
 40
3.395137510199602
 40
4.071816045172726
 40
4.784906178399433
 40
5.506895915094292
 40
6.060470601257719
 40
6.060470601257719
 40
6.060470601257719
 40
6.060470601257719
 10
76.84640059721488
 20
99.47749739493389
 30
0.0
 10
76.8857670664978
 20
99.46307024363392
 30
0.0
 10
76.96318082224507
 20
99.43256904108563
 30
0.0
 10
77.05766213566874
 20
99.36295521831647
 30
0.0
 10
77.10918816441335
 20
99.28259174813906
 30
0.0
 10
77.15875043543741
 20
99.20340793751627
 30
0.0
 10
77.16568658479468
 20
99.08980536889675
 30
0.0
 10
77.1543247035512
 20
98.94618418794449
 30
0.0
 10
77.08097342469699
 20
98.79633030643521
 30
0.0
 10
76.96324030799781
 20
98.6652622376979
 30
0.0
 10
76.81706642754568
 20
98.56035706481442
 30
0.0
 10
76.662921028607
 20
98.47800920557695
 30
0.0
 10
76.55273785411424
 20
98.47718870483873
 30
0.0
 10
76.50492010759575
 20
98.47683262055916
 30
0.0
  0
SPLINE
  5
1215
102
{ACAD_REACTORS
330
120C
102
}
330
18
100
AcDbEntity
  8
ROGO
 62
     4
100
AcDbSpline
210
0.0
220
0.0
230
1.0
 70
     8
 71
     3
 72
    15
 73
    11
 74
     9
 42
0.0000000001
 43
0.0000000001
 44
0.0000000001
 40
0.0
 40
0.0
 40
0.0
 40
0.0
 40
0.1173311909271291
 40
0.1708277603084772
 40
0.2315499279304583
 40
0.2729166917718413
 40
0.3383386578210342
 40
0.3775246283551124
 40
0.4447549129354287
 40
0.4671650220984683
 40
0.4671650220984683
 40
0.4671650220984683
 40
0.4671650220984683
 10
76.41251630094325
 20
99.09053745642063
 30
0.0
 10
76.45658362093808
 20
99.09073930826867
 30
0.0
 10
76.52074321497295
 20
99.09103319345677
 30
0.0
 10
76.55582796609786
 20
99.01166759009289
 30
0.0
 10
76.54010130779692
 20
98.96056852240961
 30
0.0
 10
76.52033161656941
 20
98.90810570632709
 30
0.0
 10
76.48539409463087
 20
98.87245643154733
 30
0.0
 10
76.43850282278807
 20
98.83812017029676
 30
0.0
 10
76.39418833006018
 20
98.83396361212176
 30
0.0
 10
76.36536672701038
 20
98.82632686521532
 30
0.0
 10
76.35816132279888
 20
98.82441767757478
 30
0.0
 11
76.41251630094325
 21
99.09053745642063
 31
0.0
 11
76.52666184881195
 21
99.06338230467861
 31
0.0
 11
76.54840390258005
 21
99.01450320859943
 31
0.0
 11
76.53753303197198
 21
98.95476205182342
 31
0.0
 11
76.52122656978395
 21
98.91674483938459
 31
0.0
 11
76.47774246224765
 21
98.86786574330546
 31
0.0
 11
76.44512953787137
 21
98.84614162191184
 31
0.0
 11
76.37990337656697
 21
98.82984870792313
 31
0.0
 11
76.35816132279888
 21
98.82441767757478
 31
0.0
  0
LINE
  5
1216
102
{ACAD_REACTORS
330
11E3
102
}
330
18
100
AcDbEntity
  8
ROGO
 62
     4
100
AcDbLine
 10
77.57233514643496
 20
99.47749739493389
 30
0.0
 11
77.07721552235728
 21
98.47683262055909
 31
0.0
  0
LINE
  5
1217
102
{ACAD_REACTORS
330
11E3
102
}
330
18
100
AcDbEntity
  8
ROGO
 62
     4
100
AcDbLine
 10
78.10102449713309
 20
99.24827494631536
 30
0.0
 11
78.0123463908111
 21
99.06905147598742
 31
0.0
  0
LINE
  5
1218
102
{ACAD_REACTORS
330
11E3
102
}
330
18
100
AcDbEntity
  8
ROGO
 62
     4
100
AcDbLine
 10
77.92141530014323
 20
98.88527459682144
 30
0.0
 11
77.83273343961645
 21
98.70604353903338
 31
0.0
  0
LINE
  5
1219
102
{ACAD_REACTORS
330
120C
102
}
330
18
100
AcDbEntity
  8
ROGO
 62
     4
100
AcDbLine
 10
76.4125163009433
 20
99.09053745642063
 30
0.0
 11
76.10313926311812
 21
99.09053745642063
 31
0.0
  0
TEXT
  5
121E
330
18
100
AcDbEntity
  8
文字
100
AcDbText
 10
94.37554008734526
 20
106.6117574158172
 30
0.0
 40
2.0
  1
30
  7
STYLE3
100
AcDbText
  0
LINE
  5
121F
330
18
100
AcDbEntity
  8
外形線
100
AcDbLine
 10
100.3632989852996
 20
96.40841672432618
 30
0.0
 11
96.46618466826964
 21
98.65841672432617
 31
0.0
  0
LINE
  5
1220
330
18
100
AcDbEntity
  8
外形線
100
AcDbLine
 10
99.74781517892177
 20
95.40403843648801
 30
0.0
 11
96.81246819111278
 21
97.31027505904064
 31
0.0
  0
LINE
  5
1221
330
18
100
AcDbEntity
  8
外形線
100
AcDbLine
 10
99.08060977358605
 20
94.43324854774557
 30
0.0
 11
96.24905029327379
 21
96.49049693076921
 31
0.0
  0
LINE
  5
1222
330
18
100
AcDbEntity
  8
外形線
100
AcDbLine
 10
98.36351153293158
 20
93.49870792570483
 30
0.0
 11
95.64350066783219
 21
95.70132929437932
 31
0.0
  0
TEXT
  5
1224
330
18
100
AcDbEntity
  8
文字
100
AcDbText
 10
87.09636806538469
 20
93.54363118478733
 30
0.0
 40
2.0
  1
50
  7
STYLE3
100
AcDbText
  0
LINE
  5
1225
330
18
100
AcDbEntity
  8
外形線
100
AcDbLine
 10
96.44119983819418
 20
92.09494428628163
 30
0.0
 11
93.60564946150759
 21
94.93049466296822
 31
0.0
  0
LINE
  5
1226
330
18
100
AcDbEntity
  8
外形線
100
AcDbLine
 10
97.51981554758728
 20
92.67381325081224
 30
0.0
 11
94.99747908422035
 21
94.9449352035079
 31
0.0
  0
LINE
  5
1228
330
18
100
AcDbEntity
  8
外形線
100
AcDbLine
 10
88.941006264919
 20
86.65285712813902
 30
0.0
 11
87.68671844151048
 21
89.92038862087936
 31
0.0
  0
LINE
  5
122C
330
18
100
AcDbEntity
  8
外形線
100
AcDbLine
 10
87.8306097735861
 20
86.25964510768511
 30
0.0
 11
86.74905029327385
 21
89.58834291471822
 31
0.0
  0
LINE
  5
122D
330
18
100
AcDbEntity
  8
外形線
100
AcDbLine
 10
86.70115591495648
 20
85.92508563282212
 30
0.0
 11
85.53647021199514
 21
90.27175185112293
 31
0.0
  0
POINT
  5
122E
330
18
100
AcDbEntity
  8
DEFPOINTS
  6
ByBlock
 62
     0
100
AcDbPoint
 10
86.70115591495649
 20
85.92508563282214
 30
0.0
  0
TEXT
  5
122F
330
18
100
AcDbEntity
  8
文字
100
AcDbText
 10
80.45941755733554
 20
87.67508016513245
 30
0.0
 40
1.0
  1
E
  7
STYLE3
100
AcDbText
  0
TEXT
  5
1230
330
18
100
AcDbEntity
  8
文字
100
AcDbText
 10
79.23171269754238
 20
87.73560099900725
 30
0.0
 40
1.0
  1
W
 50
357.0959730001581
  7
STYLE3
100
AcDbText
  0
TEXT
  5
1231
330
18
100
AcDbEntity
  8
文字
100
AcDbText
 10
82.39779325417869
 20
87.74506482625525
 30
0.0
 40
1.0
  1
E
 50
5.567348364325177
  7
STYLE3
100
AcDbText
  0
TEXT
  5
1232
330
18
100
AcDbEntity
  8
文字
100
AcDbText
 10
81.49930424689797
 20
87.68365820017477
 30
0.0
 40
1.0
  1
L
 50
2.872940209688468
  7
STYLE3
100
AcDbText
  0
POINT
  5
1233
330
18
100
AcDbEntity
  8
DEFPOINTS
  6
ByBlock
 62
     0
100
AcDbPoint
 10
80.87772740014974
 20
92.60380683146379
 30
0.0
  0
POINT
  5
1234
330
18
100
AcDbEntity
  8
DEFPOINTS
  6
ByBlock
 62
     0
100
AcDbPoint
 10
85.53647021199518
 20
90.27175185112296
 30
0.0
  0
TEXT
  5
1239
330
18
100
AcDbEntity
  8
文字
100
AcDbText
 10
83.3752794711715
 20
87.85858450346808
 30
0.0
 40
1.0
  1
D
 50
5.522724978934679
  7
STYLE3
100
AcDbText
  0
LINE
  5
123A
330
18
100
AcDbEntity
  8
外形線
100
AcDbLine
 10
90.02930186935532
 20
87.10364392736762
 30
0.0
 11
88.60572361858999
 21
90.30105302911664
 31
0.0
  0
LINE
  5
123B
330
18
100
AcDbEntity
  8
外形線
100
AcDbLine
 10
94.10289557673037
 20
89.45553435088976
 30
0.0
 11
92.04564719370678
 21
92.28709383120213
 31
0.0
  0
LINE
  5
123C
330
18
100
AcDbEntity
  8
外形線
100
AcDbLine
 10
93.13210568798785
 20
88.78832894555404
 30
0.0
 11
91.2258690654353
 21
91.72367593336304
 31
0.0
  0
LINE
  5
123D
330
18
100
AcDbEntity
  8
外形線
100
AcDbLine
 10
92.12772740014974
 20
88.17284513917622
 30
0.0
 11
89.87772740014975
 21
92.06995945620622
 31
0.0
  0
LINE
  5
123E
330
18
100
AcDbEntity
  8
外形線
100
AcDbLine
 10
91.09251364428951
 20
87.61076993008776
 30
0.0
 11
89.50354689520111
 21
90.72929276474708
 31
0.0
  0
LINE
  5
123F
330
18
100
AcDbEntity
  8
外形線
100
AcDbLine
 10
95.71011946346573
 20
91.18537647395408
 30
0.0
 11
93.59120892096802
 21
93.53866504025559
 31
0.0
  0
LINE
  5
1240
330
18
100
AcDbEntity
  8
外形線
100
AcDbLine
 10
95.03743619877104
 20
90.17263259154431
 30
0.0
 11
92.83481483009666
 21
92.89264345664362
 31
0.0
  0
LINE
  5
1244
102
{ACAD_REACTORS
330
1246
102
}
330
18
100
AcDbEntity
  8
ROGO
 62
     4
100
AcDbLine
 10
82.75340980215082
 20
99.48167123756144
 30
0.0
 11
83.32528323986622
 21
99.48167123756144
 31
0.0
  0
SPLINE
  5
1245
102
{ACAD_REACTORS
330
1246
102
}
330
18
100
AcDbEntity
  8
ROGO
 62
     4
100
AcDbSpline
210
0.0
220
0.0
230
1.0
 70
     8
 71
     3
 72
    11
 73
     7
 74
     0
 42
0.0000000001
 43
0.0000000001
 40
0.1647869275458134
 40
0.1647869275458134
 40
0.1647869275458134
 40
0.1647869275458134
 40
0.2895635144633836
 40
0.5387013147903714
 40
0.7953622617455423
 40
0.8850764140209602
 40
0.8850764140209602
 40
0.8850764140209602
 40
0.8850764140209602
 10
83.22296722224388
 20
98.49914235077898
 30
0.0
 10
83.21231505807498
 20
98.49617731682247
 30
0.0
 10
83.17928761196549
 20
98.49089823840035
 30
0.0
 10
83.12388847534107
 20
98.48364944373351
 30
0.0
 10
83.07123436679757
 20
98.47608506202925
 30
0.0
 10
83.04042468907118
 20
98.47667882961031
 30
0.0
 10
83.03244471555336
 20
98.47683262055916
 30
0.0
  0
HATCH
  5
1246
330
18
100
AcDbEntity
  8
ROGO
 62
     4
100
AcDbHatch
 10
0.0
 20
0.0
 30
0.0
210
0.0
220
0.0
230
1.0
  2
SOLID
 70
     1
 71
     1
 91
        2
 92
        5
 93
        6
 72
     4
 94
        3
 73
     0
 74
     0
 95
       38
 96
       34
 40
0.0
 40
0.0
 40
0.0
 40
0.0
 40
0.1377518814269403
 40
0.1810136836454759
 40
0.2366021580813189
 40
0.2829259774522072
 40
0.3220114216621721
 40
0.3739258113479615
 40
0.400452018397381
 40
0.430327490341427
 40
0.4743583140443541
 40
0.5242356829021452
 40
0.5565906436074935
 40
0.5917389852555234
 40
0.6308103713097882
 40
0.690103179468453
 40
0.7464375304839319
 40
0.7726270891267914
 40
0.8024927772748714
 40
0.8378737549607437
 40
0.8630604644926993
 40
0.8841741806523193
 40
0.9143197975364294
 40
0.9474446665781009
 40
0.9805693511859566
 40
1.009553496326227
 40
1.075932340706376
 40
1.102121899349253
 40
1.154501047744393
 40
1.200801884818927
 40
1.289441366201207
 40
1.398813308257271
 40
1.556762308284053
 40
1.556762308284053
 40
1.556762308284053
 40
1.556762308284053
 10
82.75340980215089
 20
99.48167123756144
 10
82.70749297113942
 20
99.47842753711899
 10
82.64715568473278
 20
99.47416513315294
 10
82.57054143921564
 20
99.45317511405832
 10
82.52877819895095
 20
99.42816924231824
 10
82.48531519985931
 20
99.40978872798249
 10
82.44825894518502
 20
99.38257083118903
 10
82.41077732589845
 20
99.36854571119587
 10
82.38453154869905
 20
99.34325591298776
 10
82.35415420241869
 20
99.32780781271514
 10
82.329964182241
 20
99.29323047321169
 10
82.30292660066856
 20
99.26090191375109
 10
82.271559604594
 20
99.23730350714393
 10
82.24581628994238
 20
99.21251827591948
 10
82.2222003783232
 20
99.17426721702518
 10
82.20822342486483
 20
99.12344288643637
 10
82.16882473912434
 20
99.09135423702322
 10
82.1628925306118
 20
99.05277410587387
 10
82.14109991606662
 20
99.03001247770413
 10
82.13162372508012
 20
99.00063048572912
 10
82.12801473541693
 20
98.97371139113516
 10
82.12368308725755
 20
98.94857082026703
 10
82.11235231602534
 20
98.92212405024885
 10
82.11605071884918
 20
98.88945531963157
 10
82.11499715491845
 20
98.85782110344692
 10
82.11561717852843
 20
98.8151139265312
 10
82.11337942745178
 20
98.77353323791599
 10
82.13122461535936
 20
98.72828358648328
 10
82.14178480534441
 20
98.68794978231569
 10
82.1707056034659
 20
98.63210273941882
 10
82.22059337415059
 20
98.56766732718842
 10
82.31545914312395
 20
98.48945494509651
 10
82.40667535362542
 20
98.48152066300295
 10
82.46057127783803
 20
98.47683262055916
 72
     1
 10
82.46057127783812
 20
98.47683262055909
 11
83.03244471555263
 21
98.47683262055912
 72
     4
 94
        3
 73
     0
 74
     0
 95
       11
 96
        7
 40
0.1647869275458135
 40
0.1647869275458135
 40
0.1647869275458135
 40
0.1647869275458135
 40
0.2545010798212315
 40
0.5111620267764023
 40
0.7602998271033902
 40
0.8850764140209603
 40
0.8850764140209603
 40
0.8850764140209603
 40
0.8850764140209603
 10
83.03244471555336
 20
98.47683262055916
 10
83.04042468907118
 20
98.47667882961031
 10
83.07123436679757
 20
98.47608506202925
 10
83.12388847534107
 20
98.48364944373351
 10
83.17928761196549
 20
98.49089823840035
 10
83.21231505807498
 20
98.49617731682247
 10
83.22296722224388
 20
98.49914235077898
 72
     4
 94
        3
 73
     0
 74
     0
 95
        9
 96
        5
 40
0.0
 40
0.0
 40
0.0
 40
0.0
 40
0.0865516336707051
 40
0.2029257078463241
 40
0.2029257078463241
 40
0.2029257078463241
 40
0.2029257078463241
 10
83.22296722224388
 20
98.49914235077898
 10
83.25077011112567
 20
98.50764846453738
 10
83.31595571961429
 20
98.52759157921061
 10
83.36981396454083
 20
98.56974160141907
 10
83.40070065433764
 20
98.59391384584808
 72
     4
 94
        3
 73
     0
 74
     0
 95
       25
 96
       21
 40
0.0
 40
0.0
 40
0.0
 40
0.0
 40
0.165525918914855
 40
0.3412380755365305
 40
0.5940540902285263
 40
0.7697671103696209
 40
0.9377330196075423
 40
1.11479469302833
 40
1.274661249598185
 40
1.574522170874768
 40
1.815540668866877
 40
2.15849091873445
 40
2.536227739636605
 40
2.738070817316548
 40
2.925680654369045
 40
3.162706124480894
 40
3.395643218188267
 40
3.648478129958861
 40
3.928509979727306
 40
4.337226830236035
 40
4.337226830236035
 40
4.337226830236035
 40
4.337226830236035
 10
83.40070065433764
 20
98.59391384584808
 10
83.4120494074752
 20
98.60329203774989
 10
83.43357488933703
 20
98.62559694908748
 10
83.47175387589926
 20
98.6617482408161
 10
83.5053979228536
 20
98.70386736447381
 10
83.5469002769787
 20
98.73800343807255
 10
83.56850627278083
 20
98.77973731851183
 10
83.59964961021109
 20
98.8125601265437
 10
83.62577377055828
 20
98.8632517158868
 10
83.6479388294548
 20
98.92148029366843
 10
83.66907015249626
 20
98.99738013820599
 10
83.67716789348156
 20
99.08300644482062
 10
83.66518222978482
 20
99.16584985349869
 10
83.63622789615233
 20
99.22777258028611
 10
83.61494103738079
 20
99.27937879110892
 10
83.58263556231349
 20
99.32825895927607
 10
83.54577938156529
 20
99.38142154773101
 10
83.49385554915675
 20
99.42539561519016
 10
83.42599643134064
 20
99.47843542659189
 10
83.36279073009649
 20
99.48046616058434
 10
83.32528323986622
 20
99.48167123756144
 72
     1
 10
83.32528323986624
 20
99.48167123756144
 11
82.75340980215085
 21
99.48167123756144
 97
        6
330
1275
330
1244
330
125F
330
1260
330
1245
330
1276
 92
       20
 93
        1
 72
     3
 10
82.88482944710882
 20
98.96524194528172
 11
0.1358595110271534
 21
0.119471439333386
 40
0.678808341743879
 50
0.0
 51
360.0
 73
     1
 97
        1
330
1261
 75
     0
 76
     1
 47
0.088756267210375
 98
        2
 10
82.92478400925677
 20
99.20413078483642
 10
82.92478400925677
 20
99.20413078483642
450
        0
451
        0
460
0.0
461
0.0
452
        0
462
0.0
453
        0
470

  0
SPLINE
  5
1248
102
{ACAD_REACTORS
330
1249
102
}
330
18
100
AcDbEntity
  8
ROGO
 62
     4
100
AcDbSpline
210
0.0
220
0.0
230
1.0
 70
     8
 71
     3
 72
    26
 73
    22
 74
    20
 42
0.0000000001
 43
0.0000000001
 44
0.0000000001
 40
0.0
 40
0.0
 40
0.0
 40
0.0
 40
0.1815320543485053
 40
0.3030537083199962
 40
0.3906807171793024
 40
0.4561089693578315
 40
0.5409728463824015
 40
0.6029152034572501
 40
0.714768662850487
 40
0.8058157707230188
 40
0.867742392801297
 40
0.9284646163791247
 40
1.037084869234313
 40
1.113892352366038
 40
1.155259116207495
 40
1.21401938228823
 40
1.256451488881051
 40
1.317921602285561
 40
1.352708369427598
 40
1.428408276764845
 40
1.46297351205421
 40
1.46297351205421
 40
1.46297351205421
 40
1.46297351205421
 10
81.19560716565979
 20
99.47749739493389
 30
0.0
 10
81.13399238158859
 20
99.47382135125794
 30
0.0
 10
81.03113127054609
 20
99.46768448098485
 30
0.0
 10
80.91819039635471
 20
99.39907411280874
 30
0.0
 10
80.83544330000092
 20
99.35918705982667
 30
0.0
 10
80.77642817123335
 20
99.30496400945081
 30
0.0
 10
80.73316984261708
 20
99.24895555933133
 30
0.0
 10
80.67863459850272
 20
99.18222190167876
 30
0.0
 10
80.63416266527397
 20
99.1045132577927
 30
0.0
 10
80.61151581330353
 20
99.01886478503783
 30
0.0
 10
80.59145544676978
 20
98.95060245530393
 30
0.0
 10
80.57657834311916
 20
98.87453299723119
 30
0.0
 10
80.58036349945327
 20
98.79235122267672
 30
0.0
 10
80.58578401655639
 20
98.71602499773999
 30
0.0
 10
80.60998530732609
 20
98.66153950073821
 30
0.0
 10
80.63754629072555
 20
98.62274958142416
 30
0.0
 10
80.67129433745222
 20
98.58002678573541
 30
0.0
 10
80.70822208066331
 20
98.55173161649259
 30
0.0
 10
80.73876433855089
 20
98.50047301601973
 30
0.0
 10
80.79222753065986
 20
98.49393204891988
 30
0.0
 10
80.82621086251654
 20
98.48091357217377
 30
0.0
 10
80.83686374731371
 20
98.47683262055916
 30
0.0
 11
81.19560716565979
 21
99.47749739493389
 31
0.0
 11
81.01623545648664
 21
99.44957470336788
 31
0.0
 11
80.90752518764606
 21
99.39526457694036
 31
0.0
 11
80.83142815573358
 21
99.35181651120963
 31
0.0
 11
80.78250876916923
 21
99.30836826842233
 31
0.0
 11
80.72815379102497
 21
99.24319608129792
 31
0.0
 11
80.69010527506861
 21
99.19431698521885
 31
0.0
 11
80.63574998437241
 21
99.09655861600391
 31
0.0
 11
80.60857265157626
 21
99.00966230748601
 31
0.0
 11
80.59226618938817
 21
98.94992115071
 31
0.0
 11
80.58139500622804
 21
98.890179993934
 31
0.0
 11
80.58139500622804
 21
98.78155974107881
 31
0.0
 11
80.59226618938817
 21
98.70552549325765
 31
0.0
 11
80.60857265157626
 21
98.66750828081876
 31
0.0
 11
80.64118557595241
 21
98.61862918473963
 31
0.0
 11
80.66836322130058
 21
98.58604300264914
 31
0.0
 11
80.71184701628471
 21
98.54259493691841
 31
0.0
 11
80.73358907005298
 21
98.51543978517639
 31
0.0
 11
80.80425082293738
 21
98.48828481049089
 31
0.0
 11
80.83686374731371
 21
98.47683262055916
 31
0.0
  0
HATCH
  5
1249
330
18
100
AcDbEntity
  8
ROGO
 62
     4
100
AcDbHatch
 10
0.0
 20
0.0
 30
0.0
210
0.0
220
0.0
230
1.0
  2
SOLID
 70
     1
 71
     1
 91
        1
 92
        5
 93
        8
 72
     1
 10
82.0120663905409
 20
99.10518522053884
 11
82.19771326525819
 21
99.47749739493389
 72
     1
 10
82.19771326525819
 20
99.47749739493389
 11
81.19560716565977
 21
99.4774973949339
 72
     4
 94
        3
 73
     0
 74
     0
 95
       26
 96
       22
 40
0.0
 40
0.0
 40
0.0
 40
0.0
 40
0.1815320543485053
 40
0.3030537083199962
 40
0.3906807171793024
 40
0.4561089693578315
 40
0.5409728463824015
 40
0.6029152034572501
 40
0.714768662850487
 40
0.8058157707230188
 40
0.867742392801297
 40
0.9284646163791247
 40
1.037084869234313
 40
1.113892352366038
 40
1.155259116207495
 40
1.21401938228823
 40
1.256451488881051
 40
1.317921602285561
 40
1.352708369427598
 40
1.428408276764845
 40
1.46297351205421
 40
1.46297351205421
 40
1.46297351205421
 40
1.46297351205421
 10
81.19560716565979
 20
99.47749739493389
 10
81.13399238158859
 20
99.47382135125794
 10
81.03113127054609
 20
99.46768448098485
 10
80.91819039635471
 20
99.39907411280874
 10
80.83544330000092
 20
99.35918705982667
 10
80.77642817123335
 20
99.30496400945081
 10
80.73316984261708
 20
99.24895555933133
 10
80.67863459850272
 20
99.18222190167876
 10
80.63416266527397
 20
99.1045132577927
 10
80.61151581330353
 20
99.01886478503783
 10
80.59145544676978
 20
98.95060245530393
 10
80.57657834311916
 20
98.87453299723119
 10
80.58036349945327
 20
98.79235122267672
 10
80.58578401655639
 20
98.71602499773999
 10
80.60998530732609
 20
98.66153950073821
 10
80.63754629072555
 20
98.62274958142416
 10
80.67129433745222
 20
98.58002678573541
 10
80.70822208066331
 20
98.55173161649259
 10
80.73876433855089
 20
98.50047301601973
 10
80.79222753065986
 20
98.49393204891988
 10
80.82621086251654
 20
98.48091357217377
 10
80.83686374731371
 20
98.47683262055916
 72
     1
 10
80.83686374731374
 20
98.47683262055909
 11
81.69874949029123
 21
98.47683262055911
 72
     1
 10
81.69874949029123
 20
98.47683262055911
 11
81.88439439905883
 21
98.84914085227002
 72
     1
 10
81.88439439905883
 20
98.84914085227002
 11
81.24452655222416
 21
98.84914085227002
 72
     4
 94
        3
 73
     0
 74
     0
 95
       16
 96
       12
 40
0.0
 40
0.0
 40
0.0
 40
0.0
 40
0.0548221980867551
 40
0.1102098473221577
 40
0.1432460907511411
 40
0.174921048923576
 40
0.2097076778523846
 40
0.2340000650060201
 40
0.2570514321000279
 40
0.3037962950973969
 40
0.3995010334847652
 40
0.3995010334847652
 40
0.3995010334847652
 40
0.3995010334847652
 10
81.24452655222416
 20
98.84914085227002
 10
81.22522588303402
 20
98.85481939214443
 10
81.18642547227173
 20
98.86623504190694
 10
81.18317819121118
 20
98.92157391818381
 10
81.18760214185604
 20
98.96100739589588
 10
81.20612965703733
 20
98.98971727043711
 10
81.22860674650707
 20
99.0106074816316
 10
81.23697596380329
 20
99.03781371540041
 10
81.26157651552988
 20
99.05835782569255
 10
81.30519988532457
 20
99.09288960527167
 10
81.35343978066433
 20
99.10024410275957
 10
81.38584974544096
 20
99.10518522053884
 72
     1
 10
81.38584974544096
 20
99.10518522053882
 11
82.0120663905409
 21
99.10518522053884
 97
        8
330
125E
330
1248
330
1262
330
125D
330
125B
330
125C
330
125A
330
1259
 75
     0
 76
     1
 47
0.0514683685270805
 98
        1
 10
81.54608077102137
 20
99.25473768474995
450
        0
451
        0
460
0.0
461
0.0
452
        0
462
0.0
453
        0
470

  0
LINE
  5
124A
102
{ACAD_REACTORS
330
11E3
102
}
330
18
100
AcDbEntity
  8
ROGO
 62
     4
100
AcDbLine
 10
78.92577588377537
 20
99.47749739493389
 30
0.0
 11
78.81235874799068
 21
99.24827494631536
 31
0.0
  0
LINE
  5
124B
102
{ACAD_REACTORS
330
11E3
102
}
330
18
100
AcDbEntity
  8
ROGO
 62
     4
100
AcDbLine
 10
78.72368064166875
 20
99.06905147598742
 30
0.0
 11
78.63274955100076
 21
98.88527459682144
 31
0.0
  0
LINE
  5
124C
102
{ACAD_REACTORS
330
11E3
102
}
330
18
100
AcDbEntity
  8
ROGO
 62
     4
100
AcDbLine
 10
78.54406769047409
 20
98.70604353903338
 30
0.0
 11
78.43065625969757
 21
98.47683262055909
 31
0.0
  0
LINE
  5
124D
102
{ACAD_REACTORS
330
1258
102
}
330
18
100
AcDbEntity
  8
ROGO
 62
     4
100
AcDbLine
 10
79.31783945255642
 20
99.47749739493389
 30
0.0
 11
78.59624063606173
 21
98.47683262055909
 31
0.0
  0
LINE
  5
124E
102
{ACAD_REACTORS
330
1258
102
}
330
18
100
AcDbEntity
  8
ROGO
 62
     4
100
AcDbLine
 10
79.67914233210968
 20
99.21001563374261
 30
0.0
 11
79.43272497580477
 21
98.86830059401075
 31
0.0
  0
LINE
  5
124F
102
{ACAD_REACTORS
330
1258
102
}
330
18
100
AcDbEntity
  8
ROGO
 62
     4
100
AcDbLine
 10
79.2878177620434
 20
98.66735300228924
 30
0.0
 11
79.92021457553767
 21
98.66735300228924
 31
0.0
  0
LINE
  5
1250
102
{ACAD_REACTORS
330
1258
102
}
330
18
100
AcDbEntity
  8
ROGO
 62
     4
100
AcDbLine
 10
79.43272497580477
 20
98.86830059401086
 30
0.0
 11
79.83094569292086
 21
98.86830059401086
 31
0.0
  0
LINE
  5
1251
102
{ACAD_REACTORS
330
1258
102
}
330
18
100
AcDbEntity
  8
ROGO
 62
     4
100
AcDbLine
 10
79.2878177620434
 20
98.66735300228924
 30
0.0
 11
79.15042981205743
 21
98.47683262055916
 31
0.0
  0
LINE
  5
1252
102
{ACAD_REACTORS
330
1258
102
}
330
18
100
AcDbEntity
  8
ROGO
 62
     4
100
AcDbLine
 10
78.59624063606173
 20
98.47683262055909
 30
0.0
 11
79.15042981205733
 21
98.47683262055909
 31
0.0
  0
LINE
  5
1253
102
{ACAD_REACTORS
330
1258
102
}
330
18
100
AcDbEntity
  8
ROGO
 62
     4
100
AcDbLine
 10
79.31783945255642
 20
99.47749739493389
 30
0.0
 11
80.1182855721205
 21
99.47749739493389
 31
0.0
  0
LINE
  5
1254
102
{ACAD_REACTORS
330
1258
102
}
330
18
100
AcDbEntity
  8
ROGO
 62
     4
100
AcDbLine
 10
80.56282051537209
 20
98.47683262055916
 30
0.0
 11
80.00485127830723
 21
98.47683262055909
 31
0.0
  0
LINE
  5
1255
102
{ACAD_REACTORS
330
1258
102
}
330
18
100
AcDbEntity
  8
ROGO
 62
     4
100
AcDbLine
 10
80.1182855721205
 20
99.47749739493389
 30
0.0
 11
80.56282051537209
 21
98.47683262055909
 31
0.0
  0
LINE
  5
1256
102
{ACAD_REACTORS
330
1258
102
}
330
18
100
AcDbEntity
  8
ROGO
 62
     4
100
AcDbLine
 10
79.67914233210973
 20
99.21001563374261
 30
0.0
 11
79.83094569292086
 21
98.86830059401075
 31
0.0
  0
LINE
  5
1257
102
{ACAD_REACTORS
330
1258
102
}
330
18
100
AcDbEntity
  8
ROGO
 62
     4
100
AcDbLine
 10
79.92021457553767
 20
98.66735300228924
 30
0.0
 11
80.00485127830723
 21
98.47683262055909
 31
0.0
  0
HATCH
  5
1258
330
18
100
AcDbEntity
  8
ROGO
 62
     4
100
AcDbHatch
 10
0.0
 20
0.0
 30
0.0
210
0.0
220
0.0
230
1.0
  2
SOLID
 70
     1
 71
     1
 91
        2
 92
        7
 72
     0
 73
     1
 93
        8
 10
80.11828557212048
 20
99.47749739493389
 10
79.31783945255642
 20
99.47749739493389
 10
78.59624063606173
 20
98.47683262055909
 10
79.1504298120574
 20
98.47683262055909
 10
79.2878177620434
 20
98.66735300228924
 10
79.92021457553767
 20
98.66735300228924
 10
80.00485127830721
 20
98.47683262055907
 10
80.56282051537207
 20
98.47683262055916
 97
        8
330
1253
330
124D
330
1252
330
1251
330
124F
330
1257
330
1254
330
1255
 92
       22
 72
     0
 73
     1
 93
        3
 10
79.83094569292082
 20
98.86830059401088
 10
79.43272497580482
 20
98.86830059401084
 10
79.6791423321097
 20
99.21001563374266
 97
        3
330
1250
330
124E
330
1256
 75
     0
 76
     1
 47
0.0128389261915577
 98
        2
 10
80.05560431620954
 20
99.23742385753037
 10
80.05560431620954
 20
99.23742385753037
450
        0
451
        0
460
0.0
461
0.0
452
        0
462
0.0
453
        0
470

  0
LINE
  5
1259
102
{ACAD_REACTORS
330
1249
102
}
330
18
100
AcDbEntity
  8
ROGO
 62
     4
100
AcDbLine
 10
82.19771326525819
 20
99.47749739493389
 30
0.0
 11
82.0120663905409
 21
99.10518522053884
 31
0.0
  0
LINE
  5
125A
102
{ACAD_REACTORS
330
1249
102
}
330
18
100
AcDbEntity
  8
ROGO
 62
     4
100
AcDbLine
 10
81.38584974544096
 20
99.10518522053884
 30
0.0
 11
82.0120663905409
 21
99.10518522053884
 31
0.0
  0
LINE
  5
125B
102
{ACAD_REACTORS
330
1249
102
}
330
18
100
AcDbEntity
  8
ROGO
 62
     4
100
AcDbLine
 10
81.24452655222416
 20
98.84914085227002
 30
0.0
 11
81.88439439905881
 21
98.84914085227002
 31
0.0
  0
SPLINE
  5
125C
102
{ACAD_REACTORS
330
1249
102
}
330
18
100
AcDbEntity
  8
ROGO
 62
     4
100
AcDbSpline
210
0.0
220
0.0
230
1.0
 70
     8
 71
     3
 72
    16
 73
    12
 74
    10
 42
0.0000000001
 43
0.0000000001
 44
0.0000000001
 40
0.0
 40
0.0
 40
0.0
 40
0.0
 40
0.0957047383873683
 40
0.1424496013847372
 40
0.1655009684787451
 40
0.1897933556323806
 40
0.2245799845611891
 40
0.256254942733624
 40
0.2892911861626075
 40
0.3446788353980101
 40
0.3995010334847652
 40
0.3995010334847652
 40
0.3995010334847652
 40
0.3995010334847652
 10
81.38584974544096
 20
99.10518522053884
 30
0.0
 10
81.35343978066433
 20
99.10024410275957
 30
0.0
 10
81.30519988532457
 20
99.09288960527167
 30
0.0
 10
81.26157651552988
 20
99.05835782569255
 30
0.0
 10
81.23697596380329
 20
99.03781371540041
 30
0.0
 10
81.22860674650707
 20
99.0106074816316
 30
0.0
 10
81.20612965703733
 20
98.98971727043711
 30
0.0
 10
81.18760214185604
 20
98.96100739589588
 30
0.0
 10
81.18317819121118
 20
98.92157391818381
 30
0.0
 10
81.18642547227173
 20
98.86623504190694
 30
0.0
 10
81.22522588303402
 20
98.85481939214443
 30
0.0
 10
81.24452655222416
 20
98.84914085227002
 30
0.0
 11
81.38584974544096
 21
99.10518522053884
 31
0.0
 11
81.29344625134041
 21
99.08026552495876
 31
0.0
 11
81.25539773538418
 21
99.05311055027324
 31
0.0
 11
81.2390912731961
 21
99.0368174592279
 31
0.0
 11
81.22822009003602
 21
99.01509333783435
 31
0.0
 11
81.20647803626781
 21
98.98793836314883
 31
0.0
 11
81.19017157407967
 21
98.96078321140681
 31
0.0
 11
81.18473598249966
 21
98.92819720637284
 31
0.0
 11
81.19560716565979
 21
98.87388690288885
 31
0.0
 11
81.24452655222416
 21
98.84914085227002
 31
0.0
  0
LINE
  5
125D
102
{ACAD_REACTORS
330
1249
102
}
330
18
100
AcDbEntity
  8
ROGO
 62
     4
100
AcDbLine
 10
81.88439439905881
 20
98.84914085227002
 30
0.0
 11
81.69874949029122
 21
98.47683262055909
 31
0.0
  0
LINE
  5
125E
102
{ACAD_REACTORS
330
1249
102
}
330
18
100
AcDbEntity
  8
ROGO
 62
     4
100
AcDbLine
 10
81.19560716566008
 20
99.47749739493389
 30
0.0
 11
82.19771326525819
 21
99.47749739493389
 31
0.0
  0
SPLINE
  5
125F
102
{ACAD_REACTORS
330
1246
102
}
330
18
100
AcDbEntity
  8
ROGO
 62
     4
100
AcDbSpline
210
0.0
220
0.0
230
1.0
 70
     8
 71
     3
 72
    38
 73
    34
 74
    32
 42
0.0000000001
 43
0.0000000001
 44
0.0000000001
 40
0.0
 40
0.0
 40
0.0
 40
0.0
 40
0.1377518814269403
 40
0.1810136836454759
 40
0.2366021580813189
 40
0.2829259774522072
 40
0.3220114216621721
 40
0.3739258113479615
 40
0.400452018397381
 40
0.430327490341427
 40
0.4743583140443541
 40
0.5242356829021452
 40
0.5565906436074935
 40
0.5917389852555234
 40
0.6308103713097882
 40
0.690103179468453
 40
0.7464375304839319
 40
0.7726270891267914
 40
0.8024927772748714
 40
0.8378737549607437
 40
0.8630604644926993
 40
0.8841741806523193
 40
0.9143197975364294
 40
0.9474446665781009
 40
0.9805693511859566
 40
1.009553496326227
 40
1.075932340706376
 40
1.102121899349253
 40
1.154501047744393
 40
1.200801884818927
 40
1.289441366201207
 40
1.398813308257271
 40
1.556762308284053
 40
1.556762308284053
 40
1.556762308284053
 40
1.556762308284053
 10
82.75340980215089
 20
99.48167123756144
 30
0.0
 10
82.70749297113942
 20
99.47842753711899
 30
0.0
 10
82.64715568473278
 20
99.47416513315294
 30
0.0
 10
82.57054143921564
 20
99.45317511405832
 30
0.0
 10
82.52877819895095
 20
99.42816924231824
 30
0.0
 10
82.48531519985931
 20
99.40978872798249
 30
0.0
 10
82.44825894518502
 20
99.38257083118903
 30
0.0
 10
82.41077732589845
 20
99.36854571119587
 30
0.0
 10
82.38453154869905
 20
99.34325591298776
 30
0.0
 10
82.35415420241869
 20
99.32780781271514
 30
0.0
 10
82.329964182241
 20
99.29323047321169
 30
0.0
 10
82.30292660066856
 20
99.26090191375109
 30
0.0
 10
82.271559604594
 20
99.23730350714393
 30
0.0
 10
82.24581628994238
 20
99.21251827591948
 30
0.0
 10
82.2222003783232
 20
99.17426721702518
 30
0.0
 10
82.20822342486483
 20
99.12344288643637
 30
0.0
 10
82.16882473912434
 20
99.09135423702322
 30
0.0
 10
82.1628925306118
 20
99.05277410587387
 30
0.0
 10
82.14109991606662
 20
99.03001247770413
 30
0.0
 10
82.13162372508012
 20
99.00063048572912
 30
0.0
 10
82.12801473541693
 20
98.97371139113516
 30
0.0
 10
82.12368308725755
 20
98.94857082026703
 30
0.0
 10
82.11235231602534
 20
98.92212405024885
 30
0.0
 10
82.11605071884918
 20
98.88945531963157
 30
0.0
 10
82.11499715491845
 20
98.85782110344692
 30
0.0
 10
82.11561717852843
 20
98.8151139265312
 30
0.0
 10
82.11337942745178
 20
98.77353323791599
 30
0.0
 10
82.13122461535936
 20
98.72828358648328
 30
0.0
 10
82.14178480534441
 20
98.68794978231569
 30
0.0
 10
82.1707056034659
 20
98.63210273941882
 30
0.0
 10
82.22059337415059
 20
98.56766732718842
 30
0.0
 10
82.31545914312395
 20
98.48945494509651
 30
0.0
 10
82.40667535362542
 20
98.48152066300295
 30
0.0
 10
82.46057127783803
 20
98.47683262055916
 30
0.0
 11
82.75340980215089
 21
99.48167123756144
 31
0.0
 11
82.6166572389401
 21
99.46510871082365
 31
0.0
 11
82.57521707813612
 21
99.45268709242117
 31
0.0
 11
82.52548908051631
 21
99.42784348674832
 31
0.0
 11
82.48404891971228
 21
99.40714060497686
 31
0.0
 11
82.45089692129909
 21
99.38643753877153
 31
0.0
 11
82.40531284208719
 21
99.36159411753266
 31
0.0
 11
82.3845925988976
 21
99.34503177522874
 31
0.0
 11
82.35972843730024
 21
99.32846924849094
 31
0.0
 11
82.33072035729497
 21
99.29534456388314
 31
0.0
 11
82.29756835888172
 21
99.25807933980781
 31
0.0
 11
82.27270419728426
 21
99.23737627360253
 31
0.0
 11
82.24784036126186
 21
99.21253285236355
 31
0.0
 11
82.22712011807237
 21
99.17940816775569
 31
0.0
 11
82.20225628205003
 21
99.12558041694262
 31
0.0
 11
82.16910395806172
 21
99.08003392949837
 31
0.0
 11
82.16081612124595
 21
99.05519032382564
 31
0.0
 11
82.14424012203933
 21
99.03034690258659
 31
0.0
 11
82.13180804124068
 21
98.99722203354498
 31
0.0
 11
82.12766379725781
 21
98.972378612306
 31
0.0
 11
82.12351987884989
 21
98.95167554610077
 31
0.0
 11
82.115232042034
 21
98.92269158539427
 31
0.0
 11
82.115232042034
 21
98.88956671635259
 31
0.0
 11
82.115232042034
 21
98.85644203174473
 31
0.0
 11
82.115232042034
 21
98.82745788660447
 31
0.0
 11
82.11937596044197
 21
98.76120851738882
 31
0.0
 11
82.12766379725781
 21
98.73636491171607
 31
0.0
 11
82.14424012203933
 21
98.68667788480422
 31
0.0
 11
82.16496003965392
 21
98.64527193682755
 31
0.0
 11
82.21883228125648
 21
98.57488202814431
 31
0.0
 11
82.30585652127251
 21
98.5086324744949
 31
0.0
 11
82.46057127783803
 21
98.47683262055916
 31
0.0
  0
LINE
  5
1260
102
{ACAD_REACTORS
330
1246
102
}
330
18
100
AcDbEntity
  8
ROGO
 62
     4
100
AcDbLine
 10
82.46057127783803
 20
98.47683262055909
 30
0.0
 11
83.03244471555331
 21
98.47683262055909
 31
0.0
  0
ELLIPSE
  5
1261
102
{ACAD_REACTORS
330
1246
102
}
330
18
100
AcDbEntity
  8
ROGO
 62
     4
100
AcDbEllipse
 10
82.88482944710882
 20
98.96524194528172
 30
0.0
 11
0.1358595110271534
 21
0.119471439333386
 31
0.0
210
0.0
220
0.0
230
1.0
 40
0.678808341743879
 41
0.0
 42
6.283185307179586
  0
LINE
  5
1262
102
{ACAD_REACTORS
330
1249
102
}
330
18
100
AcDbEntity
  8
ROGO
 62
     4
100
AcDbLine
 10
80.8368637473136
 20
98.47683262055909
 30
0.0
 11
81.69874949029122
 21
98.47683262055909
 31
0.0
  0
LINE
  5
1264
102
{ACAD_REACTORS
330
1266
102
}
330
18
100
AcDbEntity
  8
ROGO
 62
     4
100
AcDbLine
 10
86.02134488397997
 20
98.69569381272363
 30
0.0
 11
86.41117739997509
 21
97.9138902305133
 31
0.0
  0
LINE
  5
1265
102
{ACAD_REACTORS
330
1266
102
}
330
18
100
AcDbEntity
  8
ROGO
 62
     4
100
AcDbLine
 10
85.63152497398181
 20
99.47749739493389
 30
0.0
 11
84.85185994199127
 21
97.9138902305133
 31
0.0
  0
HATCH
  5
1266
330
18
100
AcDbEntity
  8
ROGO
 62
     4
100
AcDbHatch
 10
0.0
 20
0.0
 30
0.0
210
0.0
220
0.0
230
1.0
  2
SOLID
 70
     1
 71
     1
 91
        1
 92
        7
 72
     0
 73
     1
 93
       11
 10
84.85185994199127
 20
97.9138902305133
 10
85.4280235854668
 20
97.9138902305133
 10
85.63152497398181
 20
98.32200937911643
 10
85.83502636249688
 20
97.9138902305133
 10
86.41117739997509
 20
97.9138902305133
 10
86.02134488397997
 20
98.69569381272363
 10
86.9684870997956
 20
99.47749739493389
 10
86.39233606231716
 20
99.47749739493389
 10
86.12256506167494
 20
99.30678331103756
 10
86.20768861745728
 20
99.47749739493389
 10
85.63152497398181
 20
99.47749739493389
 97
       11
330
127B
330
1279
330
1278
330
127C
330
1265
330
11E4
330
1267
330
126B
330
126A
330
1264
330
127A
 75
     0
 76
     1
 47
0.0514683685270805
 98
        1
 10
85.58193828892838
 20
98.80667945157126
450
        0
451
        0
460
0.0
461
0.0
452
        0
462
0.0
453
        0
470

  0
LINE
  5
1267
102
{ACAD_REACTORS
330
1266
102
}
330
18
100
AcDbEntity
  8
ROGO
 62
     4
100
AcDbLine
 10
85.63152497398181
 20
98.32200937911649
 30
0.0
 11
85.4280235854668
 21
97.9138902305133
 31
0.0
  0
LINE
  5
126A
102
{ACAD_REACTORS
330
1266
102
}
330
18
100
AcDbEntity
  8
ROGO
 62
     4
100
AcDbLine
 10
85.83502636249688
 20
97.9138902305133
 30
0.0
 11
86.41117739997509
 21
97.9138902305133
 31
0.0
  0
LINE
  5
126B
102
{ACAD_REACTORS
330
1266
102
}
330
18
100
AcDbEntity
  8
ROGO
 62
     4
100
AcDbLine
 10
85.63152497398181
 20
98.32200937911649
 30
0.0
 11
85.83502636249688
 21
97.9138902305133
 31
0.0
  0
LINE
  5
126C
102
{ACAD_REACTORS
330
1274
102
}
330
18
100
AcDbEntity
  8
ROGO
 62
     4
100
AcDbLine
 10
84.06109465980842
 20
98.47683262055909
 30
0.0
 11
84.92298040278615
 21
98.47683262055909
 31
0.0
  0
LINE
  5
126D
102
{ACAD_REACTORS
330
1274
102
}
330
18
100
AcDbEntity
  8
ROGO
 62
     4
100
AcDbLine
 10
84.41983807815484
 20
99.47749739493389
 30
0.0
 11
85.42194417775306
 21
99.47749739493389
 31
0.0
  0
SPLINE
  5
126E
102
{ACAD_REACTORS
330
1274
102
}
330
18
100
AcDbEntity
  8
ROGO
 62
     4
100
AcDbSpline
210
0.0
220
0.0
230
1.0
 70
     8
 71
     3
 72
    16
 73
    12
 74
    10
 42
0.0000000001
 43
0.0000000001
 44
0.0000000001
 40
0.0
 40
0.0
 40
0.0
 40
0.0
 40
0.0957047383873134
 40
0.1424496013846823
 40
0.1655009684787305
 40
0.1897933556323151
 40
0.2245799845611325
 40
0.2562549427335381
 40
0.2892911861624654
 40
0.3446788353979572
 40
0.3995010334846103
 40
0.3995010334846103
 40
0.3995010334846103
 40
0.3995010334846103
 10
84.61008065793572
 20
99.10518522053884
 30
0.0
 10
84.57767069315911
 20
99.10024410275958
 30
0.0
 10
84.52943079781936
 20
99.0928896052717
 30
0.0
 10
84.48580742802471
 20
99.0583578256925
 30
0.0
 10
84.46120687629806
 20
99.03781371540047
 30
0.0
 10
84.45283765900196
 20
99.01060748163159
 30
0.0
 10
84.4303605695323
 20
98.98971727043708
 30
0.0
 10
84.41183305435103
 20
98.96100739589584
 30
0.0
 10
84.40740910370621
 20
98.92157391818372
 30
0.0
 10
84.41065638476649
 20
98.86623504190689
 30
0.0
 10
84.44945679552885
 20
98.85481939214438
 30
0.0
 10
84.46875746471897
 20
98.84914085227002
 30
0.0
 11
84.61008065793572
 21
99.10518522053884
 31
0.0
 11
84.51767716383523
 21
99.08026552495876
 31
0.0
 11
84.479628647879
 21
99.05311055027324
 31
0.0
 11
84.46332218569086
 21
99.0368174592279
 31
0.0
 11
84.45245100253089
 21
99.01509333783435
 31
0.0
 11
84.43070894876274
 21
98.98793836314878
 31
0.0
 11
84.41440248657466
 21
98.96078321140675
 31
0.0
 11
84.40896689499465
 21
98.92819720637284
 31
0.0
 11
84.41983807815466
 21
98.87388690288872
 31
0.0
 11
84.46875746471897
 21
98.84914085227002
 31
0.0
  0
SPLINE
  5
126F
102
{ACAD_REACTORS
330
1274
102
}
330
18
100
AcDbEntity
  8
ROGO
 62
     4
100
AcDbSpline
210
0.0
220
0.0
230
1.0
 70
     8
 71
     3
 72
    26
 73
    22
 74
    20
 42
0.0000000001
 43
0.0000000001
 44
0.0000000001
 40
0.0
 40
0.0
 40
0.0
 40
0.0
 40
0.1815320543484491
 40
0.3030537083199909
 40
0.3906807171792971
 40
0.4561089693578263
 40
0.5409728463824398
 40
0.6029152034572436
 40
0.7147686628505081
 40
0.8058157707231654
 40
0.867742392801334
 40
0.9284646163791412
 40
1.03708486923433
 40
1.113892352366038
 40
1.155259116207496
 40
1.214019382288231
 40
1.256451488881088
 40
1.317921602285679
 40
1.35270836942768
 40
1.428408276764927
 40
1.462973512054238
 40
1.462973512054238
 40
1.462973512054238
 40
1.462973512054238
 10
84.41983807815466
 20
99.47749739493389
 30
0.0
 10
84.35822329408349
 20
99.47382135125792
 30
0.0
 10
84.25536218304101
 20
99.46768448098483
 30
0.0
 10
84.14242130884957
 20
99.39907411280877
 30
0.0
 10
84.05967421249579
 20
99.35918705982665
 30
0.0
 10
84.00065908372821
 20
99.30496400945081
 30
0.0
 10
83.95740075511202
 20
99.24895555933126
 30
0.0
 10
83.90286551099757
 20
99.18222190167874
 30
0.0
 10
83.85839357776879
 20
99.1045132577927
 30
0.0
 10
83.83574672579834
 20
99.01886478503776
 30
0.0
 10
83.81568635926447
 20
98.95060245530393
 30
0.0
 10
83.80080925561411
 20
98.87453299723118
 30
0.0
 10
83.80459441194817
 20
98.79235122267674
 30
0.0
 10
83.81001492905115
 20
98.71602499773997
 30
0.0
 10
83.83421621982085
 20
98.66153950073822
 30
0.0
 10
83.86177720322027
 20
98.62274958142414
 30
0.0
 10
83.8955252499471
 20
98.58002678573541
 30
0.0
 10
83.93245299315822
 20
98.55173161649261
 30
0.0
 10
83.96299525104575
 20
98.50047301601968
 30
0.0
 10
84.01645844315474
 20
98.49393204891992
 30
0.0
 10
84.05044177501139
 20
98.48091357217377
 30
0.0
 10
84.06109465980852
 20
98.47683262055916
 30
0.0
 11
84.41983807815466
 21
99.47749739493389
 31
0.0
 11
84.24046636898157
 21
99.44957470336788
 31
0.0
 11
84.13175610014093
 21
99.39526457694036
 31
0.0
 11
84.05565906822847
 21
99.35181651120963
 31
0.0
 11
84.0067396816641
 21
99.30836826842233
 31
0.0
 11
83.95238470351984
 21
99.24319608129787
 31
0.0
 11
83.9143361875635
 21
99.19431698521885
 31
0.0
 11
83.85998089686722
 21
99.09655861600391
 31
0.0
 11
83.83280356407102
 21
99.00966230748588
 31
0.0
 11
83.81649710188293
 21
98.94992115071
 31
0.0
 11
83.80562591872291
 21
98.890179993934
 31
0.0
 11
83.80562591872291
 21
98.78155974107881
 31
0.0
 11
83.81649710188293
 21
98.70552549325765
 31
0.0
 11
83.83280356407102
 21
98.66750828081876
 31
0.0
 11
83.86541648844717
 21
98.61862918473963
 31
0.0
 11
83.89259413379539
 21
98.58604300264914
 31
0.0
 11
83.93607792877963
 21
98.54259493691841
 31
0.0
 11
83.95781998254784
 21
98.51543978517639
 31
0.0
 11
84.02848173543224
 21
98.48828481049089
 31
0.0
 11
84.06109465980852
 21
98.47683262055916
 31
0.0
  0
LINE
  5
1270
102
{ACAD_REACTORS
330
1274
102
}
330
18
100
AcDbEntity
  8
ROGO
 62
     4
100
AcDbLine
 10
85.10862531155368
 20
98.84914085227002
 30
0.0
 11
84.9229804027861
 21
98.47683262055909
 31
0.0
  0
LINE
  5
1271
102
{ACAD_REACTORS
330
1274
102
}
330
18
100
AcDbEntity
  8
ROGO
 62
     4
100
AcDbLine
 10
84.46875746471897
 20
98.84914085227002
 30
0.0
 11
85.10862531155368
 21
98.84914085227002
 31
0.0
  0
LINE
  5
1272
102
{ACAD_REACTORS
330
1274
102
}
330
18
100
AcDbEntity
  8
ROGO
 62
     4
100
AcDbLine
 10
84.61008065793572
 20
99.10518522053884
 30
0.0
 11
85.23629730303577
 21
99.10518522053884
 31
0.0
  0
LINE
  5
1273
102
{ACAD_REACTORS
330
1274
102
}
330
18
100
AcDbEntity
  8
ROGO
 62
     4
100
AcDbLine
 10
85.42194417775306
 20
99.47749739493389
 30
0.0
 11
85.23629730303577
 21
99.10518522053884
 31
0.0
  0
HATCH
  5
1274
330
18
100
AcDbEntity
  8
ROGO
 62
     4
100
AcDbHatch
 10
0.0
 20
0.0
 30
0.0
210
0.0
220
0.0
230
1.0
  2
SOLID
 70
     1
 71
     1
 91
        1
 92
        5
 93
        8
 72
     4
 94
        3
 73
     0
 74
     0
 95
       26
 96
       22
 40
0.0
 40
0.0
 40
0.0
 40
0.0
 40
0.1815320543484491
 40
0.3030537083199909
 40
0.3906807171792971
 40
0.4561089693578263
 40
0.5409728463824398
 40
0.6029152034572436
 40
0.7147686628505081
 40
0.8058157707231654
 40
0.867742392801334
 40
0.9284646163791412
 40
1.03708486923433
 40
1.113892352366038
 40
1.155259116207496
 40
1.214019382288231
 40
1.256451488881088
 40
1.317921602285679
 40
1.35270836942768
 40
1.428408276764927
 40
1.462973512054238
 40
1.462973512054238
 40
1.462973512054238
 40
1.462973512054238
 10
84.41983807815466
 20
99.47749739493389
 10
84.35822329408349
 20
99.47382135125792
 10
84.25536218304101
 20
99.46768448098483
 10
84.14242130884957
 20
99.39907411280877
 10
84.05967421249579
 20
99.35918705982665
 10
84.00065908372821
 20
99.30496400945081
 10
83.95740075511202
 20
99.24895555933126
 10
83.90286551099757
 20
99.18222190167874
 10
83.85839357776879
 20
99.1045132577927
 10
83.83574672579834
 20
99.01886478503776
 10
83.81568635926447
 20
98.95060245530393
 10
83.80080925561411
 20
98.87453299723118
 10
83.80459441194817
 20
98.79235122267674
 10
83.81001492905115
 20
98.71602499773997
 10
83.83421621982085
 20
98.66153950073822
 10
83.86177720322027
 20
98.62274958142414
 10
83.8955252499471
 20
98.58002678573541
 10
83.93245299315822
 20
98.55173161649261
 10
83.96299525104575
 20
98.50047301601968
 10
84.01645844315474
 20
98.49393204891992
 10
84.05044177501139
 20
98.48091357217377
 10
84.06109465980852
 20
98.47683262055916
 72
     1
 10
84.06109465980859
 20
98.47683262055909
 11
84.92298040278608
 21
98.47683262055909
 72
     1
 10
84.92298040278608
 20
98.47683262055909
 11
85.10862531155369
 21
98.84914085227002
 72
     1
 10
85.10862531155369
 20
98.84914085227002
 11
84.46875746471896
 21
98.84914085227002
 72
     4
 94
        3
 73
     0
 74
     0
 95
       16
 96
       12
 40
0.0
 40
0.0
 40
0.0
 40
0.0
 40
0.0548221980866531
 40
0.1102098473221448
 40
0.1432460907510722
 40
0.1749210489234778
 40
0.2097076778522952
 40
0.2340000650058798
 40
0.2570514320999279
 40
0.3037962950972969
 40
0.3995010334846103
 40
0.3995010334846103
 40
0.3995010334846103
 40
0.3995010334846103
 10
84.46875746471897
 20
98.84914085227002
 10
84.44945679552885
 20
98.85481939214438
 10
84.41065638476649
 20
98.86623504190689
 10
84.40740910370621
 20
98.92157391818372
 10
84.41183305435103
 20
98.96100739589584
 10
84.4303605695323
 20
98.98971727043708
 10
84.45283765900196
 20
99.01060748163159
 10
84.46120687629806
 20
99.03781371540047
 10
84.48580742802471
 20
99.0583578256925
 10
84.52943079781936
 20
99.0928896052717
 10
84.57767069315911
 20
99.10024410275958
 10
84.61008065793572
 20
99.10518522053884
 72
     1
 10
84.61008065793574
 20
99.10518522053882
 11
85.23629730303575
 21
99.10518522053882
 72
     1
 10
85.23629730303575
 20
99.10518522053882
 11
85.42194417775307
 21
99.47749739493389
 72
     1
 10
85.42194417775307
 20
99.47749739493389
 11
84.41983807815471
 21
99.4774973949339
 97
        8
330
126D
330
126F
330
126C
330
1270
330
1271
330
126E
330
1272
330
1273
 75
     0
 76
     1
 47
0.0514683685270805
 98
        1
 10
84.59275751247856
 20
99.29427227118914
450
        0
451
        0
460
0.0
461
0.0
452
        0
462
0.0
453
        0
470

  0
SPLINE
  5
1275
102
{ACAD_REACTORS
330
1246
102
}
330
18
100
AcDbEntity
  8
ROGO
 62
     4
100
AcDbSpline
210
0.0
220
0.0
230
1.0
 70
     8
 71
     3
 72
    25
 73
    21
 74
     0
 42
0.0000000001
 43
0.0000000001
 40
0.0
 40
0.0
 40
0.0
 40
0.0
 40
0.4087168505087288
 40
0.6887487002771746
 40
0.9415836120477687
 40
1.17452070575514
 40
1.41154617586699
 40
1.599156012919487
 40
1.80099909059943
 40
2.178735911501585
 40
2.521686161369157
 40
2.762704659361267
 40
3.06256558063785
 40
3.222432137207705
 40
3.399493810628493
 40
3.567459719866414
 40
3.743172740007509
 40
3.995988754699505
 40
4.17170091132118
 40
4.337226830236035
 40
4.337226830236035
 40
4.337226830236035
 40
4.337226830236035
 10
83.32528323986622
 20
99.48167123756144
 30
0.0
 10
83.36279073009649
 20
99.48046616058434
 30
0.0
 10
83.42599643134064
 20
99.47843542659189
 30
0.0
 10
83.49385554915675
 20
99.42539561519016
 30
0.0
 10
83.54577938156529
 20
99.38142154773101
 30
0.0
 10
83.58263556231349
 20
99.32825895927607
 30
0.0
 10
83.61494103738079
 20
99.27937879110892
 30
0.0
 10
83.63622789615233
 20
99.22777258028611
 30
0.0
 10
83.66518222978482
 20
99.16584985349869
 30
0.0
 10
83.67716789348156
 20
99.08300644482062
 30
0.0
 10
83.66907015249626
 20
98.99738013820599
 30
0.0
 10
83.6479388294548
 20
98.92148029366843
 30
0.0
 10
83.62577377055828
 20
98.8632517158868
 30
0.0
 10
83.59964961021109
 20
98.8125601265437
 30
0.0
 10
83.56850627278083
 20
98.77973731851183
 30
0.0
 10
83.5469002769787
 20
98.73800343807255
 30
0.0
 10
83.5053979228536
 20
98.70386736447381
 30
0.0
 10
83.47175387589926
 20
98.6617482408161
 30
0.0
 10
83.43357488933703
 20
98.62559694908748
 30
0.0
 10
83.4120494074752
 20
98.60329203774989
 30
0.0
 10
83.40070065433764
 20
98.59391384584808
 30
0.0
  0
SPLINE
  5
1276
102
{ACAD_REACTORS
330
1246
102
}
330
18
100
AcDbEntity
  8
ROGO
 62
     4
100
AcDbSpline
210
0.0
220
0.0
230
1.0
 70
     8
 71
     3
 72
     9
 73
     5
 74
     3
 42
0.0000000001
 43
0.0000000001
 44
0.0000000001
 40
0.0
 40
0.0
 40
0.0
 40
0.0
 40
0.0865516336707051
 40
0.2029257078463241
 40
0.2029257078463241
 40
0.2029257078463241
 40
0.2029257078463241
 10
83.22296722224388
 20
98.49914235077898
 30
0.0
 10
83.25077011112567
 20
98.50764846453738
 30
0.0
 10
83.31595571961429
 20
98.52759157921061
 30
0.0
 10
83.36981396454083
 20
98.56974160141907
 30
0.0
 10
83.40070065433764
 20
98.59391384584808
 30
0.0
 11
83.22296722224388
 21
98.49914235077898
 31
0.0
 11
83.30431523411323
 21
98.52870053502584
 31
0.0
 11
83.40070065433764
 21
98.59391384584808
 31
0.0
  0
POINT
  5
1277
330
18
100
AcDbEntity
  8
DEFPOINTS
  6
ByBlock
 62
     0
100
AcDbPoint
 10
86.9684870997956
 20
99.47749739493389
 30
0.0
  0
LINE
  5
1278
102
{ACAD_REACTORS
330
1266
102
}
330
18
100
AcDbEntity
  8
ROGO
 62
     4
100
AcDbLine
 10
86.20768861745728
 20
99.47749739493389
 30
0.0
 11
86.12256506167495
 21
99.30678331103758
 31
0.0
  0
LINE
  5
1279
102
{ACAD_REACTORS
330
1266
102
}
330
18
100
AcDbEntity
  8
ROGO
 62
     4
100
AcDbLine
 10
86.12256506167495
 20
99.30678331103758
 30
0.0
 11
86.39233606231716
 21
99.47749739493389
 31
0.0
  0
LINE
  5
127A
102
{ACAD_REACTORS
330
1266
102
}
330
18
100
AcDbEntity
  8
ROGO
 62
     4
100
AcDbLine
 10
86.02134488397997
 20
98.69569381272363
 30
0.0
 11
86.9684870997956
 21
99.47749739493389
 31
0.0
  0
LINE
  5
127B
102
{ACAD_REACTORS
330
1266
102
}
330
18
100
AcDbEntity
  8
ROGO
 62
     4
100
AcDbLine
 10
86.39233606231716
 20
99.47749739493389
 30
0.0
 11
86.9684870997956
 21
99.47749739493389
 31
0.0
  0
LINE
  5
127C
102
{ACAD_REACTORS
330
1266
102
}
330
18
100
AcDbEntity
  8
ROGO
 62
     4
100
AcDbLine
 10
85.63152497398181
 20
99.47749739493389
 30
0.0
 11
86.20768861745728
 21
99.47749739493389
 31
0.0
  0
POINT
  5
127E
330
18
100
AcDbEntity
  8
DEFPOINTS
  6
ByBlock
 62
     0
100
AcDbPoint
 10
80.12111818056576
 20
106.3632169370962
 30
0.0
  0
POINT
  5
127F
330
18
100
AcDbEntity
  8
DEFPOINTS
  6
ByBlock
 62
     0
100
AcDbPoint
 10
80.87772740014973
 20
107.6584167243261
 30
0.0
  0
POINT
  5
1280
330
18
100
AcDbEntity
  8
DEFPOINTS
  6
ByBlock
 62
     0
100
AcDbPoint
 10
80.87772740014974
 20
107.6584167243261
 30
0.0
  0
TEXT
  5
1281
330
18
100
AcDbEntity
  8
文字
100
AcDbText
 10
92.06389922645916
 20
98.86555972626315
 30
0.0
 40
2.0
  1
40
  7
STYLE3
100
AcDbText
  0
LINE
  5
1285
330
18
100
AcDbEntity
  8
外形線
100
AcDbLine
 10
102.6110584916538
 20
101.8349882095193
 30
0.0
 11
98.26439227335299
 21
102.9996739124806
 31
0.0
  0
LINE
  5
1286
330
18
100
AcDbEntity
  8
外形線
100
AcDbLine
 10
100.925374194388
 20
97.44363048018625
 30
0.0
 11
97.80685135972873
 21
99.03259722927471
 31
0.0
  0
LINE
  5
1287
330
18
100
AcDbEntity
  8
外形線
100
AcDbLine
 10
102.2764990167907
 20
100.7055343508897
 30
0.0
 11
98.94780120975765
 21
101.7870938312019
 31
0.0
  0
LINE
  5
1288
330
18
100
AcDbEntity
  8
外形線
100
AcDbLine
 10
101.8832869963367
 20
99.59513785955687
 30
0.0
 11
98.61575550359658
 21
100.8494256829654
 31
0.0
  0
LINE
  5
1289
330
18
100
AcDbEntity
  8
外形線
100
AcDbLine
 10
101.4325001971083
 20
98.50684225512049
 30
0.0
 11
98.23509109535917
 21
99.93042050588593
 31
0.0
  0
LINE
  5
128A
330
18
100
AcDbEntity
  8
外形線
100
AcDbLine
 10
103.3777274001497
 20
107.6584167243261
 30
0.0
 11
98.87772740014975
 21
107.6584167243261
 31
0.0
  0
LINE
  5
128B
330
18
100
AcDbEntity
  8
外形線
100
AcDbLine
 10
103.3468919321276
 20
106.4808577088599
 30
0.0
 11
99.85168856048666
 21
106.6640335557102
 31
0.0
  0
LINE
  5
128C
330
18
100
AcDbEntity
  8
外形線
100
AcDbLine
 10
103.2544700459359
 20
105.306526300804
 30
0.0
 11
99.77364341214695
 21
105.6723759222408
 31
0.0
  0
LINE
  5
128D
330
18
100
AcDbEntity
  8
外形線
100
AcDbLine
 10
103.1007150635403
 20
104.1386412609209
 30
0.0
 11
99.64380587145734
 21
104.6861618885618
 31
0.0
  0
LINE
  5
128E
330
18
100
AcDbEntity
  8
外形線
100
AcDbLine
 10
102.8860484166604
 20
102.9804036809266
 30
0.0
 11
99.46253181409208
 21
103.7080945987888
 31
0.0
  0
LINE
  5
128F
330
18
100
AcDbEntity
  8
外形線
100
AcDbLine
 10
103.3468919321276
 20
108.8359757397923
 30
0.0
 11
99.85168856048666
 21
108.6527998929421
 31
0.0
  0
LINE
  5
1290
102
{ACAD_REACTORS
330
1292
102
}
330
18
100
AcDbEntity
  8
外形線
100
AcDbLine
 10
79.12772740014981
 20
114.4417500576596
 30
0.0
 11
78.12772740014978
 21
114.4417500576596
 31
0.0
  0
LINE
  5
1291
102
{ACAD_REACTORS
330
1292
102
}
330
18
100
AcDbEntity
  8
外形線
100
AcDbLine
 10
79.12772740014981
 20
114.7750833909928
 30
0.0
 11
78.12772740014978
 21
114.7750833909928
 31
0.0
  0
HATCH
  5
1292
330
18
100
AcDbEntity
  8
外形線
100
AcDbHatch
 10
0.0
 20
0.0
 30
0.0
210
0.0
220
0.0
230
1.0
  2
SOLID
 70
     1
 71
     1
 91
        2
 92
        1
 93
        4
 72
     1
 10
80.4610607334831
 20
113.8584167243262
 11
80.29439406681646
 21
113.8584167243262
 72
     1
 10
80.29439406681646
 20
113.8584167243262
 11
80.29439406681646
 21
115.3584167243262
 72
     1
 10
80.29439406681646
 20
115.3584167243262
 11
80.4610607334831
 21
115.3584167243262
 72
     1
 10
80.4610607334831
 20
115.3584167243262
 11
80.4610607334831
 21
113.8584167243262
 97
        4
330
12C1
330
12C3
330
12C2
330
12C4
 92
        1
 93
        7
 72
     1
 10
79.12772740014981
 20
114.4417500576596
 11
79.12772740014981
 21
114.183784784349
 72
     1
 10
79.12772740014972
 20
114.183784784349
 11
80.29439406681646
 21
114.6084167243262
 72
     1
 10
80.29439406681646
 20
114.6084167243262
 11
79.12772740014972
 21
115.0330486643034
 72
     1
 10
79.12772740014981
 20
115.0330486643034
 11
79.12772740014981
 21
114.7750833909929
 72
     1
 10
79.12772740014981
 20
114.7750833909928
 11
78.12772740014978
 21
114.7750833909928
 72
     1
 10
78.12772740014978
 20
114.7750833909928
 11
78.12772740014978
 21
114.4417500576596
 72
     1
 10
78.12772740014978
 20
114.4417500576596
 11
79.12772740014981
 21
114.4417500576596
 97
        7
330
12C5
330
12C7
330
12C8
330
12C6
330
1291
330
12A7
330
1290
 75
     0
 76
     1
 98
        1
 10
446.4631158370798
 20
-123.1514963295122
450
        0
451
        0
460
0.0
461
0.0
452
        0
462
0.0
453
        0
470

  0
TEXT
  5
1293
330
18
100
AcDbEntity
  8
文字
100
AcDbText
 10
75.58249206400853
 20
111.6319692265477
 30
0.0
 40
1.5
  1
0.001mm
  7
STYLE3
100
AcDbText
  0
LINE
  5
1294
330
18
100
AcDbEntity
  8
外形線
100
AcDbLine
 10
58.50098475436363
 20
110.0103071478482
 30
0.0
 11
61.98181138815266
 21
109.6444575264115
 31
0.0
  0
LINE
  5
1295
330
18
100
AcDbEntity
  8
外形線
100
AcDbLine
 10
58.65473973675921
 20
111.1781921877313
 30
0.0
 11
62.11164892884216
 21
110.6306715600905
 31
0.0
  0
LINE
  5
1296
330
18
100
AcDbEntity
  8
外形線
100
AcDbLine
 10
58.8694063836391
 20
112.3364297677256
 30
0.0
 11
62.29292298620748
 21
111.6087388498635
 31
0.0
  0
LINE
  5
1297
330
18
100
AcDbEntity
  8
外形線
100
AcDbLine
 10
59.14439630864575
 20
113.4818452391328
 30
0.0
 11
63.49106252694657
 21
112.3171595361714
 31
0.0
  0
LINE
  5
1298
330
18
100
AcDbEntity
  8
外形線
100
AcDbLine
 10
65.82228875707551
 20
124.3791752975675
 30
0.0
 11
68.16424587933153
 21
121.7781684083966
 31
0.0
  0
LINE
  5
1299
330
18
100
AcDbEntity
  8
外形線
100
AcDbLine
 10
64.96782482345242
 20
123.5683193010234
 30
0.0
 11
68.1498053387919
 21
120.386338785684
 31
0.0
  0
LINE
  5
129A
330
18
100
AcDbEntity
  8
外形線
100
AcDbLine
 10
69.62772740014975
 20
127.143988309476
 30
0.0
 11
71.87772740014975
 21
123.2468739924459
 31
0.0
  0
LINE
  5
129B
330
18
100
AcDbEntity
  8
外形線
100
AcDbLine
 10
66.71801860152846
 20
125.1442008571079
 30
0.0
 11
68.92063997020295
 21
122.4241899920085
 31
0.0
  0
LINE
  5
129C
330
18
100
AcDbEntity
  8
外形線
100
AcDbLine
 10
67.6525592235692
 20
125.8612990977624
 30
0.0
 11
69.70980760659291
 21
123.0297396174501
 31
0.0
  0
TEXT
  5
129D
330
18
100
AcDbEntity
  8
文字
100
AcDbText
 10
66.2360722028526
 20
115.3232257177275
 30
0.0
 40
2.0
  1
20
  7
STYLE3
100
AcDbText
  0
LINE
  5
129E
330
18
100
AcDbEntity
  8
外形線
100
AcDbLine
 10
60.3229546031913
 20
116.8099911935316
 30
0.0
 11
63.52036370494039
 21
115.3864129427663
 31
0.0
  0
LINE
  5
129F
330
18
100
AcDbEntity
  8
外形線
100
AcDbLine
 10
59.4789557835088
 20
114.6112990977624
 30
0.0
 11
62.80765359054192
 21
113.5297396174501
 31
0.0
  0
LINE
  5
12A0
330
18
100
AcDbEntity
  8
外形線
100
AcDbLine
 10
59.87216780396273
 20
115.7216955890953
 30
0.0
 11
63.13969929670299
 21
114.4674077656868
 31
0.0
  0
LINE
  5
12A1
330
18
100
AcDbEntity
  8
外形線
100
AcDbLine
 10
62.00763962137767
 20
119.9127950121642
 30
0.0
 11
64.94298660918673
 21
118.0065583896117
 31
0.0
  0
LINE
  5
12A2
330
18
100
AcDbEntity
  8
外形線
100
AcDbLine
 10
62.6748450267134
 20
120.8835849009067
 30
0.0
 11
65.50640450702577
 21
118.8263365178831
 31
0.0
  0
LINE
  5
12A3
330
18
100
AcDbEntity
  8
外形線
100
AcDbLine
 10
63.39194326736799
 20
121.8181255229474
 30
0.0
 11
66.1119541324673
 21
119.6155041542731
 31
0.0
  0
LINE
  5
12A4
330
18
100
AcDbEntity
  8
外形線
100
AcDbLine
 10
61.39215581499991
 20
118.9084167243261
 30
0.0
 11
65.28927013202985
 21
116.6584167243261
 31
0.0
  0
LINE
  5
12A5
330
18
100
AcDbEntity
  8
外形線
100
AcDbLine
 10
60.83008060591146
 20
117.8732029684659
 30
0.0
 11
63.94860344057076
 21
116.2842362193774
 31
0.0
  0
LINE
  5
12A6
330
18
100
AcDbEntity
  8
外形線
100
AcDbLine
 10
64.15696882690832
 20
122.7138553674004
 30
0.0
 11
66.75797571607922
 21
120.3718982451444
 31
0.0
  0
LINE
  5
12A7
102
{ACAD_REACTORS
330
1292
102
}
330
18
100
AcDbEntity
  8
外形線
100
AcDbLine
 10
78.12772740014978
 20
114.7750833909928
 30
0.0
 11
78.12772740014978
 21
114.4417500576596
 31
0.0
  0
TEXT
  5
12A8
330
18
100
AcDbEntity
  8
文字
100
AcDbText
 10
71.6052240038432
 20
120.5730358692504
 30
0.0
 40
2.0
  1
10
  7
STYLE3
100
AcDbText
  0
LINE
  5
12A9
330
18
100
AcDbEntity
  8
外形線
100
AcDbLine
 10
68.62334911231164
 20
126.5285045030982
 30
0.0
 11
70.52958573486421
 21
123.5931575152892
 31
0.0
  0
LINE
  5
12AA
330
18
100
AcDbEntity
  8
外形線
100
AcDbLine
 10
72.81444853538051
 20
128.6639763205131
 30
0.0
 11
74.06873635878906
 21
125.396444827773
 31
0.0
  0
LINE
  5
12AB
330
18
100
AcDbEntity
  8
外形線
100
AcDbLine
 10
70.66294115600988
 20
127.7060635185643
 30
0.0
 11
72.25190790509839
 21
124.5875406839051
 31
0.0
  0
LINE
  5
12AC
330
18
100
AcDbEntity
  8
外形線
100
AcDbLine
 10
71.72615293094418
 20
128.2131895212846
 30
0.0
 11
73.14973118170957
 21
125.0157804195354
 31
0.0
  0
LINE
  5
12AD
330
18
100
AcDbEntity
  8
外形線
100
AcDbLine
 10
77.35795193674454
 20
129.8814043877167
 30
0.0
 11
77.90547256438543
 21
126.4244951956337
 31
0.0
  0
LINE
  5
12AE
330
18
100
AcDbEntity
  8
外形線
100
AcDbLine
 10
76.19971435675018
 20
129.6667377408367
 30
0.0
 11
76.92740527461239
 21
126.2432211382684
 31
0.0
  0
LINE
  5
12AF
330
18
100
AcDbEntity
  8
外形線
100
AcDbLine
 10
73.92484502671334
 20
129.0571883409671
 30
0.0
 11
75.00640450702571
 21
125.728490533934
 31
0.0
  0
LINE
  5
12B0
330
18
100
AcDbEntity
  8
外形線
100
AcDbLine
 10
75.05429888534303
 20
129.3917478158301
 30
0.0
 11
76.21898458830435
 21
125.0450815975293
 31
0.0
  0
LINE
  5
12B1
330
18
100
AcDbEntity
  8
外形線
100
AcDbLine
 10
100.3632989852996
 20
118.9084167243261
 30
0.0
 11
96.46618466826964
 21
116.6584167243261
 31
0.0
  0
LINE
  5
12B2
330
18
100
AcDbEntity
  8
外形線
100
AcDbLine
 10
98.36351153293151
 20
121.8181255229474
 30
0.0
 11
95.64350066783219
 21
119.6155041542731
 31
0.0
  0
LINE
  5
12B3
330
18
100
AcDbEntity
  8
外形線
100
AcDbLine
 10
99.0806097735861
 20
120.8835849009067
 30
0.0
 11
96.24905029327374
 21
118.8263365178831
 31
0.0
  0
LINE
  5
12B4
330
18
100
AcDbEntity
  8
外形線
100
AcDbLine
 10
99.74781517892182
 20
119.9127950121642
 30
0.0
 11
96.81246819111278
 21
118.0065583896117
 31
0.0
  0
TEXT
  5
12B7
330
18
100
AcDbEntity
  8
文字
100
AcDbText
 10
79.88937781580796
 20
122.6150860581625
 30
0.0
 40
2.0
  1
0
  7
STYLE3
100
AcDbText
  0
LINE
  5
12B8
330
18
100
AcDbEntity
  8
外形線
100
AcDbLine
 10
96.78762997684708
 20
123.5683193010234
 30
0.0
 11
93.60564946150759
 21
120.386338785684
 31
0.0
  0
LINE
  5
12B9
330
18
100
AcDbEntity
  8
外形線
100
AcDbLine
 10
92.12772740014974
 20
127.143988309476
 30
0.0
 11
89.87772740014975
 21
123.2468739924459
 31
0.0
  0
LINE
  5
12BA
330
18
100
AcDbEntity
  8
外形線
100
AcDbLine
 10
94.1028955767303
 20
125.8612990977624
 30
0.0
 11
92.0456471937066
 21
123.0297396174501
 31
0.0
  0
LINE
  5
12BB
330
18
100
AcDbEntity
  8
外形線
100
AcDbLine
 10
95.03743619877104
 20
125.1442008571079
 30
0.0
 11
92.83481483009655
 21
122.4241899920085
 31
0.0
  0
LINE
  5
12BC
330
18
100
AcDbEntity
  8
外形線
100
AcDbLine
 10
95.93316604322399
 20
124.3791752975675
 30
0.0
 11
93.59120892096797
 21
121.7781684083966
 31
0.0
  0
TEXT
  5
12BD
330
18
100
AcDbEntity
  8
文字
100
AcDbText
 10
86.86316826686505
 20
119.8481586768677
 30
0.0
 40
2.0
  1
10
  7
STYLE3
100
AcDbText
  0
LINE
  5
12BE
102
{ACAD_REACTORS
330
12C0
102
}
330
18
100
AcDbEntity
  8
外形線
100
AcDbLine
 10
82.6277274001497
 20
114.7750833909928
 30
0.0
 11
83.62772740014973
 21
114.7750833909928
 31
0.0
  0
LINE
  5
12BF
102
{ACAD_REACTORS
330
12C0
102
}
330
18
100
AcDbEntity
  8
外形線
100
AcDbLine
 10
82.6277274001497
 20
114.4417500576596
 30
0.0
 11
83.62772740014973
 21
114.4417500576596
 31
0.0
  0
HATCH
  5
12C0
330
18
100
AcDbEntity
  8
外形線
100
AcDbHatch
 10
0.0
 20
0.0
 30
0.0
210
0.0
220
0.0
230
1.0
  2
SOLID
 70
     1
 71
     1
 91
        2
 92
        1
 93
        4
 72
     1
 10
81.2943940668164
 20
113.8584167243262
 11
81.46106073348304
 21
113.8584167243262
 72
     1
 10
81.46106073348304
 20
113.8584167243262
 11
81.46106073348304
 21
115.3584167243262
 72
     1
 10
81.46106073348304
 20
115.3584167243262
 11
81.2943940668164
 21
115.3584167243262
 72
     1
 10
81.2943940668164
 20
115.3584167243262
 11
81.2943940668164
 21
113.8584167243262
 97
        4
330
12CF
330
12CE
330
12CD
330
12D0
 92
        1
 93
        7
 72
     1
 10
82.6277274001497
 20
114.4417500576596
 11
82.6277274001497
 21
114.183784784349
 72
     1
 10
82.62772740014979
 20
114.183784784349
 11
81.46106073348304
 21
114.6084167243262
 72
     1
 10
81.46106073348304
 20
114.6084167243262
 11
82.62772740014979
 21
115.0330486643034
 72
     1
 10
82.6277274001497
 20
115.0330486643034
 11
82.6277274001497
 21
114.7750833909929
 72
     1
 10
82.6277274001497
 20
114.7750833909928
 11
83.62772740014973
 21
114.7750833909928
 72
     1
 10
83.62772740014973
 20
114.7750833909928
 11
83.62772740014973
 21
114.4417500576596
 72
     1
 10
83.62772740014973
 20
114.4417500576596
 11
82.6277274001497
 21
114.4417500576596
 97
        7
330
12CC
330
12CA
330
12C9
330
12CB
330
12BE
330
12D1
330
12BF
 75
     0
 76
     1
 98
        1
 10
-284.7076610367802
 20
-123.1514963295122
450
        0
451
        0
460
0.0
461
0.0
452
        0
462
0.0
453
        0
470

  0
LINE
  5
12C1
102
{ACAD_REACTORS
330
1292
102
}
330
18
100
AcDbEntity
  8
外形線
100
AcDbLine
 10
80.4610607334831
 20
113.8584167243262
 30
0.0
 11
80.29439406681646
 21
113.8584167243262
 31
0.0
  0
LINE
  5
12C2
102
{ACAD_REACTORS
330
1292
102
}
330
18
100
AcDbEntity
  8
外形線
100
AcDbLine
 10
80.4610607334831
 20
115.3584167243262
 30
0.0
 11
80.29439406681646
 21
115.3584167243262
 31
0.0
  0
LINE
  5
12C3
102
{ACAD_REACTORS
330
1292
102
}
330
18
100
AcDbEntity
  8
外形線
100
AcDbLine
 10
80.29439406681646
 20
115.3584167243262
 30
0.0
 11
80.29439406681646
 21
113.8584167243262
 31
0.0
  0
LINE
  5
12C4
102
{ACAD_REACTORS
330
1292
102
}
330
18
100
AcDbEntity
  8
外形線
100
AcDbLine
 10
80.4610607334831
 20
115.3584167243262
 30
0.0
 11
80.4610607334831
 21
113.8584167243262
 31
0.0
  0
LINE
  5
12C5
102
{ACAD_REACTORS
330
1292
102
}
330
18
100
AcDbEntity
  8
外形線
100
AcDbLine
 10
79.12772740014981
 20
114.4417500576596
 30
0.0
 11
79.12772740014981
 21
114.183784784349
 31
0.0
  0
LINE
  5
12C6
102
{ACAD_REACTORS
330
1292
102
}
330
18
100
AcDbEntity
  8
外形線
100
AcDbLine
 10
79.12772740014981
 20
115.0330486643034
 30
0.0
 11
79.12772740014981
 21
114.7750833909929
 31
0.0
  0
LINE
  5
12C7
102
{ACAD_REACTORS
330
1292
102
}
330
18
100
AcDbEntity
  8
外形線
100
AcDbLine
 10
80.29439406681646
 20
114.6084167243262
 30
0.0
 11
79.12772740014972
 21
114.183784784349
 31
0.0
  0
LINE
  5
12C8
102
{ACAD_REACTORS
330
1292
102
}
330
18
100
AcDbEntity
  8
外形線
100
AcDbLine
 10
80.29439406681646
 20
114.6084167243262
 30
0.0
 11
79.12772740014972
 21
115.0330486643034
 31
0.0
  0
LINE
  5
12C9
102
{ACAD_REACTORS
330
12C0
102
}
330
18
100
AcDbEntity
  8
外形線
100
AcDbLine
 10
81.46106073348304
 20
114.6084167243262
 30
0.0
 11
82.62772740014979
 21
115.0330486643034
 31
0.0
  0
LINE
  5
12CA
102
{ACAD_REACTORS
330
12C0
102
}
330
18
100
AcDbEntity
  8
外形線
100
AcDbLine
 10
81.46106073348304
 20
114.6084167243262
 30
0.0
 11
82.62772740014979
 21
114.183784784349
 31
0.0
  0
LINE
  5
12CB
102
{ACAD_REACTORS
330
12C0
102
}
330
18
100
AcDbEntity
  8
外形線
100
AcDbLine
 10
82.6277274001497
 20
115.0330486643034
 30
0.0
 11
82.6277274001497
 21
114.7750833909929
 31
0.0
  0
LINE
  5
12CC
102
{ACAD_REACTORS
330
12C0
102
}
330
18
100
AcDbEntity
  8
外形線
100
AcDbLine
 10
82.6277274001497
 20
114.4417500576596
 30
0.0
 11
82.6277274001497
 21
114.183784784349
 31
0.0
  0
LINE
  5
12CD
102
{ACAD_REACTORS
330
12C0
102
}
330
18
100
AcDbEntity
  8
外形線
100
AcDbLine
 10
81.2943940668164
 20
115.3584167243262
 30
0.0
 11
81.46106073348304
 21
115.3584167243262
 31
0.0
  0
LINE
  5
12CE
102
{ACAD_REACTORS
330
12C0
102
}
330
18
100
AcDbEntity
  8
外形線
100
AcDbLine
 10
81.46106073348304
 20
115.3584167243262
 30
0.0
 11
81.46106073348304
 21
113.8584167243262
 31
0.0
  0
LINE
  5
12CF
102
{ACAD_REACTORS
330
12C0
102
}
330
18
100
AcDbEntity
  8
外形線
100
AcDbLine
 10
81.2943940668164
 20
113.8584167243262
 30
0.0
 11
81.46106073348304
 21
113.8584167243262
 31
0.0
  0
LINE
  5
12D0
102
{ACAD_REACTORS
330
12C0
102
}
330
18
100
AcDbEntity
  8
外形線
100
AcDbLine
 10
81.2943940668164
 20
115.3584167243262
 30
0.0
 11
81.2943940668164
 21
113.8584167243262
 31
0.0
  0
LINE
  5
12D1
102
{ACAD_REACTORS
330
12C0
102
}
330
18
100
AcDbEntity
  8
外形線
100
AcDbLine
 10
83.62772740014973
 20
114.7750833909928
 30
0.0
 11
83.62772740014973
 21
114.4417500576596
 31
0.0
  0
TEXT
  5
12D4
330
18
100
AcDbEntity
  8
文字
100
AcDbText
 10
78.39718882721001
 20
117.645813299845
 30
0.0
 40
1.5
  1
S-5
  7
STYLE3
100
AcDbText
  0
TEXT
  5
12D8
330
18
100
AcDbEntity
  8
文字
100
AcDbText
 10
92.48773078278167
 20
113.8697734905995
 30
0.0
 40
2.0
  1
20
  7
STYLE3
100
AcDbText
  0
LINE
  5
12D9
330
18
100
AcDbEntity
  8
外形線
100
AcDbLine
 10
97.59848597339118
 20
122.7138553674004
 30
0.0
 11
94.99747908422028
 21
120.3718982451444
 31
0.0
  0
LINE
  5
12DA
330
18
100
AcDbEntity
  8
外形線
100
AcDbLine
 10
88.941006264919
 20
128.6639763205131
 30
0.0
 11
87.68671844151043
 21
125.396444827773
 31
0.0
  0
LINE
  5
12DE
330
18
100
AcDbEntity
  8
外形線
100
AcDbLine
 10
83.2296178236719
 20
130.0351593701122
 30
0.0
 11
82.86376820223512
 21
126.5543327363233
 31
0.0
  0
LINE
  5
12DF
330
18
100
AcDbEntity
  8
外形線
100
AcDbLine
 10
80.87772740014974
 20
130.1584167243261
 30
0.0
 11
80.87772740014974
 21
125.6584167243261
 31
0.0
  0
LINE
  5
12E0
330
18
100
AcDbEntity
  8
外形線
100
AcDbLine
 10
79.70016838468348
 20
130.127581256304
 30
0.0
 11
79.88334423153379
 21
126.632377884663
 31
0.0
  0
LINE
  5
12E1
330
18
100
AcDbEntity
  8
外形線
100
AcDbLine
 10
78.5258369766276
 20
130.0351593701122
 30
0.0
 11
78.89168659806438
 21
126.5543327363233
 31
0.0
  0
LINE
  5
12E2
330
18
100
AcDbEntity
  8
外形線
100
AcDbLine
 10
82.05528641561603
 20
130.127581256304
 30
0.0
 11
81.87211056876572
 21
126.632377884663
 31
0.0
  0
LINE
  5
12E3
330
18
100
AcDbEntity
  8
外形線
100
AcDbLine
 10
80.87772740014974
 20
130.1584167243261
 30
0.0
 11
80.87772740014974
 21
125.6584167243261
 31
0.0
  0
POINT
  5
12E4
330
18
100
AcDbEntity
  8
DEFPOINTS
  6
ByBlock
 62
     0
100
AcDbPoint
 10
80.87772740014974
 20
125.6584167243261
 30
0.0
  0
POINT
  5
12E5
330
18
100
AcDbEntity
  8
DEFPOINTS
  6
ByBlock
 62
     0
100
AcDbPoint
 10
80.87772740014974
 20
130.1584167243261
 30
0.0
  0
LINE
  5
12E7
330
18
100
AcDbEntity
  8
外形線
100
AcDbLine
 10
86.70115591495648
 20
129.3917478158301
 30
0.0
 11
85.53647021199514
 21
125.0450815975293
 31
0.0
  0
LINE
  5
12E8
330
18
100
AcDbEntity
  8
外形線
100
AcDbLine
 10
87.83060977358616
 20
129.0571883409671
 30
0.0
 11
86.7490502932738
 21
125.728490533934
 31
0.0
  0
LINE
  5
12E9
330
18
100
AcDbEntity
  8
外形線
100
AcDbLine
 10
85.55574044354932
 20
129.6667377408367
 30
0.0
 11
84.82804952568711
 21
126.2432211382684
 31
0.0
  0
LINE
  5
12EA
330
18
100
AcDbEntity
  8
外形線
100
AcDbLine
 10
84.39750286355495
 20
129.8814043877167
 30
0.0
 11
83.84998223591408
 21
126.4244951956337
 31
0.0
  0
POINT
  5
12F2
330
18
100
AcDbEntity
  8
DEFPOINTS
  6
ByBlock
 62
     0
100
AcDbPoint
 10
85.53647021199513
 20
125.0450815975292
 30
0.0
  0
POINT
  5
12F3
330
18
100
AcDbEntity
  8
DEFPOINTS
  6
ByBlock
 62
     0
100
AcDbPoint
 10
86.7490502932738
 20
125.728490533934
 30
0.0
  0
LINE
  5
12F4
330
18
100
AcDbEntity
  8
外形線
100
AcDbLine
 10
93.13210568798785
 20
126.5285045030982
 30
0.0
 11
91.2258690654353
 21
123.5931575152892
 31
0.0
  0
LINE
  5
12F5
330
18
100
AcDbEntity
  8
外形線
100
AcDbLine
 10
90.02930186935532
 20
128.2131895212846
 30
0.0
 11
88.60572361858993
 21
125.0157804195354
 31
0.0
  0
LINE
  5
12F6
330
18
100
AcDbEntity
  8
外形線
100
AcDbLine
 10
91.09251364428962
 20
127.7060635185643
 30
0.0
 11
89.50354689520111
 21
124.5875406839051
 31
0.0
  0
LINE
  5
12F7
330
18
100
AcDbEntity
  8
外形線
100
AcDbLine
 10
101.4325001971082
 20
116.8099911935316
 30
0.0
 11
98.23509109535912
 21
115.3864129427663
 31
0.0
  0
LINE
  5
12F8
330
18
100
AcDbEntity
  8
外形線
100
AcDbLine
 10
102.6110584916537
 20
113.4818452391328
 30
0.0
 11
98.26439227335294
 21
112.3171595361714
 31
0.0
  0
LINE
  5
12F9
330
18
100
AcDbEntity
  8
外形線
100
AcDbLine
 10
102.8860484166604
 20
112.3364297677256
 30
0.0
 11
99.46253181409202
 21
111.6087388498635
 31
0.0
  0
LINE
  5
12FA
330
18
100
AcDbEntity
  8
外形線
100
AcDbLine
 10
103.1007150635403
 20
111.1781921877313
 30
0.0
 11
99.64380587145734
 21
110.6306715600905
 31
0.0
  0
LINE
  5
12FB
330
18
100
AcDbEntity
  8
外形線
100
AcDbLine
 10
103.2544700459359
 20
110.0103071478482
 30
0.0
 11
99.77364341214684
 21
109.6444575264115
 31
0.0
  0
LINE
  5
12FC
330
18
100
AcDbEntity
  8
外形線
100
AcDbLine
 10
101.8832869963367
 20
115.7216955890953
 30
0.0
 11
98.61575550359653
 21
114.4674077656868
 31
0.0
  0
LINE
  5
12FD
330
18
100
AcDbEntity
  8
外形線
100
AcDbLine
 10
102.2764990167907
 20
114.6112990977624
 30
0.0
 11
98.94780120975759
 21
113.5297396174501
 31
0.0
  0
LINE
  5
12FE
330
18
100
AcDbEntity
  8
外形線
100
AcDbLine
 10
100.925374194388
 20
117.8732029684659
 30
0.0
 11
97.80685135972873
 21
116.2842362193774
 31
0.0
  0
TEXT
  5
139A
330
18
100
AcDbEntity
  8
文字
100
AcDbText
 10
162.6354369257169
 20
181.9923382705042
 30
0.0
 40
4.0
  1
Model No.S-5 Signal Gauge
  7
STYLE3
100
AcDbText
  0
LINE
  5
139B
330
18
100
AcDbEntity
  8
外形線
100
AcDbLine
 10
162.1760279257169
 20
178.8802322705042
 30
0.0
 11
245.1760279257169
 21
178.8802322705042
 31
0.0
  0
LINE
  5
139C
330
18
100
AcDbEntity
  8
外形線
100
AcDbLine
 10
162.1760279257169
 20
179.8802322705042
 30
0.0
 11
245.1760279257169
 21
179.8802322705042
 31
0.0
  0
LINE
  5
139E
330
18
100
AcDbEntity
  8
外形線
100
AcDbLine
 10
113.8405942071904
 20
20.98620095816861
 30
0.0
 11
254.6320122071904
 21
20.98620095816861
 31
0.0
  0
LINE
  5
139F
330
18
100
AcDbEntity
  8
外形線
100
AcDbLine
 10
113.8405942071904
 20
10.20599495816861
 30
0.0
 11
254.6320122071904
 21
10.20599495816861
 31
0.0
  0
TEXT
  5
13A0
330
18
100
AcDbEntity
  8
0
  6
Continuous
100
AcDbText
 10
115.2980612071904
 20
12.10398495816861
 30
0.0
 40
2.1
  1
Design and specifications are subject to change without notice for future improvement.
  7
STYLE3
100
AcDbText
  0
TEXT
  5
13A1
330
18
100
AcDbEntity
  8
0
  6
Continuous
100
AcDbText
 10
115.5895552071904
 20
16.0331329581686
 30
0.0
 40
3.5
  1
仕様及び外観は予告なく変更される場合がございますのでご了承下さい。
  7
STYLE3
100
AcDbText
  0
TEXT
  5
13A2
330
18
100
AcDbEntity
  8
0
  6
Continuous
100
AcDbText
 10
115.0065702071904
 20
2.339356958168608
 30
0.0
 40
2.1
  1
3RD Angle Projection
  7
STYLE3
100
AcDbText
  0
TEXT
  5
13A3
330
18
100
AcDbEntity
  8
0
  6
Continuous
100
AcDbText
 10
117.6300132071904
 20
5.835639958168606
 30
0.0
 40
3.0
  1
三　　角　　法
  7
STYLE3
100
AcDbText
  0
LINE
  5
13A4
330
18
100
AcDbEntity
  8
外形線
100
AcDbLine
 10
113.8405942071904
 20
0.5912169581686087
 30
0.0
 11
113.8405942071904
 21
20.98620095816861
 31
0.0
  0
LINE
  5
13A5
330
18
100
AcDbEntity
  8
外形線
100
AcDbLine
 10
215.8633612071904
 20
10.20599495816861
 30
0.0
 11
215.8633612071904
 21
0.5912169581686087
 31
0.0
  0
LINE
  5
13A6
330
18
100
AcDbEntity
  8
外形線
100
AcDbLine
 10
186.1310112071904
 20
10.20599495816861
 30
0.0
 11
186.1310112071904
 21
0.5912169581686087
 31
0.0
  0
LINE
  5
13A7
330
18
100
AcDbEntity
  8
外形線
100
AcDbLine
 10
166.6009392071904
 20
10.20599495816861
 30
0.0
 11
166.6009392071904
 21
0.5912169581686087
 31
0.0
  0
LINE
  5
13A8
330
18
100
AcDbEntity
  8
外形線
100
AcDbLine
 10
149.1113222071904
 20
10.20599495816861
 30
0.0
 11
149.1113222071904
 21
0.5912169581686087
 31
0.0
  0
TEXT
  5
13A9
330
18
100
AcDbEntity
  8
0
  6
Continuous
100
AcDbText
 10
150.5687912071904
 20
5.841594958168606
 30
0.0
 40
3.0
  1
単位
  7
STYLE3
100
AcDbText
  0
TEXT
  5
13AA
330
18
100
AcDbEntity
  8
0
  6
Continuous
100
AcDbText
 10
150.7405122071904
 20
2.339357958168605
 30
0.0
 40
2.1
  1
Unit
  7
STYLE3
100
AcDbText
  0
TEXT
  5
13AB
330
18
100
AcDbEntity
  8
0
  6
Continuous
100
AcDbText
 10
167.8866872071904
 20
5.550236958168611
 30
0.0
 40
3.0
  1
尺 度
  7
STYLE3
100
AcDbText
  0
TEXT
  5
13AC
330
18
100
AcDbEntity
  8
0
  6
Continuous
100
AcDbText
 10
158.6108392071904
 20
4.087500958168604
 30
0.0
 40
2.399999999999999
  1
mm
  7
STYLE3
100
AcDbText
  0
TEXT
  5
13AD
330
18
100
AcDbEntity
  8
0
  6
Continuous
100
AcDbText
 10
168.3499022071904
 20
2.63071495816861
 30
0.0
 40
2.1
  1
Scale
  7
STYLE3
100
AcDbText
  0
TEXT
  5
13AE
330
18
100
AcDbEntity
  8
0
  6
Continuous
100
AcDbText
 10
177.9691912071904
 20
4.378857958168609
 30
0.0
 40
2.399999999999999
  1
1/1
  7
STYLE3
100
AcDbText
  0
TEXT
  5
13AF
330
18
100
AcDbEntity
  8
0
  6
Continuous
100
AcDbText
 10
188.0629622071904
 20
2.33935895816861
 30
0.0
 40
2.1
  1
Date
  7
STYLE3
100
AcDbText
  0
TEXT
  5
13B0
330
18
100
AcDbEntity
  8
0
  6
Continuous
100
AcDbText
 10
187.6796012071904
 20
5.672441958168604
 30
0.0
 40
3.0
  1
日 付
  7
STYLE3
100
AcDbText
  0
TEXT
  5
13B1
330
18
100
AcDbEntity
  8
0
  6
Continuous
100
AcDbText
 10
196.8077702071904
 20
4.087499958168606
 30
0.0
 40
2.1
  1
2010.07.01
  7
STYLE3
100
AcDbText
  0
TEXT
  5
13B2
330
18
100
AcDbEntity
  8
0
  6
Continuous
100
AcDbText
 10
217.2123242071904
 20
6.126996958168604
 30
0.0
 40
3.0
  1
株式会社　尾崎製作所
  7
STYLE3
100
AcDbText
  0
TEXT
  5
13B3
330
18
100
AcDbEntity
  8
0
  6
Continuous
100
AcDbText
 10
218.0868032071904
 20
2.339357958168605
 30
0.0
 40
2.1
  1
OZAKI MFG. CO., LTD.
  7
STYLE3
100
AcDbText
  0
VIEWPORT
  5
177
330
15
100
AcDbEntity
 67
     1
  8
0
100
AcDbViewport
 10
127.5041203589828
 20
97.49391214526822
 30
0.0
 40
418.3086347473814
 41
243.0346063651093
 68
     1
 69
     1
 12
127.5041203589828
 22
97.49391214526822
 13
0.0
 23
0.0
 14
10.0
 24
10.0
 15
10.0
 25
10.0
 16
0.0
 26
0.0
 36
1.0
 17
0.0
 27
0.0
 37
0.0
 42
50.0
 43
0.0
 44
0.0
 45
243.0346063651093
 50
0.0
 51
0.0
 72
   100
 90
    32800
  1

281
     0
 71
     1
 74
     0
110
0.0
120
0.0
130
0.0
111
1.0
121
0.0
131
0.0
112
0.0
122
1.0
132
0.0
 79
     0
146
0.0
170
     0
  0
ENDSEC
  0
SECTION
  2
OBJECTS
  0
DICTIONARY
  5
C
330
0
100
AcDbDictionary
281
     1
  3
ACAD_COLOR
350
1333
  3
ACAD_GROUP
350
D
  3
ACAD_LAYOUT
350
1336
  3
ACAD_MATERIAL
350
1332
  3
ACAD_MLINESTYLE
350
1B
  3
ACAD_PLOTSETTINGS
350
1337
  3
ACAD_PLOTSTYLENAME
350
1330
  3
ACAD_TABLESTYLE
350
1334
  3
ACDBVARIABLEDICTIONARY
350
BA0
  0
DICTIONARY
  5
1367
330
18
100
AcDbDictionary
280
     1
281
     1
  3
ACAD_SORTENTS
360
1368
  0
DICTIONARY
  5
1333
102
{ACAD_REACTORS
330
C
102
}
330
C
100
AcDbDictionary
281
     1
  0
DICTIONARY
  5
D
102
{ACAD_REACTORS
330
C
102
}
330
C
100
AcDbDictionary
281
     1
  0
DICTIONARY
  5
1336
102
{ACAD_REACTORS
330
C
102
}
330
C
100
AcDbDictionary
281
     1
  3
Model
350
1338
  3
レイアウト1
350
1339
  0
DICTIONARY
  5
1332
102
{ACAD_REACTORS
330
C
102
}
330
C
100
AcDbDictionary
281
     1
  0
DICTIONARY
  5
1B
102
{ACAD_REACTORS
330
C
102
}
330
C
100
AcDbDictionary
281
     1
  3
STANDARD
350
1C
  0
DICTIONARY
  5
1337
102
{ACAD_REACTORS
330
C
102
}
330
C
100
AcDbDictionary
281
     1
  0
ACDBDICTIONARYWDFLT
  5
1330
102
{ACAD_REACTORS
330
C
102
}
330
C
100
AcDbDictionary
281
     1
  3
Normal
350
1331
100
AcDbDictionaryWithDefault
340
1331
  0
DICTIONARY
  5
1334
102
{ACAD_REACTORS
330
C
102
}
330
C
100
AcDbDictionary
281
     1
  3
Standard
350
1335
  0
DICTIONARY
  5
BA0
102
{ACAD_REACTORS
330
C
102
}
330
C
100
AcDbDictionary
281
     1
  3
CTABLESTYLE
350
1341
  3
SORTENTS
350
BA1
  0
SORTENTSTABLE
  5
1368
102
{ACAD_REACTORS
330
1367
102
}
330
1367
100
AcDbSortentsTable
330
18
331
DDD
  5
DDC
331
DFC
  5
DFB
331
D9F
  5
D9E
331
D4A
  5
D49
331
D69
  5
D68
331
D2B
  5
D2A
331
DBE
  5
DBD
331
E13
  5
E12
331
D04
  5
D03
331
1008
  5
FD1
331
CA7
  5
CA6
331
CC6
  5
CC5
331
C71
  5
C70
331
C90
  5
C8F
331
C33
  5
C32
331
C52
  5
C51
331
CE5
  5
CE4
331
AE3
  5
AE3
331
B02
  5
B02
331
C1C
  5
BAE
331
367
  5
367
331
274
  5
274
331
293
  5
293
331
348
  5
348
331
835
  5
835
331
7AF
  5
7AF
331
759
  5
759
331
688
  5
688
331
71B
  5
71B
331
652
  5
652
331
778
  5
778
331
DFD
  5
DFC
331
E14
  5
E13
331
DBF
  5
DBE
331
DDE
  5
DDD
331
DA0
  5
D9F
331
D2C
  5
D2B
331
D4B
  5
D4A
331
D6A
  5
D69
331
CE6
  5
CE5
331
D05
  5
D04
331
1009
  5
1008
331
C91
  5
C90
331
CA8
  5
CA7
331
C53
  5
C52
331
B03
  5
B03
331
C1D
  5
C1C
331
AE4
  5
AE4
331
C72
  5
C71
331
CC7
  5
CC6
331
294
  5
294
331
275
  5
275
331
368
  5
368
331
836
  5
836
331
689
  5
689
331
71C
  5
71C
331
653
  5
653
331
779
  5
779
331
7B0
  5
7B0
331
634
  5
634
331
DDF
  5
DDE
331
DFE
  5
DFD
331
DA1
  5
DA0
331
D4C
  5
D4B
331
D6B
  5
D6A
331
D2D
  5
D2C
331
DC0
  5
DBF
331
E15
  5
E14
331
D06
  5
D05
331
100A
  5
1009
331
CA9
  5
CA8
331
CC8
  5
CC7
331
C73
  5
C72
331
C92
  5
C91
331
C1E
  5
C1D
331
BA8
  5
135A
331
AE5
  5
AE5
331
B04
  5
B04
331
C54
  5
C53
331
CE7
  5
CE6
331
369
  5
369
331
276
  5
276
331
295
  5
295
331
34A
  5
34A
331
837
  5
837
331
7B1
  5
7B1
331
68A
  5
68A
331
71D
  5
71D
331
635
  5
635
331
654
  5
654
331
77A
  5
77A
331
DFF
  5
DFE
331
E16
  5
E15
331
DC1
  5
DC0
331
DE0
  5
DDF
331
D6C
  5
D6B
331
D2E
  5
D2D
331
D4D
  5
D4C
331
DA2
  5
DA1
331
11E0
  5
11DF
331
CC9
  5
CC8
331
CE8
  5
CE7
331
C93
  5
C92
331
CAA
  5
CA9
331
C55
  5
C54
331
C74
  5
C73
331
D07
  5
D06
331
100B
  5
100A
331
B05
  5
B05
331
AE6
  5
AE6
331
C36
  5
C33
331
34B
  5
34B
331
277
  5
277
331
36A
  5
36A
331
838
  5
838
331
68B
  5
68B
331
71E
  5
71E
331
7B2
  5
7B2
331
636
  5
636
331
E17
  5
E16
331
DE1
  5
DE0
331
DA3
  5
DA2
331
D4E
  5
D4D
331
D6D
  5
D6C
331
D2F
  5
D2E
331
DC2
  5
DC1
331
1200
  5
11FF
331
D08
  5
D07
331
100C
  5
100B
331
CAB
  5
CAA
331
CCA
  5
CC9
331
C75
  5
C74
331
C94
  5
C93
331
BAA
  5
BA8
331
C37
  5
C36
331
AE7
  5
AE7
331
B06
  5
B06
331
C56
  5
C55
331
CE9
  5
CE8
331
11E1
  5
11E0
331
36B
  5
36B
331
297
  5
297
331
77C
  5
77C
331
7B3
  5
7B3
331
637
  5
637
331
68C
  5
68C
331
71F
  5
71F
331
802
  5
802
331
1218
  5
1217
331
E18
  5
E17
331
DC3
  5
DC2
331
DE2
  5
DE1
331
D6E
  5
D6D
331
D4F
  5
D4E
331
DA4
  5
DA3
331
11E2
  5
11E1
331
1201
  5
1200
331
CCB
  5
CCA
331
CEA
  5
CE9
331
C95
  5
C94
331
CAC
  5
CAB
331
C57
  5
C56
331
B07
  5
B07
331
BAB
  5
BAA
331
C76
  5
C75
331
D09
  5
D08
331
100D
  5
100C
331
34D
  5
34D
331
36C
  5
36C
331
77D
  5
77D
331
720
  5
720
331
73F
  5
73F
331
68D
  5
68D
331
701
  5
701
331
7B4
  5
7B4
331
E19
  5
E18
331
DE3
  5
DE2
331
1219
  5
1218
331
DA5
  5
DA4
331
D6F
  5
D6E
331
DC4
  5
DC3
331
11E3
  5
11E2
331
CEB
  5
CEA
331
D0A
  5
D09
331
1202
  5
1201
331
CAD
  5
CAC
331
CCC
  5
CCB
331
C77
  5
C76
331
C96
  5
C95
331
BAC
  5
BAB
331
C58
  5
C57
331
888
  5
888
331
34E
  5
34E
331
36D
  5
36D
331
84A
  5
84A
331
77E
  5
77E
331
7B5
  5
7B5
331
702
  5
702
331
68E
  5
68E
331
721
  5
721
331
804
  5
804
331
1239
  5
1234
331
E1A
  5
E19
331
DC5
  5
DC4
331
DE4
  5
DE3
331
1258
  5
1257
331
DA6
  5
DA5
331
11E4
  5
11E3
331
CCD
  5
CCC
331
CEC
  5
CEB
331
C97
  5
C96
331
CAE
  5
CAD
331
C3A
  5
C37
331
C59
  5
C58
331
C78
  5
C77
331
D0B
  5
D0A
331
1203
  5
1202
331
889
  5
889
331
8A8
  5
8A8
331
36E
  5
36E
331
34F
  5
34F
331
86A
  5
86A
331
805
  5
805
331
77F
  5
77F
331
68F
  5
68F
331
722
  5
722
331
741
  5
741
331
123A
  5
1239
331
E1B
  5
E1A
331
DE5
  5
DE4
331
1259
  5
1258
331
1278
  5
1277
331
DA7
  5
DA6
331
DC6
  5
DC5
331
11E5
  5
11E4
331
CED
  5
CEC
331
D0C
  5
D0B
331
1204
  5
1203
331
CAF
  5
CAE
331
C5A
  5
C59
331
C79
  5
C78
331
BAE
  5
BAC
331
C3B
  5
C3A
331
CCE
  5
CCD
331
8A9
  5
8A9
331
8C0
  5
8C0
331
86B
  5
86B
331
36F
  5
36F
331
88A
  5
88A
331
780
  5
780
331
742
  5
742
331
7B7
  5
7B7
331
704
  5
704
331
723
  5
723
331
806
  5
806
331
1279
  5
1278
331
1290
  5
128F
331
123B
  5
123A
331
E1C
  5
E1B
331
DC7
  5
DC6
331
DE6
  5
DE5
331
125A
  5
1259
331
1205
  5
1204
331
D0D
  5
D0C
331
CCF
  5
CCE
331
CEE
  5
CED
331
11E6
  5
11E5
331
CB0
  5
CAF
331
C5B
  5
C5A
331
C7A
  5
C79
331
8C1
  5
8C1
331
88B
  5
88B
331
8AA
  5
8AA
331
84D
  5
84D
331
86C
  5
86C
331
781
  5
781
331
705
  5
705
331
724
  5
724
331
743
  5
743
331
1291
  5
1290
331
12B0
  5
12AF
331
123C
  5
123B
331
DE7
  5
DE6
331
125B
  5
125A
331
127A
  5
1279
331
11E7
  5
11E6
331
CEF
  5
CEE
331
D0E
  5
D0D
331
1206
  5
1205
331
CB1
  5
CB0
331
C5C
  5
C5B
331
C7B
  5
C7A
331
CD0
  5
CCF
331
909
  5
909
331
8AB
  5
8AB
331
8C2
  5
8C2
331
86D
  5
86D
331
88C
  5
88C
331
810
  5
810
331
782
  5
782
331
706
  5
706
331
725
  5
725
331
12B1
  5
12B0
331
12D0
  5
12CF
331
125C
  5
125B
331
127B
  5
127A
331
121E
  5
1219
331
123D
  5
123C
331
1292
  5
1291
331
1207
  5
1206
331
D0F
  5
D0E
331
CD1
  5
CD0
331
CF0
  5
CEF
331
11E8
  5
11E7
331
C7C
  5
C7B
331
C5D
  5
C5C
331
CB2
  5
CB1
331
8C3
  5
8C3
331
86E
  5
86E
331
88D
  5
88D
331
8AC
  5
8AC
331
811
  5
811
331
783
  5
783
331
707
  5
707
331
726
  5
726
331
745
  5
745
331
12D1
  5
12D0
331
1293
  5
1292
331
12B2
  5
12B1
331
123E
  5
123D
331
125D
  5
125C
331
121F
  5
121E
331
127C
  5
127B
331
CF1
  5
CF0
331
11E9
  5
11E8
331
1208
  5
1207
331
CB3
  5
CB2
331
C5E
  5
C5D
331
C7D
  5
C7C
331
CD2
  5
CD1
331
8AD
  5
8AD
331
8C4
  5
8C4
331
86F
  5
86F
331
88E
  5
88E
331
727
  5
727
331
784
  5
784
331
7E3
  5
7E3
331
12B3
  5
12B2
331
125E
  5
125D
331
1220
  5
121F
331
123F
  5
123E
331
1294
  5
1293
331
1209
  5
1208
331
CD3
  5
CD2
331
CF2
  5
CF1
331
11EA
  5
11E9
331
C7E
  5
C7D
331
C5F
  5
C5E
331
CB4
  5
CB3
331
8C5
  5
8C5
331
870
  5
870
331
88F
  5
88F
331
8AE
  5
8AE
331
7E4
  5
7E4
331
785
  5
785
331
12F2
  5
12EA
331
127E
  5
127C
331
1295
  5
1294
331
1240
  5
123F
331
125F
  5
125E
331
1221
  5
1220
331
12B4
  5
12B3
331
11EB
  5
11EA
331
CF3
  5
CF2
331
F5F
  5
E1C
331
120A
  5
1209
331
CB5
  5
CB4
331
C7F
  5
C7E
331
CD4
  5
CD3
331
92C
  5
92C
331
890
  5
890
331
8AF
  5
8AF
331
852
  5
852
331
871
  5
871
331
8C6
  5
8C6
331
786
  5
786
331
7E5
  5
7E5
331
12F3
  5
12F2
331
12D4
  5
12D1
331
1260
  5
125F
331
1222
  5
1221
331
127F
  5
127E
331
1296
  5
1295
331
120B
  5
120A
331
CD5
  5
CD4
331
CF4
  5
CF3
331
11EC
  5
11EB
331
CB6
  5
CB5
331
9E0
  5
9E0
331
872
  5
872
331
891
  5
891
331
853
  5
853
331
8B0
  5
8B0
331
787
  5
787
331
1280
  5
127F
331
1297
  5
1296
331
1261
  5
1260
331
12F4
  5
12F3
331
CF5
  5
CF4
331
11ED
  5
11EC
331
120C
  5
120B
331
CB7
  5
CB6
331
CD6
  5
CD5
331
9E1
  5
9E1
331
892
  5
892
331
8B1
  5
8B1
331
873
  5
873
331
99B
  5
99B
331
12F5
  5
12F4
331
1298
  5
1297
331
12B7
  5
12B4
331
1262
  5
1261
331
1224
  5
1222
331
1281
  5
1280
331
11EE
  5
11ED
331
CD7
  5
CD6
331
CF6
  5
CF5
331
FBA
  5
F5F
331
8B2
  5
8B2
331
874
  5
874
331
893
  5
893
331
855
  5
855
331
12F6
  5
12F5
331
1244
  5
1240
331
1299
  5
1298
331
1225
  5
1224
331
12B8
  5
12B7
331
CF7
  5
CF6
331
11EF
  5
11EE
331
120E
  5
120C
331
894
  5
894
331
8B3
  5
8B3
331
875
  5
875
331
938
  5
938
331
12F7
  5
12F6
331
129A
  5
1299
331
1264
  5
1262
331
12B9
  5
12B8
331
1226
  5
1225
331
1245
  5
1244
331
12D8
  5
12D4
331
11F0
  5
11EF
331
8B4
  5
8B4
331
876
  5
876
331
895
  5
895
331
857
  5
857
331
9C5
  5
9C5
331
12BA
  5
12B9
331
12D9
  5
12D8
331
129B
  5
129A
331
1246
  5
1245
331
1265
  5
1264
331
12F8
  5
12F7
331
11F1
  5
11F0
331
1210
  5
120E
331
9C6
  5
9C6
331
896
  5
896
331
8B5
  5
8B5
331
877
  5
877
331
12F9
  5
12F8
331
129C
  5
129B
331
12BB
  5
12BA
331
1266
  5
1265
331
1228
  5
1226
331
1285
  5
1281
331
12DA
  5
12D9
331
1211
  5
1210
331
11F2
  5
11F1
331
9C7
  5
9C7
331
8B6
  5
8B6
331
878
  5
878
331
897
  5
897
331
12BC
  5
12BB
331
1286
  5
1285
331
129D
  5
129C
331
1248
  5
1246
331
1267
  5
1266
331
12FA
  5
12F9
331
11F3
  5
11F2
331
1212
  5
1211
331
A06
  5
A06
331
9C8
  5
9C8
331
898
  5
898
331
8B7
  5
8B7
331
982
  5
982
331
879
  5
879
331
12FB
  5
12FA
331
129E
  5
129D
331
12BD
  5
12BC
331
1287
  5
1286
331
1249
  5
1248
331
11F4
  5
11F3
331
1213
  5
1212
331
9C9
  5
9C9
331
8B8
  5
8B8
331
87A
  5
87A
331
899
  5
899
331
85B
  5
85B
331
12BE
  5
12BD
331
1288
  5
1287
331
124A
  5
1249
331
129F
  5
129E
331
12FC
  5
12FB
331
11F5
  5
11F4
331
1214
  5
1213
331
9CA
  5
9CA
331
89A
  5
89A
331
8B9
  5
8B9
331
87B
  5
87B
331
12DE
  5
12DA
331
12FD
  5
12FC
331
12A0
  5
129F
331
12BF
  5
12BE
331
124B
  5
124A
331
126A
  5
1267
331
122C
  5
1228
331
1289
  5
1288
331
11F6
  5
11F5
331
1215
  5
1214
331
9CB
  5
9CB
331
8BA
  5
8BA
331
87C
  5
87C
331
89B
  5
89B
331
12FE
  5
12FD
331
12C0
  5
12BF
331
12DF
  5
12DE
331
128A
  5
1289
331
12A1
  5
12A0
331
122D
  5
122C
331
124C
  5
124B
331
126B
  5
126A
331
1216
  5
1215
331
11F7
  5
11F6
331
9EB
  5
9EB
331
9CC
  5
9CC
331
89C
  5
89C
331
8BB
  5
8BB
331
87D
  5
87D
331
12E0
  5
12DF
331
12A2
  5
12A1
331
12C1
  5
12C0
331
124D
  5
124C
331
126C
  5
126B
331
122E
  5
122D
331
128B
  5
128A
331
11F8
  5
11F7
331
1217
  5
1216
331
11D9
  5
100D
331
9CD
  5
9CD
331
8BC
  5
8BC
331
9EC
  5
9EC
331
87E
  5
87E
331
89D
  5
89D
331
12C2
  5
12C1
331
12E1
  5
12E0
331
126D
  5
126C
331
128C
  5
128B
331
122F
  5
122E
331
124E
  5
124D
331
12A3
  5
12A2
331
11F9
  5
11F8
331
9ED
  5
9ED
331
9CE
  5
9CE
331
87F
  5
87F
331
89E
  5
89E
331
8BD
  5
8BD
331
12E2
  5
12E1
331
12A4
  5
12A3
331
12C3
  5
12C2
331
124F
  5
124E
331
126E
  5
126D
331
1230
  5
122F
331
128D
  5
128C
331
11FA
  5
11F9
331
9CF
  5
9CF
331
8BE
  5
8BE
331
9A8
  5
9A8
331
861
  5
861
331
880
  5
880
331
89F
  5
89F
331
12C4
  5
12C3
331
12E3
  5
12E2
331
126F
  5
126E
331
128E
  5
128D
331
1231
  5
1230
331
1250
  5
124F
331
12A5
  5
12A4
331
11DC
  5
11D9
331
11FB
  5
11FA
331
9D0
  5
9D0
331
881
  5
881
331
8A0
  5
8A0
331
862
  5
862
331
8BF
  5
8BF
331
12E4
  5
12E3
331
128F
  5
128E
331
12A6
  5
12A5
331
1251
  5
1250
331
1270
  5
126F
331
1232
  5
1231
331
12C5
  5
12C4
331
11FC
  5
11FB
331
11DD
  5
11DC
331
8A1
  5
8A1
331
9D1
  5
9D1
331
863
  5
863
331
882
  5
882
331
12C6
  5
12C5
331
12E5
  5
12E4
331
1271
  5
1270
331
1233
  5
1232
331
1252
  5
1251
331
12A7
  5
12A6
331
11DE
  5
11DD
331
11FD
  5
11FC
331
883
  5
883
331
8A2
  5
8A2
331
A28
  5
A28
331
12A8
  5
12A7
331
1253
  5
1252
331
1272
  5
1271
331
1234
  5
1233
331
12C7
  5
12C6
331
11FE
  5
11FD
331
11DF
  5
11DE
331
8A3
  5
8A3
331
920
  5
920
331
865
  5
865
331
884
  5
884
331
9FA
  5
9FA
331
12A9
  5
12A8
331
1273
  5
1272
331
12C8
  5
12C7
331
1254
  5
1253
331
12E7
  5
12E5
331
11FF
  5
11FE
331
98E
  5
98E
331
885
  5
885
331
8A4
  5
8A4
331
866
  5
866
331
9D4
  5
9D4
331
12E8
  5
12E7
331
12AA
  5
12A9
331
1255
  5
1254
331
1274
  5
1273
331
12C9
  5
12C8
331
8A5
  5
8A5
331
9D5
  5
9D5
331
867
  5
867
331
886
  5
886
331
1357
  5
12FE
331
12AB
  5
12AA
331
1275
  5
1274
331
12CA
  5
12C9
331
1256
  5
1255
331
12E9
  5
12E8
331
8FC
  5
8FC
331
887
  5
887
331
8A6
  5
8A6
331
9D6
  5
9D6
331
D10
  5
D0F
331
12CB
  5
12CA
331
12EA
  5
12E9
331
12AC
  5
12AB
331
1358
  5
1357
331
1257
  5
1256
331
1276
  5
1275
331
278
  5
278
331
8A7
  5
8A7
331
9D7
  5
9D7
331
D30
  5
D2F
331
D11
  5
D10
331
1359
  5
1358
331
AC9
  5
AC9
331
12AD
  5
12AC
331
1277
  5
1276
331
12CC
  5
12CB
331
AE8
  5
AE8
331
298
  5
298
331
279
  5
279
331
9D8
  5
9D8
331
638
  5
638
331
D50
  5
D4F
331
D12
  5
D11
331
D31
  5
D30
331
AE9
  5
AE9
331
B08
  5
B08
331
12CD
  5
12CC
331
12AE
  5
12AD
331
135A
  5
1359
331
ACA
  5
ACA
331
27A
  5
27A
331
299
  5
299
331
639
  5
639
331
658
  5
658
331
D70
  5
D6F
331
D32
  5
D31
331
D51
  5
D50
331
D13
  5
D12
331
B09
  5
B09
331
ACB
  5
ACB
331
12AF
  5
12AE
331
12CE
  5
12CD
331
AEA
  5
AEA
331
29A
  5
29A
331
27B
  5
27B
331
63A
  5
63A
331
659
  5
659
331
9DA
  5
9DA
331
A68
  5
A68
331
D88
  5
D87
331
D52
  5
D51
331
D71
  5
D70
331
D14
  5
D13
331
D33
  5
D32
331
AEB
  5
AEB
331
B0A
  5
B0A
331
12CF
  5
12CE
331
ACC
  5
ACC
331
27C
  5
27C
331
29B
  5
29B
331
65A
  5
65A
331
A69
  5
A69
331
9DB
  5
9DB
331
DA8
  5
DA7
331
D72
  5
D71
331
D89
  5
D88
331
D34
  5
D33
331
D53
  5
D52
331
D15
  5
D14
331
B0B
  5
B0B
331
370
  5
370
331
27D
  5
27D
331
29C
  5
29C
331
691
  5
691
331
9DC
  5
9DC
331
65B
  5
65B
331
9B5
  5
9B5
331
D8A
  5
D89
331
DA9
  5
DA8
331
D54
  5
D53
331
D73
  5
D72
331
D16
  5
D15
331
D35
  5
D34
331
DC8
  5
DC7
331
B0C
  5
B0C
331
27E
  5
27E
331
371
  5
371
331
65C
  5
65C
331
9DD
  5
9DD
331
692
  5
692
331
DAA
  5
DA9
331
DC9
  5
DC8
331
D74
  5
D73
331
D8B
  5
D8A
331
D17
  5
D16
331
D36
  5
D35
331
D55
  5
D54
331
DE8
  5
DE7
331
B0D
  5
B0D
331
B92
  5
B92
331
ACF
  5
ACF
331
AEE
  5
AEE
331
27F
  5
27F
331
353
  5
353
331
674
  5
674
331
693
  5
693
331
9DE
  5
9DE
331
65D
  5
65D
331
DCA
  5
DC9
331
DE9
  5
DE8
331
D8C
  5
D8B
331
DAB
  5
DAA
331
D56
  5
D55
331
D75
  5
D74
331
E00
  5
DFF
331
D18
  5
D17
331
D37
  5
D36
331
B93
  5
B93
331
AD0
  5
AD0
331
AEF
  5
AEF
331
B0E
  5
B0E
331
354
  5
354
331
29F
  5
29F
331
280
  5
280
331
32D
  5
32D
331
708
  5
708
331
65E
  5
65E
331
A6D
  5
A6D
331
675
  5
675
331
9DF
  5
9DF
331
694
  5
694
331
E01
  5
E00
331
DAC
  5
DAB
331
DCB
  5
DCA
331
D76
  5
D75
331
D8D
  5
D8C
331
D19
  5
D18
331
D38
  5
D37
331
D57
  5
D56
331
DEA
  5
DE9
331
B0F
  5
B0F
331
B94
  5
B94
331
AD1
  5
AD1
331
AF0
  5
AF0
331
32E
  5
32E
331
281
  5
281
331
2A0
  5
2A0
331
355
  5
355
331
709
  5
709
331
676
  5
676
331
695
  5
695
331
A6E
  5
A6E
331
65F
  5
65F
331
DCC
  5
DCB
331
DEB
  5
DEA
331
D8E
  5
D8D
331
DAD
  5
DAC
331
D39
  5
D38
331
D58
  5
D57
331
D1A
  5
D19
331
D77
  5
D76
331
E02
  5
E01
331
C60
  5
C5F
331
B95
  5
B95
331
C22
  5
C1E
331
AF1
  5
AF1
331
B10
  5
B10
331
356
  5
356
331
2A1
  5
2A1
331
310
  5
310
331
282
  5
282
331
696
  5
696
331
660
  5
660
331
70A
  5
70A
331
A6F
  5
A6F
331
641
  5
641
331
DEC
  5
DEB
331
E03
  5
E02
331
DAE
  5
DAD
331
DCD
  5
DCC
331
D78
  5
D77
331
D8F
  5
D8E
331
D1B
  5
D1A
331
D3A
  5
D39
331
D59
  5
D58
331
C80
  5
C7F
331
C42
  5
C3B
331
C61
  5
C60
331
AF2
  5
AF2
331
B11
  5
B11
331
B96
  5
B96
331
C23
  5
C22
331
311
  5
311
331
330
  5
330
331
283
  5
283
331
2A2
  5
2A2
331
357
  5
357
331
70B
  5
70B
331
697
  5
697
331
661
  5
661
331
DCE
  5
DCD
331
DED
  5
DEC
331
D90
  5
D8F
331
DAF
  5
DAE
331
D3B
  5
D3A
331
D5A
  5
D59
331
D1C
  5
D1B
331
D79
  5
D78
331
E04
  5
E03
331
C98
  5
C97
331
C62
  5
C61
331
C81
  5
C80
331
B97
  5
B97
331
C43
  5
C42
331
AD4
  5
AD4
331
AF3
  5
AF3
331
B12
  5
B12
331
358
  5
358
331
2A3
  5
2A3
331
312
  5
312
331
284
  5
284
331
331
  5
331
331
788
  5
788
331
698
  5
698
331
662
  5
662
331
679
  5
679
331
70C
  5
70C
331
DEE
  5
DED
331
E05
  5
E04
331
DB0
  5
DAF
331
DCF
  5
DCE
331
D5B
  5
D5A
331
D7A
  5
D79
331
D1D
  5
D1C
331
D3C
  5
D3B
331
D91
  5
D90
331
CB8
  5
CB7
331
C82
  5
C81
331
C99
  5
C98
331
C44
  5
C43
331
AF4
  5
AF4
331
B13
  5
B13
331
AD5
  5
AD5
331
B98
  5
B98
331
C63
  5
C62
331
332
  5
332
331
285
  5
285
331
2A4
  5
2A4
331
359
  5
359
331
67A
  5
67A
331
699
  5
699
331
72C
  5
72C
331
644
  5
644
331
663
  5
663
331
789
  5
789
331
E06
  5
E05
331
DD0
  5
DCF
331
DEF
  5
DEE
331
D92
  5
D91
331
DB1
  5
DB0
331
D3D
  5
D3C
331
D5C
  5
D5B
331
D1E
  5
D1D
331
D7B
  5
D7A
331
C9A
  5
C99
331
CB9
  5
CB8
331
C64
  5
C63
331
C83
  5
C82
331
B14
  5
B14
331
B99
  5
B99
331
AD6
  5
AD6
331
AF5
  5
AF5
331
C45
  5
C44
331
CD8
  5
CD7
331
2A5
  5
2A5
331
35A
  5
35A
331
286
  5
286
331
69A
  5
69A
331
72D
  5
72D
331
78A
  5
78A
331
67B
  5
67B
331
645
  5
645
331
DF0
  5
DEF
331
E07
  5
E06
331
DB2
  5
DB1
331
DD1
  5
DD0
331
D5D
  5
D5C
331
D7C
  5
D7B
331
D1F
  5
D1E
331
D3E
  5
D3D
331
D93
  5
D92
331
CBA
  5
CB9
331
CD9
  5
CD8
331
C84
  5
C83
331
C9B
  5
C9A
331
C46
  5
C45
331
AF6
  5
AF6
331
B15
  5
B15
331
AD7
  5
AD7
331
B9A
  5
B9A
331
C65
  5
C64
331
CF8
  5
CF7
331
287
  5
287
331
2A6
  5
2A6
331
35B
  5
35B
331
67C
  5
67C
331
72E
  5
72E
331
78B
  5
78B
331
E08
  5
E07
331
DD2
  5
DD1
331
DF1
  5
DF0
331
D7D
  5
D7C
331
D94
  5
D93
331
D3F
  5
D3E
331
D5E
  5
D5D
331
D20
  5
D1F
331
DB3
  5
DB2
331
CDA
  5
CD9
331
CF9
  5
CF8
331
C9C
  5
C9B
331
CBB
  5
CBA
331
C66
  5
C65
331
C85
  5
C84
331
B16
  5
B16
331
C28
  5
C23
331
AD8
  5
AD8
331
AF7
  5
AF7
331
C47
  5
C46
331
2A7
  5
2A7
331
35C
  5
35C
331
288
  5
288
331
82A
  5
82A
331
78C
  5
78C
331
69C
  5
69C
331
74E
  5
74E
331
67D
  5
67D
331
DF2
  5
DF1
331
E09
  5
E08
331
DB4
  5
DB3
331
DD3
  5
DD2
331
D5F
  5
D5E
331
D7E
  5
D7D
331
D21
  5
D20
331
D40
  5
D3F
331
D95
  5
D94
331
CBC
  5
CBB
331
CDB
  5
CDA
331
C86
  5
C85
331
C9D
  5
C9C
331
C29
  5
C28
331
C48
  5
C47
331
AF8
  5
AF8
331
B17
  5
B17
331
AD9
  5
AD9
331
B9C
  5
B9C
331
C67
  5
C66
331
CFA
  5
CF9
331
35D
  5
35D
331
289
  5
289
331
2A8
  5
2A8
331
26A
  5
26A
331
78D
  5
78D
331
7F4
  5
7F4
331
711
  5
711
331
67E
  5
67E
331
69D
  5
69D
331
730
  5
730
331
E0A
  5
E09
331
DD4
  5
DD3
331
DF3
  5
DF2
331
D7F
  5
D7E
331
D96
  5
D95
331
D41
  5
D40
331
D60
  5
D5F
331
D22
  5
D21
331
DB5
  5
DB4
331
CDC
  5
CDB
331
CFB
  5
CFA
331
C9E
  5
C9D
331
CBD
  5
CBC
331
C49
  5
C48
331
B18
  5
B18
331
B9D
  5
B9D
331
C68
  5
C67
331
ADA
  5
ADA
331
AF9
  5
AF9
331
C87
  5
C86
331
2A9
  5
2A9
331
26B
  5
26B
331
35E
  5
35E
331
767
  5
767
331
731
  5
731
331
750
  5
750
331
69E
  5
69E
331
668
  5
668
331
67F
  5
67F
331
712
  5
712
331
7F5
  5
7F5
331
DF4
  5
DF3
331
E0B
  5
E0A
331
D97
  5
D96
331
DB6
  5
DB5
331
D61
  5
D60
331
D80
  5
D7F
331
D23
  5
D22
331
D42
  5
D41
331
DD5
  5
DD4
331
CFC
  5
CFB
331
CBE
  5
CBD
331
CDD
  5
CDC
331
C88
  5
C87
331
C9F
  5
C9E
331
AFA
  5
AFA
331
C4A
  5
C49
331
ADB
  5
ADB
331
C69
  5
C68
331
35F
  5
35F
331
26C
  5
26C
331
28B
  5
28B
331
2AA
  5
2AA
331
751
  5
751
331
7F6
  5
7F6
331
680
  5
680
331
713
  5
713
331
732
  5
732
331
669
  5
669
331
E0C
  5
E0B
331
DD6
  5
DD5
331
DF5
  5
DF4
331
D81
  5
D80
331
D98
  5
D97
331
D43
  5
D42
331
D62
  5
D61
331
D24
  5
D23
331
DB7
  5
DB6
331
CDE
  5
CDD
331
CFD
  5
CFC
331
FD1
  5
FBA
331
CA0
  5
C9F
331
CBF
  5
CBE
331
C4B
  5
C4A
331
C6A
  5
C69
331
ADC
  5
ADC
331
AFB
  5
AFB
331
C89
  5
C88
331
2AB
  5
2AB
331
360
  5
360
331
28C
  5
28C
331
7F7
  5
7F7
331
771
  5
771
331
7A8
  5
7A8
331
752
  5
752
331
66A
  5
66A
331
681
  5
681
331
714
  5
714
331
DF6
  5
DF5
331
E0D
  5
E0C
331
D99
  5
D98
331
DB8
  5
DB7
331
D63
  5
D62
331
D82
  5
D81
331
D25
  5
D24
331
D44
  5
D43
331
DD7
  5
DD6
331
CFE
  5
CFD
331
CC0
  5
CBF
331
CDF
  5
CDE
331
C6B
  5
C6A
331
C8A
  5
C89
331
C2D
  5
C29
331
AFC
  5
AFC
331
C4C
  5
C4B
331
CA1
  5
CA0
331
ADD
  5
ADD
331
361
  5
361
331
31B
  5
31B
331
342
  5
342
331
28D
  5
28D
331
2AC
  5
2AC
331
7A9
  5
7A9
331
66B
  5
66B
331
682
  5
682
331
715
  5
715
331
772
  5
772
331
E0E
  5
E0D
331
DB9
  5
DB8
331
DD8
  5
DD7
331
D83
  5
D82
331
D9A
  5
D99
331
D45
  5
D44
331
D64
  5
D63
331
DF7
  5
DF6
331
D26
  5
D25
331
CE0
  5
CDF
331
CFF
  5
CFE
331
CA2
  5
CA1
331
CC1
  5
CC0
331
C4D
  5
C4C
331
C6C
  5
C6B
331
C2E
  5
C2D
331
ADE
  5
ADE
331
AFD
  5
AFD
331
C8B
  5
C8A
331
28E
  5
28E
331
2AD
  5
2AD
331
362
  5
362
331
830
  5
830
331
716
  5
716
331
773
  5
773
331
64D
  5
64D
331
66C
  5
66C
331
7AA
  5
7AA
331
4F6
  5
4F6
331
DF8
  5
DF7
331
E0F
  5
E0E
331
D9B
  5
D9A
331
DBA
  5
DB9
331
D65
  5
D64
331
D84
  5
D83
331
D27
  5
D26
331
D46
  5
D45
331
DD9
  5
DD8
331
D00
  5
CFF
331
CC2
  5
CC1
331
CE1
  5
CE0
331
C6D
  5
C6C
331
C8C
  5
C8B
331
C2F
  5
C2E
331
AFE
  5
AFE
331
C4E
  5
C4D
331
CA3
  5
CA2
331
ADF
  5
ADF
331
363
  5
363
331
344
  5
344
331
28F
  5
28F
331
2AE
  5
2AE
331
831
  5
831
331
7FA
  5
7FA
331
774
  5
774
331
66D
  5
66D
331
4F7
  5
4F7
331
684
  5
684
331
717
  5
717
331
736
  5
736
331
E10
  5
E0F
331
DBB
  5
DBA
331
DDA
  5
DD9
331
D85
  5
D84
331
D9C
  5
D9B
331
D28
  5
D27
331
D47
  5
D46
331
D66
  5
D65
331
DF9
  5
DF8
331
CE2
  5
CE1
331
D01
  5
D00
331
C8D
  5
C8C
331
CA4
  5
CA3
331
C4F
  5
C4E
331
C6E
  5
C6D
331
CC3
  5
CC2
331
AE0
  5
AE0
331
AFF
  5
AFF
331
345
  5
345
331
290
  5
290
331
2AF
  5
2AF
331
364
  5
364
331
832
  5
832
331
685
  5
685
331
718
  5
718
331
775
  5
775
331
64F
  5
64F
331
66E
  5
66E
331
7AC
  5
7AC
331
DDB
  5
DDA
331
DFA
  5
DF9
331
D9D
  5
D9C
331
DBC
  5
DBB
331
D67
  5
D66
331
D86
  5
D85
331
E11
  5
E10
331
D29
  5
D28
331
D48
  5
D47
331
D02
  5
D01
331
CC4
  5
CC3
331
CE3
  5
CE2
331
C6F
  5
C6E
331
C8E
  5
C8D
331
AE1
  5
AE1
331
B00
  5
B00
331
C50
  5
C4F
331
CA5
  5
CA4
331
2B0
  5
2B0
331
365
  5
365
331
291
  5
291
331
7AD
  5
7AD
331
66F
  5
66F
331
686
  5
686
331
719
  5
719
331
650
  5
650
331
776
  5
776
331
E12
  5
E11
331
DBD
  5
DBC
331
DDC
  5
DDB
331
D87
  5
D86
331
D9E
  5
D9D
331
D2A
  5
D29
331
D49
  5
D48
331
D68
  5
D67
331
DFB
  5
DFA
331
CE4
  5
CE3
331
D03
  5
D02
331
C8F
  5
C8E
331
CA6
  5
CA5
331
C51
  5
C50
331
C70
  5
C6F
331
C32
  5
C2F
331
CC5
  5
CC4
331
AE2
  5
AE2
331
B01
  5
B01
331
292
  5
292
331
347
  5
347
331
273
  5
273
331
366
  5
366
331
687
  5
687
331
71A
  5
71A
331
651
  5
651
331
777
  5
777
331
632
  5
632
  0
LAYOUT
  5
1338
102
{ACAD_REACTORS
330
1336
102
}
330
1336
100
AcDbPlotSettings
  1

  2
A4 EPSON LP-6100.pc3
  4
A4
  6

 40
5.873749732971191
 41
5.873747825622558
 42
5.873748779296875
 43
5.873748779296875
 44
209.9733276367187
 45
297.0106506347656
 46
0.8
 47
25.0
 48
0.0
 49
0.0
140
0.0
141
0.0
142
1.0
143
1.0
 70
 28336
 72
     1
 73
     1
 74
     1
  7
AutoCAD LT 98.ctb
 75
    16
147
1.0
 76
     1
 77
     2
 78
   300
148
0.2128034294518102
149
0.2090556383465127
100
AcDbLayout
  1
Model
 70
     1
 71
     0
 10
0.0
 20
0.0
 11
12.0
 21
9.0
 12
0.0
 22
0.0
 32
0.0
 14
0.0
 24
0.0
 34
0.0
 15
0.0
 25
0.0
 35
0.0
146
0.0
 13
0.0
 23
0.0
 33
0.0
 16
1.0
 26
0.0
 36
0.0
 17
0.0
 27
1.0
 37
0.0
 76
     0
330
18
1001
ACAD_PSEXT
1000
A4 EPSON LP-6100.pc3
1000
EPSON LP-6100
1000
\\SATO-MATE2
1000

1070
     0
  0
LAYOUT
  5
1339
102
{ACAD_REACTORS
330
1336
102
}
330
1336
100
AcDbPlotSettings
  1

  2
WIDR Printer
  4

  6

 40
0.0
 41
0.0
 42
0.0
 43
0.0
 44
0.0
 45
0.0
 46
0.0
 47
0.0
 48
0.0
 49
0.0
140
0.0
141
0.0
142
1.0
143
1.0
 70
   688
 72
     0
 73
     0
 74
     5
  7
AutoCad LT 98.ctb
 75
    16
147
1.0
 76
     0
 77
     2
 78
   300
148
0.0
149
0.0
100
AcDbLayout
  1
レイアウト1
 70
     1
 71
     1
 10
0.0
 20
0.0
 11
420.0
 21
297.0
 12
0.0
 22
0.0
 32
0.0
 14
-0.2
 24
-0.2
 34
0.0
 15
255.2
 25
195.2
 35
0.0
146
0.0
 13
0.0
 23
0.0
 33
0.0
 16
1.0
 26
0.0
 36
0.0
 17
0.0
 27
1.0
 37
0.0
 76
     0
330
15
331
177
  0
MLINESTYLE
  5
1C
102
{ACAD_REACTORS
330
1B
102
}
330
1B
100
AcDbMlineStyle
  2
STANDARD
 70
     0
  3

 62
   256
 51
90.0
 52
90.0
 71
     2
 49
0.5
 62
   256
  6
BYLAYER
 49
-0.5
 62
   256
  6
BYLAYER
  0
ACDBPLACEHOLDER
  5
1331
102
{ACAD_REACTORS
330
1330
102
}
330
1330
  0
ACAD_PROXY_OBJECT
  5
1335
102
{ACAD_REACTORS
330
1334
102
}
330
1334
100
AcDbProxyObject
 90
      499
 91
      503
 95
  2555929
 70
     0
 93
     1849
310
4214DD185B99185C992420000000000000F83F0000000000003E0FC00000000000004901028000000C1008070000C3001FDFF8000000C1003FBFF000000182007F7FE00000030400FEFFC00000060801FDFF8000000C1003FBFF000000182000000000000000C2020B0000001820100E000186003FBFF000000182007F7FE0
310
0000030400FEFFC00000060801FDFF8000000C1003FBFF000000182007F7FE0000003040000000000000012404160000003040201C00030C007F7FE00000030400FEFFC00000060801FDFF8000000C1003FBFF000000182007F7FE00000030400FEFFC000000608000
340
F
340
F
340
F
 94
        0
  0
DICTIONARYVAR
  5
1341
102
{ACAD_REACTORS
330
BA0
102
}
330
BA0
100
DictionaryVariables
280
     0
  1
STANDARD
  0
DICTIONARYVAR
  5
BA1
102
{ACAD_REACTORS
330
BA0
102
}
330
BA0
100
DictionaryVariables
280
     0
  1
96
  0
ENDSEC
  0
EOF
