  0
SECTION
  2
HEADER
  9
$ACADVER
  1
AC1018
  9
$ACADMAINTVER
 70
     0
  9
$DWGCODEPAGE
  3
ANSI_932
  9
$INSBASE
 10
0.0
 20
0.0
 30
0.0
  9
$EXTMIN
 10
-0.2256454072593215
 20
-0.2181385412601458
 30
-0.000000001396689
  9
$EXTMAX
 10
255.2259969900183
 20
194.9477593213099
 30
0.0000000044238995
  9
$LIMMIN
 10
0.0
 20
0.0
  9
$LIMMAX
 10
420.0
 20
297.0
  9
$ORTHOMODE
 70
     0
  9
$REGENMODE
 70
     1
  9
$FILLMODE
 70
     1
  9
$QTEXTMODE
 70
     0
  9
$MIRRTEXT
 70
     1
  9
$LTSCALE
 40
1.0
  9
$ATTMODE
 70
     1
  9
$TEXTSIZE
 40
3.0
  9
$TRACEWID
 40
1.0
  9
$TEXTSTYLE
  7
4
  9
$CLAYER
  8
文字
  9
$CELTYPE
  6
BYLAYER
  9
$CECOLOR
 62
   256
  9
$CELTSCALE
 40
1.0
  9
$DISPSILH
 70
     0
  9
$DIMSCALE
 40
1.0
  9
$DIMASZ
 40
2.5
  9
$DIMEXO
 40
0.0
  9
$DIMDLI
 40
3.75
  9
$DIMRND
 40
0.0
  9
$DIMDLE
 40
0.0
  9
$DIMEXE
 40
1.25
  9
$DIMTP
 40
0.0
  9
$DIMTM
 40
0.0
  9
$DIMTXT
 40
2.5
  9
$DIMCEN
 40
2.5
  9
$DIMTSZ
 40
0.0
  9
$DIMTOL
 70
     0
  9
$DIMLIM
 70
     0
  9
$DIMTIH
 70
     0
  9
$DIMTOH
 70
     0
  9
$DIMSE1
 70
     0
  9
$DIMSE2
 70
     0
  9
$DIMTAD
 70
     1
  9
$DIMZIN
 70
     8
  9
$DIMBLK
  1

  9
$DIMASO
 70
     1
  9
$DIMSHO
 70
     1
  9
$DIMPOST
  1

  9
$DIMAPOST
  1

  9
$DIMALT
 70
     0
  9
$DIMALTD
 70
     4
  9
$DIMALTF
 40
0.0394
  9
$DIMLFAC
 40
1.0
  9
$DIMTOFL
 70
     1
  9
$DIMTVP
 40
0.0
  9
$DIMTIX
 70
     0
  9
$DIMSOXD
 70
     0
  9
$DIMSAH
 70
     1
  9
$DIMBLK1
  1
OPEN
  9
$DIMBLK2
  1
OPEN
  9
$DIMSTYLE
  2
STYLE3
  9
$DIMCLRD
 70
     2
  9
$DIMCLRE
 70
     2
  9
$DIMCLRT
 70
     6
  9
$DIMTFAC
 40
1.0
  9
$DIMGAP
 40
0.625
  9
$DIMJUST
 70
     0
  9
$DIMSD1
 70
     0
  9
$DIMSD2
 70
     0
  9
$DIMTOLJ
 70
     1
  9
$DIMTZIN
 70
     0
  9
$DIMALTZ
 70
     0
  9
$DIMALTTZ
 70
     0
  9
$DIMUPT
 70
     0
  9
$DIMDEC
 70
     2
  9
$DIMTDEC
 70
     4
  9
$DIMALTU
 70
     8
  9
$DIMALTTD
 70
     4
  9
$DIMTXSTY
  7
STYLE3
  9
$DIMAUNIT
 70
     0
  9
$DIMADEC
 70
     0
  9
$DIMALTRND
 40
0.0
  9
$DIMAZIN
 70
     0
  9
$DIMDSEP
 70
    46
  9
$DIMATFIT
 70
     3
  9
$DIMFRAC
 70
     0
  9
$DIMLDRBLK
  1

  9
$DIMLUNIT
 70
     2
  9
$DIMLWD
 70
    -2
  9
$DIMLWE
 70
    -2
  9
$DIMTMOVE
 70
     0
  9
$LUNITS
 70
     2
  9
$LUPREC
 70
     4
  9
$SKETCHINC
 40
1.0
  9
$FILLETRAD
 40
0.0
  9
$AUNITS
 70
     0
  9
$AUPREC
 70
     0
  9
$MENU
  1
.
  9
$ELEVATION
 40
0.0
  9
$PELEVATION
 40
0.0
  9
$THICKNESS
 40
0.0
  9
$LIMCHECK
 70
     0
  9
$CHAMFERA
 40
0.5
  9
$CHAMFERB
 40
0.5
  9
$CHAMFERC
 40
20.0
  9
$CHAMFERD
 40
0.0
  9
$SKPOLY
 70
     0
  9
$TDCREATE
 40
2451464.356372338
  9
$TDUCREATE
 40
2451463.981372338
  9
$TDUPDATE
 40
2455379.381028102
  9
$TDUUPDATE
 40
2455379.006028102
  9
$TDINDWG
 40
0.4732163773
  9
$TDUSRTIMER
 40
0.4732163773
  9
$USRTIMER
 70
     1
  9
$ANGBASE
 50
0.0
  9
$ANGDIR
 70
     0
  9
$PDMODE
 70
     0
  9
$PDSIZE
 40
0.0
  9
$PLINEWID
 40
0.0
  9
$SPLFRAME
 70
     0
  9
$SPLINETYPE
 70
     6
  9
$SPLINESEGS
 70
     8
  9
$HANDSEED
  5
1199
  9
$SURFTAB1
 70
     6
  9
$SURFTAB2
 70
     6
  9
$SURFTYPE
 70
     6
  9
$SURFU
 70
     6
  9
$SURFV
 70
     6
  9
$UCSBASE
  2

  9
$UCSNAME
  2

  9
$UCSORG
 10
0.0
 20
0.0
 30
0.0
  9
$UCSXDIR
 10
1.0
 20
0.0
 30
0.0
  9
$UCSYDIR
 10
0.0
 20
1.0
 30
0.0
  9
$UCSORTHOREF
  2

  9
$UCSORTHOVIEW
 70
     0
  9
$UCSORGTOP
 10
0.0
 20
0.0
 30
0.0
  9
$UCSORGBOTTOM
 10
0.0
 20
0.0
 30
0.0
  9
$UCSORGLEFT
 10
0.0
 20
0.0
 30
0.0
  9
$UCSORGRIGHT
 10
0.0
 20
0.0
 30
0.0
  9
$UCSORGFRONT
 10
0.0
 20
0.0
 30
0.0
  9
$UCSORGBACK
 10
0.0
 20
0.0
 30
0.0
  9
$PUCSBASE
  2

  9
$PUCSNAME
  2

  9
$PUCSORG
 10
0.0
 20
0.0
 30
0.0
  9
$PUCSXDIR
 10
1.0
 20
0.0
 30
0.0
  9
$PUCSYDIR
 10
0.0
 20
1.0
 30
0.0
  9
$PUCSORTHOREF
  2

  9
$PUCSORTHOVIEW
 70
     0
  9
$PUCSORGTOP
 10
0.0
 20
0.0
 30
0.0
  9
$PUCSORGBOTTOM
 10
0.0
 20
0.0
 30
0.0
  9
$PUCSORGLEFT
 10
0.0
 20
0.0
 30
0.0
  9
$PUCSORGRIGHT
 10
0.0
 20
0.0
 30
0.0
  9
$PUCSORGFRONT
 10
0.0
 20
0.0
 30
0.0
  9
$PUCSORGBACK
 10
0.0
 20
0.0
 30
0.0
  9
$USERI1
 70
     0
  9
$USERI2
 70
     0
  9
$USERI3
 70
     0
  9
$USERI4
 70
     0
  9
$USERI5
 70
     0
  9
$USERR1
 40
0.0
  9
$USERR2
 40
0.0
  9
$USERR3
 40
0.0
  9
$USERR4
 40
0.0
  9
$USERR5
 40
0.0
  9
$WORLDVIEW
 70
     1
  9
$SHADEDGE
 70
     3
  9
$SHADEDIF
 70
    70
  9
$TILEMODE
 70
     1
  9
$MAXACTVP
 70
    48
  9
$PINSBASE
 10
0.0
 20
0.0
 30
0.0
  9
$PLIMCHECK
 70
     0
  9
$PEXTMIN
 10
-0.2
 20
-0.2
 30
0.0
  9
$PEXTMAX
 10
255.2
 20
195.2
 30
0.0
  9
$PLIMMIN
 10
0.0
 20
0.0
  9
$PLIMMAX
 10
420.0
 20
297.0
  9
$UNITMODE
 70
     0
  9
$VISRETAIN
 70
     1
  9
$PLINEGEN
 70
     0
  9
$PSLTSCALE
 70
     1
  9
$TREEDEPTH
 70
  3020
  9
$CMLSTYLE
  2
STANDARD
  9
$CMLJUST
 70
     0
  9
$CMLSCALE
 40
20.0
  9
$PROXYGRAPHICS
 70
     1
  9
$MEASUREMENT
 70
     1
  9
$CELWEIGHT
370
    -1
  9
$ENDCAPS
280
     0
  9
$JOINSTYLE
280
     0
  9
$LWDISPLAY
290
     0
  9
$INSUNITS
 70
     0
  9
$HYPERLINKBASE
  1

  9
$STYLESHEET
  1
AutoCAD LT 98.ctb
  9
$XEDIT
290
     1
  9
$CEPSNTYPE
380
     0
  9
$PSTYLEMODE
290
     1
  9
$FINGERPRINTGUID
  2
{9FD54E47-E5CA-4B01-9A53-D997C8CE1858}
  9
$VERSIONGUID
  2
{46300D5C-7920-4232-8035-5F6141BE48B7}
  9
$EXTNAMES
290
     1
  9
$PSVPSCALE
 40
0.0
  9
$OLESTARTUP
290
     0
  9
$SORTENTS
280
   127
  9
$INDEXCTL
280
     0
  9
$HIDETEXT
280
     0
  9
$XCLIPFRAME
290
     0
  9
$HALOGAP
280
     0
  9
$OBSCOLOR
 70
   257
  9
$OBSLTYPE
280
     0
  9
$INTERSECTIONDISPLAY
280
     0
  9
$INTERSECTIONCOLOR
 70
   257
  9
$DIMASSOC
280
     1
  9
$PROJECTNAME
  1

  0
ENDSEC
  0
SECTION
  2
CLASSES
  0
CLASS
  1
HATCH
  2
AcDbHatch
  3
ObjectDBX Classes
 90
        0
 91
       42
280
     0
281
     1
  0
CLASS
  1
DICTIONARYVAR
  2
AcDbDictionaryVar
  3
ObjectDBX Classes
 90
        0
 91
        2
280
     0
281
     0
  0
CLASS
  1
ACDBDICTIONARYWDFLT
  2
AcDbDictionaryWithDefault
  3
ObjectDBX Classes
 90
        0
 91
        1
280
     0
281
     0
  0
CLASS
  1
TABLESTYLE
  2
AcDbTableStyle
  3
ObjectDBX Classes
 90
     2047
 91
        1
280
     0
281
     0
  0
CLASS
  1
SORTENTSTABLE
  2
AcDbSortentsTable
  3
ObjectDBX Classes
 90
        0
 91
        1
280
     0
281
     0
  0
ENDSEC
  0
SECTION
  2
TABLES
  0
TABLE
  2
VPORT
  5
8
330
0
100
AcDbSymbolTable
 70
     2
  0
VPORT
  5
1198
330
8
100
AcDbSymbolTableRecord
100
AcDbViewportTableRecord
  2
*Active
 70
     0
 10
0.0
 20
0.0
 11
1.0
 21
1.0
 12
127.5001757913795
 22
97.36481039002491
 13
0.0
 23
0.0
 14
10.0
 24
10.0
 15
10.0
 25
10.0
 16
0.0
 26
0.0
 36
1.0
 17
0.0
 27
0.0
 37
0.0
 40
196.6500491771143
 41
1.530456852791878
 42
50.0
 43
0.0
 44
0.0
 50
0.0
 51
0.0
 71
     0
 72
   100
 73
     1
 74
     1
 75
     0
 76
     0
 77
     0
 78
     0
281
     0
 65
     1
110
0.0
120
0.0
130
0.0
111
1.0
121
0.0
131
0.0
112
0.0
122
1.0
132
0.0
 79
     0
146
0.0
  0
ENDTAB
  0
TABLE
  2
LTYPE
  5
5
330
0
100
AcDbSymbolTable
 70
    12
  0
LTYPE
  5
12
330
5
100
AcDbSymbolTableRecord
100
AcDbLinetypeTableRecord
  2
BYBLOCK
 70
     0
  3

 72
    65
 73
     0
 40
0.0
  0
LTYPE
  5
13
330
5
100
AcDbSymbolTableRecord
100
AcDbLinetypeTableRecord
  2
BYLAYER
 70
     0
  3

 72
    65
 73
     0
 40
0.0
  0
LTYPE
  5
14
330
5
100
AcDbSymbolTableRecord
100
AcDbLinetypeTableRecord
  2
CONTINUOUS
 70
     0
  3
Solid line
 72
    65
 73
     0
 40
0.0
  0
LTYPE
  5
22
330
5
100
AcDbSymbolTableRecord
100
AcDbLinetypeTableRecord
  2
CENTER2
 70
     0
  3
Center (.5x) ___ _ ___ _ ___ _ ___ _ ___ _ ___
 72
    65
 73
     4
 40
28.575
 49
19.05
 74
     0
 49
-3.174999999999999
 74
     0
 49
3.174999999999999
 74
     0
 49
-3.174999999999999
 74
     0
  0
LTYPE
  5
24
330
5
100
AcDbSymbolTableRecord
100
AcDbLinetypeTableRecord
  2
PHANTOM2
 70
     0
  3
Phantom (.5x) ___ _ _ ___ _ _ ___ _ _ ___ _ _
 72
    65
 73
     6
 40
31.75
 49
15.875
 74
     0
 49
-3.174999999999999
 74
     0
 49
3.174999999999999
 74
     0
 49
-3.174999999999999
 74
     0
 49
3.174999999999999
 74
     0
 49
-3.174999999999999
 74
     0
  0
ENDTAB
  0
TABLE
  2
LAYER
  5
2
330
0
100
AcDbSymbolTable
 70
    16
  0
LAYER
  5
E
330
2
100
AcDbSymbolTableRecord
100
AcDbLayerTableRecord
  2
0
 70
     0
 62
     7
  6
CONTINUOUS
370
    -3
390
10AA
  0
LAYER
  5
25
330
2
100
AcDbSymbolTableRecord
100
AcDbLayerTableRecord
  2
外形線
 70
     0
 62
     7
  6
CONTINUOUS
370
    -3
390
10AA
  0
LAYER
  5
27
330
2
100
AcDbSymbolTableRecord
100
AcDbLayerTableRecord
  2
中心線
 70
     0
 62
     4
  6
CENTER2
370
    -3
390
10AA
  0
LAYER
  5
29
330
2
100
AcDbSymbolTableRecord
100
AcDbLayerTableRecord
  2
想像線
 70
     0
 62
     1
  6
PHANTOM2
370
    -3
390
10AA
  0
LAYER
  5
2B
330
2
100
AcDbSymbolTableRecord
100
AcDbLayerTableRecord
  2
文字
 70
     0
 62
     6
  6
CONTINUOUS
370
    -3
390
10AA
  0
LAYER
  5
2D
330
2
100
AcDbSymbolTableRecord
100
AcDbLayerTableRecord
  2
針
 70
     0
 62
     5
  6
CONTINUOUS
370
    -3
390
10AA
  0
LAYER
  5
53
330
2
100
AcDbSymbolTableRecord
100
AcDbLayerTableRecord
  2
DEFPOINTS
 70
     0
 62
     7
  6
CONTINUOUS
290
     0
370
    -3
390
10AA
  0
LAYER
  5
A5
330
2
100
AcDbSymbolTableRecord
100
AcDbLayerTableRecord
  2
C
 70
     0
 62
     7
  6
CONTINUOUS
370
    -3
390
10AA
  0
LAYER
  5
37A
330
2
100
AcDbSymbolTableRecord
100
AcDbLayerTableRecord
  2
ROGO
 70
     0
 62
     6
  6
CONTINUOUS
370
    -3
390
10AA
  0
ENDTAB
  0
TABLE
  2
STYLE
  5
3
330
0
100
AcDbSymbolTable
 70
     8
  0
STYLE
  5
F
330
3
100
AcDbSymbolTableRecord
100
AcDbTextStyleTableRecord
  2
STANDARD
 70
     0
 40
0.0
 41
1.0
 50
0.0
 71
     0
 42
2.5
  3
txt
  4

  0
STYLE
  5
3F
330
3
100
AcDbSymbolTableRecord
100
AcDbTextStyleTableRecord
  2
STYLE3
 70
     0
 40
0.0
 41
1.0
 50
0.0
 71
     0
 42
3.0
  3
romans.shx
  4
bigfont.shx
  0
STYLE
  5
BAF
330
3
100
AcDbSymbolTableRecord
100
AcDbTextStyleTableRecord
  2
4
 70
     0
 40
0.0
 41
1.0
 50
0.0
 71
     0
 42
3.0
  3
MS PGothic.ttf
  4

1001
ACAD
1000
MS PGothic
1071
    32818
  0
ENDTAB
  0
TABLE
  2
VIEW
  5
6
330
0
100
AcDbSymbolTable
 70
     0
  0
ENDTAB
  0
TABLE
  2
UCS
  5
7
330
0
100
AcDbSymbolTable
 70
     0
  0
ENDTAB
  0
TABLE
  2
APPID
  5
9
330
0
100
AcDbSymbolTable
 70
     2
  0
APPID
  5
10
330
9
100
AcDbSymbolTableRecord
100
AcDbRegAppTableRecord
  2
ACAD
 70
     0
  0
APPID
  5
10BC
330
9
100
AcDbSymbolTableRecord
100
AcDbRegAppTableRecord
  2
ACAD_PSEXT
 70
     0
  0
ENDTAB
  0
TABLE
  2
DIMSTYLE
  5
A
330
0
100
AcDbSymbolTable
 70
     6
100
AcDbDimStyleTable
 71
     1
340
8F
  0
DIMSTYLE
105
1D
330
A
100
AcDbSymbolTableRecord
100
AcDbDimStyleTableRecord
  2
STANDARD
 70
     0
 41
2.5
 42
0.625
 43
3.75
 44
1.25
 73
     0
 74
     0
 77
     1
 78
     8
140
2.5
141
2.5
143
0.0394
147
0.625
171
     4
172
     1
273
     8
274
     4
277
     6
340
F
  0
DIMSTYLE
105
8F
102
{ACAD_REACTORS
330
8FC
330
909
330
920
330
92C
330
938
330
982
330
98E
330
99B
330
9A8
330
9B5
330
9FA
330
A06
330
A28
102
}
330
A
100
AcDbSymbolTableRecord
100
AcDbDimStyleTableRecord
  2
STYLE3
 70
     0
 41
2.5
 42
0.0
 43
3.75
 44
1.25
 73
     0
 74
     0
 77
     1
 78
     8
140
2.5
141
2.5
143
0.0394
147
0.625
171
     4
172
     1
173
     1
176
     2
177
     2
178
     6
271
     1
273
     8
274
     4
340
3F
341
45
343
45
344
45
  0
ENDTAB
  0
TABLE
  2
BLOCK_RECORD
  5
1
330
0
100
AcDbSymbolTable
 70
    25
  0
BLOCK_RECORD
  5
18
102
{ACAD_XDICTIONARY
360
10CC
102
}
330
1
100
AcDbSymbolTableRecord
100
AcDbBlockTableRecord
  2
*MODEL_SPACE
340
10B1
  0
BLOCK_RECORD
  5
15
330
1
100
AcDbSymbolTableRecord
100
AcDbBlockTableRecord
  2
*PAPER_SPACE
340
10B2
  0
BLOCK_RECORD
  5
45
330
1
100
AcDbSymbolTableRecord
100
AcDbBlockTableRecord
  2
_OPEN
340
0
102
{BLKREFS
331
390
331
391
331
3B9
331
3CD
331
3CF
331
3D0
331
3D1
331
3D3
331
3E1
331
3E2
331
3F6
331
402
331
42A
331
43E
331
452
331
49B
331
4B3
331
4C3
331
E6B
331
E6C
331
E81
331
E8F
331
E98
331
E99
331
EA8
331
EAE
331
EB6
331
EEC
331
EF3
331
F39
331
F52
331
1121
331
1122
331
1129
331
112A
331
1132
331
1133
331
113B
331
113C
331
1144
331
1145
331
114D
331
114E
331
1155
331
1156
331
115D
331
115E
331
1165
331
1166
331
116D
331
116E
331
1175
331
1176
331
117E
331
117F
331
1187
331
1188
102
}
  0
BLOCK_RECORD
  5
8F0
330
1
100
AcDbSymbolTableRecord
100
AcDbBlockTableRecord
  2
*D4
340
0
  0
BLOCK_RECORD
  5
8FD
330
1
100
AcDbSymbolTableRecord
100
AcDbBlockTableRecord
  2
*D5
340
0
  0
BLOCK_RECORD
  5
915
330
1
100
AcDbSymbolTableRecord
100
AcDbBlockTableRecord
  2
*D6
340
0
  0
BLOCK_RECORD
  5
921
330
1
100
AcDbSymbolTableRecord
100
AcDbBlockTableRecord
  2
*D7
340
0
  0
BLOCK_RECORD
  5
92D
330
1
100
AcDbSymbolTableRecord
100
AcDbBlockTableRecord
  2
*D8
340
0
  0
BLOCK_RECORD
  5
977
330
1
100
AcDbSymbolTableRecord
100
AcDbBlockTableRecord
  2
*D9
340
0
  0
BLOCK_RECORD
  5
983
330
1
100
AcDbSymbolTableRecord
100
AcDbBlockTableRecord
  2
*D10
340
0
  0
BLOCK_RECORD
  5
98F
330
1
100
AcDbSymbolTableRecord
100
AcDbBlockTableRecord
  2
*D11
340
0
  0
BLOCK_RECORD
  5
99C
330
1
100
AcDbSymbolTableRecord
100
AcDbBlockTableRecord
  2
*D12
340
0
  0
BLOCK_RECORD
  5
9A9
330
1
100
AcDbSymbolTableRecord
100
AcDbBlockTableRecord
  2
*D13
340
0
  0
BLOCK_RECORD
  5
9EE
330
1
100
AcDbSymbolTableRecord
100
AcDbBlockTableRecord
  2
*D14
340
0
  0
BLOCK_RECORD
  5
9FB
330
1
100
AcDbSymbolTableRecord
100
AcDbBlockTableRecord
  2
*D15
340
0
  0
BLOCK_RECORD
  5
A1C
330
1
100
AcDbSymbolTableRecord
100
AcDbBlockTableRecord
  2
*D16
340
0
  0
ENDTAB
  0
ENDSEC
  0
SECTION
  2
BLOCKS
  0
BLOCK
  5
19
330
18
100
AcDbEntity
  8
0
100
AcDbBlockBegin
  2
*MODEL_SPACE
 70
     0
 10
0.0
 20
0.0
 30
0.0
  3
*MODEL_SPACE
  1

  0
ENDBLK
  5
1A
330
18
100
AcDbEntity
  8
0
100
AcDbBlockEnd
  0
BLOCK
  5
16
330
15
100
AcDbEntity
 67
     1
  8
0
100
AcDbBlockBegin
  2
*PAPER_SPACE
 70
     0
 10
0.0
 20
0.0
 30
0.0
  3
*PAPER_SPACE
  1

  0
ENDBLK
  5
17
330
15
100
AcDbEntity
 67
     1
  8
0
100
AcDbBlockEnd
  0
BLOCK
  5
46
330
45
100
AcDbEntity
  8
0
100
AcDbBlockBegin
  2
_OPEN
 70
     0
 10
0.0
 20
0.0
 30
0.0
  3
_OPEN
  1

  0
LINE
  5
47
330
45
100
AcDbEntity
  8
0
  6
ByBlock
 62
     0
100
AcDbLine
 10
-1.0
 20
0.1666666666666666
 30
0.0
 11
0.0
 21
0.0
 31
0.0
  0
LINE
  5
48
330
45
100
AcDbEntity
  8
0
  6
ByBlock
 62
     0
100
AcDbLine
 10
0.0
 20
0.0
 30
0.0
 11
-1.0
 21
-0.1666666666666666
 31
0.0
  0
LINE
  5
49
330
45
100
AcDbEntity
  8
0
  6
ByBlock
 62
     0
100
AcDbLine
 10
0.0
 20
0.0
 30
0.0
 11
-1.0
 21
0.0
 31
0.0
  0
ENDBLK
  5
4A
330
45
100
AcDbEntity
  8
0
100
AcDbBlockEnd
  0
BLOCK
  5
8F1
330
8F0
100
AcDbEntity
  8
0
100
AcDbBlockBegin
  2
*D4
 70
     1
 10
0.0
 20
0.0
 30
0.0
  3
*D4
  1

  0
LINE
  5
1184
330
8F0
100
AcDbEntity
  8
文字
 62
     2
370
    -2
100
AcDbLine
 10
56.6230124613987
 20
106.4116698942245
 30
0.0
 11
56.62301246139869
 21
24.47672659703608
 31
0.0
  0
LINE
  5
1185
330
8F0
100
AcDbEntity
  8
文字
 62
     2
370
    -2
100
AcDbLine
 10
106.6230124613987
 20
106.4116698942245
 30
0.0
 11
106.6230124613987
 21
24.47672659703608
 31
0.0
  0
LINE
  5
1186
330
8F0
100
AcDbEntity
  8
文字
 62
     2
370
    -2
100
AcDbLine
 10
59.12301246139869
 20
25.72672659703608
 30
0.0
 11
104.1230124613987
 21
25.72672659703608
 31
0.0
  0
INSERT
  5
1187
330
8F0
100
AcDbEntity
  8
文字
 62
     2
370
    -2
100
AcDbBlockReference
  2
_OPEN
 10
56.62301246139869
 20
25.72672659703608
 30
0.0
 41
2.5
 42
2.5
 43
2.5
 50
180.0
  0
INSERT
  5
1188
330
8F0
100
AcDbEntity
  8
文字
 62
     2
370
    -2
100
AcDbBlockReference
  2
_OPEN
 10
106.6230124613987
 20
25.72672659703608
 30
0.0
 41
2.5
 42
2.5
 43
2.5
  0
MTEXT
  5
1189
330
8F0
100
AcDbEntity
  8
文字
 62
     6
100
AcDbMText
 10
81.62301246139872
 20
27.60172659703608
 30
0.0
 40
2.5
 41
0.0
 71
     5
 72
     1
  1
\A1;50
  7
STYLE3
 73
     1
 44
1.0
  0
POINT
  5
118A
330
8F0
100
AcDbEntity
  8
DEFPOINTS
 62
     0
100
AcDbPoint
 10
56.6230124613987
 20
106.4116698942245
 30
0.0
  0
POINT
  5
118B
330
8F0
100
AcDbEntity
  8
DEFPOINTS
 62
     0
100
AcDbPoint
 10
106.6230124613987
 20
106.4116698942245
 30
0.0
  0
POINT
  5
118C
330
8F0
100
AcDbEntity
  8
DEFPOINTS
 62
     0
100
AcDbPoint
 10
106.6230124613987
 20
25.72672659703608
 30
0.0
  0
ENDBLK
  5
8FB
330
8F0
100
AcDbEntity
  8
0
100
AcDbBlockEnd
  0
BLOCK
  5
90A
330
8FD
100
AcDbEntity
  8
0
100
AcDbBlockBegin
  2
*D5
 70
     1
 10
0.0
 20
0.0
 30
0.0
  3
*D5
  1

  0
LINE
  5
117B
330
8FD
100
AcDbEntity
  8
文字
 62
     2
370
    -2
100
AcDbLine
 10
91.87301246139874
 20
150.9116698942245
 30
0.0
 11
121.0452285479932
 21
150.9116698942245
 31
0.0
  0
LINE
  5
117C
330
8FD
100
AcDbEntity
  8
文字
 62
     2
370
    -2
100
AcDbLine
 10
91.37301246139873
 20
140.4116698942245
 30
0.0
 11
121.0452285479932
 21
140.4116698942245
 31
0.0
  0
LINE
  5
117D
330
8FD
100
AcDbEntity
  8
文字
 62
     2
370
    -2
100
AcDbLine
 10
119.7952285479932
 20
148.4116698942245
 30
0.0
 11
119.7952285479932
 21
142.9116698942245
 31
0.0
  0
INSERT
  5
117E
330
8FD
100
AcDbEntity
  8
文字
 62
     2
370
    -2
100
AcDbBlockReference
  2
_OPEN
 10
119.7952285479932
 20
150.9116698942245
 30
0.0
 41
2.5
 42
2.5
 43
2.5
 50
90.0
  0
INSERT
  5
117F
330
8FD
100
AcDbEntity
  8
文字
 62
     2
370
    -2
100
AcDbBlockReference
  2
_OPEN
 10
119.7952285479932
 20
140.4116698942245
 30
0.0
 41
2.5
 42
2.5
 43
2.5
 50
270.0
  0
MTEXT
  5
1180
330
8FD
100
AcDbEntity
  8
文字
 62
     6
100
AcDbMText
 10
117.9202285479932
 20
145.6616698942245
 30
0.0
 40
2.5
 41
0.0
 71
     5
 72
     1
  1
\A1;10.5
  7
STYLE3
 11
0.0000000000000001
 21
1.0
 31
0.0
 73
     1
 44
1.0
  0
POINT
  5
1181
330
8FD
100
AcDbEntity
  8
DEFPOINTS
 62
     0
100
AcDbPoint
 10
91.87301246139874
 20
150.9116698942245
 30
0.0
  0
POINT
  5
1182
330
8FD
100
AcDbEntity
  8
DEFPOINTS
 62
     0
100
AcDbPoint
 10
91.37301246139873
 20
140.4116698942245
 30
0.0
  0
POINT
  5
1183
330
8FD
100
AcDbEntity
  8
DEFPOINTS
 62
     0
100
AcDbPoint
 10
119.7952285479932
 20
140.4116698942245
 30
0.0
  0
ENDBLK
  5
914
330
8FD
100
AcDbEntity
  8
0
100
AcDbBlockEnd
  0
BLOCK
  5
916
330
915
100
AcDbEntity
  8
0
100
AcDbBlockBegin
  2
*D6
 70
     1
 10
0.0
 20
0.0
 30
0.0
  3
*D6
  1

  0
LINE
  5
1173
330
915
100
AcDbEntity
  8
文字
 62
     2
370
    -2
100
AcDbLine
 10
110.9677900840796
 20
106.4116698942245
 30
0.0
 11
121.0452285479932
 21
106.4116698942245
 31
0.0
  0
LINE
  5
1174
330
915
100
AcDbEntity
  8
文字
 62
     2
370
    -2
100
AcDbLine
 10
119.7952285479932
 20
137.9116698942245
 30
0.0
 11
119.7952285479932
 21
108.9116698942244
 31
0.0
  0
INSERT
  5
1175
330
915
100
AcDbEntity
  8
文字
 62
     2
370
    -2
100
AcDbBlockReference
  2
_OPEN
 10
119.7952285479932
 20
140.4116698942245
 30
0.0
 41
2.5
 42
2.5
 43
2.5
 50
90.0
  0
INSERT
  5
1176
330
915
100
AcDbEntity
  8
文字
 62
     2
370
    -2
100
AcDbBlockReference
  2
_OPEN
 10
119.7952285479932
 20
106.4116698942245
 30
0.0
 41
2.5
 42
2.5
 43
2.5
 50
270.0
  0
MTEXT
  5
1177
330
915
100
AcDbEntity
  8
文字
 62
     6
100
AcDbMText
 10
117.9202285479932
 20
123.4116698942245
 30
0.0
 40
2.5
 41
0.0
 71
     5
 72
     1
  1
\A1;34
  7
STYLE3
 11
0.0000000000000001
 21
1.0
 31
0.0
 73
     1
 44
1.0
  0
POINT
  5
1178
330
915
100
AcDbEntity
  8
DEFPOINTS
 62
     0
100
AcDbPoint
 10
91.37301246139873
 20
140.4116698942245
 30
0.0
  0
POINT
  5
1179
330
915
100
AcDbEntity
  8
DEFPOINTS
 62
     0
100
AcDbPoint
 10
110.9677900840796
 20
106.4116698942245
 30
0.0
  0
POINT
  5
117A
330
915
100
AcDbEntity
  8
DEFPOINTS
 62
     0
100
AcDbPoint
 10
119.7952285479932
 20
106.4116698942245
 30
0.0
  0
ENDBLK
  5
91F
330
915
100
AcDbEntity
  8
0
100
AcDbBlockEnd
  0
BLOCK
  5
961
330
921
100
AcDbEntity
  8
0
100
AcDbBlockBegin
  2
*D7
 70
     1
 10
0.0
 20
0.0
 30
0.0
  3
*D7
  1

  0
LINE
  5
116B
330
921
100
AcDbEntity
  8
文字
 62
     2
370
    -2
100
AcDbLine
 10
90.65688978616741
 20
72.40976407647831
 30
0.0
 11
121.0452285479932
 21
72.4097640764783
 31
0.0
  0
LINE
  5
116C
330
921
100
AcDbEntity
  8
文字
 62
     2
370
    -2
100
AcDbLine
 10
119.7952285479932
 20
103.9116698942244
 30
0.0
 11
119.7952285479932
 21
74.9097640764783
 31
0.0
  0
INSERT
  5
116D
330
921
100
AcDbEntity
  8
文字
 62
     2
370
    -2
100
AcDbBlockReference
  2
_OPEN
 10
119.7952285479932
 20
106.4116698942245
 30
0.0
 41
2.5
 42
2.5
 43
2.5
 50
90.0
  0
INSERT
  5
116E
330
921
100
AcDbEntity
  8
文字
 62
     2
370
    -2
100
AcDbBlockReference
  2
_OPEN
 10
119.7952285479932
 20
72.4097640764783
 30
0.0
 41
2.5
 42
2.5
 43
2.5
 50
270.0
  0
MTEXT
  5
116F
330
921
100
AcDbEntity
  8
文字
 62
     6
100
AcDbMText
 10
117.9202285479932
 20
89.41071698535139
 30
0.0
 40
2.5
 41
0.0
 71
     5
 72
     1
  1
\A1;34
  7
STYLE3
 11
0.0000000000000001
 21
1.0
 31
0.0
 73
     1
 44
1.0
  0
POINT
  5
1170
330
921
100
AcDbEntity
  8
DEFPOINTS
 62
     0
100
AcDbPoint
 10
110.9677900840796
 20
106.4116698942245
 30
0.0
  0
POINT
  5
1171
330
921
100
AcDbEntity
  8
DEFPOINTS
 62
     0
100
AcDbPoint
 10
90.65688978616741
 20
72.40976407647831
 30
0.0
  0
POINT
  5
1172
330
921
100
AcDbEntity
  8
DEFPOINTS
 62
     0
100
AcDbPoint
 10
119.7952285479932
 20
72.4097640764783
 30
0.0
  0
ENDBLK
  5
96A
330
921
100
AcDbEntity
  8
0
100
AcDbBlockEnd
  0
BLOCK
  5
957
330
92D
100
AcDbEntity
  8
0
100
AcDbBlockBegin
  2
*D8
 70
     1
 10
0.0
 20
0.0
 30
0.0
  3
*D8
  1

  0
LINE
  5
1163
330
92D
100
AcDbEntity
  8
文字
 62
     2
370
    -2
100
AcDbLine
 10
84.67301246139873
 20
51.21166989422448
 30
0.0
 11
121.0452285479932
 21
51.21166989422448
 31
0.0
  0
LINE
  5
1164
330
92D
100
AcDbEntity
  8
文字
 62
     2
370
    -2
100
AcDbLine
 10
119.7952285479932
 20
69.9097640764783
 30
0.0
 11
119.7952285479932
 21
53.71166989422448
 31
0.0
  0
INSERT
  5
1165
330
92D
100
AcDbEntity
  8
文字
 62
     2
370
    -2
100
AcDbBlockReference
  2
_OPEN
 10
119.7952285479932
 20
72.4097640764783
 30
0.0
 41
2.5
 42
2.5
 43
2.5
 50
90.0
  0
INSERT
  5
1166
330
92D
100
AcDbEntity
  8
文字
 62
     2
370
    -2
100
AcDbBlockReference
  2
_OPEN
 10
119.7952285479932
 20
51.21166989422448
 30
0.0
 41
2.5
 42
2.5
 43
2.5
 50
270.0
  0
MTEXT
  5
1167
330
92D
100
AcDbEntity
  8
文字
 62
     6
100
AcDbMText
 10
117.9202285479932
 20
61.81071698535141
 30
0.0
 40
2.5
 41
0.0
 71
     5
 72
     1
  1
\A1;21.2
  7
STYLE3
 11
0.0000000000000001
 21
1.0
 31
0.0
 73
     1
 44
1.0
  0
POINT
  5
1168
330
92D
100
AcDbEntity
  8
DEFPOINTS
 62
     0
100
AcDbPoint
 10
90.65688978616741
 20
72.40976407647831
 30
0.0
  0
POINT
  5
1169
330
92D
100
AcDbEntity
  8
DEFPOINTS
 62
     0
100
AcDbPoint
 10
84.67301246139873
 20
51.21166989422448
 30
0.0
  0
POINT
  5
116A
330
92D
100
AcDbEntity
  8
DEFPOINTS
 62
     0
100
AcDbPoint
 10
119.7952285479932
 20
51.21166989422448
 30
0.0
  0
ENDBLK
  5
960
330
92D
100
AcDbEntity
  8
0
100
AcDbBlockEnd
  0
BLOCK
  5
978
330
977
100
AcDbEntity
  8
0
100
AcDbBlockBegin
  2
*D9
 70
     1
 10
0.0
 20
0.0
 30
0.0
  3
*D9
  1

  0
LINE
  5
115B
330
977
100
AcDbEntity
  8
文字
 62
     2
370
    -2
100
AcDbLine
 10
83.62301246139875
 20
41.41166989422447
 30
0.0
 11
121.0452285479932
 21
41.41166989422447
 31
0.0
  0
LINE
  5
115C
330
977
100
AcDbEntity
  8
文字
 62
     2
370
    -2
100
AcDbLine
 10
119.7952285479932
 20
48.71166989422448
 30
0.0
 11
119.7952285479932
 21
43.91166989422447
 31
0.0
  0
INSERT
  5
115D
330
977
100
AcDbEntity
  8
文字
 62
     2
370
    -2
100
AcDbBlockReference
  2
_OPEN
 10
119.7952285479932
 20
51.21166989422448
 30
0.0
 41
2.5
 42
2.5
 43
2.5
 50
90.0
  0
INSERT
  5
115E
330
977
100
AcDbEntity
  8
文字
 62
     2
370
    -2
100
AcDbBlockReference
  2
_OPEN
 10
119.7952285479932
 20
41.41166989422447
 30
0.0
 41
2.5
 42
2.5
 43
2.5
 50
270.0
  0
MTEXT
  5
115F
330
977
100
AcDbEntity
  8
文字
 62
     6
100
AcDbMText
 10
117.9202285479932
 20
46.31166989422449
 30
0.0
 40
2.5
 41
0.0
 71
     5
 72
     1
  1
\A1;9.8
  7
STYLE3
 11
0.0000000000000001
 21
1.0
 31
0.0
 73
     1
 44
1.0
  0
POINT
  5
1160
330
977
100
AcDbEntity
  8
DEFPOINTS
 62
     0
100
AcDbPoint
 10
84.67301246139873
 20
51.21166989422448
 30
0.0
  0
POINT
  5
1161
330
977
100
AcDbEntity
  8
DEFPOINTS
 62
     0
100
AcDbPoint
 10
83.62301246139875
 20
41.41166989422447
 30
0.0
  0
POINT
  5
1162
330
977
100
AcDbEntity
  8
DEFPOINTS
 62
     0
100
AcDbPoint
 10
119.7952285479932
 20
41.41166989422447
 30
0.0
  0
ENDBLK
  5
981
330
977
100
AcDbEntity
  8
0
100
AcDbBlockEnd
  0
BLOCK
  5
984
330
983
100
AcDbEntity
  8
0
100
AcDbBlockBegin
  2
*D10
 70
     1
 10
0.0
 20
0.0
 30
0.0
  3
*D10
  1

  0
LINE
  5
1153
330
983
100
AcDbEntity
  8
文字
 62
     2
370
    -2
100
AcDbLine
 10
81.62301246139874
 20
32.41166989422448
 30
0.0
 11
121.0452285479932
 21
32.41166989422447
 31
0.0
  0
LINE
  5
1154
330
983
100
AcDbEntity
  8
文字
 62
     2
370
    -2
100
AcDbLine
 10
119.7952285479932
 20
38.91166989422447
 30
0.0
 11
119.7952285479932
 21
34.91166989422447
 31
0.0
  0
INSERT
  5
1155
330
983
100
AcDbEntity
  8
文字
 62
     2
370
    -2
100
AcDbBlockReference
  2
_OPEN
 10
119.7952285479932
 20
41.41166989422447
 30
0.0
 41
2.5
 42
2.5
 43
2.5
 50
90.0
  0
INSERT
  5
1156
330
983
100
AcDbEntity
  8
文字
 62
     2
370
    -2
100
AcDbBlockReference
  2
_OPEN
 10
119.7952285479932
 20
32.41166989422447
 30
0.0
 41
2.5
 42
2.5
 43
2.5
 50
270.0
  0
MTEXT
  5
1157
330
983
100
AcDbEntity
  8
文字
 62
     6
100
AcDbMText
 10
117.9202285479932
 20
36.91166989422449
 30
0.0
 40
2.5
 41
0.0
 71
     5
 72
     1
  1
\A1;9
  7
STYLE3
 11
0.0000000000000001
 21
1.0
 31
0.0
 73
     1
 44
1.0
  0
POINT
  5
1158
330
983
100
AcDbEntity
  8
DEFPOINTS
 62
     0
100
AcDbPoint
 10
83.62301246139875
 20
41.41166989422447
 30
0.0
  0
POINT
  5
1159
330
983
100
AcDbEntity
  8
DEFPOINTS
 62
     0
100
AcDbPoint
 10
81.62301246139874
 20
32.41166989422448
 30
0.0
  0
POINT
  5
115A
330
983
100
AcDbEntity
  8
DEFPOINTS
 62
     0
100
AcDbPoint
 10
119.7952285479932
 20
32.41166989422447
 30
0.0
  0
ENDBLK
  5
98D
330
983
100
AcDbEntity
  8
0
100
AcDbBlockEnd
  0
BLOCK
  5
990
330
98F
100
AcDbEntity
  8
0
100
AcDbBlockBegin
  2
*D11
 70
     1
 10
0.0
 20
0.0
 30
0.0
  3
*D11
  1

  0
LINE
  5
114A
330
98F
100
AcDbEntity
  8
文字
 62
     2
370
    -2
100
AcDbLine
 10
121.0452285479932
 20
106.4116698942244
 30
0.0
 11
128.7248611308794
 21
106.4116698942244
 31
0.0
  0
LINE
  5
114B
330
98F
100
AcDbEntity
  8
文字
 62
     2
370
    -2
100
AcDbLine
 10
121.0452285479932
 20
32.41166989422448
 30
0.0
 11
128.7248611308794
 21
32.41166989422448
 31
0.0
  0
LINE
  5
114C
330
98F
100
AcDbEntity
  8
文字
 62
     2
370
    -2
100
AcDbLine
 10
127.4748611308794
 20
103.9116698942244
 30
0.0
 11
127.4748611308794
 21
34.91166989422448
 31
0.0
  0
INSERT
  5
114D
330
98F
100
AcDbEntity
  8
文字
 62
     2
370
    -2
100
AcDbBlockReference
  2
_OPEN
 10
127.4748611308794
 20
106.4116698942244
 30
0.0
 41
2.5
 42
2.5
 43
2.5
 50
90.0
  0
INSERT
  5
114E
330
98F
100
AcDbEntity
  8
文字
 62
     2
370
    -2
100
AcDbBlockReference
  2
_OPEN
 10
127.4748611308794
 20
32.41166989422448
 30
0.0
 41
2.5
 42
2.5
 43
2.5
 50
270.0
  0
MTEXT
  5
114F
330
98F
100
AcDbEntity
  8
文字
 62
     6
100
AcDbMText
 10
125.5998611308793
 20
69.41166989422448
 30
0.0
 40
2.5
 41
0.0
 71
     5
 72
     1
  1
\A1;74
  7
STYLE3
 11
0.0000000000000001
 21
1.0
 31
0.0
 73
     1
 44
1.0
  0
POINT
  5
1150
330
98F
100
AcDbEntity
  8
DEFPOINTS
 62
     0
100
AcDbPoint
 10
121.0452285479932
 20
106.4116698942244
 30
0.0
  0
POINT
  5
1151
330
98F
100
AcDbEntity
  8
DEFPOINTS
 62
     0
100
AcDbPoint
 10
121.0452285479932
 20
32.41166989422448
 30
0.0
  0
POINT
  5
1152
330
98F
100
AcDbEntity
  8
DEFPOINTS
 62
     0
100
AcDbPoint
 10
127.4748611308794
 20
32.41166989422448
 30
0.0
  0
ENDBLK
  5
99A
330
98F
100
AcDbEntity
  8
0
100
AcDbBlockEnd
  0
BLOCK
  5
99D
330
99C
100
AcDbEntity
  8
0
100
AcDbBlockBegin
  2
*D12
 70
     1
 10
0.0
 20
0.0
 30
0.0
  3
*D12
  1

  0
LINE
  5
1141
330
99C
100
AcDbEntity
  8
文字
 62
     2
370
    -2
100
AcDbLine
 10
83.72275071537018
 20
185.9116698942244
 30
0.0
 11
136.8217177013162
 21
185.9116698942244
 31
0.0
  0
LINE
  5
1142
330
99C
100
AcDbEntity
  8
文字
 62
     2
370
    -2
100
AcDbLine
 10
128.7248611308794
 20
32.41166989422448
 30
0.0
 11
136.8217177013161
 21
32.41166989422448
 31
0.0
  0
LINE
  5
1143
330
99C
100
AcDbEntity
  8
文字
 62
     2
370
    -2
100
AcDbLine
 10
135.5717177013162
 20
183.4116698942244
 30
0.0
 11
135.5717177013161
 21
34.91166989422448
 31
0.0
  0
INSERT
  5
1144
330
99C
100
AcDbEntity
  8
文字
 62
     2
370
    -2
100
AcDbBlockReference
  2
_OPEN
 10
135.5717177013162
 20
185.9116698942244
 30
0.0
 41
2.5
 42
2.5
 43
2.5
 50
90.0
  0
INSERT
  5
1145
330
99C
100
AcDbEntity
  8
文字
 62
     2
370
    -2
100
AcDbBlockReference
  2
_OPEN
 10
135.5717177013161
 20
32.41166989422448
 30
0.0
 41
2.5
 42
2.5
 43
2.5
 50
270.0
  0
MTEXT
  5
1146
330
99C
100
AcDbEntity
  8
文字
 62
     6
100
AcDbMText
 10
133.6967177013161
 20
109.1616698942244
 30
0.0
 40
2.5
 41
0.0
 71
     5
 72
     1
  1
\A1;153.5
  7
STYLE3
 11
0.0000000000000001
 21
1.0
 31
0.0
 73
     1
 44
1.0
  0
POINT
  5
1147
330
99C
100
AcDbEntity
  8
DEFPOINTS
 62
     0
100
AcDbPoint
 10
83.72275071537018
 20
185.9116698942244
 30
0.0
  0
POINT
  5
1148
330
99C
100
AcDbEntity
  8
DEFPOINTS
 62
     0
100
AcDbPoint
 10
128.7248611308794
 20
32.41166989422448
 30
0.0
  0
POINT
  5
1149
330
99C
100
AcDbEntity
  8
DEFPOINTS
 62
     0
100
AcDbPoint
 10
135.5717177013161
 20
32.41166989422448
 30
0.0
  0
ENDBLK
  5
9A7
330
99C
100
AcDbEntity
  8
0
100
AcDbBlockEnd
  0
BLOCK
  5
E29
330
9A9
100
AcDbEntity
  8
0
100
AcDbBlockBegin
  2
*D13
 70
     1
 10
0.0
 20
0.0
 30
0.0
  3
*D13
  1

  0
LINE
  5
1138
330
9A9
100
AcDbEntity
  8
文字
 62
     2
370
    -2
100
AcDbLine
 10
179.8182933947825
 20
129.4116698942245
 30
0.0
 11
194.4162059618551
 21
129.4116698942244
 31
0.0
  0
LINE
  5
1139
330
9A9
100
AcDbEntity
  8
文字
 62
     2
370
    -2
100
AcDbLine
 10
179.8182933947826
 20
83.41166989422447
 30
0.0
 11
194.4162059618551
 21
83.41166989422447
 31
0.0
  0
LINE
  5
113A
330
9A9
100
AcDbEntity
  8
文字
 62
     2
370
    -2
100
AcDbLine
 10
193.1662059618551
 20
126.9116698942244
 30
0.0
 11
193.1662059618551
 21
85.91166989422447
 31
0.0
  0
INSERT
  5
113B
330
9A9
100
AcDbEntity
  8
文字
 62
     2
370
    -2
100
AcDbBlockReference
  2
_OPEN
 10
193.1662059618551
 20
129.4116698942244
 30
0.0
 41
2.5
 42
2.5
 43
2.5
 50
90.0
  0
INSERT
  5
113C
330
9A9
100
AcDbEntity
  8
文字
 62
     2
370
    -2
100
AcDbBlockReference
  2
_OPEN
 10
193.1662059618551
 20
83.41166989422447
 30
0.0
 41
2.5
 42
2.5
 43
2.5
 50
270.0
  0
MTEXT
  5
113D
330
9A9
100
AcDbEntity
  8
文字
 62
     6
100
AcDbMText
 10
191.291205961855
 20
106.4116698942245
 30
0.0
 40
2.5
 41
0.0
 71
     5
 72
     1
  1
\A1;φ46
  7
STYLE3
 11
0.0000000000000001
 21
1.0
 31
0.0
 73
     1
 44
1.0
  0
POINT
  5
113E
330
9A9
100
AcDbEntity
  8
DEFPOINTS
 62
     0
100
AcDbPoint
 10
179.8182933947825
 20
129.4116698942245
 30
0.0
  0
POINT
  5
113F
330
9A9
100
AcDbEntity
  8
DEFPOINTS
 62
     0
100
AcDbPoint
 10
179.8182933947826
 20
83.41166989422447
 30
0.0
  0
POINT
  5
1140
330
9A9
100
AcDbEntity
  8
DEFPOINTS
 62
     0
100
AcDbPoint
 10
193.1662059618551
 20
83.41166989422447
 30
0.0
  0
ENDBLK
  5
E33
330
9A9
100
AcDbEntity
  8
0
100
AcDbBlockEnd
  0
BLOCK
  5
B24
330
9EE
100
AcDbEntity
  8
0
100
AcDbBlockBegin
  2
*D14
 70
     1
 10
0.0
 20
0.0
 30
0.0
  3
*D14
  1

  0
LINE
  5
112F
330
9EE
100
AcDbEntity
  8
外形線
 62
     2
370
    -2
100
AcDbLine
 10
158.3182933947826
 20
106.3316698942244
 30
0.0
 11
158.3182933947826
 21
28.44347627326562
 31
0.0
  0
LINE
  5
1130
330
9EE
100
AcDbEntity
  8
外形線
 62
     2
370
    -2
100
AcDbLine
 10
169.8182933947826
 20
31.0797331474509
 30
0.0
 11
169.8182933947826
 21
28.44347627326562
 31
0.0
  0
LINE
  5
1131
330
9EE
100
AcDbEntity
  8
外形線
 62
     2
370
    -2
100
AcDbLine
 10
160.8182933947826
 20
29.69347627326562
 30
0.0
 11
167.3182933947826
 21
29.69347627326562
 31
0.0
  0
INSERT
  5
1132
330
9EE
100
AcDbEntity
  8
外形線
 62
     2
370
    -2
100
AcDbBlockReference
  2
_OPEN
 10
158.3182933947826
 20
29.69347627326562
 30
0.0
 41
2.5
 42
2.5
 43
2.5
 50
180.0
  0
INSERT
  5
1133
330
9EE
100
AcDbEntity
  8
外形線
 62
     2
370
    -2
100
AcDbBlockReference
  2
_OPEN
 10
169.8182933947826
 20
29.69347627326562
 30
0.0
 41
2.5
 42
2.5
 43
2.5
  0
MTEXT
  5
1134
330
9EE
100
AcDbEntity
  8
外形線
 62
     6
100
AcDbMText
 10
164.0682933947826
 20
31.56847627326562
 30
0.0
 40
2.5
 41
0.0
 71
     5
 72
     1
  1
\A1;11.5
  7
STYLE3
 73
     1
 44
1.0
  0
POINT
  5
1135
330
9EE
100
AcDbEntity
  8
DEFPOINTS
 62
     0
100
AcDbPoint
 10
158.3182933947826
 20
106.3316698942244
 30
0.0
  0
POINT
  5
1136
330
9EE
100
AcDbEntity
  8
DEFPOINTS
 62
     0
100
AcDbPoint
 10
169.8182933947826
 20
31.0797331474509
 30
0.0
  0
POINT
  5
1137
330
9EE
100
AcDbEntity
  8
DEFPOINTS
 62
     0
100
AcDbPoint
 10
169.8182933947826
 20
29.69347627326562
 30
0.0
  0
ENDBLK
  5
B2E
330
9EE
100
AcDbEntity
  8
0
100
AcDbBlockEnd
  0
BLOCK
  5
B2F
330
9FB
100
AcDbEntity
  8
0
100
AcDbBlockBegin
  2
*D15
 70
     1
 10
0.0
 20
0.0
 30
0.0
  3
*D15
  1

  0
LINE
  5
1127
330
9FB
100
AcDbEntity
  8
外形線
 62
     2
370
    -2
100
AcDbLine
 10
179.8182933947826
 20
83.41166989422447
 30
0.0
 11
179.8182933947826
 21
28.44347627326562
 31
0.0
  0
LINE
  5
1128
330
9FB
100
AcDbEntity
  8
外形線
 62
     2
370
    -2
100
AcDbLine
 10
172.3182933947826
 20
29.69347627326562
 30
0.0
 11
177.3182933947826
 21
29.69347627326562
 31
0.0
  0
INSERT
  5
1129
330
9FB
100
AcDbEntity
  8
外形線
 62
     2
370
    -2
100
AcDbBlockReference
  2
_OPEN
 10
169.8182933947826
 20
29.69347627326562
 30
0.0
 41
2.5
 42
2.5
 43
2.5
 50
180.0
  0
INSERT
  5
112A
330
9FB
100
AcDbEntity
  8
外形線
 62
     2
370
    -2
100
AcDbBlockReference
  2
_OPEN
 10
179.8182933947826
 20
29.69347627326562
 30
0.0
 41
2.5
 42
2.5
 43
2.5
  0
MTEXT
  5
112B
330
9FB
100
AcDbEntity
  8
外形線
 62
     6
100
AcDbMText
 10
174.8182933947826
 20
31.56847627326562
 30
0.0
 40
2.5
 41
0.0
 71
     5
 72
     1
  1
\A1;10
  7
STYLE3
 73
     1
 44
1.0
  0
POINT
  5
112C
330
9FB
100
AcDbEntity
  8
DEFPOINTS
 62
     0
100
AcDbPoint
 10
169.8182933947826
 20
31.0797331474509
 30
0.0
  0
POINT
  5
112D
330
9FB
100
AcDbEntity
  8
DEFPOINTS
 62
     0
100
AcDbPoint
 10
179.8182933947826
 20
83.41166989422447
 30
0.0
  0
POINT
  5
112E
330
9FB
100
AcDbEntity
  8
DEFPOINTS
 62
     0
100
AcDbPoint
 10
179.8182933947826
 20
29.69347627326562
 30
0.0
  0
ENDBLK
  5
B38
330
9FB
100
AcDbEntity
  8
0
100
AcDbBlockEnd
  0
BLOCK
  5
B39
330
A1C
100
AcDbEntity
  8
0
100
AcDbBlockBegin
  2
*D16
 70
     1
 10
0.0
 20
0.0
 30
0.0
  3
*D16
  1

  0
LINE
  5
111E
330
A1C
100
AcDbEntity
  8
外形線
 62
     2
370
    -2
100
AcDbLine
 10
154.8182933947825
 20
86.04985290340437
 30
0.0
 11
154.8182933947825
 21
23.96548016190428
 31
0.0
  0
LINE
  5
111F
330
A1C
100
AcDbEntity
  8
外形線
 62
     2
370
    -2
100
AcDbLine
 10
179.8182933947826
 20
28.44347627326562
 30
0.0
 11
179.8182933947826
 21
23.96548016190428
 31
0.0
  0
LINE
  5
1120
330
A1C
100
AcDbEntity
  8
外形線
 62
     2
370
    -2
100
AcDbLine
 10
157.3182933947825
 20
25.21548016190428
 30
0.0
 11
177.3182933947826
 21
25.21548016190428
 31
0.0
  0
INSERT
  5
1121
330
A1C
100
AcDbEntity
  8
外形線
 62
     2
370
    -2
100
AcDbBlockReference
  2
_OPEN
 10
154.8182933947825
 20
25.21548016190428
 30
0.0
 41
2.5
 42
2.5
 43
2.5
 50
180.0
  0
INSERT
  5
1122
330
A1C
100
AcDbEntity
  8
外形線
 62
     2
370
    -2
100
AcDbBlockReference
  2
_OPEN
 10
179.8182933947826
 20
25.21548016190428
 30
0.0
 41
2.5
 42
2.5
 43
2.5
  0
MTEXT
  5
1123
330
A1C
100
AcDbEntity
  8
外形線
 62
     6
100
AcDbMText
 10
167.3182933947826
 20
27.09048016190428
 30
0.0
 40
2.5
 41
0.0
 71
     5
 72
     1
  1
\A1;25
  7
STYLE3
 73
     1
 44
1.0
  0
POINT
  5
1124
330
A1C
100
AcDbEntity
  8
DEFPOINTS
 62
     0
100
AcDbPoint
 10
154.8182933947825
 20
86.04985290340437
 30
0.0
  0
POINT
  5
1125
330
A1C
100
AcDbEntity
  8
DEFPOINTS
 62
     0
100
AcDbPoint
 10
179.8182933947826
 20
28.44347627326562
 30
0.0
  0
POINT
  5
1126
330
A1C
100
AcDbEntity
  8
DEFPOINTS
 62
     0
100
AcDbPoint
 10
179.8182933947826
 20
25.21548016190428
 30
0.0
  0
ENDBLK
  5
B43
330
A1C
100
AcDbEntity
  8
0
100
AcDbBlockEnd
  0
ENDSEC
  0
SECTION
  2
ENTITIES
  0
LWPOLYLINE
  5
26C
330
18
100
AcDbEntity
  8
C
100
AcDbPolyline
 90
        5
 70
     0
 43
0.4
 10
0.0
 20
194.7274940416472
 10
255.0
 20
194.7274940416472
 10
255.0
 20
0.0
 10
0.0
 20
0.0
 10
0.0
 20
194.7274940416472
  0
LINE
  5
310
330
18
100
AcDbEntity
  8
中心線
100
AcDbLine
 10
52.27823404627224
 20
106.4116698942245
 30
0.0
 11
110.9677900840796
 21
106.4116698942245
 31
0.0
  0
LINE
  5
311
330
18
100
AcDbEntity
  8
中心線
100
AcDbLine
 10
81.62301246139874
 20
190.8499785391473
 30
0.0
 11
81.62301246139874
 21
30.97867101883827
 31
0.0
  0
LINE
  5
312
330
18
100
AcDbEntity
  8
外形線
100
AcDbLine
 10
81.62301246139874
 20
72.25166989422447
 30
0.0
 11
90.46132930335193
 21
72.25166989422447
 31
0.0
  0
ARC
  5
31B
330
18
100
AcDbEntity
  8
外形線
100
AcDbCircle
 10
-41.37698753860127
 20
106.4116698942245
 30
0.0
 40
148.0
100
AcDbArc
 50
351.2395006156553
 51
9.343863756487888
  0
LINE
  5
32D
330
18
100
AcDbEntity
  8
外形線
100
AcDbLine
 10
103.8146922542487
 20
82.653600383926
 30
0.0
 11
95.62512567502588
 21
80.38275427275729
 31
0.0
  0
ARC
  5
32E
330
18
100
AcDbEntity
  8
外形線
100
AcDbCircle
 10
103.4138874165488
 20
84.09906068503303
 30
0.0
 40
1.5
100
AcDbArc
 50
285.4979099969276
 51
351.2395006156553
  0
LINE
  5
330
330
18
100
AcDbEntity
  8
外形線
100
AcDbLine
 10
91.36153054136087
 20
75.69808760071447
 30
0.0
 11
90.65688978616742
 21
72.40976407647831
 31
0.0
  0
ARC
  5
331
330
18
100
AcDbEntity
  8
外形線
100
AcDbCircle
 10
97.44568172334389
 20
74.44331642113741
 30
0.0
 40
6.212193358091993
100
AcDbArc
 50
107.04134573567
 51
168.346927233681
  0
ARC
  5
332
330
18
100
AcDbEntity
  8
外形線
100
AcDbCircle
 10
90.46132930335193
 20
72.45166989422448
 30
0.0
 40
0.2
100
AcDbArc
 50
270.0
 51
347.9052429229879
  0
LINE
  5
342
330
18
100
AcDbEntity
  8
外形線
100
AcDbLine
 10
81.62301246139874
 20
140.4116698942244
 30
0.0
 11
91.45358704372213
 21
140.4116698942244
 31
0.0
  0
LINE
  5
344
330
18
100
AcDbEntity
  8
外形線
100
AcDbLine
 10
103.5466635161789
 20
131.651599897624
 30
0.0
 11
96.42659625680716
 21
133.4506214809589
 31
0.0
  0
ARC
  5
345
330
18
100
AcDbEntity
  8
外形線
100
AcDbCircle
 10
103.179207782469
 20
130.197304094232
 30
0.0
 40
1.5
100
AcDbArc
 50
9.343863756487762
 51
75.81991026419892
  0
LINE
  5
347
330
18
100
AcDbEntity
  8
外形線
100
AcDbLine
 10
91.97805564865362
 20
138.2814107706951
 30
0.0
 11
91.65086582848857
 21
140.2445496916855
 31
0.0
  0
ARC
  5
348
330
18
100
AcDbEntity
  8
外形線
100
AcDbCircle
 10
97.89641919164649
 20
139.2678046945272
 30
0.0
 40
6.0
100
AcDbArc
 50
189.4623222080256
 51
255.8199102641987
  0
ARC
  5
34A
330
18
100
AcDbEntity
  8
外形線
100
AcDbCircle
 10
91.45358704372213
 20
140.2116698942245
 30
0.0
 40
0.2
100
AcDbArc
 50
9.462322208025469
 51
90.0
  0
LINE
  5
34B
330
18
100
AcDbEntity
  8
中心線
100
AcDbLine
 10
94.12301246139874
 20
134.6885915411002
 30
0.0
 11
94.12301246139874
 21
128.1347482473487
 31
0.0
  0
LINE
  5
34D
330
18
100
AcDbEntity
  8
中心線
100
AcDbLine
 10
90.84609081452299
 20
131.4116698942245
 30
0.0
 11
97.39993410827446
 21
131.4116698942245
 31
0.0
  0
CIRCLE
  5
34E
330
18
100
AcDbEntity
  8
外形線
100
AcDbCircle
 10
94.12301246139874
 20
82.91166989422448
 30
0.0
 40
2.0
  0
CIRCLE
  5
34F
330
18
100
AcDbEntity
  8
外形線
100
AcDbCircle
 10
94.12301246139874
 20
131.4116698942245
 30
0.0
 40
2.0
  0
LINE
  5
353
330
18
100
AcDbEntity
  8
中心線
100
AcDbLine
 10
94.12301246139874
 20
86.18859154110021
 30
0.0
 11
94.12301246139874
 21
79.63474824734873
 31
0.0
  0
LINE
  5
354
330
18
100
AcDbEntity
  8
中心線
100
AcDbLine
 10
90.84609081452299
 20
82.91166989422448
 30
0.0
 11
97.39993410827446
 21
82.91166989422448
 31
0.0
  0
LINE
  5
355
330
18
100
AcDbEntity
  8
外形線
100
AcDbLine
 10
90.62301246139872
 20
138.4116698942245
 30
0.0
 11
90.62301246139872
 21
131.4116698942245
 31
0.0
  0
LINE
  5
356
330
18
100
AcDbEntity
  8
外形線
100
AcDbLine
 10
81.62301246139874
 20
139.4116698942244
 30
0.0
 11
89.62301246139873
 21
139.4116698942245
 31
0.0
  0
LINE
  5
357
330
18
100
AcDbEntity
  8
外形線
100
AcDbLine
 10
81.62301246139874
 20
130.4116698942244
 30
0.0
 11
89.62301246139873
 21
130.4116698942245
 31
0.0
  0
ARC
  5
358
330
18
100
AcDbEntity
  8
外形線
100
AcDbCircle
 10
89.62301246139873
 20
131.4116698942245
 30
0.0
 40
1.0
100
AcDbArc
 50
270.0000000000002
 51
0.0
  0
ARC
  5
359
330
18
100
AcDbEntity
  8
外形線
100
AcDbCircle
 10
89.62301246139873
 20
138.4116698942245
 30
0.0
 40
1.0
100
AcDbArc
 50
0.0
 51
90.00000000000019
  0
LINE
  5
35A
330
18
100
AcDbEntity
  8
外形線
100
AcDbLine
 10
72.6230124613987
 20
138.4116698942245
 30
0.0
 11
72.6230124613987
 21
131.4116698942245
 31
0.0
  0
LINE
  5
35B
330
18
100
AcDbEntity
  8
中心線
100
AcDbLine
 10
69.1230124613987
 20
134.6885915411002
 30
0.0
 11
69.1230124613987
 21
128.1347482473487
 31
0.0
  0
CIRCLE
  5
35C
330
18
100
AcDbEntity
  8
外形線
100
AcDbCircle
 10
69.1230124613987
 20
131.4116698942245
 30
0.0
 40
2.0
  0
ARC
  5
35D
330
18
100
AcDbEntity
  8
外形線
100
AcDbCircle
 10
65.34960573115094
 20
139.2678046945272
 30
0.0
 40
6.0
100
AcDbArc
 50
284.1800897358013
 51
350.5376777919744
  0
LINE
  5
35E
330
18
100
AcDbEntity
  8
外形線
100
AcDbLine
 10
59.69936140661855
 20
131.651599897624
 30
0.0
 11
66.81942866599024
 21
133.4506214809589
 31
0.0
  0
ARC
  5
35F
330
18
100
AcDbEntity
  8
外形線
100
AcDbCircle
 10
204.6230124613987
 20
106.4116698942245
 30
0.0
 40
148.0
100
AcDbArc
 50
170.6561362435121
 51
188.7604993843447
  0
LINE
  5
360
330
18
100
AcDbEntity
  8
外形線
100
AcDbLine
 10
59.43133266854871
 20
82.653600383926
 30
0.0
 11
67.62089924777154
 21
80.38275427275729
 31
0.0
  0
LINE
  5
361
330
18
100
AcDbEntity
  8
外形線
100
AcDbLine
 10
81.6230124613987
 20
72.25166989422447
 30
0.0
 11
72.7846956194455
 21
72.25166989422447
 31
0.0
  0
LINE
  5
362
330
18
100
AcDbEntity
  8
外形線
100
AcDbLine
 10
71.88449438143655
 20
75.69808760071447
 30
0.0
 11
72.58913513663003
 21
72.40976407647831
 31
0.0
  0
ARC
  5
363
330
18
100
AcDbEntity
  8
外形線
100
AcDbCircle
 10
72.7846956194455
 20
72.45166989422448
 30
0.0
 40
0.2
100
AcDbArc
 50
192.0947570770122
 51
270.0
  0
LINE
  5
364
330
18
100
AcDbEntity
  8
中心線
100
AcDbLine
 10
72.39993410827444
 20
82.91166989422448
 30
0.0
 11
65.84609081452296
 21
82.91166989422448
 31
0.0
  0
CIRCLE
  5
365
330
18
100
AcDbEntity
  8
外形線
100
AcDbCircle
 10
69.1230124613987
 20
82.91166989422448
 30
0.0
 40
2.0
  0
ARC
  5
366
330
18
100
AcDbEntity
  8
外形線
100
AcDbCircle
 10
65.80034319945355
 20
74.44331642113741
 30
0.0
 40
6.212193358092002
100
AcDbArc
 50
11.65307276631892
 51
72.95865426432995
  0
LINE
  5
367
330
18
100
AcDbEntity
  8
中心線
100
AcDbLine
 10
69.1230124613987
 20
86.18859154110021
 30
0.0
 11
69.1230124613987
 21
79.63474824734873
 31
0.0
  0
ARC
  5
368
330
18
100
AcDbEntity
  8
外形線
100
AcDbCircle
 10
59.83213750624861
 20
84.09906068503303
 30
0.0
 40
1.5
100
AcDbArc
 50
188.7604993843447
 51
254.5020900030724
  0
LINE
  5
369
330
18
100
AcDbEntity
  8
外形線
100
AcDbLine
 10
81.62301246139866
 20
130.4116698942244
 30
0.0
 11
73.6230124613987
 21
130.4116698942245
 31
0.0
  0
LINE
  5
36A
330
18
100
AcDbEntity
  8
中心線
100
AcDbLine
 10
72.39993410827444
 20
131.4116698942245
 30
0.0
 11
65.84609081452296
 21
131.4116698942245
 31
0.0
  0
ARC
  5
36B
330
18
100
AcDbEntity
  8
外形線
100
AcDbCircle
 10
73.6230124613987
 20
131.4116698942245
 30
0.0
 40
1.0
100
AcDbArc
 50
180.0
 51
269.9999999999998
  0
ARC
  5
36C
330
18
100
AcDbEntity
  8
外形線
100
AcDbCircle
 10
60.06681714032836
 20
130.197304094232
 30
0.0
 40
1.5
100
AcDbArc
 50
104.1800897358011
 51
170.6561362435122
  0
LINE
  5
36D
330
18
100
AcDbEntity
  8
外形線
100
AcDbLine
 10
81.62301246139874
 20
139.4116698942244
 30
0.0
 11
73.6230124613987
 21
139.4116698942245
 31
0.0
  0
LINE
  5
36E
330
18
100
AcDbEntity
  8
外形線
100
AcDbLine
 10
81.62301246139874
 20
140.4116698942244
 30
0.0
 11
71.79243787907529
 21
140.4116698942244
 31
0.0
  0
ARC
  5
36F
330
18
100
AcDbEntity
  8
外形線
100
AcDbCircle
 10
73.6230124613987
 20
138.4116698942245
 30
0.0
 40
1.0
100
AcDbArc
 50
89.99999999999982
 51
180.0
  0
LINE
  5
370
330
18
100
AcDbEntity
  8
外形線
100
AcDbLine
 10
71.26796927414381
 20
138.2814107706951
 30
0.0
 11
71.59515909430888
 21
140.2445496916855
 31
0.0
  0
ARC
  5
371
330
18
100
AcDbEntity
  8
外形線
100
AcDbCircle
 10
71.79243787907529
 20
140.2116698942245
 30
0.0
 40
0.2
100
AcDbArc
 50
90.0
 51
170.5376777919745
  0
POINT
  5
4F6
330
18
100
AcDbEntity
  8
DEFPOINTS
  6
ByBlock
 62
     0
100
AcDbPoint
 10
76.96426964955333
 20
89.02500502102128
 30
0.0
  0
POINT
  5
4F7
330
18
100
AcDbEntity
  8
DEFPOINTS
  6
ByBlock
 62
     0
100
AcDbPoint
 10
76.96426964955333
 20
89.02500502102123
 30
0.0
  0
LINE
  5
632
330
18
100
AcDbEntity
  8
外形線
100
AcDbLine
 10
93.21484228130277
 20
130.5034997141285
 30
0.0
 11
95.03118264149472
 21
132.3198400743204
 31
0.0
  0
LINE
  5
634
330
18
100
AcDbEntity
  8
外形線
100
AcDbLine
 10
95.03118264149469
 20
130.5034997141285
 30
0.0
 11
93.21484228130273
 21
132.3198400743204
 31
0.0
  0
LINE
  5
635
330
18
100
AcDbEntity
  8
外形線
100
AcDbLine
 10
70.0311826414947
 20
130.5034997141285
 30
0.0
 11
68.2148422813027
 21
132.3198400743204
 31
0.0
  0
LINE
  5
636
330
18
100
AcDbEntity
  8
外形線
100
AcDbLine
 10
68.2148422813027
 20
130.5034997141285
 30
0.0
 11
70.0311826414947
 21
132.3198400743204
 31
0.0
  0
LINE
  5
637
330
18
100
AcDbEntity
  8
外形線
100
AcDbLine
 10
70.0311826414947
 20
82.00349971412848
 30
0.0
 11
68.2148422813027
 21
83.81984007432043
 31
0.0
  0
LINE
  5
638
330
18
100
AcDbEntity
  8
外形線
100
AcDbLine
 10
68.2148422813027
 20
82.00349971412848
 30
0.0
 11
70.0311826414947
 21
83.81984007432043
 31
0.0
  0
LINE
  5
639
330
18
100
AcDbEntity
  8
外形線
100
AcDbLine
 10
95.03118264149469
 20
82.00349971412848
 30
0.0
 11
93.21484228130273
 21
83.81984007432043
 31
0.0
  0
LINE
  5
63A
330
18
100
AcDbEntity
  8
外形線
100
AcDbLine
 10
93.21484228130277
 20
82.00349971412848
 30
0.0
 11
95.03118264149472
 21
83.81984007432043
 31
0.0
  0
LINE
  5
641
330
18
100
AcDbEntity
  8
中心線
 48
0.5
100
AcDbLine
 10
104.7416393320154
 20
151.7459611534501
 30
0.0
 11
98.37583128837017
 21
127.9884421033354
 31
0.0
  0
LINE
  5
644
330
18
100
AcDbEntity
  8
外形線
100
AcDbLine
 10
103.2972470755735
 20
134.7643059508809
 30
0.0
 11
102.5319019041826
 21
131.9079988859226
 31
0.0
  0
LINE
  5
645
330
18
100
AcDbEntity
  8
外形線
100
AcDbLine
 10
97.5016921178391
 20
136.317220221496
 30
0.0
 11
96.71412301861487
 21
133.3779723287199
 31
0.0
  0
LINE
  5
64D
330
18
100
AcDbEntity
  8
外形線
100
AcDbLine
 10
104.2631729018626
 20
134.5054869057784
 30
0.0
 11
104.5219919469651
 21
135.4714127320675
 31
0.0
  0
LINE
  5
64F
330
18
100
AcDbEntity
  8
外形線
100
AcDbLine
 10
100.3994695967063
 20
135.5407630861885
 30
0.0
 11
104.2631729018626
 21
134.5054869057784
 31
0.0
  0
LINE
  5
650
330
18
100
AcDbEntity
  8
外形線
100
AcDbLine
 10
100.6582886418088
 20
136.5066889124775
 30
0.0
 11
105.0049548601096
 21
135.3420032095162
 31
0.0
  0
LINE
  5
651
330
18
100
AcDbEntity
  8
外形線
100
AcDbLine
 10
101.4347457771163
 20
139.4044663913448
 30
0.0
 11
105.7814119954171
 21
138.2397806883834
 31
0.0
  0
LINE
  5
652
330
18
100
AcDbEntity
  8
外形線
100
AcDbLine
 10
101.6935648222188
 20
140.3703922176337
 30
0.0
 11
106.0402310405196
 21
139.2057065146725
 31
0.0
  0
LINE
  5
653
330
18
100
AcDbEntity
  8
外形線
100
AcDbLine
 10
103.5052981379365
 20
147.1318730016573
 30
0.0
 11
107.3690014430928
 21
146.0965968212472
 31
0.0
  0
LINE
  5
654
330
18
100
AcDbEntity
  8
外形線
100
AcDbLine
 10
107.3690014430928
 20
146.0965968212472
 30
0.0
 11
107.722554833686
 21
145.4842243855514
 31
0.0
  0
LINE
  5
658
330
18
100
AcDbEntity
  8
外形線
100
AcDbLine
 10
105.0049548601096
 20
135.3420032095162
 30
0.0
 11
105.7814119954171
 21
138.2397806883834
 31
0.0
  0
LINE
  5
659
330
18
100
AcDbEntity
  8
外形線
100
AcDbLine
 10
106.0402310405196
 20
139.2057065146725
 30
0.0
 11
107.722554833686
 21
145.4842243855514
 31
0.0
  0
LINE
  5
65A
330
18
100
AcDbEntity
  8
外形線
100
AcDbLine
 10
105.2984490822726
 20
138.3691902109347
 30
0.0
 11
105.5572681273752
 21
139.3351160372237
 31
0.0
  0
LINE
  5
65B
330
18
100
AcDbEntity
  8
外形線
100
AcDbLine
 10
107.722554833686
 20
145.4842243855514
 30
0.0
 11
103.3758886153852
 21
146.6489100885128
 31
0.0
  0
LINE
  5
65C
330
18
100
AcDbEntity
  8
外形線
100
AcDbLine
 10
104.0390290338205
 20
135.6008222546187
 30
0.0
 11
104.815486169128
 21
138.4985997334859
 31
0.0
  0
LINE
  5
65D
330
18
100
AcDbEntity
  8
外形線
100
AcDbLine
 10
103.0731032075314
 20
135.8596412997212
 30
0.0
 11
103.849560342839
 21
138.7574187785884
 31
0.0
  0
LINE
  5
65E
330
18
100
AcDbEntity
  8
外形線
100
AcDbLine
 10
102.1071773812424
 20
136.1184603448237
 30
0.0
 11
102.8836345165499
 21
139.0162378236909
 31
0.0
  0
LINE
  5
65F
330
18
100
AcDbEntity
  8
外形線
100
AcDbLine
 10
101.1412515549533
 20
136.3772793899262
 30
0.0
 11
101.9177086902608
 21
139.2750568687935
 31
0.0
  0
LINE
  5
660
330
18
100
AcDbEntity
  8
外形線
100
AcDbLine
 10
105.0743052142306
 20
139.464525559775
 30
0.0
 11
106.756629007397
 21
145.743043430654
 31
0.0
  0
LINE
  5
661
330
18
100
AcDbEntity
  8
外形線
100
AcDbLine
 10
104.1083793879415
 20
139.7233446048776
 30
0.0
 11
105.7907031811079
 21
146.0018624757565
 31
0.0
  0
LINE
  5
662
330
18
100
AcDbEntity
  8
外形線
100
AcDbLine
 10
103.1424535616525
 20
139.9821636499801
 30
0.0
 11
104.8247773548189
 21
146.260681520859
 31
0.0
  0
LINE
  5
663
330
18
100
AcDbEntity
  8
外形線
100
AcDbLine
 10
102.1765277353634
 20
140.2409826950826
 30
0.0
 11
103.8588515285298
 21
146.5195005659616
 31
0.0
  0
LINE
  5
668
330
18
100
AcDbEntity
  8
外形線
100
AcDbLine
 10
97.34689860391814
 20
141.5350779205951
 30
0.0
 11
99.02922239708445
 21
147.8135957914741
 31
0.0
  0
LINE
  5
669
330
18
100
AcDbEntity
  8
外形線
100
AcDbLine
 10
99.02922239708445
 20
147.8135957914741
 30
0.0
 11
103.3758886153852
 21
146.6489100885128
 31
0.0
  0
LINE
  5
66A
330
18
100
AcDbEntity
  8
外形線
100
AcDbLine
 10
103.5052981379365
 20
147.1318730016573
 30
0.0
 11
99.64159483278027
 21
148.1671491820674
 31
0.0
  0
LINE
  5
66B
330
18
100
AcDbEntity
  8
外形線
100
AcDbLine
 10
99.64159483278027
 20
148.1671491820674
 30
0.0
 11
99.02922239708445
 21
147.8135957914741
 31
0.0
  0
LINE
  5
66C
330
18
100
AcDbEntity
  8
外形線
100
AcDbLine
 10
100.3994695967063
 20
135.5407630861885
 30
0.0
 11
96.53576629155004
 21
136.5760392665986
 31
0.0
  0
LINE
  5
66D
330
18
100
AcDbEntity
  8
外形線
100
AcDbLine
 10
101.6935648222188
 20
140.3703922176337
 30
0.0
 11
97.34689860391814
 21
141.5350779205951
 31
0.0
  0
LINE
  5
66E
330
18
100
AcDbEntity
  8
外形線
100
AcDbLine
 10
101.4347457771163
 20
139.4044663913448
 30
0.0
 11
97.08807955881562
 21
140.5691520943061
 31
0.0
  0
LINE
  5
66F
330
18
100
AcDbEntity
  8
外形線
100
AcDbLine
 10
100.6582886418088
 20
136.5066889124775
 30
0.0
 11
96.31162242350804
 21
137.6713746154389
 31
0.0
  0
LINE
  5
674
330
18
100
AcDbEntity
  8
外形線
100
AcDbLine
 10
96.31162242350804
 20
137.6713746154389
 30
0.0
 11
97.08807955881562
 21
140.5691520943061
 31
0.0
  0
LINE
  5
675
330
18
100
AcDbEntity
  8
外形線
100
AcDbLine
 10
97.57104247196011
 20
140.4397425717548
 30
0.0
 11
97.82986151706262
 21
141.4056683980439
 31
0.0
  0
LINE
  5
676
330
18
100
AcDbEntity
  8
外形線
100
AcDbLine
 10
96.53576629155004
 20
136.5760392665986
 30
0.0
 11
96.79458533665252
 21
137.5419650928876
 31
0.0
  0
LINE
  5
679
330
18
100
AcDbEntity
  8
外形線
100
AcDbLine
 10
57.20579388227782
 20
139.2057065146725
 30
0.0
 11
55.52347008911135
 21
145.4842243855514
 31
0.0
  0
LINE
  5
67A
330
18
100
AcDbEntity
  8
外形線
100
AcDbLine
 10
62.03542301372306
 20
140.4998017401851
 30
0.0
 11
60.35309922055671
 21
146.7783196110641
 31
0.0
  0
LINE
  5
67B
330
18
100
AcDbEntity
  8
外形線
100
AcDbLine
 10
63.00134884001209
 20
140.7586207852876
 30
0.0
 11
61.31902504684581
 21
147.0371386561666
 31
0.0
  0
LINE
  5
67C
330
18
100
AcDbEntity
  8
外形線
100
AcDbLine
 10
63.96727466630119
 20
141.0174398303901
 30
0.0
 11
62.28495087313485
 21
147.2959577012691
 31
0.0
  0
LINE
  5
67D
330
18
100
AcDbEntity
  8
外形線
100
AcDbLine
 10
64.93320049259029
 20
141.2762588754926
 30
0.0
 11
63.25087669942394
 21
147.5547767463716
 31
0.0
  0
LINE
  5
67E
330
18
100
AcDbEntity
  8
外形線
100
AcDbLine
 10
65.89912631887933
 20
141.5350779205951
 30
0.0
 11
64.21680252571298
 21
147.8135957914741
 31
0.0
  0
LINE
  5
67F
330
18
100
AcDbEntity
  8
外形線
100
AcDbLine
 10
61.81127914568111
 20
139.4044663913448
 30
0.0
 11
57.46461292738036
 21
138.2397806883834
 31
0.0
  0
LINE
  5
680
330
18
100
AcDbEntity
  8
外形線
100
AcDbLine
 10
61.55246010057862
 20
140.3703922176337
 30
0.0
 11
57.20579388227782
 21
139.2057065146725
 31
0.0
  0
LINE
  5
681
330
18
100
AcDbEntity
  8
外形線
100
AcDbLine
 10
62.84655532609116
 20
135.5407630861884
 30
0.0
 11
58.98285202093489
 21
134.5054869057784
 31
0.0
  0
LINE
  5
682
330
18
100
AcDbEntity
  8
外形線
100
AcDbLine
 10
62.58773628098868
 20
136.5066889124775
 30
0.0
 11
58.24107006268786
 21
135.3420032095162
 31
0.0
  0
LINE
  5
684
330
18
100
AcDbEntity
  8
外形線
100
AcDbLine
 10
58.24107006268786
 20
135.3420032095162
 30
0.0
 11
57.46461292738036
 21
138.2397806883834
 31
0.0
  0
LINE
  5
685
330
18
100
AcDbEntity
  8
外形線
100
AcDbLine
 10
59.94877784722399
 20
134.7643059508809
 30
0.0
 11
60.71412301861485
 21
131.9079988859226
 31
0.0
  0
LINE
  5
686
330
18
100
AcDbEntity
  8
外形線
100
AcDbLine
 10
58.98285202093489
 20
134.5054869057784
 30
0.0
 11
58.72403297583236
 21
135.4714127320674
 31
0.0
  0
LINE
  5
687
330
18
100
AcDbEntity
  8
外形線
100
AcDbLine
 10
57.94757584052485
 20
138.3691902109347
 30
0.0
 11
57.6887567954223
 21
139.3351160372237
 31
0.0
  0
LINE
  5
688
330
18
100
AcDbEntity
  8
外形線
100
AcDbLine
 10
64.03662502042227
 20
136.8949174801313
 30
0.0
 11
63.26016788511464
 21
139.7926949589985
 31
0.0
  0
LINE
  5
689
330
18
100
AcDbEntity
  8
外形線
100
AcDbLine
 10
65.0025508467113
 20
137.1537365252338
 30
0.0
 11
64.22609371140374
 21
140.051514004101
 31
0.0
  0
LINE
  5
68A
330
18
100
AcDbEntity
  8
外形線
100
AcDbLine
 10
65.96847667300039
 20
137.4125555703363
 30
0.0
 11
65.19201953769277
 21
140.3103330492035
 31
0.0
  0
LINE
  5
68B
330
18
100
AcDbEntity
  8
外形線
100
AcDbLine
 10
66.93440249928944
 20
137.6713746154389
 30
0.0
 11
66.15794536398187
 21
140.5691520943061
 31
0.0
  0
LINE
  5
68C
330
18
100
AcDbEntity
  8
外形線
100
AcDbLine
 10
63.07069919413317
 20
136.6360984350287
 30
0.0
 11
62.2942420588256
 21
139.5338759138959
 31
0.0
  0
LINE
  5
68D
330
18
100
AcDbEntity
  8
外形線
100
AcDbLine
 10
62.84655532609116
 20
135.5407630861884
 30
0.0
 11
66.71025863124743
 21
136.5760392665986
 31
0.0
  0
LINE
  5
68E
330
18
100
AcDbEntity
  8
外形線
100
AcDbLine
 10
62.58773628098868
 20
136.5066889124775
 30
0.0
 11
66.93440249928944
 21
137.6713746154389
 31
0.0
  0
LINE
  5
68F
330
18
100
AcDbEntity
  8
外形線
100
AcDbLine
 10
65.74433280495838
 20
136.317220221496
 30
0.0
 11
66.53190190418263
 21
133.3779723287199
 31
0.0
  0
LINE
  5
691
330
18
100
AcDbEntity
  8
外形線
100
AcDbLine
 10
66.71025863124743
 20
136.5760392665986
 30
0.0
 11
66.45143958614494
 21
137.5419650928876
 31
0.0
  0
LINE
  5
692
330
18
100
AcDbEntity
  8
外形線
100
AcDbLine
 10
61.55246010057862
 20
140.3703922176337
 30
0.0
 11
65.89912631887933
 21
141.5350779205951
 31
0.0
  0
LINE
  5
693
330
18
100
AcDbEntity
  8
外形線
100
AcDbLine
 10
61.81127914568111
 20
139.4044663913448
 30
0.0
 11
66.15794536398187
 21
140.5691520943061
 31
0.0
  0
LINE
  5
694
330
18
100
AcDbEntity
  8
外形線
100
AcDbLine
 10
65.67498245083737
 20
140.4397425717548
 30
0.0
 11
65.41616340573483
 21
141.4056683980439
 31
0.0
  0
LINE
  5
695
330
18
100
AcDbEntity
  8
外形線
100
AcDbLine
 10
59.74072678486095
 20
147.1318730016573
 30
0.0
 11
55.87702347970469
 21
146.0965968212472
 31
0.0
  0
LINE
  5
696
330
18
100
AcDbEntity
  8
外形線
100
AcDbLine
 10
55.52347008911135
 20
145.4842243855514
 30
0.0
 11
59.87013630741216
 21
146.6489100885127
 31
0.0
  0
LINE
  5
697
330
18
100
AcDbEntity
  8
外形線
100
AcDbLine
 10
55.87702347970469
 20
146.0965968212472
 30
0.0
 11
55.52347008911135
 21
145.4842243855514
 31
0.0
  0
LINE
  5
698
330
18
100
AcDbEntity
  8
外形線
100
AcDbLine
 10
64.21680252571298
 20
147.8135957914741
 30
0.0
 11
59.87013630741216
 21
146.6489100885127
 31
0.0
  0
LINE
  5
699
330
18
100
AcDbEntity
  8
外形線
100
AcDbLine
 10
59.74072678486095
 20
147.1318730016573
 30
0.0
 11
63.60443009001722
 21
148.1671491820674
 31
0.0
  0
LINE
  5
69A
330
18
100
AcDbEntity
  8
外形線
100
AcDbLine
 10
63.60443009001722
 20
148.1671491820674
 30
0.0
 11
64.21680252571298
 21
147.8135957914741
 31
0.0
  0
LINE
  5
69C
330
18
100
AcDbEntity
  8
外形線
100
AcDbLine
 10
79.42301246139868
 20
41.41166989422447
 30
0.0
 11
83.82301246139872
 21
41.41166989422447
 31
0.0
  0
LINE
  5
69D
330
18
100
AcDbEntity
  8
外形線
100
AcDbLine
 10
83.62301246139873
 20
51.21166989422447
 30
0.0
 11
83.62301246139873
 21
41.41166989422447
 31
0.0
  0
LINE
  5
69E
330
18
100
AcDbEntity
  8
外形線
100
AcDbLine
 10
79.62301246139873
 20
51.21166989422447
 30
0.0
 11
79.62301246139873
 21
41.41166989422447
 31
0.0
  0
LINE
  5
701
330
18
100
AcDbEntity
  8
外形線
100
AcDbLine
 10
79.42301246139868
 20
41.41166989422447
 30
0.0
 11
79.42301246139868
 21
40.91166989422447
 31
0.0
  0
LINE
  5
702
330
18
100
AcDbEntity
  8
外形線
100
AcDbLine
 10
83.82301246139872
 20
41.41166989422447
 30
0.0
 11
83.82301246139872
 21
40.91166989422447
 31
0.0
  0
LINE
  5
704
330
18
100
AcDbEntity
  8
外形線
100
AcDbLine
 10
79.12301246139867
 20
38.81166989422451
 30
0.0
 11
84.12301246139879
 21
38.81166989422451
 31
0.0
  0
LINE
  5
705
330
18
100
AcDbEntity
  8
外形線
100
AcDbLine
 10
79.12301246139867
 20
40.0116698942245
 30
0.0
 11
84.12301246139879
 21
40.0116698942245
 31
0.0
  0
LINE
  5
706
330
18
100
AcDbEntity
  8
外形線
100
AcDbLine
 10
79.12301246139867
 20
40.9116698942245
 30
0.0
 11
84.12301246139879
 21
40.9116698942245
 31
0.0
  0
LINE
  5
707
330
18
100
AcDbEntity
  8
外形線
100
AcDbLine
 10
79.12301246139867
 20
37.9116698942245
 30
0.0
 11
84.12301246139879
 21
37.9116698942245
 31
0.0
  0
LINE
  5
708
330
18
100
AcDbEntity
  8
外形線
100
AcDbLine
 10
84.12301246139879
 20
37.9116698942245
 30
0.0
 11
82.92301246139869
 21
33.4116698942245
 31
0.0
  0
LINE
  5
709
330
18
100
AcDbEntity
  8
外形線
100
AcDbLine
 10
79.12301246139867
 20
37.9116698942245
 30
0.0
 11
80.32301246139878
 21
33.4116698942245
 31
0.0
  0
POINT
  5
70A
330
18
100
AcDbEntity
  8
DEFPOINTS
  6
ByBlock
 62
     0
100
AcDbPoint
 10
81.62301246139874
 20
32.41166989422448
 30
0.0
  0
LINE
  5
70B
330
18
100
AcDbEntity
  8
外形線
100
AcDbLine
 10
80.32301246139878
 20
33.41166989422447
 30
0.0
 11
82.92301246139869
 21
33.4116698942245
 31
0.0
  0
ARC
  5
70C
330
18
100
AcDbEntity
  8
外形線
100
AcDbCircle
 10
81.62301246139874
 20
33.56166989422448
 30
0.0
 40
1.149999999999999
100
AcDbArc
 50
187.494717453927
 51
352.5052825460744
  0
LINE
  5
711
330
18
100
AcDbEntity
  8
中心線
100
AcDbLine
 10
79.12301246139861
 20
40.28859438487905
 30
0.0
 11
79.48274527444465
 21
40.91166989422453
 31
0.0
  0
LINE
  5
712
330
18
100
AcDbEntity
  8
中心線
100
AcDbLine
 10
81.18706006492272
 20
40.0116698942246
 30
0.0
 11
80.66744482265205
 21
40.91166989422453
 31
0.0
  0
LINE
  5
713
330
18
100
AcDbEntity
  8
中心線
100
AcDbLine
 10
80.03235952654353
 20
40.01166989422458
 30
0.0
 11
79.51274428427291
 21
40.91166989422453
 31
0.0
  0
LINE
  5
714
330
18
100
AcDbEntity
  8
中心線
100
AcDbLine
 10
80.60970979573312
 20
40.0116698942246
 30
0.0
 11
80.0900945534625
 21
40.91166989422453
 31
0.0
  0
LINE
  5
715
330
18
100
AcDbEntity
  8
中心線
100
AcDbLine
 10
80.11783057055328
 20
40.01166989422455
 30
0.0
 11
80.6374458128239
 21
40.91166989422453
 31
0.0
  0
LINE
  5
716
330
18
100
AcDbEntity
  8
中心線
100
AcDbLine
 10
79.54048030136369
 20
40.01166989422458
 30
0.0
 11
80.0600955436343
 21
40.91166989422453
 31
0.0
  0
LINE
  5
717
330
18
100
AcDbEntity
  8
中心線
100
AcDbLine
 10
80.69518083974292
 20
40.0116698942246
 30
0.0
 11
81.21479608201354
 21
40.91166989422453
 31
0.0
  0
LINE
  5
718
330
18
100
AcDbEntity
  8
中心線
100
AcDbLine
 10
79.45500925735399
 20
40.01166989422455
 30
0.0
 11
79.12301246139861
 21
40.58670521276925
 31
0.0
  0
LINE
  5
719
330
18
100
AcDbEntity
  8
中心線
100
AcDbLine
 10
81.62301246139861
 20
40.25657819384671
 30
0.0
 11
81.24479509184164
 21
40.91166989422453
 31
0.0
  0
LINE
  5
71A
330
18
100
AcDbEntity
  8
中心線
100
AcDbLine
 10
81.2725311089324
 20
40.01166989422452
 30
0.0
 11
81.62301246139861
 21
40.61872140380148
 31
0.0
  0
LINE
  5
71B
330
18
100
AcDbEntity
  8
中心線
100
AcDbLine
 10
79.45500925735411
 20
37.9116698942245
 30
0.0
 11
79.12301246139873
 21
38.48670521276921
 31
0.0
  0
LINE
  5
71C
330
18
100
AcDbEntity
  8
中心線
100
AcDbLine
 10
80.60970979573324
 20
37.91166989422456
 30
0.0
 11
80.09009455346262
 21
38.81166989422448
 31
0.0
  0
LINE
  5
71D
330
18
100
AcDbEntity
  8
中心線
100
AcDbLine
 10
81.62301246139874
 20
38.15657819384666
 30
0.0
 11
81.24479509184174
 21
38.81166989422448
 31
0.0
  0
LINE
  5
71E
330
18
100
AcDbEntity
  8
中心線
100
AcDbLine
 10
80.69518083974305
 20
37.91166989422456
 30
0.0
 11
81.21479608201367
 21
38.81166989422448
 31
0.0
  0
LINE
  5
71F
330
18
100
AcDbEntity
  8
中心線
100
AcDbLine
 10
79.5404803013638
 20
37.91166989422453
 30
0.0
 11
80.06009554363442
 21
38.81166989422448
 31
0.0
  0
LINE
  5
720
330
18
100
AcDbEntity
  8
中心線
100
AcDbLine
 10
81.18706006492283
 20
37.91166989422456
 30
0.0
 11
80.66744482265216
 21
38.81166989422448
 31
0.0
  0
LINE
  5
721
330
18
100
AcDbEntity
  8
中心線
100
AcDbLine
 10
80.03235952654364
 20
37.91166989422453
 30
0.0
 11
79.51274428427303
 21
38.81166989422448
 31
0.0
  0
LINE
  5
722
330
18
100
AcDbEntity
  8
中心線
100
AcDbLine
 10
79.12301246139873
 20
38.188594384879
 30
0.0
 11
79.48274527444477
 21
38.81166989422448
 31
0.0
  0
LINE
  5
723
330
18
100
AcDbEntity
  8
中心線
100
AcDbLine
 10
80.11783057055339
 20
37.9116698942245
 30
0.0
 11
80.63744581282401
 21
38.81166989422448
 31
0.0
  0
LINE
  5
724
330
18
100
AcDbEntity
  8
中心線
100
AcDbLine
 10
81.27253110893253
 20
37.91166989422448
 30
0.0
 11
81.62301246139874
 21
38.51872140380144
 31
0.0
  0
ARC
  5
725
330
18
100
AcDbEntity
  8
外形線
100
AcDbCircle
 10
78.76245733385236
 20
39.41166989422445
 30
0.0
 40
0.7
100
AcDbArc
 50
301.0027191338767
 51
58.99728086613252
  0
LINE
  5
726
330
18
100
AcDbEntity
  8
外形線
100
AcDbLine
 10
79.12301246139867
 20
38.81166989422451
 30
0.0
 11
79.12301246139867
 21
37.9116698942245
 31
0.0
  0
LINE
  5
727
330
18
100
AcDbEntity
  8
外形線
100
AcDbLine
 10
79.12301246139867
 20
40.9116698942245
 30
0.0
 11
79.12301246139867
 21
40.01166989422452
 31
0.0
  0
ARC
  5
72C
330
18
100
AcDbEntity
  8
外形線
100
AcDbCircle
 10
84.4835675889451
 20
39.41166989422445
 30
0.0
 40
0.7
100
AcDbArc
 50
121.0027191338674
 51
238.9972808661233
  0
LINE
  5
72D
330
18
100
AcDbEntity
  8
外形線
100
AcDbLine
 10
84.12301246139879
 20
38.81166989422451
 30
0.0
 11
84.12301246139879
 21
37.9116698942245
 31
0.0
  0
LINE
  5
72E
330
18
100
AcDbEntity
  8
外形線
100
AcDbLine
 10
84.12301246139879
 20
40.9116698942245
 30
0.0
 11
84.12301246139879
 21
40.01166989422452
 31
0.0
  0
LINE
  5
730
330
18
100
AcDbEntity
  8
外形線
100
AcDbLine
 10
77.72301246139869
 20
53.21166989422448
 30
0.0
 11
85.52301246139865
 21
53.21166989422448
 31
0.0
  0
LINE
  5
731
330
18
100
AcDbEntity
  8
外形線
100
AcDbLine
 10
78.57301246139872
 20
51.21166989422445
 30
0.0
 11
84.67301246139873
 21
51.21166989422448
 31
0.0
  0
LINE
  5
732
330
18
100
AcDbEntity
  8
外形線
100
AcDbLine
 10
78.37301246139867
 20
52.01166989422446
 30
0.0
 11
84.87301246139878
 21
52.0116698942245
 31
0.0
  0
LINE
  5
736
330
18
100
AcDbEntity
  8
外形線
100
AcDbLine
 10
78.37301246139867
 20
52.01166989422446
 30
0.0
 11
78.37301246139873
 21
51.41166989422444
 31
0.0
  0
LINE
  5
73F
330
18
100
AcDbEntity
  8
外形線
100
AcDbLine
 10
78.37301246139873
 20
51.41166989422444
 30
0.0
 11
78.57301246139872
 21
51.21166989422445
 31
0.0
  0
LINE
  5
741
330
18
100
AcDbEntity
  8
外形線
100
AcDbLine
 10
79.62301246139873
 20
51.21166989422452
 30
0.0
 11
79.62301246139873
 21
45.21166989422451
 31
0.0
  0
ARC
  5
742
330
18
100
AcDbEntity
  8
外形線
100
AcDbCircle
 10
77.92301246139851
 20
52.54786015896264
 30
0.0
 40
0.7
100
AcDbArc
 50
310.0052008848602
 51
71.49566077351135
  0
LINE
  5
743
330
18
100
AcDbEntity
  8
外形線
100
AcDbLine
 10
77.72301246139861
 20
56.21166989422448
 30
0.0
 11
77.72301246139869
 21
53.21166989422448
 31
0.0
  0
LINE
  5
745
330
18
100
AcDbEntity
  8
外形線
100
AcDbLine
 10
84.87301246139878
 20
52.0116698942245
 30
0.0
 11
84.87301246139873
 21
51.41166989422448
 31
0.0
  0
LINE
  5
74E
330
18
100
AcDbEntity
  8
外形線
 48
0.5
100
AcDbLine
 10
84.67301246139873
 20
51.21166989422448
 30
0.0
 11
84.87301246139873
 21
51.41166989422448
 31
0.0
  0
LINE
  5
750
330
18
100
AcDbEntity
  8
外形線
100
AcDbLine
 10
83.62301246139862
 20
51.21166989422452
 30
0.0
 11
83.62301246139862
 21
45.21166989422451
 31
0.0
  0
LINE
  5
751
330
18
100
AcDbEntity
  8
外形線
100
AcDbLine
 10
85.52301246139856
 20
56.21166989422444
 30
0.0
 11
85.52301246139865
 21
53.21166989422448
 31
0.0
  0
ARC
  5
752
330
18
100
AcDbEntity
  8
外形線
100
AcDbCircle
 10
85.32301246139883
 20
52.54786015896264
 30
0.0
 40
0.7
100
AcDbArc
 50
108.5043392264886
 51
229.9947991151398
  0
LINE
  5
759
330
18
100
AcDbEntity
  8
外形線
100
AcDbLine
 10
81.62301246139866
 20
150.9116698942244
 30
0.0
 11
91.87301246139872
 21
150.9116698942245
 31
0.0
  0
LINE
  5
767
330
18
100
AcDbEntity
  8
中心線
 48
0.5
100
AcDbLine
 10
58.50438559078205
 20
151.7459611534501
 30
0.0
 11
64.8701936344273
 21
127.9884421033354
 31
0.0
  0
LINE
  5
771
330
18
100
AcDbEntity
  8
外形線
100
AcDbLine
 10
71.87301246139873
 20
140.9116698942244
 30
0.0
 11
91.37301246139873
 21
140.9116698942245
 31
0.0
  0
LINE
  5
772
330
18
100
AcDbEntity
  8
外形線
100
AcDbLine
 10
91.87301246139872
 20
150.9116698942245
 30
0.0
 11
91.87301246139872
 21
143.4116698942244
 31
0.0
  0
LINE
  5
773
330
18
100
AcDbEntity
  8
外形線
100
AcDbLine
 10
82.12301246139873
 20
143.4116698942244
 30
0.0
 11
83.62301246139873
 21
143.4116698942244
 31
0.0
  0
LINE
  5
774
330
18
100
AcDbEntity
  8
外形線
100
AcDbLine
 10
82.12301246139873
 20
150.9116698942244
 30
0.0
 11
82.12301246139873
 21
143.4116698942244
 31
0.0
  0
LINE
  5
775
330
18
100
AcDbEntity
  8
外形線
100
AcDbLine
 10
83.62301246139873
 20
150.9116698942245
 30
0.0
 11
83.62301246139873
 21
143.4116698942244
 31
0.0
  0
LINE
  5
776
330
18
100
AcDbEntity
  8
外形線
100
AcDbLine
 10
84.62301246139873
 20
150.9116698942245
 30
0.0
 11
84.62301246139876
 21
143.4116698942244
 31
0.0
  0
LINE
  5
777
330
18
100
AcDbEntity
  8
外形線
100
AcDbLine
 10
86.12301246139873
 20
150.9116698942245
 30
0.0
 11
86.12301246139873
 21
143.4116698942244
 31
0.0
  0
LINE
  5
778
330
18
100
AcDbEntity
  8
外形線
100
AcDbLine
 10
87.12301246139873
 20
150.9116698942245
 30
0.0
 11
87.12301246139873
 21
143.4116698942244
 31
0.0
  0
LINE
  5
779
330
18
100
AcDbEntity
  8
外形線
100
AcDbLine
 10
88.62301246139873
 20
150.9116698942245
 30
0.0
 11
88.62301246139878
 21
143.4116698942244
 31
0.0
  0
LINE
  5
77A
330
18
100
AcDbEntity
  8
外形線
100
AcDbLine
 10
89.62301246139873
 20
150.9116698942245
 30
0.0
 11
89.62301246139873
 21
143.4116698942244
 31
0.0
  0
LINE
  5
77C
330
18
100
AcDbEntity
  8
外形線
100
AcDbLine
 10
81.62301246139879
 20
150.9116698942244
 30
0.0
 11
71.37301246139873
 21
150.9116698942245
 31
0.0
  0
LINE
  5
77D
330
18
100
AcDbEntity
  8
外形線
100
AcDbLine
 10
81.12301246139873
 20
143.4116698942244
 30
0.0
 11
79.62301246139873
 21
143.4116698942244
 31
0.0
  0
LINE
  5
77E
330
18
100
AcDbEntity
  8
外形線
100
AcDbLine
 10
77.12301246139873
 20
150.9116698942245
 30
0.0
 11
77.12301246139873
 21
143.4116698942244
 31
0.0
  0
LINE
  5
77F
330
18
100
AcDbEntity
  8
外形線
100
AcDbLine
 10
78.62301246139873
 20
150.9116698942245
 30
0.0
 11
78.6230124613987
 21
143.4116698942244
 31
0.0
  0
LINE
  5
780
330
18
100
AcDbEntity
  8
外形線
100
AcDbLine
 10
79.62301246139873
 20
150.9116698942245
 30
0.0
 11
79.62301246139873
 21
143.4116698942244
 31
0.0
  0
LINE
  5
781
330
18
100
AcDbEntity
  8
外形線
100
AcDbLine
 10
81.12301246139873
 20
150.9116698942244
 30
0.0
 11
81.12301246139873
 21
143.4116698942244
 31
0.0
  0
LINE
  5
782
330
18
100
AcDbEntity
  8
外形線
100
AcDbLine
 10
73.62301246139873
 20
150.9116698942245
 30
0.0
 11
73.62301246139873
 21
143.4116698942244
 31
0.0
  0
LINE
  5
783
330
18
100
AcDbEntity
  8
外形線
100
AcDbLine
 10
74.62301246139873
 20
150.9116698942245
 30
0.0
 11
74.62301246139867
 21
143.4116698942244
 31
0.0
  0
LINE
  5
784
330
18
100
AcDbEntity
  8
外形線
100
AcDbLine
 10
76.12301246139873
 20
150.9116698942245
 30
0.0
 11
76.12301246139873
 21
143.4116698942244
 31
0.0
  0
LINE
  5
785
330
18
100
AcDbEntity
  8
外形線
100
AcDbLine
 10
71.37301246139873
 20
150.9116698942245
 30
0.0
 11
71.37301246139873
 21
143.4116698942244
 31
0.0
  0
LINE
  5
786
330
18
100
AcDbEntity
  8
外形線
100
AcDbLine
 10
89.62301246139876
 20
143.4116698942244
 30
0.0
 11
91.87301246139872
 21
143.4116698942244
 31
0.0
  0
LINE
  5
787
330
18
100
AcDbEntity
  8
外形線
100
AcDbLine
 10
87.12301246139873
 20
143.4116698942244
 30
0.0
 11
88.62301246139878
 21
143.4116698942244
 31
0.0
  0
LINE
  5
788
330
18
100
AcDbEntity
  8
外形線
100
AcDbLine
 10
84.62301246139876
 20
143.4116698942244
 30
0.0
 11
86.12301246139873
 21
143.4116698942244
 31
0.0
  0
LINE
  5
789
330
18
100
AcDbEntity
  8
外形線
100
AcDbLine
 10
78.6230124613987
 20
143.4116698942244
 30
0.0
 11
77.12301246139873
 21
143.4116698942244
 31
0.0
  0
LINE
  5
78A
330
18
100
AcDbEntity
  8
外形線
100
AcDbLine
 10
76.12301246139873
 20
143.4116698942244
 30
0.0
 11
74.62301246139867
 21
143.4116698942244
 31
0.0
  0
LINE
  5
78B
330
18
100
AcDbEntity
  8
外形線
100
AcDbLine
 10
73.62301246139873
 20
143.4116698942244
 30
0.0
 11
71.37301246139873
 21
143.4116698942244
 31
0.0
  0
LINE
  5
78C
330
18
100
AcDbEntity
  8
外形線
100
AcDbLine
 10
91.37301246139873
 20
143.4116698942244
 30
0.0
 11
91.37301246139873
 21
140.4116698942245
 31
0.0
  0
LINE
  5
78D
330
18
100
AcDbEntity
  8
外形線
100
AcDbLine
 10
71.87301246139873
 20
143.4116698942247
 30
0.0
 11
71.87301246139873
 21
140.4116698942244
 31
0.0
  0
LINE
  5
7A8
330
18
100
AcDbEntity
  8
想像線
 48
0.3
100
AcDbLine
 10
81.62301246139874
 20
165.9116698942244
 30
0.0
 11
88.62301246139873
 21
165.9116698942244
 31
0.0
  0
LINE
  5
7A9
330
18
100
AcDbEntity
  8
想像線
 48
0.3
100
AcDbLine
 10
81.6230124613985
 20
185.9116698942244
 30
0.0
 11
83.72275071537018
 21
185.9116698942244
 31
0.0
  0
LINE
  5
7AA
330
18
100
AcDbEntity
  8
想像線
 48
0.3
100
AcDbLine
 10
88.62301246139873
 20
165.9116698942244
 30
0.0
 11
90.62301246139872
 21
150.9116698942245
 31
0.0
  0
LINE
  5
7AC
330
18
100
AcDbEntity
  8
想像線
 48
0.3
100
AcDbLine
 10
84.71725616829159
 20
185.0163546787425
 30
0.0
 11
86.62301246139874
 21
166.9116698942244
 31
0.0
  0
ARC
  5
7AD
330
18
100
AcDbEntity
  8
想像線
 48
0.3
100
AcDbCircle
 10
87.62301246139873
 20
166.9116698942244
 30
0.0
 40
1.0
100
AcDbArc
 50
180.0
 51
270.0
  0
ARC
  5
7AF
330
18
100
AcDbEntity
  8
想像線
 48
0.3
100
AcDbCircle
 10
83.72275071537018
 20
184.9116698942244
 30
0.0
 40
1.0
100
AcDbArc
 50
6.009005957494516
 51
90.0000000000003
  0
LINE
  5
7B0
330
18
100
AcDbEntity
  8
想像線
 48
0.3
100
AcDbLine
 10
74.62301246139873
 20
165.9116698942244
 30
0.0
 11
72.62301246139873
 21
150.9116698942245
 31
0.0
  0
LINE
  5
7B1
330
18
100
AcDbEntity
  8
想像線
 48
0.3
100
AcDbLine
 10
78.52876875450587
 20
185.0163546787425
 30
0.0
 11
76.62301246139873
 21
166.9116698942244
 31
0.0
  0
LINE
  5
7B2
330
18
100
AcDbEntity
  8
想像線
 48
0.3
100
AcDbLine
 10
81.62301246139874
 20
165.9116698942244
 30
0.0
 11
74.62301246139873
 21
165.9116698942244
 31
0.0
  0
ARC
  5
7B3
330
18
100
AcDbEntity
  8
想像線
 48
0.3
100
AcDbCircle
 10
75.62301246139873
 20
166.9116698942244
 30
0.0
 40
1.0
100
AcDbArc
 50
270.0
 51
0.000000000000007
  0
ARC
  5
7B4
330
18
100
AcDbEntity
  8
想像線
 48
0.3
100
AcDbCircle
 10
79.52327420742728
 20
184.9116698942244
 30
0.0
 40
1.0
100
AcDbArc
 50
89.99999999999969
 51
173.9909940425054
  0
LINE
  5
7B5
330
18
100
AcDbEntity
  8
想像線
 48
0.3
100
AcDbLine
 10
81.62301246139895
 20
185.9116698942244
 30
0.0
 11
79.52327420742728
 21
185.9116698942244
 31
0.0
  0
CIRCLE
  5
7B7
330
18
100
AcDbEntity
  8
想像線
 48
0.3
100
AcDbCircle
 10
81.62301246139874
 20
160.4116698942244
 30
0.0
 40
4.5
  0
LINE
  5
7E3
330
18
100
AcDbEntity
  8
外形線
100
AcDbLine
 10
77.62301246139873
 20
56.21166989422448
 30
0.0
 11
85.62301246139872
 21
56.21166989422445
 31
0.0
  0
LINE
  5
7E4
330
18
100
AcDbEntity
  8
外形線
100
AcDbLine
 10
85.62301246139872
 20
56.21166989422445
 30
0.0
 11
85.62301246139872
 21
72.25166989422447
 31
0.0
  0
LINE
  5
7E5
330
18
100
AcDbEntity
  8
外形線
100
AcDbLine
 10
77.62301246139873
 20
56.21166989422445
 30
0.0
 11
77.62301246139873
 21
72.25166989422447
 31
0.0
  0
LINE
  5
7F4
330
18
100
AcDbEntity
  8
外形線
100
AcDbLine
 10
163.3182933947826
 20
140.4116698942245
 30
0.0
 11
163.3182933947825
 21
72.25166989422446
 31
0.0
  0
LINE
  5
7F5
330
18
100
AcDbEntity
  8
中心線
 48
0.6
100
AcDbLine
 10
153.1785341756459
 20
106.4116698942245
 30
0.0
 11
185.8221758665191
 21
106.4116698942245
 31
0.0
  0
LINE
  5
7F6
330
18
100
AcDbEntity
  8
外形線
100
AcDbLine
 10
161.3182933947826
 20
140.4116698942245
 30
0.0
 11
165.3182933947826
 21
140.4116698942245
 31
0.0
  0
LINE
  5
7F7
330
18
100
AcDbEntity
  8
外形線
100
AcDbLine
 10
161.3182933947826
 20
72.25166989422447
 30
0.0
 11
178.8182933947826
 21
72.25166989422447
 31
0.0
  0
ARC
  5
7FA
330
18
100
AcDbEntity
  8
外形線
100
AcDbCircle
 10
353.3926933947827
 20
106.3316698942244
 30
0.0
 40
195.0744000000001
100
AcDbArc
 50
169.9386497180784
 51
184.7877421798614
  0
LINE
  5
802
330
18
100
AcDbEntity
  8
外形線
100
AcDbLine
 10
163.8182933947826
 20
140.4116698942245
 30
0.0
 11
163.8182933947825
 21
72.25166989422446
 31
0.0
  0
LINE
  5
804
330
18
100
AcDbEntity
  8
外形線
100
AcDbLine
 10
178.8182933947826
 20
140.4116698942245
 30
0.0
 11
178.8182933947826
 21
72.25166989422447
 31
0.0
  0
LINE
  5
805
330
18
100
AcDbEntity
  8
外形線
100
AcDbLine
 10
163.8182933947826
 20
131.2122689430258
 30
0.0
 11
178.8182933947826
 21
131.2122689430258
 31
0.0
  0
LINE
  5
806
330
18
100
AcDbEntity
  8
外形線
100
AcDbLine
 10
163.8182933947825
 20
83.102558848772
 30
0.0
 11
178.8182933947826
 21
83.10255884877207
 31
0.0
  0
LINE
  5
810
330
18
100
AcDbEntity
  8
中心線
 48
0.6
100
AcDbLine
 10
169.8182933947826
 20
150.1460308284793
 30
0.0
 11
169.8182933947826
 21
31.0797331474509
 31
0.0
  0
LINE
  5
811
330
18
100
AcDbEntity
  8
外形線
100
AcDbLine
 10
179.8182933947825
 20
129.4116698942245
 30
0.0
 11
179.8182933947826
 21
83.41166989422447
 31
0.0
  0
ELLIPSE
  5
82A
330
18
100
AcDbEntity
  8
外形線
100
AcDbEllipse
 10
169.8182933947826
 20
147.1318730016573
 30
0.0
 11
-4.0
 21
0.0
 31
0.0
210
0.0
220
0.0
230
1.0
 40
0.258819045102527
 41
0.0
 42
6.283185307179586
  0
ELLIPSE
  5
830
330
18
100
AcDbEntity
  8
外形線
100
AcDbEllipse
 10
169.8182933947826
 20
146.6489100885128
 30
0.0
 11
-4.5
 21
0.0
 31
0.0
210
0.0
220
0.0
230
1.0
 40
0.2588190451025222
 41
0.0
 42
3.141592653589793
  0
LINE
  5
831
330
18
100
AcDbEntity
  8
外形線
100
AcDbLine
 10
165.3182933947826
 20
146.6489100885128
 30
0.0
 11
165.8570861747958
 21
147.275706865274
 31
0.0
  0
LINE
  5
832
330
18
100
AcDbEntity
  8
外形線
100
AcDbLine
 10
174.3182933947826
 20
146.6489100885128
 30
0.0
 11
173.7795006147693
 21
147.275706865274
 31
0.0
  0
LINE
  5
835
330
18
100
AcDbEntity
  8
外形線
100
AcDbLine
 10
174.3182933947826
 20
146.648910088513
 30
0.0
 11
174.3182933947826
 21
140.3703922176337
 31
0.0
  0
LINE
  5
836
330
18
100
AcDbEntity
  8
外形線
100
AcDbLine
 10
165.3182933947826
 20
146.6489100885123
 30
0.0
 11
165.3182933947826
 21
140.3703922176337
 31
0.0
  0
ELLIPSE
  5
837
330
18
100
AcDbEntity
  8
外形線
100
AcDbEllipse
 10
169.8182933947826
 20
140.3703922176337
 30
0.0
 11
-4.499999999999971
 21
0.0000000000000284
 31
0.0
210
0.0
220
0.0
230
1.0
 40
0.2588190451024986
 41
0.0
 42
3.141592653589793
  0
LINE
  5
838
330
18
100
AcDbEntity
  8
外形線
100
AcDbLine
 10
174.3182933947825
 20
140.4116698942244
 30
0.0
 11
178.8182933947826
 21
140.4116698942245
 31
0.0
  0
LINE
  5
84A
330
18
100
AcDbEntity
  8
外形線
100
AcDbLine
 10
173.8182933947826
 20
139.8368230871944
 30
0.0
 11
173.8182933947826
 21
139.2168411709927
 31
0.0
  0
LINE
  5
84D
330
18
100
AcDbEntity
  8
外形線
100
AcDbLine
 10
165.8182933947825
 20
139.836823087194
 30
0.0
 11
165.8182933947825
 21
139.2168411709922
 31
0.0
  0
LINE
  5
852
330
18
100
AcDbEntity
  8
外形線
100
AcDbLine
 10
174.3182933947826
 20
139.1277113552975
 30
0.0
 11
174.3182933947826
 21
136.5066889124778
 31
0.0
  0
LINE
  5
853
330
18
100
AcDbEntity
  8
外形線
100
AcDbLine
 10
165.3182933947826
 20
139.1277113552968
 30
0.0
 11
165.3182933947826
 21
136.5066889124771
 31
0.0
  0
ELLIPSE
  5
855
330
18
100
AcDbEntity
  8
外形線
100
AcDbEllipse
 10
169.8182933947826
 20
139.1277113552973
 30
0.0
 11
-4.5
 21
0.0
 31
0.0
210
0.0
220
0.0
230
1.0
 40
0.2588190451025159
 41
-0.4758822496603723
 42
3.617474903250253
  0
ELLIPSE
  5
857
330
18
100
AcDbEntity
  8
外形線
100
AcDbEllipse
 10
169.8182933947826
 20
136.5066889124775
 30
0.0
 11
-4.5
 21
0.0
 31
0.0
210
0.0
220
0.0
230
1.0
 40
0.2588190451025159
 41
0.0
 42
3.141592653589793
  0
ELLIPSE
  5
85B
330
18
100
AcDbEntity
  8
外形線
100
AcDbEllipse
 10
169.8182933947826
 20
139.750410301432
 30
0.0
 11
-4.5
 21
0.0
 31
0.0
210
0.0
220
0.0
230
1.0
 40
0.2588190451025159
 41
0.4758822496604608
 42
2.66571040392942
  0
ELLIPSE
  5
861
330
18
100
AcDbEntity
  8
外形線
100
AcDbEllipse
 10
169.8182933947826
 20
132.295392656013
 30
0.0
 11
-3.0
 21
0.0
 31
0.0
210
0.0
220
0.0
230
1.0
 40
0.2449955737995519
 41
0.0
 42
3.141592653589793
  0
LINE
  5
862
330
18
100
AcDbEntity
  8
外形線
100
AcDbLine
 10
172.8182933947826
 20
135.6385834443965
 30
0.0
 11
172.8182933947826
 21
132.2953926560132
 31
0.0
  0
LINE
  5
863
330
18
100
AcDbEntity
  8
外形線
100
AcDbLine
 10
166.8182933947826
 20
135.6385834443962
 30
0.0
 11
166.8182933947826
 21
132.2953926560127
 31
0.0
  0
ARC
  5
865
330
18
100
AcDbEntity
  8
外形線
100
AcDbCircle
 10
352.4849600614493
 20
106.4116698942245
 30
0.0
 40
193.0666666666667
100
AcDbArc
 50
172.6196122596948
 51
186.9342863464043
  0
ARC
  5
866
330
18
100
AcDbEntity
  8
外形線
100
AcDbCircle
 10
172.0174358761599
 20
134.612497653579
 30
0.0
 40
11.51317676456242
100
AcDbArc
 50
172.7049379092088
 51
197.1775465671375
  0
ARC
  5
867
330
18
100
AcDbEntity
  8
外形線
100
AcDbCircle
 10
172.6915977099296
 20
79.53395382205508
 30
0.0
 40
12.38628383968187
100
AcDbArc
 50
163.2551965685733
 51
186.0197151914278
  0
LINE
  5
86A
330
18
100
AcDbEntity
  8
外形線
100
AcDbLine
 10
178.8182933947826
 20
129.4116698942244
 30
0.0
 11
179.8182933947825
 21
129.4116698942245
 31
0.0
  0
LINE
  5
86B
330
18
100
AcDbEntity
  8
外形線
100
AcDbLine
 10
178.8182933947826
 20
83.41166989422447
 30
0.0
 11
179.8182933947826
 21
83.41166989422447
 31
0.0
  0
LINE
  5
86C
330
18
100
AcDbEntity
  8
外形線
100
AcDbLine
 10
173.7182933947824
 20
56.21166989422444
 30
0.0
 11
173.7182933947825
 21
53.21166989422448
 31
0.0
  0
LINE
  5
86D
330
18
100
AcDbEntity
  8
外形線
100
AcDbLine
 10
165.9182933947825
 20
56.21166989422448
 30
0.0
 11
165.9182933947825
 21
53.21166989422448
 31
0.0
  0
LINE
  5
86E
330
18
100
AcDbEntity
  8
外形線
100
AcDbLine
 10
173.3182933947823
 20
43.1616698942245
 30
0.0
 11
172.2966073478724
 21
43.96666989422451
 31
0.0
  0
LINE
  5
86F
330
18
100
AcDbEntity
  8
外形線
100
AcDbLine
 10
166.3182933947828
 20
43.1616698942245
 30
0.0
 11
167.3399794416928
 21
43.96666989422451
 31
0.0
  0
LINE
  5
870
330
18
100
AcDbEntity
  8
外形線
100
AcDbLine
 10
167.8182933947826
 20
51.21166989422447
 30
0.0
 11
167.8182933947826
 21
41.41166989422447
 31
0.0
  0
LINE
  5
871
330
18
100
AcDbEntity
  8
外形線
100
AcDbLine
 10
171.8182933947826
 20
51.21166989422447
 30
0.0
 11
171.8182933947826
 21
41.41166989422447
 31
0.0
  0
LINE
  5
872
330
18
100
AcDbEntity
  8
外形線
100
AcDbLine
 10
167.2774939321311
 20
42.40590305674948
 30
0.0
 11
166.3182933947828
 21
43.1616698942245
 31
0.0
  0
LINE
  5
873
330
18
100
AcDbEntity
  8
外形線
100
AcDbLine
 10
172.3182933947826
 20
38.81166989422451
 30
0.0
 11
172.3182933947826
 21
37.9116698942245
 31
0.0
  0
LINE
  5
874
330
18
100
AcDbEntity
  8
外形線
100
AcDbLine
 10
167.3182933947825
 20
38.81166989422451
 30
0.0
 11
167.3182933947825
 21
37.9116698942245
 31
0.0
  0
LINE
  5
875
330
18
100
AcDbEntity
  8
中心線
100
AcDbLine
 10
169.4678120423164
 20
37.91166989422448
 30
0.0
 11
169.8182933947826
 21
38.51872140380144
 31
0.0
  0
LINE
  5
876
330
18
100
AcDbEntity
  8
中心線
100
AcDbLine
 10
168.3131115039372
 20
37.9116698942245
 30
0.0
 11
168.8327267462078
 21
38.81166989422448
 31
0.0
  0
LINE
  5
877
330
18
100
AcDbEntity
  8
中心線
100
AcDbLine
 10
168.2276404599275
 20
37.91166989422453
 30
0.0
 11
167.7080252176569
 21
38.81166989422448
 31
0.0
  0
LINE
  5
878
330
18
100
AcDbEntity
  8
中心線
100
AcDbLine
 10
169.3823409983067
 20
37.91166989422456
 30
0.0
 11
168.862725756036
 21
38.81166989422448
 31
0.0
  0
LINE
  5
879
330
18
100
AcDbEntity
  8
中心線
100
AcDbLine
 10
167.7357612347476
 20
37.91166989422453
 30
0.0
 11
168.2553764770182
 21
38.81166989422448
 31
0.0
  0
LINE
  5
87A
330
18
100
AcDbEntity
  8
中心線
100
AcDbLine
 10
168.8904617731269
 20
37.91166989422456
 30
0.0
 11
169.4100770153975
 21
38.81166989422448
 31
0.0
  0
LINE
  5
87B
330
18
100
AcDbEntity
  8
中心線
100
AcDbLine
 10
168.8049907291171
 20
37.91166989422456
 30
0.0
 11
168.2853754868465
 21
38.81166989422448
 31
0.0
  0
LINE
  5
87C
330
18
100
AcDbEntity
  8
中心線
100
AcDbLine
 10
167.6502901907379
 20
37.9116698942245
 30
0.0
 11
167.3182933947826
 21
38.48670521276921
 31
0.0
  0
ARC
  5
87D
330
18
100
AcDbEntity
  8
外形線
100
AcDbCircle
 10
169.8182933947826
 20
33.56166989422448
 30
0.0
 40
1.149999999999999
100
AcDbArc
 50
187.494717453927
 51
352.5052825460744
  0
LINE
  5
87E
330
18
100
AcDbEntity
  8
外形線
100
AcDbLine
 10
168.5182933947826
 20
33.41166989422447
 30
0.0
 11
171.1182933947825
 21
33.4116698942245
 31
0.0
  0
LINE
  5
87F
330
18
100
AcDbEntity
  8
外形線
100
AcDbLine
 10
167.3182933947825
 20
37.9116698942245
 30
0.0
 11
172.3182933947826
 21
37.9116698942245
 31
0.0
  0
POINT
  5
880
330
18
100
AcDbEntity
  8
DEFPOINTS
  6
ByBlock
 62
     0
100
AcDbPoint
 10
169.8182933947826
 20
32.41166989422448
 30
0.0
  0
LINE
  5
881
330
18
100
AcDbEntity
  8
外形線
100
AcDbLine
 10
167.3182933947825
 20
37.9116698942245
 30
0.0
 11
168.5182933947826
 21
33.4116698942245
 31
0.0
  0
LINE
  5
882
330
18
100
AcDbEntity
  8
外形線
100
AcDbLine
 10
172.3182933947826
 20
37.9116698942245
 30
0.0
 11
171.1182933947825
 21
33.4116698942245
 31
0.0
  0
LINE
  5
883
330
18
100
AcDbEntity
  8
外形線
100
AcDbLine
 10
167.3182933947825
 20
40.9116698942245
 30
0.0
 11
172.3182933947826
 21
40.9116698942245
 31
0.0
  0
LINE
  5
884
330
18
100
AcDbEntity
  8
外形線
100
AcDbLine
 10
167.3182933947825
 20
40.0116698942245
 30
0.0
 11
172.3182933947826
 21
40.0116698942245
 31
0.0
  0
LINE
  5
885
330
18
100
AcDbEntity
  8
外形線
100
AcDbLine
 10
167.3182933947825
 20
38.81166989422451
 30
0.0
 11
172.3182933947826
 21
38.81166989422451
 31
0.0
  0
LINE
  5
886
330
18
100
AcDbEntity
  8
外形線
100
AcDbLine
 10
166.9182933947826
 20
39.71166989422457
 30
0.0
 11
172.7182933947825
 21
39.71166989422457
 31
0.0
  0
LINE
  5
887
330
18
100
AcDbEntity
  8
外形線
100
AcDbLine
 10
167.6182933947825
 20
41.41166989422447
 30
0.0
 11
172.0182933947826
 21
41.41166989422447
 31
0.0
  0
LINE
  5
888
330
18
100
AcDbEntity
  8
外形線
100
AcDbLine
 10
167.3182933947825
 20
40.9116698942245
 30
0.0
 11
167.3182933947825
 21
40.01166989422452
 31
0.0
  0
ARC
  5
889
330
18
100
AcDbEntity
  8
外形線
100
AcDbCircle
 10
166.9577382672362
 20
39.41166989422445
 30
0.0
 40
0.7
100
AcDbArc
 50
301.0027191338767
 51
58.99728086613252
  0
LINE
  5
88A
330
18
100
AcDbEntity
  8
中心線
100
AcDbLine
 10
167.3182933947826
 20
38.188594384879
 30
0.0
 11
167.6780262078286
 21
38.81166989422448
 31
0.0
  0
LINE
  5
88B
330
18
100
AcDbEntity
  8
中心線
100
AcDbLine
 10
169.8182933947826
 20
38.15657819384666
 30
0.0
 11
169.4400760252256
 21
38.81166989422448
 31
0.0
  0
LINE
  5
88C
330
18
100
AcDbEntity
  8
中心線
100
AcDbLine
 10
169.4678120423162
 20
40.01166989422452
 30
0.0
 11
169.8182933947824
 21
40.61872140380148
 31
0.0
  0
LINE
  5
88D
330
18
100
AcDbEntity
  8
中心線
100
AcDbLine
 10
169.8182933947824
 20
40.25657819384671
 30
0.0
 11
169.4400760252255
 21
40.91166989422453
 31
0.0
  0
LINE
  5
88E
330
18
100
AcDbEntity
  8
中心線
100
AcDbLine
 10
167.6502901907378
 20
40.01166989422455
 30
0.0
 11
167.3182933947825
 21
40.58670521276925
 31
0.0
  0
LINE
  5
88F
330
18
100
AcDbEntity
  8
中心線
100
AcDbLine
 10
168.8904617731268
 20
40.0116698942246
 30
0.0
 11
169.4100770153974
 21
40.91166989422453
 31
0.0
  0
LINE
  5
890
330
18
100
AcDbEntity
  8
中心線
100
AcDbLine
 10
167.7357612347475
 20
40.01166989422458
 30
0.0
 11
168.2553764770181
 21
40.91166989422453
 31
0.0
  0
LINE
  5
891
330
18
100
AcDbEntity
  8
中心線
100
AcDbLine
 10
168.3131115039371
 20
40.01166989422455
 30
0.0
 11
168.8327267462077
 21
40.91166989422453
 31
0.0
  0
LINE
  5
892
330
18
100
AcDbEntity
  8
中心線
100
AcDbLine
 10
168.804990729117
 20
40.0116698942246
 30
0.0
 11
168.2853754868463
 21
40.91166989422453
 31
0.0
  0
LINE
  5
893
330
18
100
AcDbEntity
  8
中心線
100
AcDbLine
 10
168.2276404599274
 20
40.01166989422458
 30
0.0
 11
167.7080252176567
 21
40.91166989422453
 31
0.0
  0
LINE
  5
894
330
18
100
AcDbEntity
  8
中心線
100
AcDbLine
 10
169.3823409983066
 20
40.0116698942246
 30
0.0
 11
168.8627257560359
 21
40.91166989422453
 31
0.0
  0
LINE
  5
895
330
18
100
AcDbEntity
  8
中心線
100
AcDbLine
 10
167.3182933947825
 20
40.28859438487905
 30
0.0
 11
167.6780262078285
 21
40.91166989422453
 31
0.0
  0
LINE
  5
896
330
18
100
AcDbEntity
  8
外形線
 48
0.5
100
AcDbLine
 10
166.9182933947826
 20
41.71166989422454
 30
0.0
 11
166.9182933947826
 21
39.71166989422457
 31
0.0
  0
LINE
  5
897
330
18
100
AcDbEntity
  8
外形線
100
AcDbLine
 10
166.9182933947826
 20
41.71166989422454
 30
0.0
 11
167.2774939321311
 21
42.40590305674948
 31
0.0
  0
LINE
  5
898
330
18
100
AcDbEntity
  8
外形線
100
AcDbLine
 10
167.6182933947825
 20
41.41166989422447
 30
0.0
 11
167.6182933947825
 21
40.91166989422447
 31
0.0
  0
LINE
  5
899
330
18
100
AcDbEntity
  8
外形線
100
AcDbLine
 10
172.3182933947826
 20
40.9116698942245
 30
0.0
 11
172.3182933947826
 21
40.01166989422452
 31
0.0
  0
ARC
  5
89A
330
18
100
AcDbEntity
  8
外形線
100
AcDbCircle
 10
172.6788485223289
 20
39.41166989422445
 30
0.0
 40
0.7
100
AcDbArc
 50
121.0027191338674
 51
238.9972808661233
  0
LINE
  5
89B
330
18
100
AcDbEntity
  8
外形線
 48
0.5
100
AcDbLine
 10
172.7182933947825
 20
41.71166989422454
 30
0.0
 11
172.7182933947825
 21
39.71166989422457
 31
0.0
  0
LINE
  5
89C
330
18
100
AcDbEntity
  8
外形線
100
AcDbLine
 10
172.3590928574339
 20
42.40590305674948
 30
0.0
 11
173.3182933947823
 21
43.1616698942245
 31
0.0
  0
LINE
  5
89D
330
18
100
AcDbEntity
  8
外形線
100
AcDbLine
 10
172.7182933947825
 20
41.71166989422454
 30
0.0
 11
172.3590928574339
 21
42.40590305674948
 31
0.0
  0
LINE
  5
89E
330
18
100
AcDbEntity
  8
外形線
100
AcDbLine
 10
172.0182933947826
 20
41.41166989422447
 30
0.0
 11
172.0182933947826
 21
40.91166989422447
 31
0.0
  0
ARC
  5
89F
330
18
100
AcDbEntity
  8
外形線
100
AcDbCircle
 10
166.1182933947823
 20
52.54786015896264
 30
0.0
 40
0.7
100
AcDbArc
 50
310.0052008848602
 51
71.49566077351135
  0
LINE
  5
8A0
330
18
100
AcDbEntity
  8
外形線
100
AcDbLine
 10
166.3182933947828
 20
44.77166989422451
 30
0.0
 11
167.3399794416928
 21
45.57666989422452
 31
0.0
  0
LINE
  5
8A1
330
18
100
AcDbEntity
  8
外形線
100
AcDbLine
 10
166.3182933947828
 20
46.3816698942245
 30
0.0
 11
167.3399794416928
 21
47.18666989422451
 31
0.0
  0
LINE
  5
8A2
330
18
100
AcDbEntity
  8
外形線
100
AcDbLine
 10
167.3399794416928
 20
45.57666989422449
 30
0.0
 11
166.3182933947828
 21
46.3816698942245
 31
0.0
  0
LINE
  5
8A3
330
18
100
AcDbEntity
  8
外形線
100
AcDbLine
 10
166.3182933947828
 20
47.99166989422452
 30
0.0
 11
167.3399794416928
 21
48.79666989422452
 31
0.0
  0
LINE
  5
8A4
330
18
100
AcDbEntity
  8
外形線
100
AcDbLine
 10
167.3399794416928
 20
47.18666989422451
 30
0.0
 11
166.3182933947828
 21
47.99166989422452
 31
0.0
  0
LINE
  5
8A5
330
18
100
AcDbEntity
  8
外形線
100
AcDbLine
 10
166.3182933947828
 20
49.6016698942245
 30
0.0
 11
167.3399794416928
 21
50.40666989422451
 31
0.0
  0
LINE
  5
8A6
330
18
100
AcDbEntity
  8
外形線
100
AcDbLine
 10
167.3399794416928
 20
48.7966698942245
 30
0.0
 11
166.3182933947828
 21
49.6016698942245
 31
0.0
  0
LINE
  5
8A7
330
18
100
AcDbEntity
  8
外形線
100
AcDbLine
 10
167.3399794416928
 20
50.40666989422451
 30
0.0
 11
166.3182933947828
 21
51.21166989422452
 31
0.0
  0
LINE
  5
8A8
330
18
100
AcDbEntity
  8
外形線
100
AcDbLine
 10
165.9182933947825
 20
53.21166989422448
 30
0.0
 11
173.7182933947825
 21
53.21166989422448
 31
0.0
  0
LINE
  5
8A9
330
18
100
AcDbEntity
  8
外形線
100
AcDbLine
 10
167.3399794416928
 20
43.96666989422451
 30
0.0
 11
166.3182933947828
 21
44.77166989422451
 31
0.0
  0
LINE
  5
8AA
330
18
100
AcDbEntity
  8
外形線
 48
0.5
100
AcDbLine
 10
166.3182933947827
 20
53.21166989422457
 30
0.0
 11
166.3182933947827
 21
51.21166989422454
 31
0.0
  0
LINE
  5
8AB
330
18
100
AcDbEntity
  8
外形線
100
AcDbLine
 10
171.8182933947824
 20
51.21166989422452
 30
0.0
 11
171.8182933947824
 21
45.21166989422451
 31
0.0
  0
LINE
  5
8AC
330
18
100
AcDbEntity
  8
外形線
100
AcDbLine
 10
173.3182933947823
 20
49.6016698942245
 30
0.0
 11
172.2966073478724
 21
50.40666989422451
 31
0.0
  0
LINE
  5
8AD
330
18
100
AcDbEntity
  8
外形線
100
AcDbLine
 10
167.8182933947826
 20
51.21166989422452
 30
0.0
 11
167.8182933947826
 21
45.21166989422451
 31
0.0
  0
LINE
  5
8AE
330
18
100
AcDbEntity
  8
外形線
100
AcDbLine
 10
172.2966073478724
 20
48.7966698942245
 30
0.0
 11
173.3182933947823
 21
49.6016698942245
 31
0.0
  0
LINE
  5
8AF
330
18
100
AcDbEntity
  8
外形線
100
AcDbLine
 10
172.2966073478724
 20
47.18666989422451
 30
0.0
 11
173.3182933947823
 21
47.99166989422452
 31
0.0
  0
LINE
  5
8B0
330
18
100
AcDbEntity
  8
外形線
100
AcDbLine
 10
173.3182933947823
 20
47.99166989422452
 30
0.0
 11
172.2966073478724
 21
48.79666989422452
 31
0.0
  0
LINE
  5
8B1
330
18
100
AcDbEntity
  8
外形線
100
AcDbLine
 10
172.2966073478724
 20
45.57666989422449
 30
0.0
 11
173.3182933947823
 21
46.3816698942245
 31
0.0
  0
LINE
  5
8B2
330
18
100
AcDbEntity
  8
外形線
100
AcDbLine
 10
173.3182933947823
 20
46.3816698942245
 30
0.0
 11
172.2966073478724
 21
47.18666989422451
 31
0.0
  0
LINE
  5
8B3
330
18
100
AcDbEntity
  8
外形線
100
AcDbLine
 10
173.3182933947823
 20
44.77166989422451
 30
0.0
 11
172.2966073478724
 21
45.57666989422452
 31
0.0
  0
LINE
  5
8B4
330
18
100
AcDbEntity
  8
外形線
100
AcDbLine
 10
172.2966073478724
 20
43.96666989422451
 30
0.0
 11
173.3182933947823
 21
44.77166989422451
 31
0.0
  0
LINE
  5
8B5
330
18
100
AcDbEntity
  8
外形線
100
AcDbLine
 10
166.5682933947825
 20
52.01166989422446
 30
0.0
 11
173.0682933947826
 21
52.0116698942245
 31
0.0
  0
LINE
  5
8B6
330
18
100
AcDbEntity
  8
外形線
100
AcDbLine
 10
166.7682933947826
 20
51.21166989422445
 30
0.0
 11
172.8682933947826
 21
51.21166989422448
 31
0.0
  0
LINE
  5
8B7
330
18
100
AcDbEntity
  8
外形線
100
AcDbLine
 10
166.5682933947826
 20
51.41166989422444
 30
0.0
 11
166.7682933947826
 21
51.21166989422445
 31
0.0
  0
LINE
  5
8B8
330
18
100
AcDbEntity
  8
外形線
100
AcDbLine
 10
166.5682933947825
 20
52.01166989422446
 30
0.0
 11
166.5682933947826
 21
51.41166989422444
 31
0.0
  0
ARC
  5
8B9
330
18
100
AcDbEntity
  8
外形線
100
AcDbCircle
 10
173.5182933947827
 20
52.54786015896264
 30
0.0
 40
0.7
100
AcDbArc
 50
108.5043392264886
 51
229.9947991151398
  0
LINE
  5
8BA
330
18
100
AcDbEntity
  8
外形線
 48
0.5
100
AcDbLine
 10
172.8682933947826
 20
51.21166989422448
 30
0.0
 11
173.0682933947826
 21
51.41166989422448
 31
0.0
  0
LINE
  5
8BB
330
18
100
AcDbEntity
  8
外形線
100
AcDbLine
 10
172.2966073478724
 20
50.40666989422451
 30
0.0
 11
173.3182933947823
 21
51.21166989422452
 31
0.0
  0
LINE
  5
8BC
330
18
100
AcDbEntity
  8
外形線
100
AcDbLine
 10
173.0682933947826
 20
52.0116698942245
 30
0.0
 11
173.0682933947826
 21
51.41166989422448
 31
0.0
  0
LINE
  5
8BD
330
18
100
AcDbEntity
  8
外形線
 48
0.5
100
AcDbLine
 10
173.3182933947826
 20
53.21166989422446
 30
0.0
 11
173.3182933947826
 21
51.2116698942244
 31
0.0
  0
LINE
  5
8BE
330
18
100
AcDbEntity
  8
外形線
100
AcDbLine
 10
165.8182933947825
 20
56.21166989422445
 30
0.0
 11
165.8182933947825
 21
72.25166989422447
 31
0.0
  0
LINE
  5
8BF
330
18
100
AcDbEntity
  8
外形線
100
AcDbLine
 10
173.8182933947826
 20
56.21166989422445
 30
0.0
 11
173.8182933947826
 21
72.25166989422447
 31
0.0
  0
LINE
  5
8C0
330
18
100
AcDbEntity
  8
外形線
100
AcDbLine
 10
165.8182933947825
 20
56.21166989422448
 30
0.0
 11
173.8182933947826
 21
56.21166989422445
 31
0.0
  0
LINE
  5
8C1
330
18
100
AcDbEntity
  8
外形線
100
AcDbLine
 10
165.9182933947825
 20
55.71166989422448
 30
0.0
 11
173.7182933947824
 21
55.71166989422446
 31
0.0
  0
DIMENSION
  5
8FC
330
18
100
AcDbEntity
  8
文字
100
AcDbDimension
  2
*D4
 10
106.6230124613987
 20
25.72672659703608
 30
0.0
 11
81.62301246139872
 21
27.60172659703608
 31
0.0
 70
    32
 71
     5
 42
50.00000000000003
  3
STYLE3
100
AcDbAlignedDimension
 13
56.6230124613987
 23
106.4116698942245
 33
0.0
 14
106.6230124613987
 24
106.4116698942245
 34
0.0
100
AcDbRotatedDimension
1001
ACAD
1000
DSTYLE
1002
{
1070
   271
1070
     2
1002
}
  0
DIMENSION
  5
909
330
18
100
AcDbEntity
  8
文字
100
AcDbDimension
  2
*D5
 10
119.7952285479932
 20
140.4116698942245
 30
0.0
 11
117.9202285479932
 21
145.6616698942245
 31
0.0
 70
    32
 71
     5
 42
10.5
  3
STYLE3
100
AcDbAlignedDimension
 13
91.87301246139874
 23
150.9116698942245
 33
0.0
 14
91.37301246139873
 24
140.4116698942245
 34
0.0
 50
90.0
100
AcDbRotatedDimension
1001
ACAD
1000
DSTYLE
1002
{
1070
   271
1070
     2
1002
}
  0
DIMENSION
  5
920
330
18
100
AcDbEntity
  8
文字
100
AcDbDimension
  2
*D6
 10
119.7952285479932
 20
106.4116698942245
 30
0.0
 11
117.9202285479932
 21
123.4116698942245
 31
0.0
 70
    32
 71
     5
 42
34.00000000000003
  3
STYLE3
100
AcDbAlignedDimension
 13
91.37301246139873
 23
140.4116698942245
 33
0.0
 14
110.9677900840796
 24
106.4116698942245
 34
0.0
 50
90.0
100
AcDbRotatedDimension
1001
ACAD
1000
DSTYLE
1002
{
1070
    75
1070
     1
1070
   271
1070
     2
1070
   279
1070
     1
1002
}
  0
DIMENSION
  5
92C
330
18
100
AcDbEntity
  8
文字
100
AcDbDimension
  2
*D7
 10
119.7952285479932
 20
72.4097640764783
 30
0.0
 11
117.9202285479932
 21
89.41071698535139
 31
0.0
 70
    32
 71
     5
 42
34.00190581774618
  3
STYLE3
100
AcDbAlignedDimension
 13
110.9677900840796
 23
106.4116698942245
 33
0.0
 14
90.65688978616741
 24
72.40976407647831
 34
0.0
 50
90.0
100
AcDbRotatedDimension
1001
ACAD
1000
DSTYLE
1002
{
1070
    75
1070
     1
1070
   271
1070
     2
1070
   279
1070
     1
1002
}
  0
DIMENSION
  5
938
330
18
100
AcDbEntity
  8
文字
100
AcDbDimension
  2
*D8
 10
119.7952285479932
 20
51.21166989422448
 30
0.0
 11
117.9202285479932
 21
61.81071698535141
 31
0.0
 70
    32
 71
     5
 42
21.19809418225382
  3
STYLE3
100
AcDbAlignedDimension
 13
90.65688978616741
 23
72.40976407647831
 33
0.0
 14
84.67301246139873
 24
51.21166989422448
 34
0.0
 50
90.0
100
AcDbRotatedDimension
1001
ACAD
1000
DSTYLE
1002
{
1070
    75
1070
     1
1070
   271
1070
     2
1070
   279
1070
     1
1002
}
  0
DIMENSION
  5
982
330
18
100
AcDbEntity
  8
文字
100
AcDbDimension
  2
*D9
 10
119.7952285479932
 20
41.41166989422447
 30
0.0
 11
117.9202285479932
 21
46.31166989422449
 31
0.0
 70
    32
 71
     5
 42
9.800000000000011
  3
STYLE3
100
AcDbAlignedDimension
 13
84.67301246139873
 23
51.21166989422448
 33
0.0
 14
83.62301246139875
 24
41.41166989422447
 34
0.0
 50
90.0
100
AcDbRotatedDimension
1001
ACAD
1000
DSTYLE
1002
{
1070
    75
1070
     1
1070
   271
1070
     2
1070
   279
1070
     1
1002
}
  0
DIMENSION
  5
98E
330
18
100
AcDbEntity
  8
文字
100
AcDbDimension
  2
*D10
 10
119.7952285479932
 20
32.41166989422447
 30
0.0
 11
117.9202285479932
 21
36.91166989422449
 31
0.0
 70
    32
 71
     5
 42
9.0
  3
STYLE3
100
AcDbAlignedDimension
 13
83.62301246139875
 23
41.41166989422447
 33
0.0
 14
81.62301246139874
 24
32.41166989422448
 34
0.0
 50
90.0
100
AcDbRotatedDimension
1001
ACAD
1000
DSTYLE
1002
{
1070
    75
1070
     1
1070
   271
1070
     2
1070
   279
1070
     1
1002
}
  0
DIMENSION
  5
99B
330
18
100
AcDbEntity
  8
文字
100
AcDbDimension
  2
*D11
 10
127.4748611308794
 20
32.41166989422448
 30
0.0
 11
125.5998611308793
 21
69.41166989422448
 31
0.0
 70
    32
 71
     5
 42
73.99999999999998
  3
STYLE3
100
AcDbAlignedDimension
 13
121.0452285479932
 23
106.4116698942244
 33
0.0
 14
121.0452285479932
 24
32.41166989422448
 34
0.0
 50
90.0
100
AcDbRotatedDimension
1001
ACAD
1000
DSTYLE
1002
{
1070
   271
1070
     2
1002
}
  0
DIMENSION
  5
9A8
330
18
100
AcDbEntity
  8
文字
100
AcDbDimension
  2
*D12
 10
135.5717177013161
 20
32.41166989422448
 30
0.0
 11
133.6967177013161
 21
109.1616698942244
 31
0.0
 70
    32
 71
     5
 42
153.4999999999999
  3
STYLE3
100
AcDbAlignedDimension
 13
83.72275071537018
 23
185.9116698942244
 33
0.0
 14
128.7248611308794
 24
32.41166989422448
 34
0.0
 50
90.0
100
AcDbRotatedDimension
1001
ACAD
1000
DSTYLE
1002
{
1070
   271
1070
     2
1002
}
  0
DIMENSION
  5
9B5
330
18
100
AcDbEntity
  8
文字
100
AcDbDimension
  2
*D13
 10
193.1662059618551
 20
83.41166989422447
 30
0.0
 11
191.291205961855
 21
106.4116698942245
 31
0.0
 70
    32
  1
φ46
 71
     5
 42
45.99999999999998
  3
STYLE3
100
AcDbAlignedDimension
 13
179.8182933947825
 23
129.4116698942245
 33
0.0
 14
179.8182933947826
 24
83.41166989422447
 34
0.0
 50
90.0
100
AcDbRotatedDimension
1001
ACAD
1000
DSTYLE
1002
{
1070
   271
1070
     2
1002
}
  0
CIRCLE
  5
9C5
330
18
100
AcDbEntity
  8
外形線
100
AcDbCircle
 10
99.11459597423286
 20
88.54985290340437
 30
0.0
 40
3.0
  0
CIRCLE
  5
9C6
330
18
100
AcDbEntity
  8
外形線
100
AcDbCircle
 10
99.11459597423286
 20
88.54985290340437
 30
0.0
 40
2.5
  0
LINE
  5
9C7
330
18
100
AcDbEntity
  8
中心線
100
AcDbLine
 10
99.11459597423286
 20
92.38182448346035
 30
0.0
 11
99.11459597423286
 21
84.71788132334838
 31
0.0
  0
LINE
  5
9C8
330
18
100
AcDbEntity
  8
中心線
100
AcDbLine
 10
95.28262439417687
 20
88.54985290340437
 30
0.0
 11
102.9465675542888
 21
88.54985290340437
 31
0.0
  0
LINE
  5
9C9
330
18
100
AcDbEntity
  8
中心線
100
AcDbLine
 10
153.7137337289688
 20
88.54985290340437
 30
0.0
 11
163.013787545563
 21
88.54985290340437
 31
0.0
  0
LINE
  5
9CA
330
18
100
AcDbEntity
  8
外形線
100
AcDbLine
 10
155.3182933947825
 20
91.54985290340436
 30
0.0
 11
157.8182933947825
 21
91.54985290340434
 31
0.0
  0
LINE
  5
9CB
330
18
100
AcDbEntity
  8
外形線
100
AcDbLine
 10
155.3182933947825
 20
85.54985290340438
 30
0.0
 11
157.8182933947825
 21
85.54985290340438
 31
0.0
  0
LINE
  5
9CC
330
18
100
AcDbEntity
  8
外形線
100
AcDbLine
 10
154.8182933947825
 20
91.04985290340435
 30
0.0
 11
154.8182933947825
 21
86.04985290340437
 31
0.0
  0
LINE
  5
9CD
330
18
100
AcDbEntity
  8
外形線
100
AcDbLine
 10
155.3182933947825
 20
85.54985290340438
 30
0.0
 11
154.8182933947825
 21
86.04985290340437
 31
0.0
  0
LINE
  5
9CE
330
18
100
AcDbEntity
  8
外形線
100
AcDbLine
 10
154.8182933947825
 20
91.04985290340435
 30
0.0
 11
155.3182933947825
 21
91.54985290340436
 31
0.0
  0
LINE
  5
9CF
330
18
100
AcDbEntity
  8
外形線
100
AcDbLine
 10
155.3182933947825
 20
91.54985290340436
 30
0.0
 11
155.3182933947825
 21
85.54985290340438
 31
0.0
  0
LINE
  5
9D0
330
18
100
AcDbEntity
  8
外形線
100
AcDbLine
 10
157.8182933947825
 20
91.54985290340434
 30
0.0
 11
157.8182933947825
 21
85.54985290340438
 31
0.0
  0
LINE
  5
9D1
330
18
100
AcDbEntity
  8
外形線
100
AcDbLine
 10
158.8182933947825
 20
90.54985290340439
 30
0.0
 11
158.8182933947825
 21
86.54985290340437
 31
0.0
  0
LINE
  5
9D4
330
18
100
AcDbEntity
  8
外形線
100
AcDbLine
 10
157.8182933947825
 20
91.54985290340434
 30
0.0
 11
158.8182933947825
 21
90.54985290340439
 31
0.0
  0
LINE
  5
9D5
330
18
100
AcDbEntity
  8
外形線
100
AcDbLine
 10
158.8182933947825
 20
86.54985290340437
 30
0.0
 11
157.8182933947825
 21
85.54985290340438
 31
0.0
  0
LINE
  5
9D6
330
18
100
AcDbEntity
  8
外形線
100
AcDbLine
 10
158.8182933947825
 20
90.04985290340437
 30
0.0
 11
160.1128500180838
 21
90.04985290340437
 31
0.0
  0
LINE
  5
9D7
330
18
100
AcDbEntity
  8
外形線
100
AcDbLine
 10
158.8182933947826
 20
87.04985290340438
 30
0.0
 11
160.3916030170377
 21
87.04985290340436
 31
0.0
  0
ARC
  5
9D8
330
18
100
AcDbEntity
  8
外形線
100
AcDbCircle
 10
353.3926933947827
 20
106.3316698942244
 30
0.0
 40
195.0744000000001
100
AcDbArc
 50
185.6725722186489
 51
190.0613502819215
  0
LINE
  5
9DA
330
18
100
AcDbEntity
  8
外形線
100
AcDbLine
 10
173.522659339453
 20
145.9876452597828
 30
0.0
 11
173.522659339453
 21
139.7091273889039
 31
0.0
  0
LINE
  5
9DB
330
18
100
AcDbEntity
  8
外形線
100
AcDbLine
 10
172.522659339453
 20
145.7180100899741
 30
0.0
 11
172.522659339453
 21
139.4394922190951
 31
0.0
  0
LINE
  5
9DC
330
18
100
AcDbEntity
  8
外形線
100
AcDbLine
 10
171.5226593394531
 20
145.5709936517571
 30
0.0
 11
171.5226593394531
 21
139.2924757808782
 31
0.0
  0
LINE
  5
9DD
330
18
100
AcDbEntity
  8
外形線
100
AcDbLine
 10
170.522659339453
 20
145.4985804462966
 30
0.0
 11
170.522659339453
 21
139.2200625754177
 31
0.0
  0
LINE
  5
9DE
330
18
100
AcDbEntity
  8
外形線
100
AcDbLine
 10
173.6282680694205
 20
138.5079441443736
 30
0.0
 11
173.6282680694205
 21
135.8869217015539
 31
0.0
  0
LINE
  5
9DF
330
18
100
AcDbEntity
  8
外形線
100
AcDbLine
 10
172.6282680694205
 20
138.2180059544919
 30
0.0
 11
172.6282680694205
 21
135.5969835116722
 31
0.0
  0
LINE
  5
9E0
330
18
100
AcDbEntity
  8
外形線
100
AcDbLine
 10
171.6282680694205
 20
138.0613897150042
 30
0.0
 11
171.6282680694205
 21
135.4403672721845
 31
0.0
  0
LINE
  5
9E1
330
18
100
AcDbEntity
  8
外形線
100
AcDbLine
 10
170.6282680694205
 20
137.9820477185153
 30
0.0
 11
170.6282680694205
 21
135.3610252756955
 31
0.0
  0
LINE
  5
9EB
330
18
100
AcDbEntity
  8
外形線
100
AcDbLine
 10
155.3182933947825
 20
90.54985290340436
 30
0.0
 11
157.8182933947825
 21
90.54985290340434
 31
0.0
  0
LINE
  5
9EC
330
18
100
AcDbEntity
  8
外形線
100
AcDbLine
 10
155.3182933947825
 20
89.54985290340436
 30
0.0
 11
157.8182933947825
 21
89.54985290340435
 31
0.0
  0
LINE
  5
9ED
330
18
100
AcDbEntity
  8
外形線
100
AcDbLine
 10
155.3182933947825
 20
88.54985290340435
 30
0.0
 11
157.8182933947825
 21
88.54985290340435
 31
0.0
  0
DIMENSION
  5
9FA
330
18
100
AcDbEntity
  8
外形線
100
AcDbDimension
  2
*D14
 10
169.8182933947826
 20
29.69347627326562
 30
0.0
 11
164.0682933947826
 21
31.56847627326562
 31
0.0
 70
    32
 71
     5
 42
11.5
  3
STYLE3
100
AcDbAlignedDimension
 13
158.3182933947826
 23
106.3316698942244
 33
0.0
 14
169.8182933947826
 24
31.0797331474509
 34
0.0
100
AcDbRotatedDimension
1001
ACAD
1000
DSTYLE
1002
{
1070
   271
1070
     2
1002
}
  0
DIMENSION
  5
A06
330
18
100
AcDbEntity
  8
外形線
100
AcDbDimension
  2
*D15
 10
179.8182933947826
 20
29.69347627326562
 30
0.0
 11
174.8182933947826
 21
31.56847627326562
 31
0.0
 70
    32
 71
     5
 42
10.0
  3
STYLE3
100
AcDbAlignedDimension
 13
169.8182933947826
 23
31.0797331474509
 33
0.0
 14
179.8182933947826
 24
83.41166989422447
 34
0.0
100
AcDbRotatedDimension
1001
ACAD
1000
DSTYLE
1002
{
1070
    75
1070
     1
1070
   271
1070
     2
1070
   279
1070
     1
1002
}
  0
DIMENSION
  5
A28
330
18
100
AcDbEntity
  8
外形線
100
AcDbDimension
  2
*D16
 10
179.8182933947826
 20
25.21548016190428
 30
0.0
 11
167.3182933947826
 21
27.09048016190428
 31
0.0
 70
    32
 71
     5
 42
25.00000000000003
  3
STYLE3
100
AcDbAlignedDimension
 13
154.8182933947825
 23
86.04985290340437
 33
0.0
 14
179.8182933947826
 24
28.44347627326562
 34
0.0
100
AcDbRotatedDimension
1001
ACAD
1000
DSTYLE
1002
{
1070
   271
1070
     2
1002
}
  0
LINE
  5
A68
330
18
100
AcDbEntity
  8
想像線
 48
0.3
100
AcDbLine
 10
83.32301246139875
 20
188.538391096405
 30
0.0
 11
83.32301246139875
 21
185.9116698942244
 31
0.0
  0
LINE
  5
A69
330
18
100
AcDbEntity
  8
想像線
 48
0.3
100
AcDbLine
 10
79.92301246139871
 20
188.538391096405
 30
0.0
 11
79.92301246139874
 21
185.9116698942244
 31
0.0
  0
ARC
  5
A6D
330
18
100
AcDbEntity
  8
想像線
 48
0.3
100
AcDbCircle
 10
80.77301246139871
 20
190.0106342828386
 30
0.0
 40
1.700000000000002
100
AcDbArc
 50
240.0000000000004
 51
299.9999999999996
  0
ARC
  5
A6E
330
18
100
AcDbEntity
  8
想像線
 48
0.3
100
AcDbCircle
 10
80.77301246139871
 20
187.0661479099714
 30
0.0
 40
1.700000000000002
100
AcDbArc
 50
60.0000000000004
 51
119.9999999999996
  0
ARC
  5
A6F
330
18
100
AcDbEntity
  8
想像線
 48
0.3
100
AcDbCircle
 10
82.47301246139874
 20
187.0661479099714
 30
0.0
 40
1.700000000000002
100
AcDbArc
 50
60.0000000000004
 51
119.9999999999996
  0
LINE
  5
AC9
330
18
100
AcDbEntity
  8
想像線
 48
0.3
100
AcDbLine
 10
77.94785159143714
 20
159.8885068854104
 30
0.0
 11
84.64887773063992
 21
159.8885068854104
 31
0.0
  0
LINE
  5
ACA
330
18
100
AcDbEntity
  8
想像線
 48
0.3
100
AcDbLine
 10
84.01057119555195
 20
160.8784642534955
 30
0.0
 11
84.64502871114399
 21
160.8784642534955
 31
0.0
  0
LINE
  5
ACB
330
18
100
AcDbEntity
  8
想像線
 48
0.3
100
AcDbLine
 10
84.64502871114399
 20
160.8784642534955
 30
0.0
 11
84.52749120193436
 21
160.6427444456966
 31
0.0
  0
LINE
  5
ACC
330
18
100
AcDbEntity
  8
想像線
 48
0.3
100
AcDbLine
 10
84.77771936270716
 20
160.8784642534955
 30
0.0
 11
84.33357315256557
 21
159.9877353279536
 31
0.0
  0
LINE
  5
ACF
330
18
100
AcDbEntity
  8
想像線
 48
0.3
100
AcDbLine
 10
80.7613654866617
 20
160.3655423195463
 30
0.0
 11
81.16554461605222
 21
160.3655423195463
 31
0.0
  0
LINE
  5
AD0
330
18
100
AcDbEntity
  8
想像線
 48
0.3
100
AcDbLine
 10
80.7803729422439
 20
160.8784642534955
 30
0.0
 11
81.14653716047001
 21
160.8784642534955
 31
0.0
  0
LINE
  5
AD1
330
18
100
AcDbEntity
  8
想像線
 48
0.3
100
AcDbLine
 10
78.45291984876476
 20
159.9877353279536
 30
0.0
 11
84.33357315256557
 21
159.9877353279536
 31
0.0
  0
SPLINE
  5
AD4
330
18
100
AcDbEntity
  8
想像線
 48
0.3
100
AcDbSpline
210
0.0
220
0.0
230
1.0
 70
     8
 71
     3
 72
    18
 73
    14
 74
     0
 42
0.0000000001
 43
0.0000000001
 40
0.1087402787915014
 40
0.1087402787915014
 40
0.1087402787915014
 40
0.1087402787915014
 40
0.5992371417938475
 40
1.083176791562496
 40
1.448211145705696
 40
1.714037220764907
 40
2.164002567013297
 40
2.740236056362883
 40
3.395137510199602
 40
4.071816045172726
 40
4.784906178399433
 40
5.506895915094292
 40
6.060470601257719
 40
6.060470601257719
 40
6.060470601257719
 40
6.060470601257719
 10
79.21564545807183
 20
160.8784642534955
 30
0.0
 10
79.24056931823885
 20
160.8693300764113
 30
0.0
 10
79.28958183214712
 20
160.8500190302066
 30
0.0
 10
79.34940022803218
 20
160.8059448417921
 30
0.0
 10
79.382022598257
 20
160.7550647926102
 30
0.0
 10
79.41340166615576
 20
160.704931614314
 30
0.0
 10
79.41779310942783
 20
160.6330070910722
 30
0.0
 10
79.41059962866852
 20
160.5420770611184
 30
0.0
 10
79.36415916675935
 20
160.4472009582763
 30
0.0
 10
79.28961949401034
 20
160.3642186061103
 30
0.0
 10
79.19707328850043
 20
160.2978006136571
 30
0.0
 10
79.09948012257739
 20
160.245664199951
 30
0.0
 10
79.02972050014151
 20
160.2451447211651
 30
0.0
 10
78.99944593273841
 20
160.2449192756285
 30
0.0
  0
LINE
  5
AD5
330
18
100
AcDbEntity
  8
想像線
 48
0.3
100
AcDbLine
 10
78.43767329046272
 20
160.8784642534955
 30
0.0
 11
77.94785159143714
 21
159.8885068854104
 31
0.0
  0
LINE
  5
AD6
330
18
100
AcDbEntity
  8
想像線
 48
0.3
100
AcDbLine
 10
79.67525211126494
 20
160.8784642534955
 30
0.0
 11
79.36177994824825
 21
160.2449192756285
 31
0.0
  0
LINE
  5
AD7
330
18
100
AcDbEntity
  8
想像線
 48
0.3
100
AcDbLine
 10
80.29047939703657
 20
160.3900382305376
 30
0.0
 11
80.21867588776842
 21
160.2449192756285
 31
0.0
  0
LINE
  5
AD8
330
18
100
AcDbEntity
  8
想像線
 48
0.3
100
AcDbLine
 10
80.7803729422439
 20
160.8784642534955
 30
0.0
 11
80.32351134590095
 21
160.2449192756285
 31
0.0
  0
LINE
  5
AD9
330
18
100
AcDbEntity
  8
想像線
 48
0.3
100
AcDbLine
 10
80.7613654866617
 20
160.3655423195463
 30
0.0
 11
80.67438186541108
 21
160.2449192756285
 31
0.0
  0
LINE
  5
ADA
330
18
100
AcDbEntity
  8
想像線
 48
0.3
100
AcDbLine
 10
78.99944593288751
 20
160.2449192756285
 30
0.0
 11
78.5692771620412
 21
160.2449192756285
 31
0.0
  0
LINE
  5
ADB
330
18
100
AcDbEntity
  8
想像線
 48
0.3
100
AcDbLine
 10
78.56927716204123
 20
160.2449192756285
 30
0.0
 11
78.45291984876476
 21
159.9877353279536
 31
0.0
  0
LINE
  5
ADC
330
18
100
AcDbEntity
  8
想像線
 48
0.3
100
AcDbLine
 10
79.36177994824825
 20
160.2449192756285
 30
0.0
 11
80.21867588776842
 21
160.2449192756285
 31
0.0
  0
LINE
  5
ADD
330
18
100
AcDbEntity
  8
想像線
 48
0.3
100
AcDbLine
 10
80.32351134590099
 20
160.2449192756285
 30
0.0
 11
80.67438186541108
 21
160.2449192756285
 31
0.0
  0
LINE
  5
ADE
330
18
100
AcDbEntity
  8
想像線
 48
0.3
100
AcDbLine
 10
78.43767329046272
 20
160.8784642534955
 30
0.0
 11
79.21564545807183
 21
160.8784642534955
 31
0.0
  0
LINE
  5
ADF
330
18
100
AcDbEntity
  8
想像線
 48
0.3
100
AcDbLine
 10
78.94094285644385
 20
160.6334705933219
 30
0.0
 11
78.74506879991585
 21
160.6334705933219
 31
0.0
  0
LINE
  5
AE0
330
18
100
AcDbEntity
  8
想像線
 48
0.3
100
AcDbLine
 10
78.90652941019567
 20
160.4649837496592
 30
0.0
 11
78.66884057250016
 21
160.4649837496592
 31
0.0
  0
LINE
  5
AE1
330
18
100
AcDbEntity
  8
想像線
 48
0.3
100
AcDbLine
 10
78.74506879991585
 20
160.6334705933219
 30
0.0
 11
78.66884057250016
 21
160.4649837496592
 31
0.0
  0
LINE
  5
AE2
330
18
100
AcDbEntity
  8
想像線
 48
0.3
100
AcDbLine
 10
79.67525211126491
 20
160.8784642534955
 30
0.0
 11
80.53214805078505
 21
160.8784642534955
 31
0.0
  0
SPLINE
  5
AE3
330
18
100
AcDbEntity
  8
想像線
 48
0.3
100
AcDbSpline
210
0.0
220
0.0
230
1.0
 70
     8
 71
     3
 72
    15
 73
    11
 74
     9
 42
0.0000000001
 43
0.0000000001
 44
0.0000000001
 40
0.0
 40
0.0
 40
0.0
 40
0.0
 40
0.0742852038590909
 40
0.1081551708376181
 40
0.1465998381500646
 40
0.1727901329955084
 40
0.2142103559253779
 40
0.2390199379856283
 40
0.2815850509457101
 40
0.295773430987964
 40
0.295773430987964
 40
0.295773430987964
 40
0.295773430987964
 10
78.94094285644385
 20
160.6334705933219
 30
0.0
 10
78.96884293845506
 20
160.6335983905902
 30
0.0
 10
79.00946392324804
 20
160.6337844563834
 30
0.0
 10
79.031676924489
 20
160.5835361807229
 30
0.0
 10
79.02171999821323
 20
160.5511841298328
 30
0.0
 10
79.00920333038205
 20
160.5179686569743
 30
0.0
 10
78.98708354348632
 20
160.4953982422062
 30
0.0
 10
78.95739554952214
 20
160.4736591279384
 30
0.0
 10
78.92933897649847
 20
160.4710275108129
 30
0.0
 10
78.91109132520317
 20
160.4661925023529
 30
0.0
 10
78.90652941019566
 20
160.4649837496592
 30
0.0
 11
78.94094285644385
 21
160.6334705933219
 31
0.0
 11
79.01321115293034
 21
160.6162780124997
 31
0.0
 11
79.02697657100645
 21
160.5853314791185
 31
0.0
 11
79.02009396091049
 21
160.5475079134083
 31
0.0
 11
79.00976994682446
 21
160.5234383002573
 31
0.0
 11
78.98223911067221
 21
160.492491766876
 31
0.0
 11
78.96159108250014
 21
160.4787377022183
 31
0.0
 11
78.92029482827178
 21
160.4684222658236
 31
0.0
 11
78.90652941019566
 21
160.4649837496592
 31
0.0
  0
LINE
  5
AE4
330
18
100
AcDbEntity
  8
想像線
 48
0.3
100
AcDbLine
 10
80.53214805078505
 20
160.8784642534955
 30
0.0
 11
80.46034092953874
 21
160.7333379985742
 31
0.0
  0
LINE
  5
AE5
330
18
100
AcDbEntity
  8
想像線
 48
0.3
100
AcDbLine
 10
80.00997807700684
 20
160.7333379985742
 30
0.0
 11
79.95383383135558
 21
160.6198673014438
 31
0.0
  0
LINE
  5
AE6
330
18
100
AcDbEntity
  8
想像線
 48
0.3
100
AcDbLine
 10
80.00997807700684
 20
160.7333379985742
 30
0.0
 11
80.46034092953874
 21
160.7333379985742
 31
0.0
  0
LINE
  5
AE7
330
18
100
AcDbEntity
  8
想像線
 48
0.3
100
AcDbLine
 10
79.95383383135558
 20
160.6198673014438
 30
0.0
 11
80.4041966838875
 21
160.6198673014438
 31
0.0
  0
LINE
  5
AE8
330
18
100
AcDbEntity
  8
想像線
 48
0.3
100
AcDbLine
 10
79.84011654450466
 20
160.3900382305376
 30
0.0
 11
80.29047939703657
 21
160.3900382305376
 31
0.0
  0
LINE
  5
AE9
330
18
100
AcDbEntity
  8
想像線
 48
0.3
100
AcDbLine
 10
79.89626316703336
 20
160.5035137314719
 30
0.0
 11
80.34662601956529
 21
160.5035137314719
 31
0.0
  0
LINE
  5
AEA
330
18
100
AcDbEntity
  8
想像線
 48
0.3
100
AcDbLine
 10
80.4041966838875
 20
160.6198673014438
 30
0.0
 11
80.34662601956529
 21
160.5035137314719
 31
0.0
  0
LINE
  5
AEB
330
18
100
AcDbEntity
  8
想像線
 48
0.3
100
AcDbLine
 10
79.89626316703336
 20
160.5035137314719
 30
0.0
 11
79.84011654450464
 21
160.3900382305376
 31
0.0
  0
SPLINE
  5
AEE
330
18
100
AcDbEntity
  8
想像線
 48
0.3
100
AcDbSpline
210
0.0
220
0.0
230
1.0
 70
     8
 71
     3
 72
    26
 73
    22
 74
    20
 42
0.0000000001
 43
0.0000000001
 44
0.0000000001
 40
0.0
 40
0.0
 40
0.0
 40
0.0
 40
0.114932317294985
 40
0.1918706042691379
 40
0.2473493747924701
 40
0.2887735776222223
 40
0.3425029428083393
 40
0.3817201414616345
 40
0.4525372615105442
 40
0.5101813791203331
 40
0.5493886155681816
 40
0.5878333183075883
 40
0.6566034173989694
 40
0.7052320855072738
 40
0.7314223803527119
 40
0.7686249205309493
 40
0.7954897095398233
 40
0.8344079193476495
 40
0.8564322597495637
 40
0.9043596949373485
 40
0.9262437781858603
 40
0.9262437781858603
 40
0.9262437781858603
 40
0.9262437781858603
 10
84.01057119555177
 20
160.8784642534955
 30
0.0
 10
83.97156139125938
 20
160.8761368616766
 30
0.0
 10
83.90643754360565
 20
160.8722514612499
 30
0.0
 10
83.83493195504874
 20
160.8288125841147
 30
0.0
 10
83.78254277470533
 20
160.8035591298652
 30
0.0
 10
83.74517887481964
 20
160.7692292102659
 30
0.0
 10
83.71779098474135
 20
160.7337689110728
 30
0.0
 10
83.68326340776446
 20
160.6915182245859
 30
0.0
 10
83.65510715536634
 20
160.6423190098924
 30
0.0
 10
83.64076888774878
 20
160.5880928982459
 30
0.0
 10
83.628068186378
 20
160.5448743726338
 30
0.0
 10
83.61864913361991
 20
160.4967129659718
 30
0.0
 10
83.62104560729152
 20
160.44468170448
 30
0.0
 10
83.62447746726703
 20
160.39635773253
 30
0.0
 10
83.63979988753973
 20
160.3618616516485
 30
0.0
 10
83.65724941016202
 20
160.3373028191577
 30
0.0
 10
83.678616111643
 20
160.3102539878786
 30
0.0
 10
83.70199595557727
 20
160.2923396345101
 30
0.0
 10
83.72133299490633
 20
160.2598865795672
 30
0.0
 10
83.7551818299296
 20
160.2557453357035
 30
0.0
 10
83.77669749609504
 20
160.2475030244189
 30
0.0
 10
83.7834420941221
 20
160.2449192756285
 30
0.0
 11
84.01057119555177
 21
160.8784642534955
 31
0.0
 11
83.89700664483692
 21
160.8607857247182
 31
0.0
 11
83.82817955445634
 21
160.8264006751725
 31
0.0
 11
83.78000069013202
 21
160.7988926579557
 31
0.0
 11
83.74902864787387
 21
160.7713845286402
 31
0.0
 11
83.71461520162569
 21
160.7301224467656
 31
0.0
 11
83.69052576946351
 21
160.6991759133844
 31
0.0
 11
83.65611212533114
 21
160.6372827345231
 31
0.0
 11
83.63890550114909
 21
160.5822665879907
 31
0.0
 11
83.62858148706308
 21
160.5444430222806
 31
0.0
 11
83.6216986790829
 21
160.5066194565705
 31
0.0
 11
83.6216986790829
 21
160.4378493574791
 31
0.0
 11
83.62858148706308
 21
160.3897102432756
 31
0.0
 11
83.63890550114909
 21
160.3656406301245
 31
0.0
 11
83.65955352932118
 21
160.3346940967433
 31
0.0
 11
83.67676035138741
 21
160.3140629997566
 31
0.0
 11
83.70429098965542
 21
160.2865549825398
 31
0.0
 11
83.71805640773159
 21
160.2693624017176
 31
0.0
 11
83.76279406595003
 21
160.2521699329941
 31
0.0
 11
83.7834420941221
 21
160.2449192756285
 31
0.0
  0
SPLINE
  5
AEF
330
18
100
AcDbEntity
  8
想像線
 48
0.3
100
AcDbSpline
210
0.0
220
0.0
230
1.0
 70
     8
 71
     3
 72
    26
 73
    22
 74
    20
 42
0.0000000001
 43
0.0000000001
 44
0.0000000001
 40
0.0
 40
0.0
 40
0.0
 40
0.0
 40
0.114932317294985
 40
0.1918706042691252
 40
0.2473493747924838
 40
0.2887735776222254
 40
0.3425029428083424
 40
0.3817201414616376
 40
0.4525372615105473
 40
0.5101813791203319
 40
0.549388615568188
 40
0.5878333183075948
 40
0.6566034173989759
 40
0.7052320855072802
 40
0.7314223803527296
 40
0.7686249205309512
 40
0.7954897095398343
 40
0.8344079193476304
 40
0.8564322597495534
 40
0.9043596949373249
 40
0.9262437781858595
 40
0.9262437781858595
 40
0.9262437781858595
 40
0.9262437781858595
 10
81.96923292283107
 20
160.8784642534955
 30
0.0
 10
81.93022311853866
 20
160.8761368616766
 30
0.0
 10
81.86509927088499
 20
160.8722514612499
 30
0.0
 10
81.793593682328
 20
160.8288125841147
 30
0.0
 10
81.74120450198463
 20
160.8035591298652
 30
0.0
 10
81.70384060209896
 20
160.7692292102659
 30
0.0
 10
81.67645271202061
 20
160.7337689110728
 30
0.0
 10
81.64192513504378
 20
160.6915182245859
 30
0.0
 10
81.61376888264559
 20
160.6423190098923
 30
0.0
 10
81.59943061502813
 20
160.5880928982459
 30
0.0
 10
81.58672991365726
 20
160.5448743726338
 30
0.0
 10
81.57731086089921
 20
160.4967129659718
 30
0.0
 10
81.57970733457082
 20
160.44468170448
 30
0.0
 10
81.58313919454631
 20
160.39635773253
 30
0.0
 10
81.59846161481903
 20
160.3618616516485
 30
0.0
 10
81.61591113744128
 20
160.3373028191577
 30
0.0
 10
81.6372778389223
 20
160.3102539878786
 30
0.0
 10
81.66065768285653
 20
160.29233963451
 30
0.0
 10
81.67999472218564
 20
160.2598865795672
 30
0.0
 10
81.71384355720888
 20
160.2557453357036
 30
0.0
 10
81.73535922337434
 20
160.2475030244189
 30
0.0
 10
81.7421038214014
 20
160.2449192756285
 30
0.0
 11
81.96923292283107
 21
160.8784642534955
 31
0.0
 11
81.85566837211622
 21
160.8607857247182
 31
0.0
 11
81.78684128173562
 21
160.8264006751725
 31
0.0
 11
81.7386624174113
 21
160.7988926579557
 31
0.0
 11
81.70769037515317
 21
160.7713845286402
 31
0.0
 11
81.67327692890498
 21
160.7301224467656
 31
0.0
 11
81.64918749674281
 21
160.6991759133844
 31
0.0
 11
81.61477385261042
 21
160.6372827345231
 31
0.0
 11
81.59756722842841
 21
160.5822665879907
 31
0.0
 11
81.58724321434236
 21
160.5444430222806
 31
0.0
 11
81.58036040636218
 21
160.5066194565705
 31
0.0
 11
81.58036040636218
 21
160.4378493574791
 31
0.0
 11
81.58724321434236
 21
160.3897102432756
 31
0.0
 11
81.59756722842841
 21
160.3656406301245
 31
0.0
 11
81.61821525660046
 21
160.3346940967433
 31
0.0
 11
81.63542207866671
 21
160.3140629997566
 31
0.0
 11
81.66295271693471
 21
160.2865549825398
 31
0.0
 11
81.67671813501087
 21
160.2693624017176
 31
0.0
 11
81.72145579322931
 21
160.2521699329941
 31
0.0
 11
81.7421038214014
 21
160.2449192756285
 31
0.0
  0
LINE
  5
AF0
330
18
100
AcDbEntity
  8
想像線
 48
0.3
100
AcDbLine
 10
81.14653716047001
 20
160.8784642534955
 30
0.0
 11
81.60339875681296
 21
160.2449192756285
 31
0.0
  0
LINE
  5
AF1
330
18
100
AcDbEntity
  8
想像線
 48
0.3
100
AcDbLine
 10
81.16554461605222
 20
160.3655423195463
 30
0.0
 11
81.25252823730287
 21
160.2449192756285
 31
0.0
  0
LINE
  5
AF2
330
18
100
AcDbEntity
  8
想像線
 48
0.3
100
AcDbLine
 10
82.4053207153803
 20
160.480636587219
 30
0.0
 11
82.28778445086078
 21
160.2449192756285
 31
0.0
  0
LINE
  5
AF3
330
18
100
AcDbEntity
  8
想像線
 48
0.3
100
AcDbLine
 10
84.446658988101
 20
160.480636587219
 30
0.0
 11
84.3291227235815
 21
160.2449192756285
 31
0.0
  0
ARC
  5
AF4
330
18
100
AcDbEntity
  8
想像線
 48
0.3
100
AcDbCircle
 10
82.93782746407378
 20
160.561691764562
 30
0.0
 40
0.3170399864842043
100
AcDbArc
 50
92.3538081120337
 51
270.0
  0
ARC
  5
AF5
330
18
100
AcDbEntity
  8
想像線
 48
0.3
100
AcDbCircle
 10
83.18098925179009
 20
160.5614242670113
 30
0.0
 40
0.3170399864842043
100
AcDbArc
 50
273.3290215232082
 51
90.0000000000006
  0
LINE
  5
AF6
330
18
100
AcDbEntity
  8
想像線
 48
0.3
100
AcDbLine
 10
81.74210382140136
 20
160.2449192756285
 30
0.0
 11
82.28778445086078
 21
160.2449192756285
 31
0.0
  0
LINE
  5
AF7
330
18
100
AcDbEntity
  8
想像線
 48
0.3
100
AcDbLine
 10
81.60339875681296
 20
160.2449192756285
 30
0.0
 11
81.25252823730287
 21
160.2449192756285
 31
0.0
  0
LINE
  5
AF8
330
18
100
AcDbEntity
  8
想像線
 48
0.3
100
AcDbLine
 10
82.9248065852718
 20
160.2449192756285
 30
0.0
 11
83.19939966894116
 21
160.2449192756285
 31
0.0
  0
LINE
  5
AF9
330
18
100
AcDbEntity
  8
想像線
 48
0.3
100
AcDbLine
 10
82.92480658527157
 20
160.2449192756285
 30
0.0
 11
83.19939966894139
 21
160.2449192756285
 31
0.0
  0
LINE
  5
AFA
330
18
100
AcDbEntity
  8
想像線
 48
0.3
100
AcDbLine
 10
83.78344209412205
 20
160.2449192756285
 30
0.0
 11
84.3291227235815
 21
160.2449192756285
 31
0.0
  0
LINE
  5
AFB
330
18
100
AcDbEntity
  8
想像線
 48
0.3
100
AcDbLine
 10
80.96345505135696
 20
160.6457865550366
 30
0.0
 11
80.85310973497158
 21
160.4927670813345
 31
0.0
  0
LINE
  5
AFC
330
18
100
AcDbEntity
  8
想像線
 48
0.3
100
AcDbLine
 10
80.85310973497158
 20
160.4927670813345
 30
0.0
 11
81.07380036774234
 21
160.4927670813345
 31
0.0
  0
LINE
  5
AFD
330
18
100
AcDbEntity
  8
想像線
 48
0.3
100
AcDbLine
 10
80.96345505135696
 20
160.6457865550366
 30
0.0
 11
81.07380036774234
 21
160.4927670813345
 31
0.0
  0
SPLINE
  5
AFE
330
18
100
AcDbEntity
  8
想像線
 48
0.3
100
AcDbSpline
210
0.0
220
0.0
230
1.0
 70
     8
 71
     3
 72
    16
 73
    12
 74
    10
 42
0.0000000001
 43
0.0000000001
 44
0.0000000001
 40
0.0
 40
0.0
 40
0.0
 40
0.0
 40
0.0605929757058536
 40
0.0901882747025431
 40
0.104782650590779
 40
0.1201627461789808
 40
0.1421869990747607
 40
0.1622411782446313
 40
0.1831572199081235
 40
0.2182244751044609
 40
0.252933729554985
 40
0.252933729554985
 40
0.252933729554985
 40
0.252933729554985
 10
82.08968008364186
 20
160.6427444456966
 30
0.0
 10
82.06916055408219
 20
160.6396161049833
 30
0.0
 10
82.03861871408944
 20
160.6349597954304
 30
0.0
 10
82.01099970764616
 20
160.6130968937978
 30
0.0
 10
81.99542450564214
 20
160.6000899225988
 30
0.0
 10
81.99012575253076
 20
160.5828650005146
 30
0.0
 10
81.97589496564265
 20
160.5696389044955
 30
0.0
 10
81.96416474939438
 20
160.5514619912108
 30
0.0
 10
81.961363839654
 20
160.5264957063929
 30
0.0
 10
81.96341977153073
 20
160.4914593305317
 30
0.0
 10
81.98798524641018
 20
160.4842318076277
 30
0.0
 10
82.00020496508921
 20
160.480636587219
 30
0.0
 11
82.08968008364186
 21
160.6427444456966
 31
0.0
 11
82.03117720523151
 21
160.6269671860298
 31
0.0
 11
82.00708777306934
 21
160.6097747173063
 31
0.0
 11
81.99676375898331
 21
160.599459168813
 31
0.0
 11
81.98988095100313
 21
160.5857051041552
 31
0.0
 11
81.97611553292702
 21
160.5685126354317
 31
0.0
 11
81.96579151884098
 21
160.5513200546095
 31
0.0
 11
81.96235011485089
 21
160.5306890697216
 31
0.0
 11
81.96923292283107
 21
160.4963039080772
 31
0.0
 11
82.00020496508921
 21
160.480636587219
 31
0.0
  0
LINE
  5
AFF
330
18
100
AcDbEntity
  8
想像線
 48
0.3
100
AcDbLine
 10
82.60369043842329
 20
160.8784642534955
 30
0.0
 11
82.48615292921366
 21
160.6427444456966
 31
0.0
  0
LINE
  5
B00
330
18
100
AcDbEntity
  8
想像線
 48
0.3
100
AcDbLine
 10
82.08968008364184
 20
160.6427444456966
 30
0.0
 11
82.48615292921366
 21
160.6427444456966
 31
0.0
  0
LINE
  5
B01
330
18
100
AcDbEntity
  8
想像線
 48
0.3
100
AcDbLine
 10
82.00020496508917
 20
160.480636587219
 30
0.0
 11
82.4053207153803
 21
160.480636587219
 31
0.0
  0
LINE
  5
B02
330
18
100
AcDbEntity
  8
想像線
 48
0.3
100
AcDbLine
 10
81.96923292283125
 20
160.8784642534955
 30
0.0
 11
82.60369043842329
 21
160.8784642534955
 31
0.0
  0
LINE
  5
B03
330
18
100
AcDbEntity
  8
想像線
 48
0.3
100
AcDbLine
 10
83.06396434051022
 20
160.6223761429946
 30
0.0
 11
83.086923599329
 21
160.6191670583512
 31
0.0
  0
LINE
  5
B04
330
18
100
AcDbEntity
  8
想像線
 48
0.3
100
AcDbLine
 10
83.14203804488546
 20
160.558022107851
 30
0.0
 11
83.13360689258635
 21
160.4977017893554
 31
0.0
  0
LINE
  5
B05
330
18
100
AcDbEntity
  8
想像線
 48
0.3
100
AcDbLine
 10
82.98270654689138
 20
160.519997574493
 30
0.0
 11
82.99113769919051
 21
160.5803178929887
 31
0.0
  0
LINE
  5
B06
330
18
100
AcDbEntity
  8
想像線
 48
0.3
100
AcDbLine
 10
83.04206909096905
 20
160.4657275166849
 30
0.0
 11
83.06502834978786
 21
160.4625184320414
 31
0.0
  0
ARC
  5
B07
330
18
100
AcDbEntity
  8
想像線
 48
0.3
100
AcDbCircle
 10
83.07560046104979
 20
160.5535488511937
 30
0.0
 40
0.0665880062101451
100
AcDbArc
 50
3.851923331663601
 51
80.20940670206341
  0
ARC
  5
B08
330
18
100
AcDbEntity
  8
想像線
 48
0.3
100
AcDbCircle
 10
83.05502888596592
 20
160.5537672756214
 30
0.0
 40
0.0691882867988374
100
AcDbArc
 50
82.57970078354313
 51
157.4341870372611
  0
ARC
  5
B09
330
18
100
AcDbEntity
  8
想像線
 48
0.3
100
AcDbCircle
 10
83.04588762661458
 20
160.5295058419217
 30
0.0
 40
0.0638925346537704
100
AcDbArc
 50
188.5583509056651
 51
266.5736774635929
  0
ARC
  5
B0A
330
18
100
AcDbEntity
  8
想像線
 48
0.3
100
AcDbCircle
 10
83.07877073868136
 20
160.5201595934332
 30
0.0
 40
0.0592567020605202
100
AcDbArc
 50
256.5902863289752
 51
337.7287536965499
  0
LINE
  5
B0B
330
18
100
AcDbEntity
  8
想像線
 48
0.3
100
AcDbLine
 10
82.92480658527166
 20
160.8784642534955
 30
0.0
 11
83.10434885803596
 21
160.8784642534955
 31
0.0
  0
LINE
  5
B0C
330
18
100
AcDbEntity
  8
想像線
 48
0.3
100
AcDbLine
 10
82.92480658527157
 20
160.8784642534955
 30
0.0
 11
83.18098925179009
 21
160.8784642534955
 31
0.0
  0
SPLINE
  5
B0D
330
18
100
AcDbEntity
  8
想像線
 48
0.3
100
AcDbSpline
210
0.0
220
0.0
230
1.0
 70
     8
 71
     3
 72
    16
 73
    12
 74
    10
 42
0.0000000001
 43
0.0000000001
 44
0.0000000001
 40
0.0
 40
0.0
 40
0.0
 40
0.0
 40
0.0605929757058462
 40
0.0901882747025473
 40
0.104782650590763
 40
0.1201627461789648
 40
0.1421869990747448
 40
0.1622411782446227
 40
0.1831572199081429
 40
0.2182244751044497
 40
0.2529337295549865
 40
0.2529337295549865
 40
0.2529337295549865
 40
0.2529337295549865
 10
84.13101835636256
 20
160.6427444456966
 30
0.0
 10
84.11049882680289
 20
160.6396161049832
 30
0.0
 10
84.07995698681014
 20
160.6349597954303
 30
0.0
 10
84.05233798036684
 20
160.6130968937979
 30
0.0
 10
84.03676277836288
 20
160.6000899225987
 30
0.0
 10
84.03146402525148
 20
160.5828650005147
 30
0.0
 10
84.01723323836337
 20
160.5696389044955
 30
0.0
 10
84.00550302211504
 20
160.5514619912109
 30
0.0
 10
84.00270211237472
 20
160.5264957063929
 30
0.0
 10
84.00475804425143
 20
160.4914593305318
 30
0.0
 10
84.02932351913088
 20
160.4842318076277
 30
0.0
 10
84.04154323780991
 20
160.480636587219
 30
0.0
 11
84.13101835636256
 21
160.6427444456966
 31
0.0
 11
84.07251547795221
 21
160.6269671860298
 31
0.0
 11
84.04842604579004
 21
160.6097747173063
 31
0.0
 11
84.03810203170403
 21
160.599459168813
 31
0.0
 11
84.03121922372385
 21
160.5857051041552
 31
0.0
 11
84.01745380564774
 21
160.5685126354317
 31
0.0
 11
84.00712979156168
 21
160.5513200546095
 31
0.0
 11
84.0036883875716
 21
160.5306890697216
 31
0.0
 11
84.01057119555176
 21
160.4963039080772
 31
0.0
 11
84.04154323780991
 21
160.480636587219
 31
0.0
  0
LINE
  5
B0E
330
18
100
AcDbEntity
  8
想像線
 48
0.3
100
AcDbLine
 10
84.04154323780989
 20
160.480636587219
 30
0.0
 11
84.44665898810104
 21
160.480636587219
 31
0.0
  0
LINE
  5
B0F
330
18
100
AcDbEntity
  8
想像線
 48
0.3
100
AcDbLine
 10
84.13101835636254
 20
160.6427444456966
 30
0.0
 11
84.52749120193436
 21
160.6427444456966
 31
0.0
  0
LINE
  5
B10
330
18
100
AcDbEntity
  8
想像線
 48
0.3
100
AcDbLine
 10
85.0245237397336
 20
160.3834855694529
 30
0.0
 11
85.27133609792057
 21
159.8885068854104
 31
0.0
  0
LINE
  5
B11
330
18
100
AcDbEntity
  8
想像線
 48
0.3
100
AcDbLine
 10
84.77771936270716
 20
160.1468969512848
 30
0.0
 11
84.90656099477439
 21
159.8885068854104
 31
0.0
  0
LINE
  5
B12
330
18
100
AcDbEntity
  8
想像線
 48
0.3
100
AcDbLine
 10
84.77771936270716
 20
160.1468969512848
 30
0.0
 11
84.64887773063992
 21
159.8885068854104
 31
0.0
  0
LINE
  5
B13
330
18
100
AcDbEntity
  8
想像線
 48
0.3
100
AcDbLine
 10
84.90656099477439
 20
159.8885068854104
 30
0.0
 11
85.27133609792057
 21
159.8885068854104
 31
0.0
  0
LINE
  5
B14
330
18
100
AcDbEntity
  8
想像線
 48
0.3
100
AcDbLine
 10
85.0245237397336
 20
160.3834855694529
 30
0.0
 11
85.62418229624745
 21
160.8784642534955
 31
0.0
  0
LINE
  5
B15
330
18
100
AcDbEntity
  8
想像線
 48
0.3
100
AcDbLine
 10
85.25940719310131
 20
160.8784642534955
 30
0.0
 11
85.62418229624745
 21
160.8784642534955
 31
0.0
  0
LINE
  5
B16
330
18
100
AcDbEntity
  8
想像線
 48
0.3
100
AcDbLine
 10
84.77771936270716
 20
160.8784642534955
 30
0.0
 11
85.14250244701377
 21
160.8784642534955
 31
0.0
  0
LINE
  5
B17
330
18
100
AcDbEntity
  8
想像線
 48
0.3
100
AcDbLine
 10
85.14250244701377
 20
160.8784642534955
 30
0.0
 11
85.08860867294968
 21
160.7703810539333
 31
0.0
  0
LINE
  5
B18
330
18
100
AcDbEntity
  8
想像線
 48
0.3
100
AcDbLine
 10
85.08860867294968
 20
160.7703810539333
 30
0.0
 11
85.25940719310131
 21
160.8784642534955
 31
0.0
  0
LINE
  5
B92
102
{ACAD_REACTORS
330
BA8
102
}
330
18
100
AcDbEntity
  8
針
100
AcDbLine
 10
76.72813189798976
 20
87.53536367024009
 30
0.0
 11
76.42395026580937
 21
87.61686889293519
 31
0.0
  0
CIRCLE
  5
B93
102
{ACAD_REACTORS
330
BA8
102
}
330
18
100
AcDbEntity
  8
針
100
AcDbCircle
 10
81.62301246139874
 20
106.4116698942245
 30
0.0
 40
1.9
  0
CIRCLE
  5
B94
330
18
100
AcDbEntity
  8
針
100
AcDbCircle
 10
81.62301246139874
 20
106.4116698942245
 30
0.0
 40
1.5
  0
CIRCLE
  5
B95
330
18
100
AcDbEntity
  8
針
100
AcDbCircle
 10
81.6230124613987
 20
106.4116698942245
 30
0.0
 40
0.0000000000000568
  0
CIRCLE
  5
B96
330
18
100
AcDbEntity
  8
針
100
AcDbCircle
 10
81.62301246139874
 20
106.4116698942245
 30
0.0
 40
0.475
  0
ARC
  5
B97
102
{ACAD_REACTORS
330
BA8
102
}
330
18
100
AcDbEntity
  8
針
100
AcDbCircle
 10
84.29831954488632
 20
102.4867199570863
 30
0.0
 40
3.0
100
AcDbArc
 50
135.5277208229603
 51
165.0
  0
ARC
  5
B98
102
{ACAD_REACTORS
330
BA8
102
}
330
18
100
AcDbEntity
  8
針
100
AcDbCircle
 10
77.34365359560488
 20
104.3502170818245
 30
0.0
 40
3.0
100
AcDbArc
 50
345.0
 51
14.47227917703957
  0
POINT
  5
B99
330
18
100
AcDbEntity
  8
DEFPOINTS
  6
ByBlock
 62
     0
100
AcDbPoint
 10
81.62301246139875
 20
106.4116698942244
 30
0.0
  0
POINT
  5
B9A
330
18
100
AcDbEntity
  8
DEFPOINTS
  6
ByBlock
 62
     0
100
AcDbPoint
 10
81.62301246139875
 20
106.4116698942244
 30
0.0
  0
LINE
  5
B9C
102
{ACAD_REACTORS
330
BA8
102
}
330
18
100
AcDbEntity
  8
針
100
AcDbLine
 10
76.72813189798976
 20
87.53536367024009
 30
0.0
 11
81.40054206601917
 21
103.2631770923938
 31
0.0
  0
LINE
  5
B9D
102
{ACAD_REACTORS
330
BA8
102
}
330
18
100
AcDbEntity
  8
針
100
AcDbLine
 10
76.42395026580937
 20
87.61686889293519
 30
0.0
 11
80.2414310744721
 21
103.5737599465169
 31
0.0
  0
HATCH
  5
BA8
330
18
100
AcDbEntity
  8
針
100
AcDbHatch
 10
0.0
 20
0.0
 30
0.0
210
0.0
220
0.0
230
1.0
  2
SOLID
 70
     1
 71
     1
 91
        1
 92
        7
 72
     1
 73
     1
 93
        6
 10
76.42395026580937
 20
87.61686889293521
 42
0.0
 10
76.72813189798976
 20
87.53536367024009
 42
0.0
 10
81.40054206601917
 20
103.2631770923938
 42
-0.1293106770632744
 10
82.15755110691446
 20
104.5884122502119
 42
-0.2805221108582043
 10
80.24845959307123
 20
105.0999517796234
 42
-0.1293106770632774
 10
80.2414310744721
 20
103.5737599465169
 42
0.0
 97
        6
330
B92
330
B9C
330
B97
330
B93
330
B98
330
B9D
 75
     0
 76
     1
 47
0.0534153898818126
 98
        1
 10
79.09779024777188
 20
97.32909617681535
450
        0
451
        0
460
0.0
461
0.0
452
        0
462
0.0
453
        0
470

  0
LINE
  5
BAA
330
18
100
AcDbEntity
  8
想像線
 48
0.3
100
AcDbLine
 10
86.58919632914182
 20
165.9116698942244
 30
0.0
 11
86.58919632914182
 21
150.9116698942245
 31
0.0
  0
LINE
  5
BAB
330
18
100
AcDbEntity
  8
外形線
100
AcDbLine
 10
72.6230124613987
 20
134.9116698942244
 30
0.0
 11
90.62301246139872
 21
134.9116698942244
 31
0.0
  0
TEXT
  5
BAC
330
18
100
AcDbEntity
  8
文字
100
AcDbText
 10
77.14084759187745
 20
135.6352802882014
 30
0.0
 40
1.7
  1
SIGNAL
 41
1.3
  7
4
100
AcDbText
  0
TEXT
  5
BAE
330
18
100
AcDbEntity
  8
文字
100
AcDbText
 10
74.0458933133292
 20
132.6047546135352
 30
0.0
 40
1.7
  1
INDICATOR
 41
1.199999999999999
  7
4
100
AcDbText
  0
LINE
  5
C55
330
18
100
AcDbEntity
  8
文字
100
AcDbLine
 10
72.73361805295582
 20
134.7342200834989
 30
0.0
 11
72.73361805295582
 21
134.7342200834989
 31
0.0
  0
LINE
  5
C56
330
18
100
AcDbEntity
  8
文字
100
AcDbLine
 10
73.05111805295581
 20
134.7342200834989
 30
0.0
 11
73.05111805295581
 21
134.7342200834989
 31
0.0
  0
LINE
  5
C57
330
18
100
AcDbEntity
  8
文字
100
AcDbLine
 10
73.36861805295581
 20
134.7342200834989
 30
0.0
 11
73.36861805295581
 21
134.7342200834989
 31
0.0
  0
LINE
  5
C58
330
18
100
AcDbEntity
  8
文字
100
AcDbLine
 10
73.68611805295583
 20
134.7342200834989
 30
0.0
 11
73.68611805295583
 21
134.7342200834989
 31
0.0
  0
LINE
  5
C59
330
18
100
AcDbEntity
  8
文字
100
AcDbLine
 10
74.00361805295583
 20
134.7342200834989
 30
0.0
 11
74.00361805295583
 21
134.7342200834989
 31
0.0
  0
LINE
  5
C5A
330
18
100
AcDbEntity
  8
文字
100
AcDbLine
 10
74.32111805295583
 20
134.7342200834989
 30
0.0
 11
74.32111805295583
 21
134.7342200834989
 31
0.0
  0
LINE
  5
C5B
330
18
100
AcDbEntity
  8
文字
100
AcDbLine
 10
74.63861805295585
 20
134.7342200834989
 30
0.0
 11
74.63861805295585
 21
134.7342200834989
 31
0.0
  0
LINE
  5
C5C
330
18
100
AcDbEntity
  8
文字
100
AcDbLine
 10
74.95611805295585
 20
134.7342200834989
 30
0.0
 11
74.95611805295585
 21
134.7342200834989
 31
0.0
  0
LINE
  5
C5D
330
18
100
AcDbEntity
  8
文字
100
AcDbLine
 10
75.27361805295583
 20
134.7342200834989
 30
0.0
 11
75.27361805295583
 21
134.7342200834989
 31
0.0
  0
LINE
  5
C5E
330
18
100
AcDbEntity
  8
文字
100
AcDbLine
 10
75.59111805295583
 20
134.7342200834989
 30
0.0
 11
75.59111805295583
 21
134.7342200834989
 31
0.0
  0
LINE
  5
C5F
330
18
100
AcDbEntity
  8
文字
100
AcDbLine
 10
75.90861805295583
 20
134.7342200834989
 30
0.0
 11
75.90861805295583
 21
134.7342200834989
 31
0.0
  0
LINE
  5
C60
330
18
100
AcDbEntity
  8
文字
100
AcDbLine
 10
76.22611805295585
 20
134.7342200834989
 30
0.0
 11
76.22611805295585
 21
134.7342200834989
 31
0.0
  0
LINE
  5
C61
330
18
100
AcDbEntity
  8
文字
100
AcDbLine
 10
76.54361805295585
 20
134.7342200834989
 30
0.0
 11
76.54361805295585
 21
134.7342200834989
 31
0.0
  0
LINE
  5
C62
330
18
100
AcDbEntity
  8
文字
100
AcDbLine
 10
76.86111805295585
 20
134.7342200834989
 30
0.0
 11
76.86111805295585
 21
134.7342200834989
 31
0.0
  0
LINE
  5
C63
330
18
100
AcDbEntity
  8
文字
100
AcDbLine
 10
77.17861805295587
 20
134.7342200834989
 30
0.0
 11
77.17861805295587
 21
134.7342200834989
 31
0.0
  0
LINE
  5
C64
330
18
100
AcDbEntity
  8
文字
100
AcDbLine
 10
77.49611805295586
 20
134.7342200834989
 30
0.0
 11
77.49611805295586
 21
134.7342200834989
 31
0.0
  0
LINE
  5
C65
330
18
100
AcDbEntity
  8
文字
100
AcDbLine
 10
77.81361805295586
 20
134.7342200834989
 30
0.0
 11
77.81361805295586
 21
134.7342200834989
 31
0.0
  0
LINE
  5
C66
330
18
100
AcDbEntity
  8
文字
100
AcDbLine
 10
78.13111805295585
 20
134.7342200834989
 30
0.0
 11
78.13111805295585
 21
134.7342200834989
 31
0.0
  0
LINE
  5
C67
330
18
100
AcDbEntity
  8
文字
100
AcDbLine
 10
78.44861805295585
 20
134.7342200834989
 30
0.0
 11
78.44861805295585
 21
134.7342200834989
 31
0.0
  0
LINE
  5
C68
330
18
100
AcDbEntity
  8
文字
100
AcDbLine
 10
78.76611805295588
 20
134.7342200834989
 30
0.0
 11
78.76611805295588
 21
134.7342200834989
 31
0.0
  0
LINE
  5
C69
330
18
100
AcDbEntity
  8
文字
100
AcDbLine
 10
79.08361805295587
 20
134.7342200834989
 30
0.0
 11
79.08361805295587
 21
134.7342200834989
 31
0.0
  0
LINE
  5
C6A
330
18
100
AcDbEntity
  8
文字
100
AcDbLine
 10
79.40111805295586
 20
134.7342200834989
 30
0.0
 11
79.40111805295586
 21
134.7342200834989
 31
0.0
  0
LINE
  5
C6B
330
18
100
AcDbEntity
  8
文字
100
AcDbLine
 10
79.71861805295588
 20
134.7342200834989
 30
0.0
 11
79.71861805295588
 21
134.7342200834989
 31
0.0
  0
LINE
  5
C6C
330
18
100
AcDbEntity
  8
文字
100
AcDbLine
 10
80.03611805295589
 20
134.7342200834989
 30
0.0
 11
80.03611805295589
 21
134.7342200834989
 31
0.0
  0
LINE
  5
C6D
330
18
100
AcDbEntity
  8
文字
100
AcDbLine
 10
80.35361805295588
 20
134.7342200834989
 30
0.0
 11
80.35361805295588
 21
134.7342200834989
 31
0.0
  0
LINE
  5
C6E
330
18
100
AcDbEntity
  8
文字
100
AcDbLine
 10
80.67111805295587
 20
134.7342200834989
 30
0.0
 11
80.67111805295587
 21
134.7342200834989
 31
0.0
  0
LINE
  5
C6F
330
18
100
AcDbEntity
  8
文字
100
AcDbLine
 10
80.98861805295587
 20
134.7342200834989
 30
0.0
 11
80.98861805295587
 21
134.7342200834989
 31
0.0
  0
LINE
  5
C70
330
18
100
AcDbEntity
  8
文字
100
AcDbLine
 10
81.3061180529559
 20
134.7342200834989
 30
0.0
 11
81.3061180529559
 21
134.7342200834989
 31
0.0
  0
LINE
  5
C71
330
18
100
AcDbEntity
  8
文字
100
AcDbLine
 10
81.6236180529558
 20
134.7342200834989
 30
0.0
 11
81.6236180529558
 21
134.7342200834989
 31
0.0
  0
LINE
  5
C72
330
18
100
AcDbEntity
  8
文字
100
AcDbLine
 10
81.94111805295582
 20
134.7342200834989
 30
0.0
 11
81.94111805295582
 21
134.7342200834989
 31
0.0
  0
LINE
  5
C73
330
18
100
AcDbEntity
  8
文字
100
AcDbLine
 10
82.25861805295583
 20
134.7342200834989
 30
0.0
 11
82.25861805295583
 21
134.7342200834989
 31
0.0
  0
LINE
  5
C74
330
18
100
AcDbEntity
  8
文字
100
AcDbLine
 10
82.57611805295582
 20
134.7342200834989
 30
0.0
 11
82.57611805295582
 21
134.7342200834989
 31
0.0
  0
LINE
  5
C75
330
18
100
AcDbEntity
  8
文字
100
AcDbLine
 10
82.89361805295584
 20
134.7342200834989
 30
0.0
 11
82.89361805295584
 21
134.7342200834989
 31
0.0
  0
LINE
  5
C76
330
18
100
AcDbEntity
  8
文字
100
AcDbLine
 10
83.21111805295585
 20
134.7342200834989
 30
0.0
 11
83.21111805295585
 21
134.7342200834989
 31
0.0
  0
LINE
  5
C77
330
18
100
AcDbEntity
  8
文字
100
AcDbLine
 10
83.52861805295583
 20
134.7342200834989
 30
0.0
 11
83.52861805295583
 21
134.7342200834989
 31
0.0
  0
LINE
  5
C78
330
18
100
AcDbEntity
  8
文字
100
AcDbLine
 10
83.84611805295582
 20
134.7342200834989
 30
0.0
 11
83.84611805295582
 21
134.7342200834989
 31
0.0
  0
LINE
  5
C79
330
18
100
AcDbEntity
  8
文字
100
AcDbLine
 10
84.16361805295583
 20
134.7342200834989
 30
0.0
 11
84.16361805295583
 21
134.7342200834989
 31
0.0
  0
LINE
  5
C7A
330
18
100
AcDbEntity
  8
文字
100
AcDbLine
 10
84.48111805295585
 20
134.7342200834989
 30
0.0
 11
84.48111805295585
 21
134.7342200834989
 31
0.0
  0
LINE
  5
C7B
330
18
100
AcDbEntity
  8
文字
100
AcDbLine
 10
84.79861805295584
 20
134.7342200834989
 30
0.0
 11
84.79861805295584
 21
134.7342200834989
 31
0.0
  0
LINE
  5
C7C
330
18
100
AcDbEntity
  8
文字
100
AcDbLine
 10
85.11611805295585
 20
134.7342200834989
 30
0.0
 11
85.11611805295585
 21
134.7342200834989
 31
0.0
  0
LINE
  5
C7D
330
18
100
AcDbEntity
  8
文字
100
AcDbLine
 10
85.43361805295587
 20
134.7342200834989
 30
0.0
 11
85.43361805295587
 21
134.7342200834989
 31
0.0
  0
LINE
  5
C7E
330
18
100
AcDbEntity
  8
文字
100
AcDbLine
 10
85.75111805295586
 20
134.7342200834989
 30
0.0
 11
85.75111805295586
 21
134.7342200834989
 31
0.0
  0
LINE
  5
C7F
330
18
100
AcDbEntity
  8
文字
100
AcDbLine
 10
86.06861805295585
 20
134.7342200834989
 30
0.0
 11
86.06861805295585
 21
134.7342200834989
 31
0.0
  0
LINE
  5
C80
330
18
100
AcDbEntity
  8
文字
100
AcDbLine
 10
86.38611805295585
 20
134.7342200834989
 30
0.0
 11
86.38611805295585
 21
134.7342200834989
 31
0.0
  0
LINE
  5
C81
330
18
100
AcDbEntity
  8
文字
100
AcDbLine
 10
86.70361805295584
 20
134.7342200834989
 30
0.0
 11
86.70361805295584
 21
134.7342200834989
 31
0.0
  0
LINE
  5
C82
330
18
100
AcDbEntity
  8
文字
100
AcDbLine
 10
87.02111805295587
 20
134.7342200834989
 30
0.0
 11
87.02111805295587
 21
134.7342200834989
 31
0.0
  0
LINE
  5
C83
330
18
100
AcDbEntity
  8
文字
100
AcDbLine
 10
87.33861805295587
 20
134.7342200834989
 30
0.0
 11
87.33861805295587
 21
134.7342200834989
 31
0.0
  0
LINE
  5
C84
330
18
100
AcDbEntity
  8
文字
100
AcDbLine
 10
87.65611805295586
 20
134.7342200834989
 30
0.0
 11
87.65611805295586
 21
134.7342200834989
 31
0.0
  0
LINE
  5
C85
330
18
100
AcDbEntity
  8
文字
100
AcDbLine
 10
87.97361805295588
 20
134.7342200834989
 30
0.0
 11
87.97361805295588
 21
134.7342200834989
 31
0.0
  0
LINE
  5
C86
330
18
100
AcDbEntity
  8
文字
100
AcDbLine
 10
88.29111805295587
 20
134.7342200834989
 30
0.0
 11
88.29111805295587
 21
134.7342200834989
 31
0.0
  0
LINE
  5
C87
330
18
100
AcDbEntity
  8
文字
100
AcDbLine
 10
88.60861805295588
 20
134.7342200834989
 30
0.0
 11
88.60861805295588
 21
134.7342200834989
 31
0.0
  0
LINE
  5
C88
330
18
100
AcDbEntity
  8
文字
100
AcDbLine
 10
88.92611805295587
 20
134.7342200834989
 30
0.0
 11
88.92611805295587
 21
134.7342200834989
 31
0.0
  0
LINE
  5
C89
330
18
100
AcDbEntity
  8
文字
100
AcDbLine
 10
89.24361805295587
 20
134.7342200834989
 30
0.0
 11
89.24361805295587
 21
134.7342200834989
 31
0.0
  0
LINE
  5
C8A
330
18
100
AcDbEntity
  8
文字
100
AcDbLine
 10
89.56111805295586
 20
134.7342200834989
 30
0.0
 11
89.56111805295586
 21
134.7342200834989
 31
0.0
  0
LINE
  5
C8B
330
18
100
AcDbEntity
  8
文字
100
AcDbLine
 10
89.87861805295585
 20
134.7342200834989
 30
0.0
 11
89.87861805295585
 21
134.7342200834989
 31
0.0
  0
LINE
  5
C8C
330
18
100
AcDbEntity
  8
文字
100
AcDbLine
 10
90.19611805295586
 20
134.7342200834989
 30
0.0
 11
90.19611805295586
 21
134.7342200834989
 31
0.0
  0
LINE
  5
C8D
330
18
100
AcDbEntity
  8
文字
100
AcDbLine
 10
90.51361805295584
 20
134.7342200834989
 30
0.0
 11
90.51361805295584
 21
134.7342200834989
 31
0.0
  0
LINE
  5
C8E
330
18
100
AcDbEntity
  8
文字
100
AcDbLine
 10
72.89236805295582
 20
134.4167200834989
 30
0.0
 11
72.89236805295582
 21
134.4167200834989
 31
0.0
  0
LINE
  5
C8F
330
18
100
AcDbEntity
  8
文字
100
AcDbLine
 10
73.20986805295581
 20
134.4167200834989
 30
0.0
 11
73.20986805295581
 21
134.4167200834989
 31
0.0
  0
LINE
  5
C90
330
18
100
AcDbEntity
  8
文字
100
AcDbLine
 10
73.52736805295581
 20
134.4167200834989
 30
0.0
 11
73.52736805295581
 21
134.4167200834989
 31
0.0
  0
LINE
  5
C91
330
18
100
AcDbEntity
  8
文字
100
AcDbLine
 10
73.84486805295583
 20
134.4167200834989
 30
0.0
 11
73.84486805295583
 21
134.4167200834989
 31
0.0
  0
LINE
  5
C92
330
18
100
AcDbEntity
  8
文字
100
AcDbLine
 10
89.40236805295581
 20
134.4167200834989
 30
0.0
 11
89.40236805295581
 21
134.4167200834989
 31
0.0
  0
LINE
  5
C93
330
18
100
AcDbEntity
  8
文字
100
AcDbLine
 10
89.7198680529558
 20
134.4167200834989
 30
0.0
 11
89.7198680529558
 21
134.4167200834989
 31
0.0
  0
LINE
  5
C94
330
18
100
AcDbEntity
  8
文字
100
AcDbLine
 10
90.03736805295579
 20
134.4167200834989
 30
0.0
 11
90.03736805295579
 21
134.4167200834989
 31
0.0
  0
LINE
  5
C95
330
18
100
AcDbEntity
  8
文字
100
AcDbLine
 10
90.3548680529558
 20
134.4167200834989
 30
0.0
 11
90.3548680529558
 21
134.4167200834989
 31
0.0
  0
LINE
  5
C96
330
18
100
AcDbEntity
  8
文字
100
AcDbLine
 10
72.73361805295582
 20
134.0992200834989
 30
0.0
 11
72.73361805295582
 21
134.0992200834989
 31
0.0
  0
LINE
  5
C97
330
18
100
AcDbEntity
  8
文字
100
AcDbLine
 10
73.05111805295581
 20
134.0992200834989
 30
0.0
 11
73.05111805295581
 21
134.0992200834989
 31
0.0
  0
LINE
  5
C98
330
18
100
AcDbEntity
  8
文字
100
AcDbLine
 10
73.36861805295581
 20
134.0992200834989
 30
0.0
 11
73.36861805295581
 21
134.0992200834989
 31
0.0
  0
LINE
  5
C99
330
18
100
AcDbEntity
  8
文字
100
AcDbLine
 10
73.68611805295583
 20
134.0992200834989
 30
0.0
 11
73.68611805295583
 21
134.0992200834989
 31
0.0
  0
LINE
  5
C9A
330
18
100
AcDbEntity
  8
文字
100
AcDbLine
 10
89.2436180529558
 20
134.0992200834989
 30
0.0
 11
89.2436180529558
 21
134.0992200834989
 31
0.0
  0
LINE
  5
C9B
330
18
100
AcDbEntity
  8
文字
100
AcDbLine
 10
89.56111805295581
 20
134.0992200834989
 30
0.0
 11
89.56111805295581
 21
134.0992200834989
 31
0.0
  0
LINE
  5
C9C
330
18
100
AcDbEntity
  8
文字
100
AcDbLine
 10
89.8786180529558
 20
134.0992200834989
 30
0.0
 11
89.8786180529558
 21
134.0992200834989
 31
0.0
  0
LINE
  5
C9D
330
18
100
AcDbEntity
  8
文字
100
AcDbLine
 10
90.1961180529558
 20
134.0992200834989
 30
0.0
 11
90.1961180529558
 21
134.0992200834989
 31
0.0
  0
LINE
  5
C9E
330
18
100
AcDbEntity
  8
文字
100
AcDbLine
 10
90.51361805295579
 20
134.0992200834989
 30
0.0
 11
90.51361805295579
 21
134.0992200834989
 31
0.0
  0
LINE
  5
C9F
330
18
100
AcDbEntity
  8
文字
100
AcDbLine
 10
72.89236805295582
 20
133.7817200834989
 30
0.0
 11
72.89236805295582
 21
133.7817200834989
 31
0.0
  0
LINE
  5
CA0
330
18
100
AcDbEntity
  8
文字
100
AcDbLine
 10
73.20986805295581
 20
133.7817200834989
 30
0.0
 11
73.20986805295581
 21
133.7817200834989
 31
0.0
  0
LINE
  5
CA1
330
18
100
AcDbEntity
  8
文字
100
AcDbLine
 10
73.52736805295584
 20
133.7817200834989
 30
0.0
 11
73.52736805295584
 21
133.7817200834989
 31
0.0
  0
LINE
  5
CA2
330
18
100
AcDbEntity
  8
文字
100
AcDbLine
 10
73.84486805295583
 20
133.7817200834989
 30
0.0
 11
73.84486805295583
 21
133.7817200834989
 31
0.0
  0
LINE
  5
CA3
330
18
100
AcDbEntity
  8
文字
100
AcDbLine
 10
89.40236805295581
 20
133.7817200834989
 30
0.0
 11
89.40236805295581
 21
133.7817200834989
 31
0.0
  0
LINE
  5
CA4
330
18
100
AcDbEntity
  8
文字
100
AcDbLine
 10
89.7198680529558
 20
133.7817200834989
 30
0.0
 11
89.7198680529558
 21
133.7817200834989
 31
0.0
  0
LINE
  5
CA5
330
18
100
AcDbEntity
  8
文字
100
AcDbLine
 10
90.03736805295579
 20
133.7817200834989
 30
0.0
 11
90.03736805295579
 21
133.7817200834989
 31
0.0
  0
LINE
  5
CA6
330
18
100
AcDbEntity
  8
文字
100
AcDbLine
 10
90.3548680529558
 20
133.7817200834989
 30
0.0
 11
90.3548680529558
 21
133.7817200834989
 31
0.0
  0
LINE
  5
CA7
330
18
100
AcDbEntity
  8
文字
100
AcDbLine
 10
72.73361805295582
 20
133.4642200834989
 30
0.0
 11
72.73361805295582
 21
133.4642200834989
 31
0.0
  0
LINE
  5
CA8
330
18
100
AcDbEntity
  8
文字
100
AcDbLine
 10
73.05111805295581
 20
133.4642200834989
 30
0.0
 11
73.05111805295581
 21
133.4642200834989
 31
0.0
  0
LINE
  5
CA9
330
18
100
AcDbEntity
  8
文字
100
AcDbLine
 10
73.36861805295583
 20
133.4642200834989
 30
0.0
 11
73.36861805295583
 21
133.4642200834989
 31
0.0
  0
LINE
  5
CAA
330
18
100
AcDbEntity
  8
文字
100
AcDbLine
 10
73.68611805295583
 20
133.4642200834989
 30
0.0
 11
73.68611805295583
 21
133.4642200834989
 31
0.0
  0
LINE
  5
CAB
330
18
100
AcDbEntity
  8
文字
100
AcDbLine
 10
89.2436180529558
 20
133.4642200834989
 30
0.0
 11
89.2436180529558
 21
133.4642200834989
 31
0.0
  0
LINE
  5
CAC
330
18
100
AcDbEntity
  8
文字
100
AcDbLine
 10
89.56111805295581
 20
133.4642200834989
 30
0.0
 11
89.56111805295581
 21
133.4642200834989
 31
0.0
  0
LINE
  5
CAD
330
18
100
AcDbEntity
  8
文字
100
AcDbLine
 10
89.8786180529558
 20
133.4642200834989
 30
0.0
 11
89.8786180529558
 21
133.4642200834989
 31
0.0
  0
LINE
  5
CAE
330
18
100
AcDbEntity
  8
文字
100
AcDbLine
 10
90.1961180529558
 20
133.4642200834989
 30
0.0
 11
90.1961180529558
 21
133.4642200834989
 31
0.0
  0
LINE
  5
CAF
330
18
100
AcDbEntity
  8
文字
100
AcDbLine
 10
90.51361805295579
 20
133.4642200834989
 30
0.0
 11
90.51361805295579
 21
133.4642200834989
 31
0.0
  0
LINE
  5
CB0
330
18
100
AcDbEntity
  8
文字
100
AcDbLine
 10
72.89236805295582
 20
133.1467200834989
 30
0.0
 11
72.89236805295582
 21
133.1467200834989
 31
0.0
  0
LINE
  5
CB1
330
18
100
AcDbEntity
  8
文字
100
AcDbLine
 10
73.20986805295584
 20
133.1467200834989
 30
0.0
 11
73.20986805295584
 21
133.1467200834989
 31
0.0
  0
LINE
  5
CB2
330
18
100
AcDbEntity
  8
文字
100
AcDbLine
 10
73.52736805295584
 20
133.1467200834989
 30
0.0
 11
73.52736805295584
 21
133.1467200834989
 31
0.0
  0
LINE
  5
CB3
330
18
100
AcDbEntity
  8
文字
100
AcDbLine
 10
73.84486805295583
 20
133.1467200834989
 30
0.0
 11
73.84486805295583
 21
133.1467200834989
 31
0.0
  0
LINE
  5
CB4
330
18
100
AcDbEntity
  8
文字
100
AcDbLine
 10
89.40236805295581
 20
133.1467200834989
 30
0.0
 11
89.40236805295581
 21
133.1467200834989
 31
0.0
  0
LINE
  5
CB5
330
18
100
AcDbEntity
  8
文字
100
AcDbLine
 10
89.7198680529558
 20
133.1467200834989
 30
0.0
 11
89.7198680529558
 21
133.1467200834989
 31
0.0
  0
LINE
  5
CB6
330
18
100
AcDbEntity
  8
文字
100
AcDbLine
 10
90.03736805295579
 20
133.1467200834989
 30
0.0
 11
90.03736805295579
 21
133.1467200834989
 31
0.0
  0
LINE
  5
CB7
330
18
100
AcDbEntity
  8
文字
100
AcDbLine
 10
90.3548680529558
 20
133.1467200834989
 30
0.0
 11
90.3548680529558
 21
133.1467200834989
 31
0.0
  0
LINE
  5
CB8
330
18
100
AcDbEntity
  8
文字
100
AcDbLine
 10
72.73361805295582
 20
132.8292200834989
 30
0.0
 11
72.73361805295582
 21
132.8292200834989
 31
0.0
  0
LINE
  5
CB9
330
18
100
AcDbEntity
  8
文字
100
AcDbLine
 10
73.05111805295581
 20
132.8292200834989
 30
0.0
 11
73.05111805295581
 21
132.8292200834989
 31
0.0
  0
LINE
  5
CBA
330
18
100
AcDbEntity
  8
文字
100
AcDbLine
 10
73.36861805295581
 20
132.8292200834989
 30
0.0
 11
73.36861805295581
 21
132.8292200834989
 31
0.0
  0
LINE
  5
CBB
330
18
100
AcDbEntity
  8
文字
100
AcDbLine
 10
73.68611805295583
 20
132.8292200834989
 30
0.0
 11
73.68611805295583
 21
132.8292200834989
 31
0.0
  0
LINE
  5
CBC
330
18
100
AcDbEntity
  8
文字
100
AcDbLine
 10
89.2436180529558
 20
132.8292200834989
 30
0.0
 11
89.2436180529558
 21
132.8292200834989
 31
0.0
  0
LINE
  5
CBD
330
18
100
AcDbEntity
  8
文字
100
AcDbLine
 10
89.56111805295581
 20
132.8292200834989
 30
0.0
 11
89.56111805295581
 21
132.8292200834989
 31
0.0
  0
LINE
  5
CBE
330
18
100
AcDbEntity
  8
文字
100
AcDbLine
 10
89.8786180529558
 20
132.8292200834989
 30
0.0
 11
89.8786180529558
 21
132.8292200834989
 31
0.0
  0
LINE
  5
CBF
330
18
100
AcDbEntity
  8
文字
100
AcDbLine
 10
90.1961180529558
 20
132.8292200834989
 30
0.0
 11
90.1961180529558
 21
132.8292200834989
 31
0.0
  0
LINE
  5
CC0
330
18
100
AcDbEntity
  8
文字
100
AcDbLine
 10
90.51361805295579
 20
132.8292200834989
 30
0.0
 11
90.51361805295579
 21
132.8292200834989
 31
0.0
  0
LINE
  5
CC1
330
18
100
AcDbEntity
  8
文字
100
AcDbLine
 10
72.89236805295582
 20
132.5117200834989
 30
0.0
 11
72.89236805295582
 21
132.5117200834989
 31
0.0
  0
LINE
  5
CC2
330
18
100
AcDbEntity
  8
文字
100
AcDbLine
 10
73.20986805295581
 20
132.5117200834989
 30
0.0
 11
73.20986805295581
 21
132.5117200834989
 31
0.0
  0
LINE
  5
CC3
330
18
100
AcDbEntity
  8
文字
100
AcDbLine
 10
73.52736805295581
 20
132.5117200834989
 30
0.0
 11
73.52736805295581
 21
132.5117200834989
 31
0.0
  0
LINE
  5
CC4
330
18
100
AcDbEntity
  8
文字
100
AcDbLine
 10
73.84486805295583
 20
132.5117200834989
 30
0.0
 11
73.84486805295583
 21
132.5117200834989
 31
0.0
  0
LINE
  5
CC5
330
18
100
AcDbEntity
  8
文字
100
AcDbLine
 10
89.40236805295581
 20
132.5117200834989
 30
0.0
 11
89.40236805295581
 21
132.5117200834989
 31
0.0
  0
LINE
  5
CC6
330
18
100
AcDbEntity
  8
文字
100
AcDbLine
 10
89.7198680529558
 20
132.5117200834989
 30
0.0
 11
89.7198680529558
 21
132.5117200834989
 31
0.0
  0
LINE
  5
CC7
330
18
100
AcDbEntity
  8
文字
100
AcDbLine
 10
90.03736805295579
 20
132.5117200834989
 30
0.0
 11
90.03736805295579
 21
132.5117200834989
 31
0.0
  0
LINE
  5
CC8
330
18
100
AcDbEntity
  8
文字
100
AcDbLine
 10
90.3548680529558
 20
132.5117200834989
 30
0.0
 11
90.3548680529558
 21
132.5117200834989
 31
0.0
  0
LINE
  5
CC9
330
18
100
AcDbEntity
  8
文字
100
AcDbLine
 10
72.73361805295582
 20
132.1942200834989
 30
0.0
 11
72.73361805295582
 21
132.1942200834989
 31
0.0
  0
LINE
  5
CCA
330
18
100
AcDbEntity
  8
文字
100
AcDbLine
 10
73.05111805295581
 20
132.1942200834989
 30
0.0
 11
73.05111805295581
 21
132.1942200834989
 31
0.0
  0
LINE
  5
CCB
330
18
100
AcDbEntity
  8
文字
100
AcDbLine
 10
73.36861805295581
 20
132.1942200834989
 30
0.0
 11
73.36861805295581
 21
132.1942200834989
 31
0.0
  0
LINE
  5
CCC
330
18
100
AcDbEntity
  8
文字
100
AcDbLine
 10
73.68611805295583
 20
132.1942200834989
 30
0.0
 11
73.68611805295583
 21
132.1942200834989
 31
0.0
  0
LINE
  5
CCD
330
18
100
AcDbEntity
  8
文字
100
AcDbLine
 10
89.2436180529558
 20
132.1942200834989
 30
0.0
 11
89.2436180529558
 21
132.1942200834989
 31
0.0
  0
LINE
  5
CCE
330
18
100
AcDbEntity
  8
文字
100
AcDbLine
 10
89.56111805295581
 20
132.1942200834989
 30
0.0
 11
89.56111805295581
 21
132.1942200834989
 31
0.0
  0
LINE
  5
CCF
330
18
100
AcDbEntity
  8
文字
100
AcDbLine
 10
89.8786180529558
 20
132.1942200834989
 30
0.0
 11
89.8786180529558
 21
132.1942200834989
 31
0.0
  0
LINE
  5
CD0
330
18
100
AcDbEntity
  8
文字
100
AcDbLine
 10
90.1961180529558
 20
132.1942200834989
 30
0.0
 11
90.1961180529558
 21
132.1942200834989
 31
0.0
  0
LINE
  5
CD1
330
18
100
AcDbEntity
  8
文字
100
AcDbLine
 10
90.51361805295579
 20
132.1942200834989
 30
0.0
 11
90.51361805295579
 21
132.1942200834989
 31
0.0
  0
LINE
  5
CD2
330
18
100
AcDbEntity
  8
文字
100
AcDbLine
 10
72.89236805295582
 20
131.8767200834989
 30
0.0
 11
72.89236805295582
 21
131.8767200834989
 31
0.0
  0
LINE
  5
CD3
330
18
100
AcDbEntity
  8
文字
100
AcDbLine
 10
73.20986805295581
 20
131.8767200834989
 30
0.0
 11
73.20986805295581
 21
131.8767200834989
 31
0.0
  0
LINE
  5
CD4
330
18
100
AcDbEntity
  8
文字
100
AcDbLine
 10
73.52736805295584
 20
131.8767200834989
 30
0.0
 11
73.52736805295584
 21
131.8767200834989
 31
0.0
  0
LINE
  5
CD5
330
18
100
AcDbEntity
  8
文字
100
AcDbLine
 10
73.84486805295583
 20
131.8767200834989
 30
0.0
 11
73.84486805295583
 21
131.8767200834989
 31
0.0
  0
LINE
  5
CD6
330
18
100
AcDbEntity
  8
文字
100
AcDbLine
 10
74.16236805295582
 20
131.8767200834989
 30
0.0
 11
74.16236805295582
 21
131.8767200834989
 31
0.0
  0
LINE
  5
CD7
330
18
100
AcDbEntity
  8
文字
100
AcDbLine
 10
74.47986805295585
 20
131.8767200834989
 30
0.0
 11
74.47986805295585
 21
131.8767200834989
 31
0.0
  0
LINE
  5
CD8
330
18
100
AcDbEntity
  8
文字
100
AcDbLine
 10
74.79736805295584
 20
131.8767200834989
 30
0.0
 11
74.79736805295584
 21
131.8767200834989
 31
0.0
  0
LINE
  5
CD9
330
18
100
AcDbEntity
  8
文字
100
AcDbLine
 10
75.11486805295584
 20
131.8767200834989
 30
0.0
 11
75.11486805295584
 21
131.8767200834989
 31
0.0
  0
LINE
  5
CDA
330
18
100
AcDbEntity
  8
文字
100
AcDbLine
 10
75.43236805295584
 20
131.8767200834989
 30
0.0
 11
75.43236805295584
 21
131.8767200834989
 31
0.0
  0
LINE
  5
CDB
330
18
100
AcDbEntity
  8
文字
100
AcDbLine
 10
75.74986805295583
 20
131.8767200834989
 30
0.0
 11
75.74986805295583
 21
131.8767200834989
 31
0.0
  0
LINE
  5
CDC
330
18
100
AcDbEntity
  8
文字
100
AcDbLine
 10
76.06736805295586
 20
131.8767200834989
 30
0.0
 11
76.06736805295586
 21
131.8767200834989
 31
0.0
  0
LINE
  5
CDD
330
18
100
AcDbEntity
  8
文字
100
AcDbLine
 10
76.38486805295585
 20
131.8767200834989
 30
0.0
 11
76.38486805295585
 21
131.8767200834989
 31
0.0
  0
LINE
  5
CDE
330
18
100
AcDbEntity
  8
文字
100
AcDbLine
 10
76.70236805295584
 20
131.8767200834989
 30
0.0
 11
76.70236805295584
 21
131.8767200834989
 31
0.0
  0
LINE
  5
CDF
330
18
100
AcDbEntity
  8
文字
100
AcDbLine
 10
77.01986805295587
 20
131.8767200834989
 30
0.0
 11
77.01986805295587
 21
131.8767200834989
 31
0.0
  0
LINE
  5
CE0
330
18
100
AcDbEntity
  8
文字
100
AcDbLine
 10
77.33736805295587
 20
131.8767200834989
 30
0.0
 11
77.33736805295587
 21
131.8767200834989
 31
0.0
  0
LINE
  5
CE1
330
18
100
AcDbEntity
  8
文字
100
AcDbLine
 10
77.65486805295586
 20
131.8767200834989
 30
0.0
 11
77.65486805295586
 21
131.8767200834989
 31
0.0
  0
LINE
  5
CE2
330
18
100
AcDbEntity
  8
文字
100
AcDbLine
 10
77.97236805295586
 20
131.8767200834989
 30
0.0
 11
77.97236805295586
 21
131.8767200834989
 31
0.0
  0
LINE
  5
CE3
330
18
100
AcDbEntity
  8
文字
100
AcDbLine
 10
78.28986805295585
 20
131.8767200834989
 30
0.0
 11
78.28986805295585
 21
131.8767200834989
 31
0.0
  0
LINE
  5
CE4
330
18
100
AcDbEntity
  8
文字
100
AcDbLine
 10
78.60736805295587
 20
131.8767200834989
 30
0.0
 11
78.60736805295587
 21
131.8767200834989
 31
0.0
  0
LINE
  5
CE5
330
18
100
AcDbEntity
  8
文字
100
AcDbLine
 10
78.92486805295587
 20
131.8767200834989
 30
0.0
 11
78.92486805295587
 21
131.8767200834989
 31
0.0
  0
LINE
  5
CE6
330
18
100
AcDbEntity
  8
文字
100
AcDbLine
 10
79.24236805295587
 20
131.8767200834989
 30
0.0
 11
79.24236805295587
 21
131.8767200834989
 31
0.0
  0
LINE
  5
CE7
330
18
100
AcDbEntity
  8
文字
100
AcDbLine
 10
79.55986805295589
 20
131.8767200834989
 30
0.0
 11
79.55986805295589
 21
131.8767200834989
 31
0.0
  0
LINE
  5
CE8
330
18
100
AcDbEntity
  8
文字
100
AcDbLine
 10
79.87736805295589
 20
131.8767200834989
 30
0.0
 11
79.87736805295589
 21
131.8767200834989
 31
0.0
  0
LINE
  5
CE9
330
18
100
AcDbEntity
  8
文字
100
AcDbLine
 10
80.19486805295588
 20
131.8767200834989
 30
0.0
 11
80.19486805295588
 21
131.8767200834989
 31
0.0
  0
LINE
  5
CEA
330
18
100
AcDbEntity
  8
文字
100
AcDbLine
 10
80.51236805295587
 20
131.8767200834989
 30
0.0
 11
80.51236805295587
 21
131.8767200834989
 31
0.0
  0
LINE
  5
CEB
330
18
100
AcDbEntity
  8
文字
100
AcDbLine
 10
80.82986805295588
 20
131.8767200834989
 30
0.0
 11
80.82986805295588
 21
131.8767200834989
 31
0.0
  0
LINE
  5
CEC
330
18
100
AcDbEntity
  8
文字
100
AcDbLine
 10
81.1473680529559
 20
131.8767200834989
 30
0.0
 11
81.1473680529559
 21
131.8767200834989
 31
0.0
  0
LINE
  5
CED
330
18
100
AcDbEntity
  8
文字
100
AcDbLine
 10
81.46486805295589
 20
131.8767200834989
 30
0.0
 11
81.46486805295589
 21
131.8767200834989
 31
0.0
  0
LINE
  5
CEE
330
18
100
AcDbEntity
  8
文字
100
AcDbLine
 10
81.78236805295583
 20
131.8767200834989
 30
0.0
 11
81.78236805295583
 21
131.8767200834989
 31
0.0
  0
LINE
  5
CEF
330
18
100
AcDbEntity
  8
文字
100
AcDbLine
 10
82.09986805295583
 20
131.8767200834989
 30
0.0
 11
82.09986805295583
 21
131.8767200834989
 31
0.0
  0
LINE
  5
CF0
330
18
100
AcDbEntity
  8
文字
100
AcDbLine
 10
82.41736805295582
 20
131.8767200834989
 30
0.0
 11
82.41736805295582
 21
131.8767200834989
 31
0.0
  0
LINE
  5
CF1
330
18
100
AcDbEntity
  8
文字
100
AcDbLine
 10
82.73486805295585
 20
131.8767200834989
 30
0.0
 11
82.73486805295585
 21
131.8767200834989
 31
0.0
  0
LINE
  5
CF2
330
18
100
AcDbEntity
  8
文字
100
AcDbLine
 10
83.05236805295583
 20
131.8767200834989
 30
0.0
 11
83.05236805295583
 21
131.8767200834989
 31
0.0
  0
LINE
  5
CF3
330
18
100
AcDbEntity
  8
文字
100
AcDbLine
 10
83.36986805295584
 20
131.8767200834989
 30
0.0
 11
83.36986805295584
 21
131.8767200834989
 31
0.0
  0
LINE
  5
CF4
330
18
100
AcDbEntity
  8
文字
100
AcDbLine
 10
83.68736805295583
 20
131.8767200834989
 30
0.0
 11
83.68736805295583
 21
131.8767200834989
 31
0.0
  0
LINE
  5
CF5
330
18
100
AcDbEntity
  8
文字
100
AcDbLine
 10
84.00486805295583
 20
131.8767200834989
 30
0.0
 11
84.00486805295583
 21
131.8767200834989
 31
0.0
  0
LINE
  5
CF6
330
18
100
AcDbEntity
  8
文字
100
AcDbLine
 10
84.32236805295586
 20
131.8767200834989
 30
0.0
 11
84.32236805295586
 21
131.8767200834989
 31
0.0
  0
LINE
  5
CF7
330
18
100
AcDbEntity
  8
文字
100
AcDbLine
 10
84.63986805295585
 20
131.8767200834989
 30
0.0
 11
84.63986805295585
 21
131.8767200834989
 31
0.0
  0
LINE
  5
CF8
330
18
100
AcDbEntity
  8
文字
100
AcDbLine
 10
84.95736805295583
 20
131.8767200834989
 30
0.0
 11
84.95736805295583
 21
131.8767200834989
 31
0.0
  0
LINE
  5
CF9
330
18
100
AcDbEntity
  8
文字
100
AcDbLine
 10
85.27486805295586
 20
131.8767200834989
 30
0.0
 11
85.27486805295586
 21
131.8767200834989
 31
0.0
  0
LINE
  5
CFA
330
18
100
AcDbEntity
  8
文字
100
AcDbLine
 10
85.59236805295586
 20
131.8767200834989
 30
0.0
 11
85.59236805295586
 21
131.8767200834989
 31
0.0
  0
LINE
  5
CFB
330
18
100
AcDbEntity
  8
文字
100
AcDbLine
 10
85.90986805295585
 20
131.8767200834989
 30
0.0
 11
85.90986805295585
 21
131.8767200834989
 31
0.0
  0
LINE
  5
CFC
330
18
100
AcDbEntity
  8
文字
100
AcDbLine
 10
86.22736805295586
 20
131.8767200834989
 30
0.0
 11
86.22736805295586
 21
131.8767200834989
 31
0.0
  0
LINE
  5
CFD
330
18
100
AcDbEntity
  8
文字
100
AcDbLine
 10
86.54486805295585
 20
131.8767200834989
 30
0.0
 11
86.54486805295585
 21
131.8767200834989
 31
0.0
  0
LINE
  5
CFE
330
18
100
AcDbEntity
  8
文字
100
AcDbLine
 10
86.86236805295587
 20
131.8767200834989
 30
0.0
 11
86.86236805295587
 21
131.8767200834989
 31
0.0
  0
LINE
  5
CFF
330
18
100
AcDbEntity
  8
文字
100
AcDbLine
 10
87.17986805295586
 20
131.8767200834989
 30
0.0
 11
87.17986805295586
 21
131.8767200834989
 31
0.0
  0
LINE
  5
D00
330
18
100
AcDbEntity
  8
文字
100
AcDbLine
 10
87.49736805295587
 20
131.8767200834989
 30
0.0
 11
87.49736805295587
 21
131.8767200834989
 31
0.0
  0
LINE
  5
D01
330
18
100
AcDbEntity
  8
文字
100
AcDbLine
 10
87.81486805295589
 20
131.8767200834989
 30
0.0
 11
87.81486805295589
 21
131.8767200834989
 31
0.0
  0
LINE
  5
D02
330
18
100
AcDbEntity
  8
文字
100
AcDbLine
 10
88.13236805295588
 20
131.8767200834989
 30
0.0
 11
88.13236805295588
 21
131.8767200834989
 31
0.0
  0
LINE
  5
D03
330
18
100
AcDbEntity
  8
文字
100
AcDbLine
 10
88.44986805295588
 20
131.8767200834989
 30
0.0
 11
88.44986805295588
 21
131.8767200834989
 31
0.0
  0
LINE
  5
D04
330
18
100
AcDbEntity
  8
文字
100
AcDbLine
 10
88.76736805295587
 20
131.8767200834989
 30
0.0
 11
88.76736805295587
 21
131.8767200834989
 31
0.0
  0
LINE
  5
D05
330
18
100
AcDbEntity
  8
文字
100
AcDbLine
 10
89.08486805295586
 20
131.8767200834989
 30
0.0
 11
89.08486805295586
 21
131.8767200834989
 31
0.0
  0
LINE
  5
D06
330
18
100
AcDbEntity
  8
文字
100
AcDbLine
 10
89.40236805295587
 20
131.8767200834989
 30
0.0
 11
89.40236805295587
 21
131.8767200834989
 31
0.0
  0
LINE
  5
D07
330
18
100
AcDbEntity
  8
文字
100
AcDbLine
 10
89.71986805295586
 20
131.8767200834989
 30
0.0
 11
89.71986805295586
 21
131.8767200834989
 31
0.0
  0
LINE
  5
D08
330
18
100
AcDbEntity
  8
文字
100
AcDbLine
 10
90.03736805295586
 20
131.8767200834989
 30
0.0
 11
90.03736805295586
 21
131.8767200834989
 31
0.0
  0
LINE
  5
D09
330
18
100
AcDbEntity
  8
文字
100
AcDbLine
 10
90.35486805295585
 20
131.8767200834989
 30
0.0
 11
90.35486805295585
 21
131.8767200834989
 31
0.0
  0
LINE
  5
D0A
330
18
100
AcDbEntity
  8
文字
100
AcDbLine
 10
72.73361805295582
 20
131.5592200834989
 30
0.0
 11
72.73361805295582
 21
131.5592200834989
 31
0.0
  0
LINE
  5
D0B
330
18
100
AcDbEntity
  8
文字
100
AcDbLine
 10
73.05111805295581
 20
131.5592200834989
 30
0.0
 11
73.05111805295581
 21
131.5592200834989
 31
0.0
  0
LINE
  5
D0C
330
18
100
AcDbEntity
  8
文字
100
AcDbLine
 10
73.36861805295583
 20
131.5592200834989
 30
0.0
 11
73.36861805295583
 21
131.5592200834989
 31
0.0
  0
LINE
  5
D0D
330
18
100
AcDbEntity
  8
文字
100
AcDbLine
 10
73.68611805295583
 20
131.5592200834989
 30
0.0
 11
73.68611805295583
 21
131.5592200834989
 31
0.0
  0
LINE
  5
D0E
330
18
100
AcDbEntity
  8
文字
100
AcDbLine
 10
74.00361805295583
 20
131.5592200834989
 30
0.0
 11
74.00361805295583
 21
131.5592200834989
 31
0.0
  0
LINE
  5
D0F
330
18
100
AcDbEntity
  8
文字
100
AcDbLine
 10
74.32111805295585
 20
131.5592200834989
 30
0.0
 11
74.32111805295585
 21
131.5592200834989
 31
0.0
  0
LINE
  5
D10
330
18
100
AcDbEntity
  8
文字
100
AcDbLine
 10
74.63861805295585
 20
131.5592200834989
 30
0.0
 11
74.63861805295585
 21
131.5592200834989
 31
0.0
  0
LINE
  5
D11
330
18
100
AcDbEntity
  8
文字
100
AcDbLine
 10
74.95611805295585
 20
131.5592200834989
 30
0.0
 11
74.95611805295585
 21
131.5592200834989
 31
0.0
  0
LINE
  5
D12
330
18
100
AcDbEntity
  8
文字
100
AcDbLine
 10
75.27361805295583
 20
131.5592200834989
 30
0.0
 11
75.27361805295583
 21
131.5592200834989
 31
0.0
  0
LINE
  5
D13
330
18
100
AcDbEntity
  8
文字
100
AcDbLine
 10
75.59111805295583
 20
131.5592200834989
 30
0.0
 11
75.59111805295583
 21
131.5592200834989
 31
0.0
  0
LINE
  5
D14
330
18
100
AcDbEntity
  8
文字
100
AcDbLine
 10
75.90861805295586
 20
131.5592200834989
 30
0.0
 11
75.90861805295586
 21
131.5592200834989
 31
0.0
  0
LINE
  5
D15
330
18
100
AcDbEntity
  8
文字
100
AcDbLine
 10
76.22611805295585
 20
131.5592200834989
 30
0.0
 11
76.22611805295585
 21
131.5592200834989
 31
0.0
  0
LINE
  5
D16
330
18
100
AcDbEntity
  8
文字
100
AcDbLine
 10
76.54361805295585
 20
131.5592200834989
 30
0.0
 11
76.54361805295585
 21
131.5592200834989
 31
0.0
  0
LINE
  5
D17
330
18
100
AcDbEntity
  8
文字
100
AcDbLine
 10
76.86111805295587
 20
131.5592200834989
 30
0.0
 11
76.86111805295587
 21
131.5592200834989
 31
0.0
  0
LINE
  5
D18
330
18
100
AcDbEntity
  8
文字
100
AcDbLine
 10
77.17861805295587
 20
131.5592200834989
 30
0.0
 11
77.17861805295587
 21
131.5592200834989
 31
0.0
  0
LINE
  5
D19
330
18
100
AcDbEntity
  8
文字
100
AcDbLine
 10
77.49611805295586
 20
131.5592200834989
 30
0.0
 11
77.49611805295586
 21
131.5592200834989
 31
0.0
  0
LINE
  5
D1A
330
18
100
AcDbEntity
  8
文字
100
AcDbLine
 10
77.81361805295586
 20
131.5592200834989
 30
0.0
 11
77.81361805295586
 21
131.5592200834989
 31
0.0
  0
LINE
  5
D1B
330
18
100
AcDbEntity
  8
文字
100
AcDbLine
 10
78.13111805295585
 20
131.5592200834989
 30
0.0
 11
78.13111805295585
 21
131.5592200834989
 31
0.0
  0
LINE
  5
D1C
330
18
100
AcDbEntity
  8
文字
100
AcDbLine
 10
78.44861805295588
 20
131.5592200834989
 30
0.0
 11
78.44861805295588
 21
131.5592200834989
 31
0.0
  0
LINE
  5
D1D
330
18
100
AcDbEntity
  8
文字
100
AcDbLine
 10
78.76611805295588
 20
131.5592200834989
 30
0.0
 11
78.76611805295588
 21
131.5592200834989
 31
0.0
  0
LINE
  5
D1E
330
18
100
AcDbEntity
  8
文字
100
AcDbLine
 10
79.08361805295587
 20
131.5592200834989
 30
0.0
 11
79.08361805295587
 21
131.5592200834989
 31
0.0
  0
LINE
  5
D1F
330
18
100
AcDbEntity
  8
文字
100
AcDbLine
 10
79.4011180529559
 20
131.5592200834989
 30
0.0
 11
79.4011180529559
 21
131.5592200834989
 31
0.0
  0
LINE
  5
D20
330
18
100
AcDbEntity
  8
文字
100
AcDbLine
 10
79.71861805295588
 20
131.5592200834989
 30
0.0
 11
79.71861805295588
 21
131.5592200834989
 31
0.0
  0
LINE
  5
D21
330
18
100
AcDbEntity
  8
文字
100
AcDbLine
 10
80.03611805295589
 20
131.5592200834989
 30
0.0
 11
80.03611805295589
 21
131.5592200834989
 31
0.0
  0
LINE
  5
D22
330
18
100
AcDbEntity
  8
文字
100
AcDbLine
 10
80.35361805295588
 20
131.5592200834989
 30
0.0
 11
80.35361805295588
 21
131.5592200834989
 31
0.0
  0
LINE
  5
D23
330
18
100
AcDbEntity
  8
文字
100
AcDbLine
 10
80.67111805295587
 20
131.5592200834989
 30
0.0
 11
80.67111805295587
 21
131.5592200834989
 31
0.0
  0
LINE
  5
D24
330
18
100
AcDbEntity
  8
文字
100
AcDbLine
 10
80.98861805295589
 20
131.5592200834989
 30
0.0
 11
80.98861805295589
 21
131.5592200834989
 31
0.0
  0
LINE
  5
D25
330
18
100
AcDbEntity
  8
文字
100
AcDbLine
 10
81.3061180529559
 20
131.5592200834989
 30
0.0
 11
81.3061180529559
 21
131.5592200834989
 31
0.0
  0
LINE
  5
D26
330
18
100
AcDbEntity
  8
文字
100
AcDbLine
 10
81.62361805295583
 20
131.5592200834989
 30
0.0
 11
81.62361805295583
 21
131.5592200834989
 31
0.0
  0
LINE
  5
D27
330
18
100
AcDbEntity
  8
文字
100
AcDbLine
 10
81.94111805295582
 20
131.5592200834989
 30
0.0
 11
81.94111805295582
 21
131.5592200834989
 31
0.0
  0
LINE
  5
D28
330
18
100
AcDbEntity
  8
文字
100
AcDbLine
 10
82.25861805295583
 20
131.5592200834989
 30
0.0
 11
82.25861805295583
 21
131.5592200834989
 31
0.0
  0
LINE
  5
D29
330
18
100
AcDbEntity
  8
文字
100
AcDbLine
 10
82.57611805295585
 20
131.5592200834989
 30
0.0
 11
82.57611805295585
 21
131.5592200834989
 31
0.0
  0
LINE
  5
D2A
330
18
100
AcDbEntity
  8
文字
100
AcDbLine
 10
82.89361805295584
 20
131.5592200834989
 30
0.0
 11
82.89361805295584
 21
131.5592200834989
 31
0.0
  0
LINE
  5
D2B
330
18
100
AcDbEntity
  8
文字
100
AcDbLine
 10
83.21111805295585
 20
131.5592200834989
 30
0.0
 11
83.21111805295585
 21
131.5592200834989
 31
0.0
  0
LINE
  5
D2C
330
18
100
AcDbEntity
  8
文字
100
AcDbLine
 10
83.52861805295583
 20
131.5592200834989
 30
0.0
 11
83.52861805295583
 21
131.5592200834989
 31
0.0
  0
LINE
  5
D2D
330
18
100
AcDbEntity
  8
文字
100
AcDbLine
 10
83.84611805295582
 20
131.5592200834989
 30
0.0
 11
83.84611805295582
 21
131.5592200834989
 31
0.0
  0
LINE
  5
D2E
330
18
100
AcDbEntity
  8
文字
100
AcDbLine
 10
84.16361805295585
 20
131.5592200834989
 30
0.0
 11
84.16361805295585
 21
131.5592200834989
 31
0.0
  0
LINE
  5
D2F
330
18
100
AcDbEntity
  8
文字
100
AcDbLine
 10
84.48111805295585
 20
131.5592200834989
 30
0.0
 11
84.48111805295585
 21
131.5592200834989
 31
0.0
  0
LINE
  5
D30
330
18
100
AcDbEntity
  8
文字
100
AcDbLine
 10
84.79861805295584
 20
131.5592200834989
 30
0.0
 11
84.79861805295584
 21
131.5592200834989
 31
0.0
  0
LINE
  5
D31
330
18
100
AcDbEntity
  8
文字
100
AcDbLine
 10
85.11611805295586
 20
131.5592200834989
 30
0.0
 11
85.11611805295586
 21
131.5592200834989
 31
0.0
  0
LINE
  5
D32
330
18
100
AcDbEntity
  8
文字
100
AcDbLine
 10
85.43361805295587
 20
131.5592200834989
 30
0.0
 11
85.43361805295587
 21
131.5592200834989
 31
0.0
  0
LINE
  5
D33
330
18
100
AcDbEntity
  8
文字
100
AcDbLine
 10
85.75111805295586
 20
131.5592200834989
 30
0.0
 11
85.75111805295586
 21
131.5592200834989
 31
0.0
  0
LINE
  5
D34
330
18
100
AcDbEntity
  8
文字
100
AcDbLine
 10
86.06861805295585
 20
131.5592200834989
 30
0.0
 11
86.06861805295585
 21
131.5592200834989
 31
0.0
  0
LINE
  5
D35
330
18
100
AcDbEntity
  8
文字
100
AcDbLine
 10
86.38611805295585
 20
131.5592200834989
 30
0.0
 11
86.38611805295585
 21
131.5592200834989
 31
0.0
  0
LINE
  5
D36
330
18
100
AcDbEntity
  8
文字
100
AcDbLine
 10
86.70361805295588
 20
131.5592200834989
 30
0.0
 11
86.70361805295588
 21
131.5592200834989
 31
0.0
  0
LINE
  5
D37
330
18
100
AcDbEntity
  8
文字
100
AcDbLine
 10
87.02111805295587
 20
131.5592200834989
 30
0.0
 11
87.02111805295587
 21
131.5592200834989
 31
0.0
  0
LINE
  5
D38
330
18
100
AcDbEntity
  8
文字
100
AcDbLine
 10
87.33861805295587
 20
131.5592200834989
 30
0.0
 11
87.33861805295587
 21
131.5592200834989
 31
0.0
  0
LINE
  5
D39
330
18
100
AcDbEntity
  8
文字
100
AcDbLine
 10
87.6561180529559
 20
131.5592200834989
 30
0.0
 11
87.6561180529559
 21
131.5592200834989
 31
0.0
  0
LINE
  5
D3A
330
18
100
AcDbEntity
  8
文字
100
AcDbLine
 10
87.97361805295588
 20
131.5592200834989
 30
0.0
 11
87.97361805295588
 21
131.5592200834989
 31
0.0
  0
LINE
  5
D3B
330
18
100
AcDbEntity
  8
文字
100
AcDbLine
 10
88.29111805295587
 20
131.5592200834989
 30
0.0
 11
88.29111805295587
 21
131.5592200834989
 31
0.0
  0
LINE
  5
D3C
330
18
100
AcDbEntity
  8
文字
100
AcDbLine
 10
88.60861805295588
 20
131.5592200834989
 30
0.0
 11
88.60861805295588
 21
131.5592200834989
 31
0.0
  0
LINE
  5
D3D
330
18
100
AcDbEntity
  8
文字
100
AcDbLine
 10
88.92611805295587
 20
131.5592200834989
 30
0.0
 11
88.92611805295587
 21
131.5592200834989
 31
0.0
  0
LINE
  5
D3E
330
18
100
AcDbEntity
  8
文字
100
AcDbLine
 10
89.24361805295587
 20
131.5592200834989
 30
0.0
 11
89.24361805295587
 21
131.5592200834989
 31
0.0
  0
LINE
  5
D3F
330
18
100
AcDbEntity
  8
文字
100
AcDbLine
 10
89.56111805295586
 20
131.5592200834989
 30
0.0
 11
89.56111805295586
 21
131.5592200834989
 31
0.0
  0
LINE
  5
D40
330
18
100
AcDbEntity
  8
文字
100
AcDbLine
 10
89.87861805295585
 20
131.5592200834989
 30
0.0
 11
89.87861805295585
 21
131.5592200834989
 31
0.0
  0
LINE
  5
D41
330
18
100
AcDbEntity
  8
文字
100
AcDbLine
 10
90.19611805295586
 20
131.5592200834989
 30
0.0
 11
90.19611805295586
 21
131.5592200834989
 31
0.0
  0
LINE
  5
D42
330
18
100
AcDbEntity
  8
文字
100
AcDbLine
 10
90.51361805295584
 20
131.5592200834989
 30
0.0
 11
90.51361805295584
 21
131.5592200834989
 31
0.0
  0
LINE
  5
D43
330
18
100
AcDbEntity
  8
文字
100
AcDbLine
 10
72.89236805295582
 20
131.2417200834989
 30
0.0
 11
72.89236805295582
 21
131.2417200834989
 31
0.0
  0
LINE
  5
D44
330
18
100
AcDbEntity
  8
文字
100
AcDbLine
 10
73.20986805295584
 20
131.2417200834989
 30
0.0
 11
73.20986805295584
 21
131.2417200834989
 31
0.0
  0
LINE
  5
D45
330
18
100
AcDbEntity
  8
文字
100
AcDbLine
 10
73.52736805295584
 20
131.2417200834989
 30
0.0
 11
73.52736805295584
 21
131.2417200834989
 31
0.0
  0
LINE
  5
D46
330
18
100
AcDbEntity
  8
文字
100
AcDbLine
 10
73.84486805295583
 20
131.2417200834989
 30
0.0
 11
73.84486805295583
 21
131.2417200834989
 31
0.0
  0
LINE
  5
D47
330
18
100
AcDbEntity
  8
文字
100
AcDbLine
 10
74.16236805295586
 20
131.2417200834989
 30
0.0
 11
74.16236805295586
 21
131.2417200834989
 31
0.0
  0
LINE
  5
D48
330
18
100
AcDbEntity
  8
文字
100
AcDbLine
 10
74.47986805295585
 20
131.2417200834989
 30
0.0
 11
74.47986805295585
 21
131.2417200834989
 31
0.0
  0
LINE
  5
D49
330
18
100
AcDbEntity
  8
文字
100
AcDbLine
 10
74.79736805295584
 20
131.2417200834989
 30
0.0
 11
74.79736805295584
 21
131.2417200834989
 31
0.0
  0
LINE
  5
D4A
330
18
100
AcDbEntity
  8
文字
100
AcDbLine
 10
75.11486805295584
 20
131.2417200834989
 30
0.0
 11
75.11486805295584
 21
131.2417200834989
 31
0.0
  0
LINE
  5
D4B
330
18
100
AcDbEntity
  8
文字
100
AcDbLine
 10
75.43236805295584
 20
131.2417200834989
 30
0.0
 11
75.43236805295584
 21
131.2417200834989
 31
0.0
  0
LINE
  5
D4C
330
18
100
AcDbEntity
  8
文字
100
AcDbLine
 10
75.74986805295586
 20
131.2417200834989
 30
0.0
 11
75.74986805295586
 21
131.2417200834989
 31
0.0
  0
LINE
  5
D4D
330
18
100
AcDbEntity
  8
文字
100
AcDbLine
 10
76.06736805295586
 20
131.2417200834989
 30
0.0
 11
76.06736805295586
 21
131.2417200834989
 31
0.0
  0
LINE
  5
D4E
330
18
100
AcDbEntity
  8
文字
100
AcDbLine
 10
76.38486805295585
 20
131.2417200834989
 30
0.0
 11
76.38486805295585
 21
131.2417200834989
 31
0.0
  0
LINE
  5
D4F
330
18
100
AcDbEntity
  8
文字
100
AcDbLine
 10
76.70236805295587
 20
131.2417200834989
 30
0.0
 11
76.70236805295587
 21
131.2417200834989
 31
0.0
  0
LINE
  5
D50
330
18
100
AcDbEntity
  8
文字
100
AcDbLine
 10
77.01986805295587
 20
131.2417200834989
 30
0.0
 11
77.01986805295587
 21
131.2417200834989
 31
0.0
  0
LINE
  5
D51
330
18
100
AcDbEntity
  8
文字
100
AcDbLine
 10
77.33736805295587
 20
131.2417200834989
 30
0.0
 11
77.33736805295587
 21
131.2417200834989
 31
0.0
  0
LINE
  5
D52
330
18
100
AcDbEntity
  8
文字
100
AcDbLine
 10
77.65486805295586
 20
131.2417200834989
 30
0.0
 11
77.65486805295586
 21
131.2417200834989
 31
0.0
  0
LINE
  5
D53
330
18
100
AcDbEntity
  8
文字
100
AcDbLine
 10
77.97236805295586
 20
131.2417200834989
 30
0.0
 11
77.97236805295586
 21
131.2417200834989
 31
0.0
  0
LINE
  5
D54
330
18
100
AcDbEntity
  8
文字
100
AcDbLine
 10
78.28986805295588
 20
131.2417200834989
 30
0.0
 11
78.28986805295588
 21
131.2417200834989
 31
0.0
  0
LINE
  5
D55
330
18
100
AcDbEntity
  8
文字
100
AcDbLine
 10
78.60736805295587
 20
131.2417200834989
 30
0.0
 11
78.60736805295587
 21
131.2417200834989
 31
0.0
  0
LINE
  5
D56
330
18
100
AcDbEntity
  8
文字
100
AcDbLine
 10
78.92486805295587
 20
131.2417200834989
 30
0.0
 11
78.92486805295587
 21
131.2417200834989
 31
0.0
  0
LINE
  5
D57
330
18
100
AcDbEntity
  8
文字
100
AcDbLine
 10
79.24236805295589
 20
131.2417200834989
 30
0.0
 11
79.24236805295589
 21
131.2417200834989
 31
0.0
  0
LINE
  5
D58
330
18
100
AcDbEntity
  8
文字
100
AcDbLine
 10
79.55986805295589
 20
131.2417200834989
 30
0.0
 11
79.55986805295589
 21
131.2417200834989
 31
0.0
  0
LINE
  5
D59
330
18
100
AcDbEntity
  8
文字
100
AcDbLine
 10
79.87736805295589
 20
131.2417200834989
 30
0.0
 11
79.87736805295589
 21
131.2417200834989
 31
0.0
  0
LINE
  5
D5A
330
18
100
AcDbEntity
  8
文字
100
AcDbLine
 10
80.19486805295588
 20
131.2417200834989
 30
0.0
 11
80.19486805295588
 21
131.2417200834989
 31
0.0
  0
LINE
  5
D5B
330
18
100
AcDbEntity
  8
文字
100
AcDbLine
 10
80.51236805295587
 20
131.2417200834989
 30
0.0
 11
80.51236805295587
 21
131.2417200834989
 31
0.0
  0
LINE
  5
D5C
330
18
100
AcDbEntity
  8
文字
100
AcDbLine
 10
80.8298680529559
 20
131.2417200834989
 30
0.0
 11
80.8298680529559
 21
131.2417200834989
 31
0.0
  0
LINE
  5
D5D
330
18
100
AcDbEntity
  8
文字
100
AcDbLine
 10
81.1473680529559
 20
131.2417200834989
 30
0.0
 11
81.1473680529559
 21
131.2417200834989
 31
0.0
  0
LINE
  5
D5E
330
18
100
AcDbEntity
  8
文字
100
AcDbLine
 10
81.46486805295589
 20
131.2417200834989
 30
0.0
 11
81.46486805295589
 21
131.2417200834989
 31
0.0
  0
LINE
  5
D5F
330
18
100
AcDbEntity
  8
文字
100
AcDbLine
 10
81.78236805295583
 20
131.2417200834989
 30
0.0
 11
81.78236805295583
 21
131.2417200834989
 31
0.0
  0
LINE
  5
D60
330
18
100
AcDbEntity
  8
文字
100
AcDbLine
 10
82.09986805295583
 20
131.2417200834989
 30
0.0
 11
82.09986805295583
 21
131.2417200834989
 31
0.0
  0
LINE
  5
D61
330
18
100
AcDbEntity
  8
文字
100
AcDbLine
 10
82.41736805295582
 20
131.2417200834989
 30
0.0
 11
82.41736805295582
 21
131.2417200834989
 31
0.0
  0
LINE
  5
D62
330
18
100
AcDbEntity
  8
文字
100
AcDbLine
 10
82.73486805295585
 20
131.2417200834989
 30
0.0
 11
82.73486805295585
 21
131.2417200834989
 31
0.0
  0
LINE
  5
D63
330
18
100
AcDbEntity
  8
文字
100
AcDbLine
 10
83.05236805295583
 20
131.2417200834989
 30
0.0
 11
83.05236805295583
 21
131.2417200834989
 31
0.0
  0
LINE
  5
D64
330
18
100
AcDbEntity
  8
文字
100
AcDbLine
 10
83.36986805295584
 20
131.2417200834989
 30
0.0
 11
83.36986805295584
 21
131.2417200834989
 31
0.0
  0
LINE
  5
D65
330
18
100
AcDbEntity
  8
文字
100
AcDbLine
 10
83.68736805295583
 20
131.2417200834989
 30
0.0
 11
83.68736805295583
 21
131.2417200834989
 31
0.0
  0
LINE
  5
D66
330
18
100
AcDbEntity
  8
文字
100
AcDbLine
 10
84.00486805295583
 20
131.2417200834989
 30
0.0
 11
84.00486805295583
 21
131.2417200834989
 31
0.0
  0
LINE
  5
D67
330
18
100
AcDbEntity
  8
文字
100
AcDbLine
 10
84.32236805295586
 20
131.2417200834989
 30
0.0
 11
84.32236805295586
 21
131.2417200834989
 31
0.0
  0
LINE
  5
D68
330
18
100
AcDbEntity
  8
文字
100
AcDbLine
 10
84.63986805295585
 20
131.2417200834989
 30
0.0
 11
84.63986805295585
 21
131.2417200834989
 31
0.0
  0
LINE
  5
D69
330
18
100
AcDbEntity
  8
文字
100
AcDbLine
 10
84.95736805295583
 20
131.2417200834989
 30
0.0
 11
84.95736805295583
 21
131.2417200834989
 31
0.0
  0
LINE
  5
D6A
330
18
100
AcDbEntity
  8
文字
100
AcDbLine
 10
85.27486805295586
 20
131.2417200834989
 30
0.0
 11
85.27486805295586
 21
131.2417200834989
 31
0.0
  0
LINE
  5
D6B
330
18
100
AcDbEntity
  8
文字
100
AcDbLine
 10
85.59236805295586
 20
131.2417200834989
 30
0.0
 11
85.59236805295586
 21
131.2417200834989
 31
0.0
  0
LINE
  5
D6C
330
18
100
AcDbEntity
  8
文字
100
AcDbLine
 10
85.90986805295585
 20
131.2417200834989
 30
0.0
 11
85.90986805295585
 21
131.2417200834989
 31
0.0
  0
LINE
  5
D6D
330
18
100
AcDbEntity
  8
文字
100
AcDbLine
 10
86.22736805295586
 20
131.2417200834989
 30
0.0
 11
86.22736805295586
 21
131.2417200834989
 31
0.0
  0
LINE
  5
D6E
330
18
100
AcDbEntity
  8
文字
100
AcDbLine
 10
86.54486805295585
 20
131.2417200834989
 30
0.0
 11
86.54486805295585
 21
131.2417200834989
 31
0.0
  0
LINE
  5
D6F
330
18
100
AcDbEntity
  8
文字
100
AcDbLine
 10
86.86236805295587
 20
131.2417200834989
 30
0.0
 11
86.86236805295587
 21
131.2417200834989
 31
0.0
  0
LINE
  5
D70
330
18
100
AcDbEntity
  8
文字
100
AcDbLine
 10
87.17986805295586
 20
131.2417200834989
 30
0.0
 11
87.17986805295586
 21
131.2417200834989
 31
0.0
  0
LINE
  5
D71
330
18
100
AcDbEntity
  8
文字
100
AcDbLine
 10
87.49736805295587
 20
131.2417200834989
 30
0.0
 11
87.49736805295587
 21
131.2417200834989
 31
0.0
  0
LINE
  5
D72
330
18
100
AcDbEntity
  8
文字
100
AcDbLine
 10
87.81486805295589
 20
131.2417200834989
 30
0.0
 11
87.81486805295589
 21
131.2417200834989
 31
0.0
  0
LINE
  5
D73
330
18
100
AcDbEntity
  8
文字
100
AcDbLine
 10
88.13236805295588
 20
131.2417200834989
 30
0.0
 11
88.13236805295588
 21
131.2417200834989
 31
0.0
  0
LINE
  5
D74
330
18
100
AcDbEntity
  8
文字
100
AcDbLine
 10
88.44986805295588
 20
131.2417200834989
 30
0.0
 11
88.44986805295588
 21
131.2417200834989
 31
0.0
  0
LINE
  5
D75
330
18
100
AcDbEntity
  8
文字
100
AcDbLine
 10
88.76736805295587
 20
131.2417200834989
 30
0.0
 11
88.76736805295587
 21
131.2417200834989
 31
0.0
  0
LINE
  5
D76
330
18
100
AcDbEntity
  8
文字
100
AcDbLine
 10
89.08486805295586
 20
131.2417200834989
 30
0.0
 11
89.08486805295586
 21
131.2417200834989
 31
0.0
  0
LINE
  5
D77
330
18
100
AcDbEntity
  8
文字
100
AcDbLine
 10
89.40236805295587
 20
131.2417200834989
 30
0.0
 11
89.40236805295587
 21
131.2417200834989
 31
0.0
  0
LINE
  5
D78
330
18
100
AcDbEntity
  8
文字
100
AcDbLine
 10
89.71986805295586
 20
131.2417200834989
 30
0.0
 11
89.71986805295586
 21
131.2417200834989
 31
0.0
  0
LINE
  5
D79
330
18
100
AcDbEntity
  8
文字
100
AcDbLine
 10
90.03736805295586
 20
131.2417200834989
 30
0.0
 11
90.03736805295586
 21
131.2417200834989
 31
0.0
  0
LINE
  5
D7A
330
18
100
AcDbEntity
  8
文字
100
AcDbLine
 10
90.35486805295585
 20
131.2417200834989
 30
0.0
 11
90.35486805295585
 21
131.2417200834989
 31
0.0
  0
LINE
  5
D7B
330
18
100
AcDbEntity
  8
文字
100
AcDbLine
 10
73.05111805295581
 20
130.9242200834989
 30
0.0
 11
73.05111805295581
 21
130.9242200834989
 31
0.0
  0
LINE
  5
D7C
330
18
100
AcDbEntity
  8
文字
100
AcDbLine
 10
73.36861805295581
 20
130.9242200834989
 30
0.0
 11
73.36861805295581
 21
130.9242200834989
 31
0.0
  0
LINE
  5
D7D
330
18
100
AcDbEntity
  8
文字
100
AcDbLine
 10
73.6861180529558
 20
130.9242200834989
 30
0.0
 11
73.6861180529558
 21
130.9242200834989
 31
0.0
  0
LINE
  5
D7E
330
18
100
AcDbEntity
  8
文字
100
AcDbLine
 10
74.00361805295583
 20
130.9242200834989
 30
0.0
 11
74.00361805295583
 21
130.9242200834989
 31
0.0
  0
LINE
  5
D7F
330
18
100
AcDbEntity
  8
文字
100
AcDbLine
 10
74.32111805295583
 20
130.9242200834989
 30
0.0
 11
74.32111805295583
 21
130.9242200834989
 31
0.0
  0
LINE
  5
D80
330
18
100
AcDbEntity
  8
文字
100
AcDbLine
 10
74.63861805295582
 20
130.9242200834989
 30
0.0
 11
74.63861805295582
 21
130.9242200834989
 31
0.0
  0
LINE
  5
D81
330
18
100
AcDbEntity
  8
文字
100
AcDbLine
 10
74.95611805295585
 20
130.9242200834989
 30
0.0
 11
74.95611805295585
 21
130.9242200834989
 31
0.0
  0
LINE
  5
D82
330
18
100
AcDbEntity
  8
文字
100
AcDbLine
 10
75.27361805295583
 20
130.9242200834989
 30
0.0
 11
75.27361805295583
 21
130.9242200834989
 31
0.0
  0
LINE
  5
D83
330
18
100
AcDbEntity
  8
文字
100
AcDbLine
 10
75.59111805295583
 20
130.9242200834989
 30
0.0
 11
75.59111805295583
 21
130.9242200834989
 31
0.0
  0
LINE
  5
D84
330
18
100
AcDbEntity
  8
文字
100
AcDbLine
 10
75.90861805295583
 20
130.9242200834989
 30
0.0
 11
75.90861805295583
 21
130.9242200834989
 31
0.0
  0
LINE
  5
D85
330
18
100
AcDbEntity
  8
文字
100
AcDbLine
 10
76.22611805295583
 20
130.9242200834989
 30
0.0
 11
76.22611805295583
 21
130.9242200834989
 31
0.0
  0
LINE
  5
D86
330
18
100
AcDbEntity
  8
文字
100
AcDbLine
 10
76.54361805295585
 20
130.9242200834989
 30
0.0
 11
76.54361805295585
 21
130.9242200834989
 31
0.0
  0
LINE
  5
D87
330
18
100
AcDbEntity
  8
文字
100
AcDbLine
 10
76.86111805295585
 20
130.9242200834989
 30
0.0
 11
76.86111805295585
 21
130.9242200834989
 31
0.0
  0
LINE
  5
D88
330
18
100
AcDbEntity
  8
文字
100
AcDbLine
 10
77.17861805295584
 20
130.9242200834989
 30
0.0
 11
77.17861805295584
 21
130.9242200834989
 31
0.0
  0
LINE
  5
D89
330
18
100
AcDbEntity
  8
文字
100
AcDbLine
 10
77.49611805295586
 20
130.9242200834989
 30
0.0
 11
77.49611805295586
 21
130.9242200834989
 31
0.0
  0
LINE
  5
D8A
330
18
100
AcDbEntity
  8
文字
100
AcDbLine
 10
77.81361805295586
 20
130.9242200834989
 30
0.0
 11
77.81361805295586
 21
130.9242200834989
 31
0.0
  0
LINE
  5
D8B
330
18
100
AcDbEntity
  8
文字
100
AcDbLine
 10
78.13111805295585
 20
130.9242200834989
 30
0.0
 11
78.13111805295585
 21
130.9242200834989
 31
0.0
  0
LINE
  5
D8C
330
18
100
AcDbEntity
  8
文字
100
AcDbLine
 10
78.44861805295585
 20
130.9242200834989
 30
0.0
 11
78.44861805295585
 21
130.9242200834989
 31
0.0
  0
LINE
  5
D8D
330
18
100
AcDbEntity
  8
文字
100
AcDbLine
 10
78.76611805295585
 20
130.9242200834989
 30
0.0
 11
78.76611805295585
 21
130.9242200834989
 31
0.0
  0
LINE
  5
D8E
330
18
100
AcDbEntity
  8
文字
100
AcDbLine
 10
79.08361805295587
 20
130.9242200834989
 30
0.0
 11
79.08361805295587
 21
130.9242200834989
 31
0.0
  0
LINE
  5
D8F
330
18
100
AcDbEntity
  8
文字
100
AcDbLine
 10
79.40111805295586
 20
130.9242200834989
 30
0.0
 11
79.40111805295586
 21
130.9242200834989
 31
0.0
  0
LINE
  5
D90
330
18
100
AcDbEntity
  8
文字
100
AcDbLine
 10
79.71861805295586
 20
130.9242200834989
 30
0.0
 11
79.71861805295586
 21
130.9242200834989
 31
0.0
  0
LINE
  5
D91
330
18
100
AcDbEntity
  8
文字
100
AcDbLine
 10
80.03611805295589
 20
130.9242200834989
 30
0.0
 11
80.03611805295589
 21
130.9242200834989
 31
0.0
  0
LINE
  5
D92
330
18
100
AcDbEntity
  8
文字
100
AcDbLine
 10
80.35361805295588
 20
130.9242200834989
 30
0.0
 11
80.35361805295588
 21
130.9242200834989
 31
0.0
  0
LINE
  5
D93
330
18
100
AcDbEntity
  8
文字
100
AcDbLine
 10
80.67111805295587
 20
130.9242200834989
 30
0.0
 11
80.67111805295587
 21
130.9242200834989
 31
0.0
  0
LINE
  5
D94
330
18
100
AcDbEntity
  8
文字
100
AcDbLine
 10
80.98861805295587
 20
130.9242200834989
 30
0.0
 11
80.98861805295587
 21
130.9242200834989
 31
0.0
  0
LINE
  5
D95
330
18
100
AcDbEntity
  8
文字
100
AcDbLine
 10
81.30611805295586
 20
130.9242200834989
 30
0.0
 11
81.30611805295586
 21
130.9242200834989
 31
0.0
  0
LINE
  5
D96
330
18
100
AcDbEntity
  8
文字
100
AcDbLine
 10
81.6236180529558
 20
130.9242200834989
 30
0.0
 11
81.6236180529558
 21
130.9242200834989
 31
0.0
  0
LINE
  5
D97
330
18
100
AcDbEntity
  8
文字
100
AcDbLine
 10
81.9411180529558
 20
130.9242200834989
 30
0.0
 11
81.9411180529558
 21
130.9242200834989
 31
0.0
  0
LINE
  5
D98
330
18
100
AcDbEntity
  8
文字
100
AcDbLine
 10
82.25861805295583
 20
130.9242200834989
 30
0.0
 11
82.25861805295583
 21
130.9242200834989
 31
0.0
  0
LINE
  5
D99
330
18
100
AcDbEntity
  8
文字
100
AcDbLine
 10
82.57611805295582
 20
130.9242200834989
 30
0.0
 11
82.57611805295582
 21
130.9242200834989
 31
0.0
  0
LINE
  5
D9A
330
18
100
AcDbEntity
  8
文字
100
AcDbLine
 10
82.89361805295582
 20
130.9242200834989
 30
0.0
 11
82.89361805295582
 21
130.9242200834989
 31
0.0
  0
LINE
  5
D9B
330
18
100
AcDbEntity
  8
文字
100
AcDbLine
 10
83.21111805295585
 20
130.9242200834989
 30
0.0
 11
83.21111805295585
 21
130.9242200834989
 31
0.0
  0
LINE
  5
D9C
330
18
100
AcDbEntity
  8
文字
100
AcDbLine
 10
83.52861805295583
 20
130.9242200834989
 30
0.0
 11
83.52861805295583
 21
130.9242200834989
 31
0.0
  0
LINE
  5
D9D
330
18
100
AcDbEntity
  8
文字
100
AcDbLine
 10
83.84611805295582
 20
130.9242200834989
 30
0.0
 11
83.84611805295582
 21
130.9242200834989
 31
0.0
  0
LINE
  5
D9E
330
18
100
AcDbEntity
  8
文字
100
AcDbLine
 10
84.16361805295583
 20
130.9242200834989
 30
0.0
 11
84.16361805295583
 21
130.9242200834989
 31
0.0
  0
LINE
  5
D9F
330
18
100
AcDbEntity
  8
文字
100
AcDbLine
 10
84.48111805295582
 20
130.9242200834989
 30
0.0
 11
84.48111805295582
 21
130.9242200834989
 31
0.0
  0
LINE
  5
DA0
330
18
100
AcDbEntity
  8
文字
100
AcDbLine
 10
84.79861805295584
 20
130.9242200834989
 30
0.0
 11
84.79861805295584
 21
130.9242200834989
 31
0.0
  0
LINE
  5
DA1
330
18
100
AcDbEntity
  8
文字
100
AcDbLine
 10
85.11611805295585
 20
130.9242200834989
 30
0.0
 11
85.11611805295585
 21
130.9242200834989
 31
0.0
  0
LINE
  5
DA2
330
18
100
AcDbEntity
  8
文字
100
AcDbLine
 10
85.43361805295583
 20
130.9242200834989
 30
0.0
 11
85.43361805295583
 21
130.9242200834989
 31
0.0
  0
LINE
  5
DA3
330
18
100
AcDbEntity
  8
文字
100
AcDbLine
 10
85.75111805295586
 20
130.9242200834989
 30
0.0
 11
85.75111805295586
 21
130.9242200834989
 31
0.0
  0
LINE
  5
DA4
330
18
100
AcDbEntity
  8
文字
100
AcDbLine
 10
86.06861805295585
 20
130.9242200834989
 30
0.0
 11
86.06861805295585
 21
130.9242200834989
 31
0.0
  0
LINE
  5
DA5
330
18
100
AcDbEntity
  8
文字
100
AcDbLine
 10
86.38611805295585
 20
130.9242200834989
 30
0.0
 11
86.38611805295585
 21
130.9242200834989
 31
0.0
  0
LINE
  5
DA6
330
18
100
AcDbEntity
  8
文字
100
AcDbLine
 10
86.70361805295584
 20
130.9242200834989
 30
0.0
 11
86.70361805295584
 21
130.9242200834989
 31
0.0
  0
LINE
  5
DA7
330
18
100
AcDbEntity
  8
文字
100
AcDbLine
 10
87.02111805295585
 20
130.9242200834989
 30
0.0
 11
87.02111805295585
 21
130.9242200834989
 31
0.0
  0
LINE
  5
DA8
330
18
100
AcDbEntity
  8
文字
100
AcDbLine
 10
87.33861805295587
 20
130.9242200834989
 30
0.0
 11
87.33861805295587
 21
130.9242200834989
 31
0.0
  0
LINE
  5
DA9
330
18
100
AcDbEntity
  8
文字
100
AcDbLine
 10
87.65611805295586
 20
130.9242200834989
 30
0.0
 11
87.65611805295586
 21
130.9242200834989
 31
0.0
  0
LINE
  5
DAA
330
18
100
AcDbEntity
  8
文字
100
AcDbLine
 10
87.97361805295585
 20
130.9242200834989
 30
0.0
 11
87.97361805295585
 21
130.9242200834989
 31
0.0
  0
LINE
  5
DAB
330
18
100
AcDbEntity
  8
文字
100
AcDbLine
 10
88.29111805295587
 20
130.9242200834989
 30
0.0
 11
88.29111805295587
 21
130.9242200834989
 31
0.0
  0
LINE
  5
DAC
330
18
100
AcDbEntity
  8
文字
100
AcDbLine
 10
88.60861805295588
 20
130.9242200834989
 30
0.0
 11
88.60861805295588
 21
130.9242200834989
 31
0.0
  0
LINE
  5
DAD
330
18
100
AcDbEntity
  8
文字
100
AcDbLine
 10
88.92611805295587
 20
130.9242200834989
 30
0.0
 11
88.92611805295587
 21
130.9242200834989
 31
0.0
  0
LINE
  5
DAE
330
18
100
AcDbEntity
  8
文字
100
AcDbLine
 10
89.24361805295587
 20
130.9242200834989
 30
0.0
 11
89.24361805295587
 21
130.9242200834989
 31
0.0
  0
LINE
  5
DAF
330
18
100
AcDbEntity
  8
文字
100
AcDbLine
 10
89.56111805295586
 20
130.9242200834989
 30
0.0
 11
89.56111805295586
 21
130.9242200834989
 31
0.0
  0
LINE
  5
DB0
330
18
100
AcDbEntity
  8
文字
100
AcDbLine
 10
89.87861805295585
 20
130.9242200834989
 30
0.0
 11
89.87861805295585
 21
130.9242200834989
 31
0.0
  0
LINE
  5
DB1
330
18
100
AcDbEntity
  8
文字
100
AcDbLine
 10
90.19611805295586
 20
130.9242200834989
 30
0.0
 11
90.19611805295586
 21
130.9242200834989
 31
0.0
  0
LINE
  5
DB2
330
18
100
AcDbEntity
  8
文字
100
AcDbLine
 10
73.20986805295581
 20
130.6067200834989
 30
0.0
 11
73.20986805295581
 21
130.6067200834989
 31
0.0
  0
LINE
  5
DB3
330
18
100
AcDbEntity
  8
文字
100
AcDbLine
 10
73.52736805295581
 20
130.6067200834989
 30
0.0
 11
73.52736805295581
 21
130.6067200834989
 31
0.0
  0
LINE
  5
DB4
330
18
100
AcDbEntity
  8
文字
100
AcDbLine
 10
73.84486805295583
 20
130.6067200834989
 30
0.0
 11
73.84486805295583
 21
130.6067200834989
 31
0.0
  0
LINE
  5
DB5
330
18
100
AcDbEntity
  8
文字
100
AcDbLine
 10
74.16236805295582
 20
130.6067200834989
 30
0.0
 11
74.16236805295582
 21
130.6067200834989
 31
0.0
  0
LINE
  5
DB6
330
18
100
AcDbEntity
  8
文字
100
AcDbLine
 10
74.47986805295582
 20
130.6067200834989
 30
0.0
 11
74.47986805295582
 21
130.6067200834989
 31
0.0
  0
LINE
  5
DB7
330
18
100
AcDbEntity
  8
文字
100
AcDbLine
 10
74.79736805295584
 20
130.6067200834989
 30
0.0
 11
74.79736805295584
 21
130.6067200834989
 31
0.0
  0
LINE
  5
DB8
330
18
100
AcDbEntity
  8
文字
100
AcDbLine
 10
75.11486805295584
 20
130.6067200834989
 30
0.0
 11
75.11486805295584
 21
130.6067200834989
 31
0.0
  0
LINE
  5
DB9
330
18
100
AcDbEntity
  8
文字
100
AcDbLine
 10
75.43236805295584
 20
130.6067200834989
 30
0.0
 11
75.43236805295584
 21
130.6067200834989
 31
0.0
  0
LINE
  5
DBA
330
18
100
AcDbEntity
  8
文字
100
AcDbLine
 10
75.74986805295583
 20
130.6067200834989
 30
0.0
 11
75.74986805295583
 21
130.6067200834989
 31
0.0
  0
LINE
  5
DBB
330
18
100
AcDbEntity
  8
文字
100
AcDbLine
 10
76.06736805295582
 20
130.6067200834989
 30
0.0
 11
76.06736805295582
 21
130.6067200834989
 31
0.0
  0
LINE
  5
DBC
330
18
100
AcDbEntity
  8
文字
100
AcDbLine
 10
76.38486805295585
 20
130.6067200834989
 30
0.0
 11
76.38486805295585
 21
130.6067200834989
 31
0.0
  0
LINE
  5
DBD
330
18
100
AcDbEntity
  8
文字
100
AcDbLine
 10
76.70236805295584
 20
130.6067200834989
 30
0.0
 11
76.70236805295584
 21
130.6067200834989
 31
0.0
  0
LINE
  5
DBE
330
18
100
AcDbEntity
  8
文字
100
AcDbLine
 10
77.01986805295584
 20
130.6067200834989
 30
0.0
 11
77.01986805295584
 21
130.6067200834989
 31
0.0
  0
LINE
  5
DBF
330
18
100
AcDbEntity
  8
文字
100
AcDbLine
 10
77.33736805295587
 20
130.6067200834989
 30
0.0
 11
77.33736805295587
 21
130.6067200834989
 31
0.0
  0
LINE
  5
DC0
330
18
100
AcDbEntity
  8
文字
100
AcDbLine
 10
77.65486805295586
 20
130.6067200834989
 30
0.0
 11
77.65486805295586
 21
130.6067200834989
 31
0.0
  0
LINE
  5
DC1
330
18
100
AcDbEntity
  8
文字
100
AcDbLine
 10
77.97236805295586
 20
130.6067200834989
 30
0.0
 11
77.97236805295586
 21
130.6067200834989
 31
0.0
  0
LINE
  5
DC2
330
18
100
AcDbEntity
  8
文字
100
AcDbLine
 10
78.28986805295585
 20
130.6067200834989
 30
0.0
 11
78.28986805295585
 21
130.6067200834989
 31
0.0
  0
LINE
  5
DC3
330
18
100
AcDbEntity
  8
文字
100
AcDbLine
 10
78.60736805295585
 20
130.6067200834989
 30
0.0
 11
78.60736805295585
 21
130.6067200834989
 31
0.0
  0
LINE
  5
DC4
330
18
100
AcDbEntity
  8
文字
100
AcDbLine
 10
78.92486805295587
 20
130.6067200834989
 30
0.0
 11
78.92486805295587
 21
130.6067200834989
 31
0.0
  0
LINE
  5
DC5
330
18
100
AcDbEntity
  8
文字
100
AcDbLine
 10
79.24236805295587
 20
130.6067200834989
 30
0.0
 11
79.24236805295587
 21
130.6067200834989
 31
0.0
  0
LINE
  5
DC6
330
18
100
AcDbEntity
  8
文字
100
AcDbLine
 10
79.55986805295586
 20
130.6067200834989
 30
0.0
 11
79.55986805295586
 21
130.6067200834989
 31
0.0
  0
LINE
  5
DC7
330
18
100
AcDbEntity
  8
文字
100
AcDbLine
 10
79.87736805295589
 20
130.6067200834989
 30
0.0
 11
79.87736805295589
 21
130.6067200834989
 31
0.0
  0
LINE
  5
DC8
330
18
100
AcDbEntity
  8
文字
100
AcDbLine
 10
80.19486805295588
 20
130.6067200834989
 30
0.0
 11
80.19486805295588
 21
130.6067200834989
 31
0.0
  0
LINE
  5
DC9
330
18
100
AcDbEntity
  8
文字
100
AcDbLine
 10
80.51236805295587
 20
130.6067200834989
 30
0.0
 11
80.51236805295587
 21
130.6067200834989
 31
0.0
  0
LINE
  5
DCA
330
18
100
AcDbEntity
  8
文字
100
AcDbLine
 10
80.82986805295588
 20
130.6067200834989
 30
0.0
 11
80.82986805295588
 21
130.6067200834989
 31
0.0
  0
LINE
  5
DCB
330
18
100
AcDbEntity
  8
文字
100
AcDbLine
 10
81.14736805295587
 20
130.6067200834989
 30
0.0
 11
81.14736805295587
 21
130.6067200834989
 31
0.0
  0
LINE
  5
DCC
330
18
100
AcDbEntity
  8
文字
100
AcDbLine
 10
81.46486805295589
 20
130.6067200834989
 30
0.0
 11
81.46486805295589
 21
130.6067200834989
 31
0.0
  0
LINE
  5
DCD
330
18
100
AcDbEntity
  8
文字
100
AcDbLine
 10
81.78236805295581
 20
130.6067200834989
 30
0.0
 11
81.78236805295581
 21
130.6067200834989
 31
0.0
  0
LINE
  5
DCE
330
18
100
AcDbEntity
  8
文字
100
AcDbLine
 10
82.09986805295583
 20
130.6067200834989
 30
0.0
 11
82.09986805295583
 21
130.6067200834989
 31
0.0
  0
LINE
  5
DCF
330
18
100
AcDbEntity
  8
文字
100
AcDbLine
 10
82.41736805295582
 20
130.6067200834989
 30
0.0
 11
82.41736805295582
 21
130.6067200834989
 31
0.0
  0
LINE
  5
DD0
330
18
100
AcDbEntity
  8
文字
100
AcDbLine
 10
82.73486805295581
 20
130.6067200834989
 30
0.0
 11
82.73486805295581
 21
130.6067200834989
 31
0.0
  0
LINE
  5
DD1
330
18
100
AcDbEntity
  8
文字
100
AcDbLine
 10
83.05236805295583
 20
130.6067200834989
 30
0.0
 11
83.05236805295583
 21
130.6067200834989
 31
0.0
  0
LINE
  5
DD2
330
18
100
AcDbEntity
  8
文字
100
AcDbLine
 10
83.36986805295584
 20
130.6067200834989
 30
0.0
 11
83.36986805295584
 21
130.6067200834989
 31
0.0
  0
LINE
  5
DD3
330
18
100
AcDbEntity
  8
文字
100
AcDbLine
 10
83.68736805295583
 20
130.6067200834989
 30
0.0
 11
83.68736805295583
 21
130.6067200834989
 31
0.0
  0
LINE
  5
DD4
330
18
100
AcDbEntity
  8
文字
100
AcDbLine
 10
84.00486805295583
 20
130.6067200834989
 30
0.0
 11
84.00486805295583
 21
130.6067200834989
 31
0.0
  0
LINE
  5
DD5
330
18
100
AcDbEntity
  8
文字
100
AcDbLine
 10
84.32236805295582
 20
130.6067200834989
 30
0.0
 11
84.32236805295582
 21
130.6067200834989
 31
0.0
  0
LINE
  5
DD6
330
18
100
AcDbEntity
  8
文字
100
AcDbLine
 10
84.63986805295585
 20
130.6067200834989
 30
0.0
 11
84.63986805295585
 21
130.6067200834989
 31
0.0
  0
LINE
  5
DD7
330
18
100
AcDbEntity
  8
文字
100
AcDbLine
 10
84.95736805295583
 20
130.6067200834989
 30
0.0
 11
84.95736805295583
 21
130.6067200834989
 31
0.0
  0
LINE
  5
DD8
330
18
100
AcDbEntity
  8
文字
100
AcDbLine
 10
85.27486805295584
 20
130.6067200834989
 30
0.0
 11
85.27486805295584
 21
130.6067200834989
 31
0.0
  0
LINE
  5
DD9
330
18
100
AcDbEntity
  8
文字
100
AcDbLine
 10
85.59236805295586
 20
130.6067200834989
 30
0.0
 11
85.59236805295586
 21
130.6067200834989
 31
0.0
  0
LINE
  5
DDA
330
18
100
AcDbEntity
  8
文字
100
AcDbLine
 10
85.90986805295585
 20
130.6067200834989
 30
0.0
 11
85.90986805295585
 21
130.6067200834989
 31
0.0
  0
LINE
  5
DDB
330
18
100
AcDbEntity
  8
文字
100
AcDbLine
 10
86.22736805295586
 20
130.6067200834989
 30
0.0
 11
86.22736805295586
 21
130.6067200834989
 31
0.0
  0
LINE
  5
DDC
330
18
100
AcDbEntity
  8
文字
100
AcDbLine
 10
86.54486805295585
 20
130.6067200834989
 30
0.0
 11
86.54486805295585
 21
130.6067200834989
 31
0.0
  0
LINE
  5
DDD
330
18
100
AcDbEntity
  8
文字
100
AcDbLine
 10
86.86236805295584
 20
130.6067200834989
 30
0.0
 11
86.86236805295584
 21
130.6067200834989
 31
0.0
  0
LINE
  5
DDE
330
18
100
AcDbEntity
  8
文字
100
AcDbLine
 10
87.17986805295586
 20
130.6067200834989
 30
0.0
 11
87.17986805295586
 21
130.6067200834989
 31
0.0
  0
LINE
  5
DDF
330
18
100
AcDbEntity
  8
文字
100
AcDbLine
 10
87.49736805295587
 20
130.6067200834989
 30
0.0
 11
87.49736805295587
 21
130.6067200834989
 31
0.0
  0
LINE
  5
DE0
330
18
100
AcDbEntity
  8
文字
100
AcDbLine
 10
87.81486805295585
 20
130.6067200834989
 30
0.0
 11
87.81486805295585
 21
130.6067200834989
 31
0.0
  0
LINE
  5
DE1
330
18
100
AcDbEntity
  8
文字
100
AcDbLine
 10
88.13236805295588
 20
130.6067200834989
 30
0.0
 11
88.13236805295588
 21
130.6067200834989
 31
0.0
  0
LINE
  5
DE2
330
18
100
AcDbEntity
  8
文字
100
AcDbLine
 10
88.44986805295588
 20
130.6067200834989
 30
0.0
 11
88.44986805295588
 21
130.6067200834989
 31
0.0
  0
LINE
  5
DE3
330
18
100
AcDbEntity
  8
文字
100
AcDbLine
 10
88.76736805295587
 20
130.6067200834989
 30
0.0
 11
88.76736805295587
 21
130.6067200834989
 31
0.0
  0
LINE
  5
DE4
330
18
100
AcDbEntity
  8
文字
100
AcDbLine
 10
89.08486805295586
 20
130.6067200834989
 30
0.0
 11
89.08486805295586
 21
130.6067200834989
 31
0.0
  0
LINE
  5
DE5
330
18
100
AcDbEntity
  8
文字
100
AcDbLine
 10
89.40236805295587
 20
130.6067200834989
 30
0.0
 11
89.40236805295587
 21
130.6067200834989
 31
0.0
  0
LINE
  5
DE6
330
18
100
AcDbEntity
  8
文字
100
AcDbLine
 10
89.71986805295586
 20
130.6067200834989
 30
0.0
 11
89.71986805295586
 21
130.6067200834989
 31
0.0
  0
LINE
  5
DE7
330
18
100
AcDbEntity
  8
文字
100
AcDbLine
 10
90.03736805295586
 20
130.6067200834989
 30
0.0
 11
90.03736805295586
 21
130.6067200834989
 31
0.0
  0
LINE
  5
DE8
330
18
100
AcDbEntity
  8
文字
100
AcDbLine
 10
74.47986805295585
 20
132.2074621389994
 30
0.0
 11
74.47986805295585
 21
132.2074621389994
 31
0.0
  0
LINE
  5
DE9
330
18
100
AcDbEntity
  8
文字
100
AcDbLine
 10
74.16236805295582
 20
132.2074621389994
 30
0.0
 11
74.16236805295582
 21
132.2074621389994
 31
0.0
  0
LINE
  5
DEA
330
18
100
AcDbEntity
  8
文字
100
AcDbLine
 10
73.84486805295583
 20
132.2074621389994
 30
0.0
 11
73.84486805295583
 21
132.2074621389994
 31
0.0
  0
LINE
  5
DEB
330
18
100
AcDbEntity
  8
文字
100
AcDbLine
 10
78.60736805295587
 20
132.2074621389994
 30
0.0
 11
78.60736805295587
 21
132.2074621389994
 31
0.0
  0
LINE
  5
DEC
330
18
100
AcDbEntity
  8
文字
100
AcDbLine
 10
78.28986805295585
 20
132.2074621389994
 30
0.0
 11
78.28986805295585
 21
132.2074621389994
 31
0.0
  0
LINE
  5
DED
330
18
100
AcDbEntity
  8
文字
100
AcDbLine
 10
77.97236805295586
 20
132.2074621389994
 30
0.0
 11
77.97236805295586
 21
132.2074621389994
 31
0.0
  0
LINE
  5
DEE
330
18
100
AcDbEntity
  8
文字
100
AcDbLine
 10
77.65486805295586
 20
132.2074621389994
 30
0.0
 11
77.65486805295586
 21
132.2074621389994
 31
0.0
  0
LINE
  5
DEF
330
18
100
AcDbEntity
  8
文字
100
AcDbLine
 10
77.33736805295587
 20
132.2074621389994
 30
0.0
 11
77.33736805295587
 21
132.2074621389994
 31
0.0
  0
LINE
  5
DF0
330
18
100
AcDbEntity
  8
文字
100
AcDbLine
 10
77.01986805295587
 20
132.2074621389994
 30
0.0
 11
77.01986805295587
 21
132.2074621389994
 31
0.0
  0
LINE
  5
DF1
330
18
100
AcDbEntity
  8
文字
100
AcDbLine
 10
76.70236805295584
 20
132.2074621389994
 30
0.0
 11
76.70236805295584
 21
132.2074621389994
 31
0.0
  0
LINE
  5
DF2
330
18
100
AcDbEntity
  8
文字
100
AcDbLine
 10
76.38486805295585
 20
132.2074621389994
 30
0.0
 11
76.38486805295585
 21
132.2074621389994
 31
0.0
  0
LINE
  5
DF3
330
18
100
AcDbEntity
  8
文字
100
AcDbLine
 10
76.06736805295586
 20
132.2074621389994
 30
0.0
 11
76.06736805295586
 21
132.2074621389994
 31
0.0
  0
LINE
  5
DF4
330
18
100
AcDbEntity
  8
文字
100
AcDbLine
 10
75.74986805295583
 20
132.2074621389994
 30
0.0
 11
75.74986805295583
 21
132.2074621389994
 31
0.0
  0
LINE
  5
DF5
330
18
100
AcDbEntity
  8
文字
100
AcDbLine
 10
75.43236805295584
 20
132.2074621389994
 30
0.0
 11
75.43236805295584
 21
132.2074621389994
 31
0.0
  0
LINE
  5
DF6
330
18
100
AcDbEntity
  8
文字
100
AcDbLine
 10
75.11486805295584
 20
132.2074621389994
 30
0.0
 11
75.11486805295584
 21
132.2074621389994
 31
0.0
  0
LINE
  5
DF7
330
18
100
AcDbEntity
  8
文字
100
AcDbLine
 10
74.79736805295584
 20
132.2074621389994
 30
0.0
 11
74.79736805295584
 21
132.2074621389994
 31
0.0
  0
LINE
  5
DF8
330
18
100
AcDbEntity
  8
文字
100
AcDbLine
 10
82.73486805295585
 20
132.2074621389994
 30
0.0
 11
82.73486805295585
 21
132.2074621389994
 31
0.0
  0
LINE
  5
DF9
330
18
100
AcDbEntity
  8
文字
100
AcDbLine
 10
82.41736805295582
 20
132.2074621389994
 30
0.0
 11
82.41736805295582
 21
132.2074621389994
 31
0.0
  0
LINE
  5
DFA
330
18
100
AcDbEntity
  8
文字
100
AcDbLine
 10
82.09986805295583
 20
132.2074621389994
 30
0.0
 11
82.09986805295583
 21
132.2074621389994
 31
0.0
  0
LINE
  5
DFB
330
18
100
AcDbEntity
  8
文字
100
AcDbLine
 10
81.78236805295583
 20
132.2074621389994
 30
0.0
 11
81.78236805295583
 21
132.2074621389994
 31
0.0
  0
LINE
  5
DFC
330
18
100
AcDbEntity
  8
文字
100
AcDbLine
 10
81.46486805295589
 20
132.2074621389994
 30
0.0
 11
81.46486805295589
 21
132.2074621389994
 31
0.0
  0
LINE
  5
DFD
330
18
100
AcDbEntity
  8
文字
100
AcDbLine
 10
81.1473680529559
 20
132.2074621389994
 30
0.0
 11
81.1473680529559
 21
132.2074621389994
 31
0.0
  0
LINE
  5
DFE
330
18
100
AcDbEntity
  8
文字
100
AcDbLine
 10
80.82986805295588
 20
132.2074621389994
 30
0.0
 11
80.82986805295588
 21
132.2074621389994
 31
0.0
  0
LINE
  5
DFF
330
18
100
AcDbEntity
  8
文字
100
AcDbLine
 10
80.51236805295587
 20
132.2074621389994
 30
0.0
 11
80.51236805295587
 21
132.2074621389994
 31
0.0
  0
LINE
  5
E00
330
18
100
AcDbEntity
  8
文字
100
AcDbLine
 10
80.19486805295588
 20
132.2074621389994
 30
0.0
 11
80.19486805295588
 21
132.2074621389994
 31
0.0
  0
LINE
  5
E01
330
18
100
AcDbEntity
  8
文字
100
AcDbLine
 10
79.87736805295589
 20
132.2074621389994
 30
0.0
 11
79.87736805295589
 21
132.2074621389994
 31
0.0
  0
LINE
  5
E02
330
18
100
AcDbEntity
  8
文字
100
AcDbLine
 10
79.55986805295589
 20
132.2074621389994
 30
0.0
 11
79.55986805295589
 21
132.2074621389994
 31
0.0
  0
LINE
  5
E03
330
18
100
AcDbEntity
  8
文字
100
AcDbLine
 10
79.24236805295587
 20
132.2074621389994
 30
0.0
 11
79.24236805295587
 21
132.2074621389994
 31
0.0
  0
LINE
  5
E04
330
18
100
AcDbEntity
  8
文字
100
AcDbLine
 10
78.92486805295587
 20
132.2074621389994
 30
0.0
 11
78.92486805295587
 21
132.2074621389994
 31
0.0
  0
LINE
  5
E05
330
18
100
AcDbEntity
  8
文字
100
AcDbLine
 10
86.86236805295587
 20
132.2074621389994
 30
0.0
 11
86.86236805295587
 21
132.2074621389994
 31
0.0
  0
LINE
  5
E06
330
18
100
AcDbEntity
  8
文字
100
AcDbLine
 10
86.54486805295585
 20
132.2074621389994
 30
0.0
 11
86.54486805295585
 21
132.2074621389994
 31
0.0
  0
LINE
  5
E07
330
18
100
AcDbEntity
  8
文字
100
AcDbLine
 10
86.22736805295586
 20
132.2074621389994
 30
0.0
 11
86.22736805295586
 21
132.2074621389994
 31
0.0
  0
LINE
  5
E08
330
18
100
AcDbEntity
  8
文字
100
AcDbLine
 10
85.90986805295585
 20
132.2074621389994
 30
0.0
 11
85.90986805295585
 21
132.2074621389994
 31
0.0
  0
LINE
  5
E09
330
18
100
AcDbEntity
  8
文字
100
AcDbLine
 10
85.59236805295586
 20
132.2074621389994
 30
0.0
 11
85.59236805295586
 21
132.2074621389994
 31
0.0
  0
LINE
  5
E0A
330
18
100
AcDbEntity
  8
文字
100
AcDbLine
 10
85.27486805295586
 20
132.2074621389994
 30
0.0
 11
85.27486805295586
 21
132.2074621389994
 31
0.0
  0
LINE
  5
E0B
330
18
100
AcDbEntity
  8
文字
100
AcDbLine
 10
84.95736805295583
 20
132.2074621389994
 30
0.0
 11
84.95736805295583
 21
132.2074621389994
 31
0.0
  0
LINE
  5
E0C
330
18
100
AcDbEntity
  8
文字
100
AcDbLine
 10
84.63986805295585
 20
132.2074621389994
 30
0.0
 11
84.63986805295585
 21
132.2074621389994
 31
0.0
  0
LINE
  5
E0D
330
18
100
AcDbEntity
  8
文字
100
AcDbLine
 10
84.32236805295586
 20
132.2074621389994
 30
0.0
 11
84.32236805295586
 21
132.2074621389994
 31
0.0
  0
LINE
  5
E0E
330
18
100
AcDbEntity
  8
文字
100
AcDbLine
 10
84.00486805295583
 20
132.2074621389994
 30
0.0
 11
84.00486805295583
 21
132.2074621389994
 31
0.0
  0
LINE
  5
E0F
330
18
100
AcDbEntity
  8
文字
100
AcDbLine
 10
83.68736805295583
 20
132.2074621389994
 30
0.0
 11
83.68736805295583
 21
132.2074621389994
 31
0.0
  0
LINE
  5
E10
330
18
100
AcDbEntity
  8
文字
100
AcDbLine
 10
83.36986805295584
 20
132.2074621389994
 30
0.0
 11
83.36986805295584
 21
132.2074621389994
 31
0.0
  0
LINE
  5
E11
330
18
100
AcDbEntity
  8
文字
100
AcDbLine
 10
83.05236805295583
 20
132.2074621389994
 30
0.0
 11
83.05236805295583
 21
132.2074621389994
 31
0.0
  0
LINE
  5
E12
330
18
100
AcDbEntity
  8
文字
100
AcDbLine
 10
89.08486805295586
 20
132.2074621389994
 30
0.0
 11
89.08486805295586
 21
132.2074621389994
 31
0.0
  0
LINE
  5
E13
330
18
100
AcDbEntity
  8
文字
100
AcDbLine
 10
88.76736805295587
 20
132.2074621389994
 30
0.0
 11
88.76736805295587
 21
132.2074621389994
 31
0.0
  0
LINE
  5
E14
330
18
100
AcDbEntity
  8
文字
100
AcDbLine
 10
88.44986805295588
 20
132.2074621389994
 30
0.0
 11
88.44986805295588
 21
132.2074621389994
 31
0.0
  0
LINE
  5
E15
330
18
100
AcDbEntity
  8
文字
100
AcDbLine
 10
88.13236805295588
 20
132.2074621389994
 30
0.0
 11
88.13236805295588
 21
132.2074621389994
 31
0.0
  0
LINE
  5
E16
330
18
100
AcDbEntity
  8
文字
100
AcDbLine
 10
87.81486805295589
 20
132.2074621389994
 30
0.0
 11
87.81486805295589
 21
132.2074621389994
 31
0.0
  0
LINE
  5
E17
330
18
100
AcDbEntity
  8
文字
100
AcDbLine
 10
87.49736805295587
 20
132.2074621389994
 30
0.0
 11
87.49736805295587
 21
132.2074621389994
 31
0.0
  0
LINE
  5
E18
330
18
100
AcDbEntity
  8
文字
100
AcDbLine
 10
87.17986805295586
 20
132.2074621389994
 30
0.0
 11
87.17986805295586
 21
132.2074621389994
 31
0.0
  0
LINE
  5
E19
330
18
100
AcDbEntity
  8
文字
100
AcDbLine
 10
88.98900337697495
 20
132.1942200834989
 30
0.0
 11
88.98900337697495
 21
132.1942200834989
 31
0.0
  0
LINE
  5
E1A
330
18
100
AcDbEntity
  8
文字
100
AcDbLine
 10
88.98900337697495
 20
132.8292200834989
 30
0.0
 11
88.98900337697495
 21
132.8292200834989
 31
0.0
  0
LINE
  5
E1B
330
18
100
AcDbEntity
  8
文字
100
AcDbLine
 10
88.98900337697495
 20
133.4642200834989
 30
0.0
 11
88.98900337697495
 21
133.4642200834989
 31
0.0
  0
LINE
  5
E1C
330
18
100
AcDbEntity
  8
文字
100
AcDbLine
 10
88.98900337697495
 20
134.0992200834989
 30
0.0
 11
88.98900337697495
 21
134.0992200834989
 31
0.0
  0
CIRCLE
  5
F5F
330
18
100
AcDbEntity
  8
外形線
100
AcDbCircle
 10
81.62301246139874
 20
106.4116698942245
 30
0.0
 40
1.5
  0
ARC
  5
F60
330
18
100
AcDbEntity
  8
外形線
100
AcDbCircle
 10
81.62301246139874
 20
106.4116698942245
 30
0.0
 40
22.5
100
AcDbArc
 50
318.4069712187898
 51
310.3930287812101
  0
LINE
  5
F62
330
18
100
AcDbEntity
  8
外形線
100
AcDbLine
 10
73.92755923657117
 20
85.26858592654159
 30
0.0
 11
81.10998224641026
 21
105.0021309630456
 31
0.0
  0
LINE
  5
F65
102
{ACAD_REACTORS
330
F6B
102
}
330
18
100
AcDbEntity
  8
ROGO
 62
     4
100
AcDbLine
 10
77.82250058360625
 20
97.23008579045746
 30
0.0
 11
79.17594132094655
 21
97.23008579045746
 31
0.0
  0
LINE
  5
F66
102
{ACAD_REACTORS
330
F6B
102
}
330
18
100
AcDbEntity
  8
ROGO
 62
     4
100
AcDbLine
 10
78.84630955838208
 20
98.00152811621371
 30
0.0
 11
79.55764380923966
 21
98.00152811621371
 31
0.0
  0
LINE
  5
F67
102
{ACAD_REACTORS
330
F6B
102
}
330
18
100
AcDbEntity
  8
ROGO
 62
     4
100
AcDbLine
 10
78.75763145206008
 20
97.82230464588577
 30
0.0
 11
79.46896570291773
 21
97.82230464588577
 31
0.0
  0
LINE
  5
F68
102
{ACAD_REACTORS
330
F6B
102
}
330
18
100
AcDbEntity
  8
ROGO
 62
     4
100
AcDbLine
 10
78.57801850086554
 20
97.45929670893174
 30
0.0
 11
79.28935275172307
 21
97.45929670893174
 31
0.0
  0
LINE
  5
F69
102
{ACAD_REACTORS
330
F6B
102
}
330
18
100
AcDbEntity
  8
ROGO
 62
     4
100
AcDbLine
 10
78.6667003613922
 20
97.6385277667198
 30
0.0
 11
79.37803461224973
 21
97.6385277667198
 31
0.0
  0
LINE
  5
F6A
102
{ACAD_REACTORS
330
F6B
102
}
330
18
100
AcDbEntity
  8
ROGO
 62
     4
100
AcDbLine
 10
78.31762020768394
 20
98.23075056483226
 30
0.0
 11
79.67106094502435
 21
98.23075056483226
 31
0.0
  0
HATCH
  5
F6B
330
18
100
AcDbEntity
  8
ROGO
 62
     4
100
AcDbHatch
 10
0.0
 20
0.0
 30
0.0
210
0.0
220
0.0
230
1.0
  2
SOLID
 70
     1
 71
     1
 91
        1
 92
        1
 93
       12
 72
     1
 10
78.31762020768394
 20
98.23075056483226
 11
79.67106094502435
 21
98.23075056483226
 72
     1
 10
79.67106094502435
 20
98.23075056483226
 11
79.55764380923966
 21
98.00152811621371
 72
     1
 10
79.55764380923966
 20
98.00152811621371
 11
78.84630955838208
 21
98.00152811621371
 72
     1
 10
78.84630955838208
 20
98.00152811621371
 11
78.75763145206008
 21
97.82230464588577
 72
     1
 10
78.75763145206008
 20
97.82230464588577
 11
79.46896570291773
 21
97.82230464588577
 72
     1
 10
79.46896570291773
 20
97.82230464588577
 11
79.37803461224973
 21
97.6385277667198
 72
     1
 10
79.37803461224973
 20
97.6385277667198
 11
78.6667003613922
 21
97.6385277667198
 72
     1
 10
78.6667003613922
 20
97.6385277667198
 11
78.57801850086542
 21
97.45929670893174
 72
     1
 10
78.57801850086554
 20
97.45929670893174
 11
79.28935275172307
 21
97.45929670893174
 72
     1
 10
79.28935275172307
 20
97.45929670893174
 11
79.17594132094655
 21
97.23008579045746
 72
     1
 10
79.17594132094655
 20
97.23008579045746
 11
77.82250058360625
 21
97.23008579045746
 72
     1
 10
77.82250058360625
 20
97.23008579045746
 11
78.31762020768394
 21
98.23075056483226
 97
       12
330
F6A
330
FD4
330
F66
330
F9D
330
F67
330
FD5
330
F69
330
F9E
330
F68
330
FD6
330
F65
330
F9C
 75
     0
 76
     1
 98
        1
 10
22.95554765114389
 20
29.03925906886525
450
        0
451
        0
460
0.0
461
0.0
452
        0
462
0.0
453
        0
470

  0
LINE
  5
F6C
102
{ACAD_REACTORS
330
F93
330
FEF
102
}
330
18
100
AcDbEntity
  8
ROGO
 62
     4
100
AcDbLine
 10
75.58924430413265
 20
96.66714340041165
 30
0.0
 11
86.17330864671577
 21
96.66714340041165
 31
0.0
  0
LINE
  5
F6D
330
18
100
AcDbEntity
  8
ROGO
 62
     4
100
AcDbLine
 10
76.37611478491584
 20
96.82387166839248
 30
0.0
 11
85.67529477950733
 21
96.82387166839248
 31
0.0
  0
HATCH
  5
F6E
330
18
100
AcDbEntity
  8
ROGO
 62
     4
100
AcDbHatch
 10
0.0
 20
0.0
 30
0.0
210
0.0
220
0.0
230
1.0
  2
SOLID
 70
     1
 71
     0
 91
        1
 92
        7
 72
     0
 73
     1
 93
        4
 10
76.38698405650846
 20
96.82387166839248
 10
76.31607574227814
 20
96.66714340041163
 10
85.59714500324025
 20
96.66714340041165
 10
85.67529477950735
 20
96.82387166839248
 97
        0
 75
     0
 76
     1
 47
0.0514683685270805
 98
        1
 10
82.25179862621644
 20
96.78241956031691
450
        0
451
        0
460
0.0
461
0.0
452
        0
462
0.0
453
        0
470

  0
LINE
  5
F6F
330
18
100
AcDbEntity
  8
外形線
100
AcDbLine
 10
59.46483801862402
 20
102.5045858967185
 30
0.0
 11
64.88128066019118
 21
103.4596508738867
 31
0.0
  0
LINE
  5
F70
330
18
100
AcDbEntity
  8
外形線
100
AcDbLine
 10
59.20863175433447
 20
104.4506656824021
 30
0.0
 11
62.69531319765556
 21
104.7557107820189
 31
0.0
  0
LINE
  5
F71
330
18
100
AcDbEntity
  8
外形線
100
AcDbLine
 10
59.12301246139873
 20
106.4116698942245
 30
0.0
 11
63.62301246139873
 21
106.4116698942245
 31
0.0
  0
LINE
  5
F72
330
18
100
AcDbEntity
  8
外形線
100
AcDbLine
 10
59.88968136989467
 20
100.5882413794177
 30
0.0
 11
63.27042176190642
 21
101.4941080372766
 31
0.0
  0
LINE
  5
F77
330
18
100
AcDbEntity
  8
外形線
100
AcDbLine
 10
64.3870124912217
 20
91.94894867627741
 30
0.0
 11
67.83421248525709
 21
94.8414929198668
 31
0.0
  0
TEXT
  5
F78
330
18
100
AcDbEntity
  8
文字
100
AcDbText
 10
71.84376132317249
 20
92.93673909869278
 30
0.0
 40
2.0
  1
1.5
  7
STYLE3
100
AcDbText
  0
LINE
  5
F7A
330
18
100
AcDbEntity
  8
外形線
100
AcDbLine
 10
68.71754264350016
 20
87.98074889772218
 30
0.0
 11
70.72506017072885
 21
90.84778105273363
 31
0.0
  0
LINE
  5
F7B
330
18
100
AcDbEntity
  8
外形線
100
AcDbLine
 10
67.16029124345155
 20
89.17566992404749
 30
0.0
 11
70.05283548704102
 21
92.62286991808286
 31
0.0
  0
LINE
  5
F7C
330
18
100
AcDbEntity
  8
外形線
100
AcDbLine
 10
65.71310988470139
 20
90.50176731752717
 30
0.0
 11
68.18798361885431
 21
92.97664105168008
 31
0.0
  0
LINE
  5
F7D
330
18
100
AcDbEntity
  8
外形線
100
AcDbLine
 10
72.11410157223295
 20
86.01974468589984
 30
0.0
 11
73.59326548832541
 21
89.19182194052813
 31
0.0
  0
POINT
  5
F81
330
18
100
AcDbEntity
  8
DEFPOINTS
  6
ByBlock
 62
     0
100
AcDbPoint
 10
73.92755923657117
 20
85.26858592654159
 30
0.0
  0
POINT
  5
F82
330
18
100
AcDbEntity
  8
DEFPOINTS
  6
ByBlock
 62
     0
100
AcDbPoint
 10
73.92755923657117
 20
85.26858592654159
 30
0.0
  0
LINE
  5
F89
330
18
100
AcDbEntity
  8
外形線
100
AcDbLine
 10
70.3730124613987
 20
86.92609830907466
 30
0.0
 11
73.12301246139864
 21
91.68923802988905
 31
0.0
  0
TEXT
  5
F8A
330
18
100
AcDbEntity
  8
文字
100
AcDbText
 10
78.06623620457646
 20
86.69290493123748
 30
0.0
 40
1.0
  1
J
 50
356.2879572464873
  7
STYLE3
100
AcDbText
  0
TEXT
  5
F8B
330
18
100
AcDbEntity
  8
文字
100
AcDbText
 10
65.15635865228586
 20
102.4769040275806
 30
0.0
 40
2.0
  1
1.0
  7
STYLE3
100
AcDbText
  0
LINE
  5
F8C
330
18
100
AcDbEntity
  8
外形線
100
AcDbLine
 10
63.1920914648964
 20
93.50620007632599
 30
0.0
 11
66.05912361990784
 21
95.51371760355468
 31
0.0
  0
LINE
  5
F8D
330
18
100
AcDbEntity
  8
外形線
100
AcDbLine
 10
62.13744087624883
 20
95.16166989422453
 30
0.0
 11
66.0345551932788
 21
97.41166989422453
 31
0.0
  0
LINE
  5
F8E
330
18
100
AcDbEntity
  8
外形線
100
AcDbLine
 10
61.23108725307409
 20
96.90275900505874
 30
0.0
 11
64.40316450770237
 21
98.38192292115119
 31
0.0
  0
LINE
  5
F8F
330
18
100
AcDbEntity
  8
外形線
100
AcDbLine
 10
60.47992849371579
 20
98.71621666939697
 30
0.0
 11
64.70854528725235
 21
100.2553073143625
 31
0.0
  0
LINE
  5
F91
102
{ACAD_REACTORS
330
F93
102
}
330
18
100
AcDbEntity
  8
ROGO
 62
     4
100
AcDbLine
 10
76.36290258738421
 20
98.23075056483226
 30
0.0
 11
75.58924430413265
 21
96.6671434004116
 31
0.0
  0
LINE
  5
F92
102
{ACAD_REACTORS
330
F93
102
}
330
18
100
AcDbEntity
  8
ROGO
 62
     4
100
AcDbLine
 10
76.57076684810864
 20
97.23008579045746
 30
0.0
 11
76.31607574227814
 21
96.66714340041165
 31
0.0
  0
HATCH
  5
F93
330
18
100
AcDbEntity
  8
ROGO
 62
     4
100
AcDbHatch
 10
0.0
 20
0.0
 30
0.0
210
0.0
220
0.0
230
1.0
  2
SOLID
 70
     1
 71
     1
 91
        2
 92
        5
 93
        6
 72
     1
 10
75.58924430413267
 20
96.66714340041167
 11
76.31607574227814
 21
96.66714340041167
 72
     1
 10
76.31607574227814
 20
96.66714340041167
 11
76.57076684810864
 21
97.23008579045746
 72
     1
 10
76.57076684810864
 20
97.23008579045746
 11
77.2502051688445
 21
97.23008579045744
 72
     4
 94
        3
 73
     0
 74
     0
 95
       18
 96
       14
 40
0.108740278791501
 40
0.108740278791501
 40
0.108740278791501
 40
0.108740278791501
 40
0.6623149649549278
 40
1.384304701649787
 40
2.097394834876493
 40
2.774073369849618
 40
3.428974823686337
 40
4.005208313035923
 40
4.455173659284313
 40
4.720999734343524
 40
5.086034088486724
 40
5.569973738255373
 40
6.060470601257719
 40
6.060470601257719
 40
6.060470601257719
 40
6.060470601257719
 10
77.25020516884473
 20
97.23008579045751
 10
77.29802291536322
 20
97.23044187473711
 10
77.40820608985598
 20
97.2312623754753
 10
77.56235148879466
 20
97.31361023471277
 10
77.70852536924678
 20
97.41851540759626
 10
77.82625848594597
 20
97.54958347633357
 10
77.89960976480017
 20
97.69943735784284
 10
77.91097164604366
 20
97.8430585387951
 10
77.90403549668639
 20
97.95666110741462
 10
77.85447322566233
 20
98.03584491803741
 10
77.80294719691773
 20
98.11620838821482
 10
77.70846588349406
 20
98.18582221098399
 10
77.63105212774679
 20
98.21632341353229
 10
77.59168565846386
 20
98.23075056483226
 72
     1
 10
77.59168565846386
 20
98.23075056483226
 11
76.36290258738423
 21
98.23075056483226
 72
     1
 10
76.36290258738423
 20
98.23075056483226
 11
75.58924430413267
 21
96.66714340041167
 97
        6
330
F9A
330
F97
330
F91
330
F6C
330
F92
330
F98
 92
       20
 93
        4
 72
     1
 10
76.72802418759272
 20
97.57767084747314
 11
76.8484243243671
 21
97.84379062631899
 72
     1
 10
76.8484243243671
 20
97.84379062631899
 11
77.15780136219223
 21
97.84379062631899
 72
     4
 94
        3
 73
     0
 74
     0
 95
       15
 96
       11
 40
0.0
 40
0.0
 40
0.0
 40
0.0
 40
0.1173311909271291
 40
0.1708277603084772
 40
0.2315499279304583
 40
0.2729166917718413
 40
0.3383386578210342
 40
0.3775246283551124
 40
0.4447549129354287
 40
0.4671650220984683
 40
0.4671650220984683
 40
0.4671650220984683
 40
0.4671650220984683
 10
77.15780136219223
 20
97.84379062631899
 10
77.20186868218705
 20
97.84399247816702
 10
77.26602827622193
 20
97.84428636335512
 10
77.30111302734684
 20
97.76492075999124
 10
77.28538636904589
 20
97.71382169230797
 10
77.26561667781838
 20
97.66135887622546
 10
77.23067915587986
 20
97.62570960144568
 10
77.18378788403704
 20
97.59137334019511
 10
77.13947339130917
 20
97.58721678202011
 10
77.11065178825936
 20
97.57958003511367
 10
77.10344638404786
 20
97.57767084747314
 72
     1
 10
77.10344638404788
 20
97.57767084747316
 11
76.72802418759272
 21
97.57767084747314
 97
        4
330
F96
330
F9F
330
F9B
330
F99
 75
     0
 76
     1
 47
0.0514683685270805
 98
        2
 10
76.36947024225595
 20
97.74442724014807
 10
76.36947024225595
 20
97.74442724014807
450
        0
451
        0
460
0.0
461
0.0
452
        0
462
0.0
453
        0
470

  0
POINT
  5
F94
330
18
100
AcDbEntity
  8
DEFPOINTS
  6
ByBlock
 62
     0
100
AcDbPoint
 10
75.58924430413265
 20
96.6671434004116
 30
0.0
  0
LINE
  5
F96
102
{ACAD_REACTORS
330
F93
102
}
330
18
100
AcDbEntity
  8
ROGO
 62
     4
100
AcDbLine
 10
76.8484243243671
 20
97.84379062631899
 30
0.0
 11
76.72802418759272
 21
97.57767084747314
 31
0.0
  0
LINE
  5
F97
102
{ACAD_REACTORS
330
F93
102
}
330
18
100
AcDbEntity
  8
ROGO
 62
     4
100
AcDbLine
 10
76.36290258738421
 20
98.23075056483226
 30
0.0
 11
77.5916856584638
 21
98.23075056483226
 31
0.0
  0
LINE
  5
F98
102
{ACAD_REACTORS
330
F93
102
}
330
18
100
AcDbEntity
  8
ROGO
 62
     4
100
AcDbLine
 10
77.25020516908035
 20
97.23008579045746
 30
0.0
 11
76.57076684810864
 21
97.23008579045746
 31
0.0
  0
LINE
  5
F99
102
{ACAD_REACTORS
330
F93
102
}
330
18
100
AcDbEntity
  8
ROGO
 62
     4
100
AcDbLine
 10
77.10344638404791
 20
97.57767084747314
 30
0.0
 11
76.72802418759272
 21
97.57767084747314
 31
0.0
  0
SPLINE
  5
F9A
102
{ACAD_REACTORS
330
F93
102
}
330
18
100
AcDbEntity
  8
ROGO
 62
     4
100
AcDbSpline
210
0.0
220
0.0
230
1.0
 70
     8
 71
     3
 72
    18
 73
    14
 74
     0
 42
0.0000000001
 43
0.0000000001
 40
0.1087402787915014
 40
0.1087402787915014
 40
0.1087402787915014
 40
0.1087402787915014
 40
0.5992371417938475
 40
1.083176791562496
 40
1.448211145705696
 40
1.714037220764907
 40
2.164002567013297
 40
2.740236056362883
 40
3.395137510199602
 40
4.071816045172726
 40
4.784906178399433
 40
5.506895915094292
 40
6.060470601257719
 40
6.060470601257719
 40
6.060470601257719
 40
6.060470601257719
 10
77.59168565846386
 20
98.23075056483226
 30
0.0
 10
77.63105212774679
 20
98.21632341353229
 30
0.0
 10
77.70846588349406
 20
98.18582221098399
 30
0.0
 10
77.80294719691773
 20
98.11620838821482
 30
0.0
 10
77.85447322566233
 20
98.03584491803741
 30
0.0
 10
77.90403549668639
 20
97.95666110741462
 30
0.0
 10
77.91097164604366
 20
97.8430585387951
 30
0.0
 10
77.89960976480017
 20
97.69943735784284
 30
0.0
 10
77.82625848594597
 20
97.54958347633357
 30
0.0
 10
77.70852536924678
 20
97.41851540759626
 30
0.0
 10
77.56235148879466
 20
97.31361023471277
 30
0.0
 10
77.40820608985598
 20
97.2312623754753
 30
0.0
 10
77.29802291536322
 20
97.23044187473711
 30
0.0
 10
77.25020516884473
 20
97.23008579045751
 30
0.0
  0
SPLINE
  5
F9B
102
{ACAD_REACTORS
330
F93
102
}
330
18
100
AcDbEntity
  8
ROGO
 62
     4
100
AcDbSpline
210
0.0
220
0.0
230
1.0
 70
     8
 71
     3
 72
    15
 73
    11
 74
     9
 42
0.0000000001
 43
0.0000000001
 44
0.0000000001
 40
0.0
 40
0.0
 40
0.0
 40
0.0
 40
0.1173311909271291
 40
0.1708277603084772
 40
0.2315499279304583
 40
0.2729166917718413
 40
0.3383386578210342
 40
0.3775246283551124
 40
0.4447549129354287
 40
0.4671650220984683
 40
0.4671650220984683
 40
0.4671650220984683
 40
0.4671650220984683
 10
77.15780136219223
 20
97.84379062631899
 30
0.0
 10
77.20186868218705
 20
97.84399247816702
 30
0.0
 10
77.26602827622193
 20
97.84428636335512
 30
0.0
 10
77.30111302734684
 20
97.76492075999124
 30
0.0
 10
77.28538636904589
 20
97.71382169230797
 30
0.0
 10
77.26561667781838
 20
97.66135887622546
 30
0.0
 10
77.23067915587986
 20
97.62570960144568
 30
0.0
 10
77.18378788403704
 20
97.59137334019511
 30
0.0
 10
77.13947339130917
 20
97.58721678202011
 30
0.0
 10
77.11065178825936
 20
97.57958003511367
 30
0.0
 10
77.10344638404786
 20
97.57767084747314
 30
0.0
 11
77.15780136219223
 21
97.84379062631899
 31
0.0
 11
77.27194691006094
 21
97.81663547457696
 31
0.0
 11
77.29368896382903
 21
97.76775637849778
 31
0.0
 11
77.28281809322095
 21
97.70801522172178
 31
0.0
 11
77.26651163103293
 21
97.66999800928296
 31
0.0
 11
77.22302752349662
 21
97.62111891320381
 31
0.0
 11
77.19041459912034
 21
97.59939479181021
 31
0.0
 11
77.12518843781595
 21
97.5831018778215
 31
0.0
 11
77.10344638404786
 21
97.57767084747314
 31
0.0
  0
LINE
  5
F9C
102
{ACAD_REACTORS
330
F6B
102
}
330
18
100
AcDbEntity
  8
ROGO
 62
     4
100
AcDbLine
 10
78.31762020768394
 20
98.23075056483226
 30
0.0
 11
77.82250058360625
 21
97.23008579045746
 31
0.0
  0
LINE
  5
F9D
102
{ACAD_REACTORS
330
F6B
102
}
330
18
100
AcDbEntity
  8
ROGO
 62
     4
100
AcDbLine
 10
78.84630955838208
 20
98.00152811621371
 30
0.0
 11
78.75763145206008
 21
97.82230464588577
 31
0.0
  0
LINE
  5
F9E
102
{ACAD_REACTORS
330
F6B
102
}
330
18
100
AcDbEntity
  8
ROGO
 62
     4
100
AcDbLine
 10
78.6667003613922
 20
97.6385277667198
 30
0.0
 11
78.57801850086542
 21
97.45929670893174
 31
0.0
  0
LINE
  5
F9F
102
{ACAD_REACTORS
330
F93
102
}
330
18
100
AcDbEntity
  8
ROGO
 62
     4
100
AcDbLine
 10
77.15780136219229
 20
97.84379062631899
 30
0.0
 11
76.8484243243671
 21
97.84379062631899
 31
0.0
  0
LINE
  5
FA4
330
18
100
AcDbEntity
  8
外形線
100
AcDbLine
 10
98.85901243157576
 20
91.94894867627741
 30
0.0
 11
95.41181243754037
 21
94.8414929198668
 31
0.0
  0
LINE
  5
FA5
330
18
100
AcDbEntity
  8
外形線
100
AcDbLine
 10
100.053933457901
 20
93.50620007632599
 30
0.0
 11
97.18690130288962
 21
95.51371760355468
 31
0.0
  0
LINE
  5
FA6
330
18
100
AcDbEntity
  8
外形線
100
AcDbLine
 10
101.1085840465486
 20
95.16166989422453
 30
0.0
 11
97.21146972951865
 21
97.41166989422453
 31
0.0
  0
LINE
  5
FA8
330
18
100
AcDbEntity
  8
外形線
100
AcDbLine
 10
89.3184656862263
 20
85.26858592654159
 30
0.0
 11
82.13604267638718
 21
105.0021309630456
 31
0.0
  0
TEXT
  5
FAA
330
18
100
AcDbEntity
  8
文字
100
AcDbText
 10
86.37235488801627
 20
93.09761917993245
 30
0.0
 40
2.0
  1
1.5
  7
STYLE3
100
AcDbText
  0
TEXT
  5
FB5
330
18
100
AcDbEntity
  8
文字
100
AcDbText
 10
83.14307831542766
 20
86.49831799615361
 30
0.0
 40
1.0
  1
E
 50
5.567348364325177
  7
STYLE3
100
AcDbText
  0
TEXT
  5
FB6
330
18
100
AcDbEntity
  8
文字
100
AcDbText
 10
81.20470261858452
 20
86.4283333350308
 30
0.0
 40
1.0
  1
E
  7
STYLE3
100
AcDbText
  0
TEXT
  5
FB7
330
18
100
AcDbEntity
  8
文字
100
AcDbText
 10
79.97699775879135
 20
86.48885416890562
 30
0.0
 40
1.0
  1
W
 50
357.0959730001581
  7
STYLE3
100
AcDbText
  0
TEXT
  5
FB8
330
18
100
AcDbEntity
  8
文字
100
AcDbText
 10
78.95579360624691
 20
86.60143342119715
 30
0.0
 40
1.0
  1
E
 50
355.2277330305983
  7
STYLE3
100
AcDbText
  0
TEXT
  5
FB9
330
18
100
AcDbEntity
  8
文字
100
AcDbText
 10
82.24458930814694
 20
86.43691137007312
 30
0.0
 40
1.0
  1
L
 50
2.872940209688468
  7
STYLE3
100
AcDbText
  0
POINT
  5
FBA
330
18
100
AcDbEntity
  8
DEFPOINTS
  6
ByBlock
 62
     0
100
AcDbPoint
 10
81.62301246139874
 20
91.35706000136215
 30
0.0
  0
TEXT
  5
FBF
330
18
100
AcDbEntity
  8
文字
100
AcDbText
 10
84.12056453242048
 20
86.61183767336643
 30
0.0
 40
1.0
  1
D
 50
5.522724978934679
  7
STYLE3
100
AcDbText
  0
LINE
  5
FC0
330
18
100
AcDbEntity
  8
外形線
100
AcDbLine
 10
91.13192335056451
 20
86.01974468589984
 30
0.0
 11
89.65275943447204
 21
89.19182194052813
 31
0.0
  0
POINT
  5
FC3
330
18
100
AcDbEntity
  8
DEFPOINTS
  6
ByBlock
 62
     0
100
AcDbPoint
 10
89.3184656862263
 20
85.26858592654159
 30
0.0
  0
LINE
  5
FC5
330
18
100
AcDbEntity
  8
外形線
100
AcDbLine
 10
94.52848227929729
 20
87.98074889772218
 30
0.0
 11
92.5209647520686
 21
90.84778105273363
 31
0.0
  0
LINE
  5
FC6
330
18
100
AcDbEntity
  8
外形線
100
AcDbLine
 10
96.08573367934591
 20
89.17566992404749
 30
0.0
 11
93.19318943575643
 21
92.62286991808286
 31
0.0
  0
LINE
  5
FC7
330
18
100
AcDbEntity
  8
外形線
100
AcDbLine
 10
92.87301246139875
 20
86.92609830907466
 30
0.0
 11
90.12301246139882
 21
91.68923802988905
 31
0.0
  0
LINE
  5
FC9
330
18
100
AcDbEntity
  8
外形線
100
AcDbLine
 10
97.18648489944321
 20
90.84819745618004
 30
0.0
 11
95.05804130394315
 21
92.97664105168008
 31
0.0
  0
LINE
  5
FCE
102
{ACAD_REACTORS
330
FD0
102
}
330
18
100
AcDbEntity
  8
ROGO
 62
     4
100
AcDbLine
 10
83.49869486339981
 20
98.2349244074598
 30
0.0
 11
84.07056830111519
 21
98.2349244074598
 31
0.0
  0
SPLINE
  5
FCF
102
{ACAD_REACTORS
330
FD0
102
}
330
18
100
AcDbEntity
  8
ROGO
 62
     4
100
AcDbSpline
210
0.0
220
0.0
230
1.0
 70
     8
 71
     3
 72
    11
 73
     7
 74
     0
 42
0.0000000001
 43
0.0000000001
 40
0.1647869275458134
 40
0.1647869275458134
 40
0.1647869275458134
 40
0.1647869275458134
 40
0.2895635144633836
 40
0.5387013147903714
 40
0.7953622617455423
 40
0.8850764140209602
 40
0.8850764140209602
 40
0.8850764140209602
 40
0.8850764140209602
 10
83.96825228349285
 20
97.25239552067733
 30
0.0
 10
83.95760011932395
 20
97.24943048672082
 30
0.0
 10
83.92457267321447
 20
97.2441514082987
 30
0.0
 10
83.86917353659004
 20
97.23690261363186
 30
0.0
 10
83.81651942804655
 20
97.22933823192761
 30
0.0
 10
83.78570975032017
 20
97.22993199950867
 30
0.0
 10
83.77772977680235
 20
97.23008579045751
 30
0.0
  0
HATCH
  5
FD0
330
18
100
AcDbEntity
  8
ROGO
 62
     4
100
AcDbHatch
 10
0.0
 20
0.0
 30
0.0
210
0.0
220
0.0
230
1.0
  2
SOLID
 70
     1
 71
     1
 91
        2
 92
        5
 93
        6
 72
     4
 94
        3
 73
     0
 74
     0
 95
       38
 96
       34
 40
0.0
 40
0.0
 40
0.0
 40
0.0
 40
0.1377518814269403
 40
0.1810136836454759
 40
0.2366021580813189
 40
0.2829259774522072
 40
0.3220114216621721
 40
0.3739258113479615
 40
0.400452018397381
 40
0.430327490341427
 40
0.4743583140443541
 40
0.5242356829021452
 40
0.5565906436074935
 40
0.5917389852555234
 40
0.6308103713097882
 40
0.690103179468453
 40
0.7464375304839319
 40
0.7726270891267914
 40
0.8024927772748714
 40
0.8378737549607437
 40
0.8630604644926993
 40
0.8841741806523193
 40
0.9143197975364294
 40
0.9474446665781009
 40
0.9805693511859566
 40
1.009553496326227
 40
1.075932340706376
 40
1.102121899349253
 40
1.154501047744393
 40
1.200801884818927
 40
1.289441366201207
 40
1.398813308257271
 40
1.556762308284053
 40
1.556762308284053
 40
1.556762308284053
 40
1.556762308284053
 10
83.49869486339986
 20
98.2349244074598
 10
83.4527780323884
 20
98.23168070701735
 10
83.39244074598175
 20
98.2274183030513
 10
83.31582650046462
 20
98.20642828395669
 10
83.27406326019993
 20
98.18142241221659
 10
83.23060026110828
 20
98.16304189788084
 10
83.19354400643399
 20
98.13582400108739
 10
83.15606238714742
 20
98.12179888109422
 10
83.12981660994802
 20
98.09650908288611
 10
83.09943926366768
 20
98.08106098261349
 10
83.07524924348998
 20
98.04648364311006
 10
83.04821166191755
 20
98.01415508364947
 10
83.01684466584298
 20
97.9905566770423
 10
82.99110135119136
 20
97.96577144581783
 10
82.96748543957219
 20
97.92752038692356
 10
82.95350848611382
 20
97.87669605633475
 10
82.91410980037332
 20
97.84460740692157
 10
82.90817759186078
 20
97.80602727577223
 10
82.88638497731559
 20
97.78326564760249
 10
82.87690878632909
 20
97.75388365562747
 10
82.87329979666592
 20
97.72696456103354
 10
82.86896814850653
 20
97.7018239901654
 10
82.85763737727434
 20
97.67537722014722
 10
82.86133578009815
 20
97.64270848952993
 10
82.86028221616744
 20
97.61107427334529
 10
82.8609022397774
 20
97.56836709642955
 10
82.85866448870075
 20
97.52678640781434
 10
82.87650967660834
 20
97.48153675638164
 10
82.88706986659338
 20
97.44120295221405
 10
82.91599066471489
 20
97.38535590931718
 10
82.96587843539956
 20
97.32092049708677
 10
83.06074420437292
 20
97.24270811499486
 10
83.15196041487439
 20
97.23477383290131
 10
83.205856339087
 20
97.23008579045751
 72
     1
 10
83.20585633908713
 20
97.23008579045746
 11
83.77772977680148
 21
97.23008579045746
 72
     4
 94
        3
 73
     0
 74
     0
 95
       11
 96
        7
 40
0.1647869275458135
 40
0.1647869275458135
 40
0.1647869275458135
 40
0.1647869275458135
 40
0.2545010798212315
 40
0.5111620267764023
 40
0.7602998271033902
 40
0.8850764140209603
 40
0.8850764140209603
 40
0.8850764140209603
 40
0.8850764140209603
 10
83.77772977680235
 20
97.23008579045751
 10
83.78570975032017
 20
97.22993199950867
 10
83.81651942804655
 20
97.22933823192761
 10
83.86917353659004
 20
97.23690261363186
 10
83.92457267321447
 20
97.2441514082987
 10
83.95760011932395
 20
97.24943048672082
 10
83.96825228349285
 20
97.25239552067733
 72
     4
 94
        3
 73
     0
 74
     0
 95
        9
 96
        5
 40
0.0
 40
0.0
 40
0.0
 40
0.0
 40
0.0865516336707051
 40
0.2029257078463241
 40
0.2029257078463241
 40
0.2029257078463241
 40
0.2029257078463241
 10
83.96825228349285
 20
97.25239552067733
 10
83.99605517237464
 20
97.26090163443574
 10
84.06124078086326
 20
97.28084474910897
 10
84.11509902578981
 20
97.32299477131743
 10
84.14598571558661
 20
97.34716701574644
 72
     4
 94
        3
 73
     0
 74
     0
 95
       25
 96
       21
 40
0.0
 40
0.0
 40
0.0
 40
0.0
 40
0.165525918914855
 40
0.3412380755365305
 40
0.5940540902285263
 40
0.7697671103696209
 40
0.9377330196075423
 40
1.11479469302833
 40
1.274661249598185
 40
1.574522170874768
 40
1.815540668866877
 40
2.15849091873445
 40
2.536227739636605
 40
2.738070817316548
 40
2.925680654369045
 40
3.162706124480894
 40
3.395643218188267
 40
3.648478129958861
 40
3.928509979727306
 40
4.337226830236035
 40
4.337226830236035
 40
4.337226830236035
 40
4.337226830236035
 10
84.14598571558661
 20
97.34716701574644
 10
84.15733446872417
 20
97.35654520764825
 10
84.178859950586
 20
97.37885011898583
 10
84.21703893714823
 20
97.41500141071448
 10
84.25068298410257
 20
97.45712053437216
 10
84.29218533822767
 20
97.49125660797091
 10
84.31379133402982
 20
97.53299048841018
 10
84.34493467146007
 20
97.56581329644205
 10
84.37105883180725
 20
97.61650488578517
 10
84.39322389070378
 20
97.67473346356679
 10
84.41435521374524
 20
97.75063330810434
 10
84.42245295473055
 20
97.83625961471898
 10
84.4104672910338
 20
97.91910302339704
 10
84.3815129574013
 20
97.98102575018447
 10
84.36022609862977
 20
98.03263196100727
 10
84.32792062356247
 20
98.08151212917444
 10
84.29106444281428
 20
98.13467471762937
 10
84.23914061040575
 20
98.17864878508851
 10
84.17128149258962
 20
98.23168859649024
 10
84.10807579134546
 20
98.23371933048271
 10
84.07056830111519
 20
98.2349244074598
 72
     1
 10
84.07056830111519
 20
98.2349244074598
 11
83.49869486339983
 21
98.2349244074598
 97
        6
330
FFC
330
FCE
330
FE9
330
FEA
330
FCF
330
FFD
 92
       20
 93
        1
 72
     3
 10
83.63011450835779
 20
97.71849511518007
 11
0.1358595110271534
 21
0.119471439333386
 40
0.678808341743879
 50
0.0
 51
360.0
 73
     1
 97
        1
330
FEB
 75
     0
 76
     1
 47
0.088756267210375
 98
        2
 10
83.67006907050575
 20
97.95738395473478
 10
83.67006907050575
 20
97.95738395473478
450
        0
451
        0
460
0.0
461
0.0
452
        0
462
0.0
453
        0
470

  0
POINT
  5
FD1
330
18
100
AcDbEntity
  8
DEFPOINTS
  6
ByBlock
 62
     0
100
AcDbPoint
 10
81.62301246139874
 20
93.67684382081369
 30
0.0
  0
SPLINE
  5
FD2
102
{ACAD_REACTORS
330
FD3
102
}
330
18
100
AcDbEntity
  8
ROGO
 62
     4
100
AcDbSpline
210
0.0
220
0.0
230
1.0
 70
     8
 71
     3
 72
    26
 73
    22
 74
    20
 42
0.0000000001
 43
0.0000000001
 44
0.0000000001
 40
0.0
 40
0.0
 40
0.0
 40
0.0
 40
0.1815320543485053
 40
0.3030537083199962
 40
0.3906807171793024
 40
0.4561089693578315
 40
0.5409728463824015
 40
0.6029152034572501
 40
0.714768662850487
 40
0.8058157707230188
 40
0.867742392801297
 40
0.9284646163791247
 40
1.037084869234313
 40
1.113892352366038
 40
1.155259116207495
 40
1.21401938228823
 40
1.256451488881051
 40
1.317921602285561
 40
1.352708369427598
 40
1.428408276764845
 40
1.46297351205421
 40
1.46297351205421
 40
1.46297351205421
 40
1.46297351205421
 10
81.94089222690877
 20
98.23075056483226
 30
0.0
 10
81.87927744283756
 20
98.22707452115629
 30
0.0
 10
81.77641633179506
 20
98.2209376508832
 30
0.0
 10
81.66347545760368
 20
98.15232728270709
 30
0.0
 10
81.5807283612499
 20
98.11244022972502
 30
0.0
 10
81.52171323248232
 20
98.05821717934918
 30
0.0
 10
81.47845490386606
 20
98.00220872922968
 30
0.0
 10
81.4239196597517
 20
97.93547507157711
 30
0.0
 10
81.37944772652295
 20
97.85776642769105
 30
0.0
 10
81.3568008745525
 20
97.77211795493618
 30
0.0
 10
81.33674050801875
 20
97.70385562520228
 30
0.0
 10
81.32186340436815
 20
97.62778616712957
 30
0.0
 10
81.32564856070224
 20
97.5456043925751
 30
0.0
 10
81.33106907780536
 20
97.46927816763834
 30
0.0
 10
81.35527036857506
 20
97.41479267063656
 30
0.0
 10
81.38283135197452
 20
97.37600275132251
 30
0.0
 10
81.41657939870119
 20
97.33327995563378
 30
0.0
 10
81.45350714191229
 20
97.30498478639095
 30
0.0
 10
81.48404939979988
 20
97.25372618591809
 30
0.0
 10
81.53751259190883
 20
97.24718521881824
 30
0.0
 10
81.57149592376553
 20
97.23416674207213
 30
0.0
 10
81.58214880856268
 20
97.23008579045751
 30
0.0
 11
81.94089222690877
 21
98.23075056483226
 31
0.0
 11
81.76152051773561
 21
98.20282787326625
 31
0.0
 11
81.65281024889504
 21
98.14851774683871
 31
0.0
 11
81.57671321698257
 21
98.10506968110798
 31
0.0
 11
81.52779383041821
 21
98.06162143832068
 31
0.0
 11
81.47343885227394
 21
97.99644925119629
 31
0.0
 11
81.43539033631759
 21
97.9475701551172
 31
0.0
 11
81.38103504562138
 21
97.84981178590227
 31
0.0
 11
81.35385771282523
 21
97.76291547738436
 31
0.0
 11
81.33755125063714
 21
97.70317432060835
 31
0.0
 11
81.32668006747701
 21
97.64343316383236
 31
0.0
 11
81.32668006747701
 21
97.53481291097717
 31
0.0
 11
81.33755125063714
 21
97.45877866315602
 31
0.0
 11
81.35385771282523
 21
97.42076145071713
 31
0.0
 11
81.3864706372014
 21
97.37188235463799
 31
0.0
 11
81.41364828254955
 21
97.33929617254752
 31
0.0
 11
81.45713207753368
 21
97.29584810681679
 31
0.0
 11
81.47887413130195
 21
97.26869295507476
 31
0.0
 11
81.54953588418635
 21
97.24153798038924
 31
0.0
 11
81.58214880856268
 21
97.23008579045751
 31
0.0
  0
HATCH
  5
FD3
330
18
100
AcDbEntity
  8
ROGO
 62
     4
100
AcDbHatch
 10
0.0
 20
0.0
 30
0.0
210
0.0
220
0.0
230
1.0
  2
SOLID
 70
     1
 71
     1
 91
        1
 92
        5
 93
        8
 72
     1
 10
82.75735145178988
 20
97.85843839043721
 11
82.94299832650716
 21
98.23075056483226
 72
     1
 10
82.94299832650716
 20
98.23075056483226
 11
81.94089222690879
 21
98.23075056483226
 72
     4
 94
        3
 73
     0
 74
     0
 95
       26
 96
       22
 40
0.0
 40
0.0
 40
0.0
 40
0.0
 40
0.1815320543485053
 40
0.3030537083199962
 40
0.3906807171793024
 40
0.4561089693578315
 40
0.5409728463824015
 40
0.6029152034572501
 40
0.714768662850487
 40
0.8058157707230188
 40
0.867742392801297
 40
0.9284646163791247
 40
1.037084869234313
 40
1.113892352366038
 40
1.155259116207495
 40
1.21401938228823
 40
1.256451488881051
 40
1.317921602285561
 40
1.352708369427598
 40
1.428408276764845
 40
1.46297351205421
 40
1.46297351205421
 40
1.46297351205421
 40
1.46297351205421
 10
81.94089222690877
 20
98.23075056483226
 10
81.87927744283756
 20
98.22707452115629
 10
81.77641633179506
 20
98.2209376508832
 10
81.66347545760368
 20
98.15232728270709
 10
81.5807283612499
 20
98.11244022972502
 10
81.52171323248232
 20
98.05821717934918
 10
81.47845490386606
 20
98.00220872922968
 10
81.4239196597517
 20
97.93547507157711
 10
81.37944772652295
 20
97.85776642769105
 10
81.3568008745525
 20
97.77211795493618
 10
81.33674050801875
 20
97.70385562520228
 10
81.32186340436815
 20
97.62778616712957
 10
81.32564856070224
 20
97.5456043925751
 10
81.33106907780536
 20
97.46927816763834
 10
81.35527036857506
 20
97.41479267063656
 10
81.38283135197452
 20
97.37600275132251
 10
81.41657939870119
 20
97.33327995563378
 10
81.45350714191229
 20
97.30498478639095
 10
81.48404939979988
 20
97.25372618591809
 10
81.53751259190883
 20
97.24718521881824
 10
81.57149592376553
 20
97.23416674207213
 10
81.58214880856268
 20
97.23008579045751
 72
     1
 10
81.58214880856272
 20
97.23008579045744
 11
82.44403455154019
 21
97.23008579045746
 72
     1
 10
82.44403455154019
 20
97.23008579045746
 11
82.62967946030778
 21
97.60239402216839
 72
     1
 10
82.62967946030778
 20
97.60239402216839
 11
81.98981161347315
 21
97.60239402216837
 72
     4
 94
        3
 73
     0
 74
     0
 95
       16
 96
       12
 40
0.0
 40
0.0
 40
0.0
 40
0.0
 40
0.0548221980867551
 40
0.1102098473221577
 40
0.1432460907511411
 40
0.174921048923576
 40
0.2097076778523846
 40
0.2340000650060201
 40
0.2570514321000279
 40
0.3037962950973969
 40
0.3995010334847652
 40
0.3995010334847652
 40
0.3995010334847652
 40
0.3995010334847652
 10
81.98981161347314
 20
97.60239402216837
 10
81.97051094428301
 20
97.60807256204278
 10
81.9317105335207
 20
97.61948821180531
 10
81.92846325246016
 20
97.67482708808216
 10
81.93288720310501
 20
97.71426056579423
 10
81.95141471828632
 20
97.74297044033547
 10
81.97389180775605
 20
97.76386065152998
 10
81.98226102505229
 20
97.79106688529877
 10
82.00686157677886
 20
97.81161099559092
 10
82.05048494657354
 20
97.84614277517002
 10
82.09872484191331
 20
97.85349727265792
 10
82.13113480668994
 20
97.85843839043719
 72
     1
 10
82.13113480668994
 20
97.85843839043721
 11
82.75735145178988
 21
97.85843839043721
 97
        8
330
FE8
330
FD2
330
FEC
330
FE7
330
FE5
330
FE6
330
FE4
330
FE3
 75
     0
 76
     1
 47
0.0514683685270805
 98
        1
 10
82.29136583227035
 20
98.00799085464831
450
        0
451
        0
460
0.0
461
0.0
452
        0
462
0.0
453
        0
470

  0
LINE
  5
FD4
102
{ACAD_REACTORS
330
F6B
102
}
330
18
100
AcDbEntity
  8
ROGO
 62
     4
100
AcDbLine
 10
79.67106094502435
 20
98.23075056483226
 30
0.0
 11
79.55764380923966
 21
98.00152811621371
 31
0.0
  0
LINE
  5
FD5
102
{ACAD_REACTORS
330
F6B
102
}
330
18
100
AcDbEntity
  8
ROGO
 62
     4
100
AcDbLine
 10
79.46896570291773
 20
97.82230464588577
 30
0.0
 11
79.37803461224973
 21
97.6385277667198
 31
0.0
  0
LINE
  5
FD6
102
{ACAD_REACTORS
330
F6B
102
}
330
18
100
AcDbEntity
  8
ROGO
 62
     4
100
AcDbLine
 10
79.28935275172307
 20
97.45929670893174
 30
0.0
 11
79.17594132094655
 21
97.23008579045746
 31
0.0
  0
LINE
  5
FD7
102
{ACAD_REACTORS
330
FE2
102
}
330
18
100
AcDbEntity
  8
ROGO
 62
     4
100
AcDbLine
 10
80.06312451380541
 20
98.23075056483226
 30
0.0
 11
79.34152569731072
 21
97.23008579045746
 31
0.0
  0
LINE
  5
FD8
102
{ACAD_REACTORS
330
FE2
102
}
330
18
100
AcDbEntity
  8
ROGO
 62
     4
100
AcDbLine
 10
80.42442739335866
 20
97.96326880364098
 30
0.0
 11
80.17801003705375
 21
97.62155376390911
 31
0.0
  0
LINE
  5
FD9
102
{ACAD_REACTORS
330
FE2
102
}
330
18
100
AcDbEntity
  8
ROGO
 62
     4
100
AcDbLine
 10
80.03310282329238
 20
97.42060617218761
 30
0.0
 11
80.66549963678665
 21
97.42060617218761
 31
0.0
  0
LINE
  5
FDA
102
{ACAD_REACTORS
330
FE2
102
}
330
18
100
AcDbEntity
  8
ROGO
 62
     4
100
AcDbLine
 10
80.17801003705375
 20
97.62155376390921
 30
0.0
 11
80.57623075416984
 21
97.62155376390921
 31
0.0
  0
LINE
  5
FDB
102
{ACAD_REACTORS
330
FE2
102
}
330
18
100
AcDbEntity
  8
ROGO
 62
     4
100
AcDbLine
 10
80.03310282329238
 20
97.42060617218761
 30
0.0
 11
79.89571487330642
 21
97.23008579045751
 31
0.0
  0
LINE
  5
FDC
102
{ACAD_REACTORS
330
FE2
102
}
330
18
100
AcDbEntity
  8
ROGO
 62
     4
100
AcDbLine
 10
79.34152569731072
 20
97.23008579045746
 30
0.0
 11
79.8957148733063
 21
97.23008579045746
 31
0.0
  0
LINE
  5
FDD
102
{ACAD_REACTORS
330
FE2
102
}
330
18
100
AcDbEntity
  8
ROGO
 62
     4
100
AcDbLine
 10
80.06312451380541
 20
98.23075056483226
 30
0.0
 11
80.86357063336947
 21
98.23075056483226
 31
0.0
  0
LINE
  5
FDE
102
{ACAD_REACTORS
330
FE2
102
}
330
18
100
AcDbEntity
  8
ROGO
 62
     4
100
AcDbLine
 10
81.30810557662107
 20
97.23008579045751
 30
0.0
 11
80.7501363395562
 21
97.23008579045746
 31
0.0
  0
LINE
  5
FDF
102
{ACAD_REACTORS
330
FE2
102
}
330
18
100
AcDbEntity
  8
ROGO
 62
     4
100
AcDbLine
 10
80.86357063336947
 20
98.23075056483226
 30
0.0
 11
81.30810557662107
 21
97.23008579045746
 31
0.0
  0
LINE
  5
FE0
102
{ACAD_REACTORS
330
FE2
102
}
330
18
100
AcDbEntity
  8
ROGO
 62
     4
100
AcDbLine
 10
80.42442739335871
 20
97.96326880364098
 30
0.0
 11
80.57623075416984
 21
97.62155376390911
 31
0.0
  0
LINE
  5
FE1
102
{ACAD_REACTORS
330
FE2
102
}
330
18
100
AcDbEntity
  8
ROGO
 62
     4
100
AcDbLine
 10
80.66549963678665
 20
97.42060617218761
 30
0.0
 11
80.7501363395562
 21
97.23008579045746
 31
0.0
  0
HATCH
  5
FE2
330
18
100
AcDbEntity
  8
ROGO
 62
     4
100
AcDbHatch
 10
0.0
 20
0.0
 30
0.0
210
0.0
220
0.0
230
1.0
  2
SOLID
 70
     1
 71
     1
 91
        2
 92
        7
 72
     0
 73
     1
 93
        8
 10
80.86357063336945
 20
98.23075056483226
 10
80.06312451380539
 20
98.23075056483224
 10
79.3415256973107
 20
97.23008579045744
 10
79.89571487330639
 20
97.23008579045746
 10
80.03310282329236
 20
97.42060617218761
 10
80.66549963678665
 20
97.42060617218761
 10
80.75013633955618
 20
97.23008579045746
 10
81.30810557662105
 20
97.23008579045751
 97
        8
330
FDD
330
FD7
330
FDC
330
FDB
330
FD9
330
FE1
330
FDE
330
FDF
 92
       22
 72
     0
 73
     1
 93
        3
 10
80.5762307541698
 20
97.62155376390923
 10
80.17801003705384
 20
97.62155376390921
 10
80.4244273933587
 20
97.96326880364103
 97
        3
330
FDA
330
FD8
330
FE0
 75
     0
 76
     1
 47
0.0128389261915577
 98
        2
 10
80.80088937745854
 20
97.99067702742872
 10
80.80088937745854
 20
97.99067702742872
450
        0
451
        0
460
0.0
461
0.0
452
        0
462
0.0
453
        0
470

  0
LINE
  5
FE3
102
{ACAD_REACTORS
330
FD3
102
}
330
18
100
AcDbEntity
  8
ROGO
 62
     4
100
AcDbLine
 10
82.94299832650716
 20
98.23075056483226
 30
0.0
 11
82.75735145178988
 21
97.85843839043719
 31
0.0
  0
LINE
  5
FE4
102
{ACAD_REACTORS
330
FD3
102
}
330
18
100
AcDbEntity
  8
ROGO
 62
     4
100
AcDbLine
 10
82.13113480668994
 20
97.85843839043719
 30
0.0
 11
82.75735145178988
 21
97.85843839043719
 31
0.0
  0
LINE
  5
FE5
102
{ACAD_REACTORS
330
FD3
102
}
330
18
100
AcDbEntity
  8
ROGO
 62
     4
100
AcDbLine
 10
81.98981161347314
 20
97.60239402216837
 30
0.0
 11
82.62967946030778
 21
97.60239402216837
 31
0.0
  0
SPLINE
  5
FE6
102
{ACAD_REACTORS
330
FD3
102
}
330
18
100
AcDbEntity
  8
ROGO
 62
     4
100
AcDbSpline
210
0.0
220
0.0
230
1.0
 70
     8
 71
     3
 72
    16
 73
    12
 74
    10
 42
0.0000000001
 43
0.0000000001
 44
0.0000000001
 40
0.0
 40
0.0
 40
0.0
 40
0.0
 40
0.0957047383873683
 40
0.1424496013847372
 40
0.1655009684787451
 40
0.1897933556323806
 40
0.2245799845611891
 40
0.256254942733624
 40
0.2892911861626075
 40
0.3446788353980101
 40
0.3995010334847652
 40
0.3995010334847652
 40
0.3995010334847652
 40
0.3995010334847652
 10
82.13113480668994
 20
97.85843839043719
 30
0.0
 10
82.09872484191331
 20
97.85349727265792
 30
0.0
 10
82.05048494657354
 20
97.84614277517002
 30
0.0
 10
82.00686157677886
 20
97.81161099559092
 30
0.0
 10
81.98226102505229
 20
97.79106688529877
 30
0.0
 10
81.97389180775605
 20
97.76386065152998
 30
0.0
 10
81.95141471828632
 20
97.74297044033547
 30
0.0
 10
81.93288720310501
 20
97.71426056579423
 30
0.0
 10
81.92846325246016
 20
97.67482708808216
 30
0.0
 10
81.9317105335207
 20
97.61948821180531
 30
0.0
 10
81.97051094428301
 20
97.60807256204278
 30
0.0
 10
81.98981161347314
 20
97.60239402216837
 30
0.0
 11
82.13113480668994
 21
97.85843839043719
 31
0.0
 11
82.03873131258939
 21
97.83351869485711
 31
0.0
 11
82.00068279663316
 21
97.80636372017159
 31
0.0
 11
81.98437633444507
 21
97.79007062912626
 31
0.0
 11
81.97350515128499
 21
97.7683465077327
 31
0.0
 11
81.95176309751678
 21
97.74119153304718
 31
0.0
 11
81.93545663532864
 21
97.71403638130516
 31
0.0
 11
81.93002104374864
 21
97.68145037627119
 31
0.0
 11
81.94089222690877
 21
97.6271400727872
 31
0.0
 11
81.98981161347314
 21
97.60239402216837
 31
0.0
  0
LINE
  5
FE7
102
{ACAD_REACTORS
330
FD3
102
}
330
18
100
AcDbEntity
  8
ROGO
 62
     4
100
AcDbLine
 10
82.62967946030778
 20
97.60239402216837
 30
0.0
 11
82.44403455154019
 21
97.23008579045746
 31
0.0
  0
LINE
  5
FE8
102
{ACAD_REACTORS
330
FD3
102
}
330
18
100
AcDbEntity
  8
ROGO
 62
     4
100
AcDbLine
 10
81.94089222690905
 20
98.23075056483226
 30
0.0
 11
82.94299832650716
 21
98.23075056483226
 31
0.0
  0
SPLINE
  5
FE9
102
{ACAD_REACTORS
330
FD0
102
}
330
18
100
AcDbEntity
  8
ROGO
 62
     4
100
AcDbSpline
210
0.0
220
0.0
230
1.0
 70
     8
 71
     3
 72
    38
 73
    34
 74
    32
 42
0.0000000001
 43
0.0000000001
 44
0.0000000001
 40
0.0
 40
0.0
 40
0.0
 40
0.0
 40
0.1377518814269403
 40
0.1810136836454759
 40
0.2366021580813189
 40
0.2829259774522072
 40
0.3220114216621721
 40
0.3739258113479615
 40
0.400452018397381
 40
0.430327490341427
 40
0.4743583140443541
 40
0.5242356829021452
 40
0.5565906436074935
 40
0.5917389852555234
 40
0.6308103713097882
 40
0.690103179468453
 40
0.7464375304839319
 40
0.7726270891267914
 40
0.8024927772748714
 40
0.8378737549607437
 40
0.8630604644926993
 40
0.8841741806523193
 40
0.9143197975364294
 40
0.9474446665781009
 40
0.9805693511859566
 40
1.009553496326227
 40
1.075932340706376
 40
1.102121899349253
 40
1.154501047744393
 40
1.200801884818927
 40
1.289441366201207
 40
1.398813308257271
 40
1.556762308284053
 40
1.556762308284053
 40
1.556762308284053
 40
1.556762308284053
 10
83.49869486339986
 20
98.2349244074598
 30
0.0
 10
83.4527780323884
 20
98.23168070701735
 30
0.0
 10
83.39244074598175
 20
98.2274183030513
 30
0.0
 10
83.31582650046462
 20
98.20642828395669
 30
0.0
 10
83.27406326019993
 20
98.18142241221659
 30
0.0
 10
83.23060026110828
 20
98.16304189788084
 30
0.0
 10
83.19354400643399
 20
98.13582400108739
 30
0.0
 10
83.15606238714742
 20
98.12179888109422
 30
0.0
 10
83.12981660994802
 20
98.09650908288611
 30
0.0
 10
83.09943926366768
 20
98.08106098261349
 30
0.0
 10
83.07524924348998
 20
98.04648364311006
 30
0.0
 10
83.04821166191755
 20
98.01415508364947
 30
0.0
 10
83.01684466584298
 20
97.9905566770423
 30
0.0
 10
82.99110135119136
 20
97.96577144581783
 30
0.0
 10
82.96748543957219
 20
97.92752038692356
 30
0.0
 10
82.95350848611382
 20
97.87669605633475
 30
0.0
 10
82.91410980037332
 20
97.84460740692157
 30
0.0
 10
82.90817759186078
 20
97.80602727577223
 30
0.0
 10
82.88638497731559
 20
97.78326564760249
 30
0.0
 10
82.87690878632909
 20
97.75388365562747
 30
0.0
 10
82.87329979666592
 20
97.72696456103354
 30
0.0
 10
82.86896814850653
 20
97.7018239901654
 30
0.0
 10
82.85763737727434
 20
97.67537722014722
 30
0.0
 10
82.86133578009815
 20
97.64270848952993
 30
0.0
 10
82.86028221616744
 20
97.61107427334529
 30
0.0
 10
82.8609022397774
 20
97.56836709642955
 30
0.0
 10
82.85866448870075
 20
97.52678640781434
 30
0.0
 10
82.87650967660834
 20
97.48153675638164
 30
0.0
 10
82.88706986659338
 20
97.44120295221405
 30
0.0
 10
82.91599066471489
 20
97.38535590931718
 30
0.0
 10
82.96587843539956
 20
97.32092049708677
 30
0.0
 10
83.06074420437292
 20
97.24270811499486
 30
0.0
 10
83.15196041487439
 20
97.23477383290131
 30
0.0
 10
83.205856339087
 20
97.23008579045751
 30
0.0
 11
83.49869486339986
 21
98.2349244074598
 31
0.0
 11
83.36194230018907
 21
98.218361880722
 31
0.0
 11
83.3205021393851
 21
98.20594026231953
 31
0.0
 11
83.27077414176528
 21
98.18109665664668
 31
0.0
 11
83.22933398096125
 21
98.16039377487522
 31
0.0
 11
83.19618198254806
 21
98.13969070866988
 31
0.0
 11
83.15059790333618
 21
98.11484728743103
 31
0.0
 11
83.12987766014657
 21
98.09828494512709
 31
0.0
 11
83.10501349854922
 21
98.0817224183893
 31
0.0
 11
83.07600541854396
 21
98.04859773378149
 31
0.0
 11
83.04285342013072
 21
98.01133250970616
 31
0.0
 11
83.01798925853324
 21
97.9906294435009
 31
0.0
 11
82.99312542251085
 21
97.9657860222619
 31
0.0
 11
82.97240517932136
 21
97.93266133765406
 31
0.0
 11
82.94754134329901
 21
97.87883358684098
 31
0.0
 11
82.91438901931071
 21
97.83328709939674
 31
0.0
 11
82.90610118249492
 21
97.80844349372399
 31
0.0
 11
82.8895251832883
 21
97.78360007248494
 31
0.0
 11
82.87709310248965
 21
97.75047520344333
 31
0.0
 11
82.87294885850679
 21
97.72563178220435
 31
0.0
 11
82.86880494009887
 21
97.70492871599913
 31
0.0
 11
82.86051710328298
 21
97.67594475529262
 31
0.0
 11
82.86051710328298
 21
97.64281988625095
 31
0.0
 11
82.86051710328298
 21
97.60969520164309
 31
0.0
 11
82.86051710328298
 21
97.58071105650282
 31
0.0
 11
82.86466102169095
 21
97.51446168728717
 31
0.0
 11
82.87294885850679
 21
97.48961808161443
 31
0.0
 11
82.8895251832883
 21
97.43993105470259
 31
0.0
 11
82.9102451009029
 21
97.39852510672591
 31
0.0
 11
82.96411734250545
 21
97.32813519804267
 31
0.0
 11
83.0511415825215
 21
97.26188564439326
 31
0.0
 11
83.205856339087
 21
97.23008579045751
 31
0.0
  0
LINE
  5
FEA
102
{ACAD_REACTORS
330
FD0
102
}
330
18
100
AcDbEntity
  8
ROGO
 62
     4
100
AcDbLine
 10
83.205856339087
 20
97.23008579045746
 30
0.0
 11
83.77772977680228
 21
97.23008579045746
 31
0.0
  0
ELLIPSE
  5
FEB
102
{ACAD_REACTORS
330
FD0
102
}
330
18
100
AcDbEntity
  8
ROGO
 62
     4
100
AcDbEllipse
 10
83.63011450835779
 20
97.71849511518007
 30
0.0
 11
0.1358595110271534
 21
0.119471439333386
 31
0.0
210
0.0
220
0.0
230
1.0
 40
0.678808341743879
 41
0.0
 42
6.283185307179586
  0
LINE
  5
FEC
102
{ACAD_REACTORS
330
FD3
102
}
330
18
100
AcDbEntity
  8
ROGO
 62
     4
100
AcDbLine
 10
81.58214880856258
 20
97.23008579045746
 30
0.0
 11
82.44403455154019
 21
97.23008579045746
 31
0.0
  0
LINE
  5
FED
102
{ACAD_REACTORS
330
FEF
102
}
330
18
100
AcDbEntity
  8
ROGO
 62
     4
100
AcDbLine
 10
86.76662994522894
 20
97.44894698262198
 30
0.0
 11
87.15646246122407
 21
96.66714340041165
 31
0.0
  0
LINE
  5
FEE
102
{ACAD_REACTORS
330
FEF
102
}
330
18
100
AcDbEntity
  8
ROGO
 62
     4
100
AcDbLine
 10
86.37681003523079
 20
98.23075056483226
 30
0.0
 11
85.59714500324025
 21
96.66714340041165
 31
0.0
  0
HATCH
  5
FEF
330
18
100
AcDbEntity
  8
ROGO
 62
     4
100
AcDbHatch
 10
0.0
 20
0.0
 30
0.0
210
0.0
220
0.0
230
1.0
  2
SOLID
 70
     1
 71
     1
 91
        1
 92
        7
 72
     0
 73
     1
 93
       11
 10
85.59714500324025
 20
96.66714340041165
 10
86.17330864671577
 20
96.66714340041165
 10
86.37681003523079
 20
97.0752625490148
 10
86.58031142374587
 20
96.66714340041165
 10
87.15646246122409
 20
96.66714340041165
 10
86.76662994522894
 20
97.44894698262198
 10
87.71377216104458
 20
98.23075056483226
 10
87.13762112356613
 20
98.23075056483222
 10
86.86785012292395
 20
98.06003648093595
 10
86.95297367870624
 20
98.23075056483224
 10
86.37681003523079
 20
98.23075056483226
 97
       11
330
1005
330
1003
330
1002
330
1006
330
FEE
330
F6C
330
FF0
330
FF2
330
FF1
330
FED
330
1004
 75
     0
 76
     1
 47
0.0514683685270805
 98
        1
 10
86.32722335017735
 20
97.55993262146962
450
        0
451
        0
460
0.0
461
0.0
452
        0
462
0.0
453
        0
470

  0
LINE
  5
FF0
102
{ACAD_REACTORS
330
FEF
102
}
330
18
100
AcDbEntity
  8
ROGO
 62
     4
100
AcDbLine
 10
86.37681003523079
 20
97.07526254901484
 30
0.0
 11
86.17330864671577
 21
96.66714340041165
 31
0.0
  0
LINE
  5
FF1
102
{ACAD_REACTORS
330
FEF
102
}
330
18
100
AcDbEntity
  8
ROGO
 62
     4
100
AcDbLine
 10
86.58031142374586
 20
96.66714340041165
 30
0.0
 11
87.15646246122407
 21
96.66714340041165
 31
0.0
  0
LINE
  5
FF2
102
{ACAD_REACTORS
330
FEF
102
}
330
18
100
AcDbEntity
  8
ROGO
 62
     4
100
AcDbLine
 10
86.37681003523079
 20
97.07526254901484
 30
0.0
 11
86.58031142374586
 21
96.66714340041165
 31
0.0
  0
LINE
  5
FF3
102
{ACAD_REACTORS
330
FFB
102
}
330
18
100
AcDbEntity
  8
ROGO
 62
     4
100
AcDbLine
 10
84.80637972105739
 20
97.23008579045746
 30
0.0
 11
85.66826546403513
 21
97.23008579045746
 31
0.0
  0
LINE
  5
FF4
102
{ACAD_REACTORS
330
FFB
102
}
330
18
100
AcDbEntity
  8
ROGO
 62
     4
100
AcDbLine
 10
85.16512313940381
 20
98.23075056483226
 30
0.0
 11
86.16722923900203
 21
98.23075056483226
 31
0.0
  0
SPLINE
  5
FF5
102
{ACAD_REACTORS
330
FFB
102
}
330
18
100
AcDbEntity
  8
ROGO
 62
     4
100
AcDbSpline
210
0.0
220
0.0
230
1.0
 70
     8
 71
     3
 72
    16
 73
    12
 74
    10
 42
0.0000000001
 43
0.0000000001
 44
0.0000000001
 40
0.0
 40
0.0
 40
0.0
 40
0.0
 40
0.0957047383873134
 40
0.1424496013846823
 40
0.1655009684787305
 40
0.1897933556323151
 40
0.2245799845611325
 40
0.2562549427335381
 40
0.2892911861624654
 40
0.3446788353979572
 40
0.3995010334846103
 40
0.3995010334846103
 40
0.3995010334846103
 40
0.3995010334846103
 10
85.3553657191847
 20
97.85843839043719
 30
0.0
 10
85.32295575440809
 20
97.85349727265794
 30
0.0
 10
85.27471585906836
 20
97.84614277517007
 30
0.0
 10
85.23109248927369
 20
97.81161099559085
 30
0.0
 10
85.20649193754703
 20
97.79106688529882
 30
0.0
 10
85.19812272025093
 20
97.76386065152994
 30
0.0
 10
85.17564563078128
 20
97.74297044033543
 30
0.0
 10
85.15711811560001
 20
97.7142605657942
 30
0.0
 10
85.15269416495518
 20
97.67482708808209
 30
0.0
 10
85.15594144601548
 20
97.61948821180524
 30
0.0
 10
85.19474185677783
 20
97.60807256204273
 30
0.0
 10
85.21404252596795
 20
97.60239402216837
 30
0.0
 11
85.3553657191847
 21
97.85843839043719
 31
0.0
 11
85.2629622250842
 21
97.83351869485711
 31
0.0
 11
85.22491370912797
 21
97.80636372017159
 31
0.0
 11
85.20860724693983
 21
97.79007062912626
 31
0.0
 11
85.19773606377986
 21
97.7683465077327
 31
0.0
 11
85.17599401001172
 21
97.74119153304713
 31
0.0
 11
85.15968754782363
 21
97.71403638130511
 31
0.0
 11
85.15425195624363
 21
97.68145037627119
 31
0.0
 11
85.16512313940365
 21
97.62714007278709
 31
0.0
 11
85.21404252596795
 21
97.60239402216837
 31
0.0
  0
SPLINE
  5
FF6
102
{ACAD_REACTORS
330
FFB
102
}
330
18
100
AcDbEntity
  8
ROGO
 62
     4
100
AcDbSpline
210
0.0
220
0.0
230
1.0
 70
     8
 71
     3
 72
    26
 73
    22
 74
    20
 42
0.0000000001
 43
0.0000000001
 44
0.0000000001
 40
0.0
 40
0.0
 40
0.0
 40
0.0
 40
0.1815320543484491
 40
0.3030537083199909
 40
0.3906807171792971
 40
0.4561089693578263
 40
0.5409728463824398
 40
0.6029152034572436
 40
0.7147686628505081
 40
0.8058157707231654
 40
0.867742392801334
 40
0.9284646163791412
 40
1.03708486923433
 40
1.113892352366038
 40
1.155259116207496
 40
1.214019382288231
 40
1.256451488881088
 40
1.317921602285679
 40
1.35270836942768
 40
1.428408276764927
 40
1.462973512054238
 40
1.462973512054238
 40
1.462973512054238
 40
1.462973512054238
 10
85.16512313940365
 20
98.23075056483226
 30
0.0
 10
85.10350835533246
 20
98.22707452115629
 30
0.0
 10
85.00064724428998
 20
98.22093765088318
 30
0.0
 10
84.88770637009855
 20
98.15232728270713
 30
0.0
 10
84.80495927374477
 20
98.112440229725
 30
0.0
 10
84.74594414497719
 20
98.05821717934918
 30
0.0
 10
84.702685816361
 20
98.00220872922961
 30
0.0
 10
84.64815057224654
 20
97.93547507157709
 30
0.0
 10
84.60367863901778
 20
97.85776642769105
 30
0.0
 10
84.58103178704732
 20
97.77211795493611
 30
0.0
 10
84.56097142051346
 20
97.70385562520228
 30
0.0
 10
84.54609431686309
 20
97.62778616712953
 30
0.0
 10
84.54987947319715
 20
97.5456043925751
 30
0.0
 10
84.55529999030012
 20
97.46927816763832
 30
0.0
 10
84.57950128106984
 20
97.41479267063658
 30
0.0
 10
84.60706226446925
 20
97.37600275132249
 30
0.0
 10
84.64081031119608
 20
97.33327995563378
 30
0.0
 10
84.67773805440719
 20
97.30498478639098
 30
0.0
 10
84.70828031229473
 20
97.25372618591805
 30
0.0
 10
84.76174350440372
 20
97.24718521881827
 30
0.0
 10
84.79572683626036
 20
97.23416674207214
 30
0.0
 10
84.80637972105752
 20
97.23008579045751
 30
0.0
 11
85.16512313940365
 21
98.23075056483226
 31
0.0
 11
84.98575143023055
 21
98.20282787326625
 31
0.0
 11
84.8770411613899
 21
98.14851774683871
 31
0.0
 11
84.80094412947744
 21
98.10506968110798
 31
0.0
 11
84.75202474291307
 21
98.06162143832068
 31
0.0
 11
84.69766976476881
 21
97.99644925119622
 31
0.0
 11
84.65962124881247
 21
97.9475701551172
 31
0.0
 11
84.6052659581162
 21
97.84981178590227
 31
0.0
 11
84.57808862531999
 21
97.76291547738424
 31
0.0
 11
84.5617821631319
 21
97.70317432060835
 31
0.0
 11
84.55091097997188
 21
97.64343316383236
 31
0.0
 11
84.55091097997188
 21
97.53481291097717
 31
0.0
 11
84.5617821631319
 21
97.45877866315602
 31
0.0
 11
84.57808862531999
 21
97.42076145071713
 31
0.0
 11
84.61070154969617
 21
97.37188235463799
 31
0.0
 11
84.63787919504438
 21
97.33929617254752
 31
0.0
 11
84.68136299002862
 21
97.29584810681679
 31
0.0
 11
84.70310504379682
 21
97.26869295507476
 31
0.0
 11
84.77376679668124
 21
97.24153798038924
 31
0.0
 11
84.80637972105752
 21
97.23008579045751
 31
0.0
  0
LINE
  5
FF7
102
{ACAD_REACTORS
330
FFB
102
}
330
18
100
AcDbEntity
  8
ROGO
 62
     4
100
AcDbLine
 10
85.85391037280265
 20
97.60239402216837
 30
0.0
 11
85.66826546403508
 21
97.23008579045746
 31
0.0
  0
LINE
  5
FF8
102
{ACAD_REACTORS
330
FFB
102
}
330
18
100
AcDbEntity
  8
ROGO
 62
     4
100
AcDbLine
 10
85.21404252596795
 20
97.60239402216837
 30
0.0
 11
85.85391037280265
 21
97.60239402216837
 31
0.0
  0
LINE
  5
FF9
102
{ACAD_REACTORS
330
FFB
102
}
330
18
100
AcDbEntity
  8
ROGO
 62
     4
100
AcDbLine
 10
85.3553657191847
 20
97.85843839043719
 30
0.0
 11
85.98158236428474
 21
97.85843839043719
 31
0.0
  0
LINE
  5
FFA
102
{ACAD_REACTORS
330
FFB
102
}
330
18
100
AcDbEntity
  8
ROGO
 62
     4
100
AcDbLine
 10
86.16722923900203
 20
98.23075056483226
 30
0.0
 11
85.98158236428474
 21
97.85843839043719
 31
0.0
  0
HATCH
  5
FFB
330
18
100
AcDbEntity
  8
ROGO
 62
     4
100
AcDbHatch
 10
0.0
 20
0.0
 30
0.0
210
0.0
220
0.0
230
1.0
  2
SOLID
 70
     1
 71
     1
 91
        1
 92
        5
 93
        8
 72
     4
 94
        3
 73
     0
 74
     0
 95
       26
 96
       22
 40
0.0
 40
0.0
 40
0.0
 40
0.0
 40
0.1815320543484491
 40
0.3030537083199909
 40
0.3906807171792971
 40
0.4561089693578263
 40
0.5409728463824398
 40
0.6029152034572436
 40
0.7147686628505081
 40
0.8058157707231654
 40
0.867742392801334
 40
0.9284646163791412
 40
1.03708486923433
 40
1.113892352366038
 40
1.155259116207496
 40
1.214019382288231
 40
1.256451488881088
 40
1.317921602285679
 40
1.35270836942768
 40
1.428408276764927
 40
1.462973512054238
 40
1.462973512054238
 40
1.462973512054238
 40
1.462973512054238
 10
85.16512313940365
 20
98.23075056483226
 10
85.10350835533246
 20
98.22707452115629
 10
85.00064724428998
 20
98.22093765088318
 10
84.88770637009855
 20
98.15232728270713
 10
84.80495927374477
 20
98.112440229725
 10
84.74594414497719
 20
98.05821717934918
 10
84.702685816361
 20
98.00220872922961
 10
84.64815057224654
 20
97.93547507157709
 10
84.60367863901778
 20
97.85776642769105
 10
84.58103178704732
 20
97.77211795493611
 10
84.56097142051346
 20
97.70385562520228
 10
84.54609431686309
 20
97.62778616712953
 10
84.54987947319715
 20
97.5456043925751
 10
84.55529999030012
 20
97.46927816763832
 10
84.57950128106984
 20
97.41479267063658
 10
84.60706226446925
 20
97.37600275132249
 10
84.64081031119608
 20
97.33327995563378
 10
84.67773805440719
 20
97.30498478639098
 10
84.70828031229473
 20
97.25372618591805
 10
84.76174350440372
 20
97.24718521881827
 10
84.79572683626036
 20
97.23416674207214
 10
84.80637972105752
 20
97.23008579045751
 72
     1
 10
84.80637972105759
 20
97.23008579045746
 11
85.66826546403508
 21
97.23008579045746
 72
     1
 10
85.66826546403508
 20
97.23008579045746
 11
85.85391037280267
 21
97.60239402216837
 72
     1
 10
85.85391037280267
 20
97.60239402216837
 11
85.21404252596795
 21
97.60239402216837
 72
     4
 94
        3
 73
     0
 74
     0
 95
       16
 96
       12
 40
0.0
 40
0.0
 40
0.0
 40
0.0
 40
0.0548221980866531
 40
0.1102098473221448
 40
0.1432460907510722
 40
0.1749210489234778
 40
0.2097076778522952
 40
0.2340000650058798
 40
0.2570514320999279
 40
0.3037962950972969
 40
0.3995010334846103
 40
0.3995010334846103
 40
0.3995010334846103
 40
0.3995010334846103
 10
85.21404252596795
 20
97.60239402216837
 10
85.19474185677783
 20
97.60807256204273
 10
85.15594144601548
 20
97.61948821180524
 10
85.15269416495518
 20
97.67482708808209
 10
85.15711811560001
 20
97.7142605657942
 10
85.17564563078128
 20
97.74297044033543
 10
85.19812272025093
 20
97.76386065152994
 10
85.20649193754703
 20
97.79106688529882
 10
85.23109248927369
 20
97.81161099559085
 10
85.27471585906836
 20
97.84614277517007
 10
85.32295575440809
 20
97.85349727265794
 10
85.3553657191847
 20
97.85843839043719
 72
     1
 10
85.35536571918473
 20
97.85843839043721
 11
85.98158236428472
 21
97.85843839043719
 72
     1
 10
85.98158236428472
 20
97.85843839043719
 11
86.16722923900203
 21
98.23075056483226
 72
     1
 10
86.16722923900203
 20
98.23075056483226
 11
85.16512313940365
 21
98.23075056483224
 97
        8
330
FF4
330
FF6
330
FF3
330
FF7
330
FF8
330
FF5
330
FF9
330
FFA
 75
     0
 76
     1
 47
0.0514683685270805
 98
        1
 10
85.33804257372754
 20
98.04752544108749
450
        0
451
        0
460
0.0
461
0.0
452
        0
462
0.0
453
        0
470

  0
SPLINE
  5
FFC
102
{ACAD_REACTORS
330
FD0
102
}
330
18
100
AcDbEntity
  8
ROGO
 62
     4
100
AcDbSpline
210
0.0
220
0.0
230
1.0
 70
     8
 71
     3
 72
    25
 73
    21
 74
     0
 42
0.0000000001
 43
0.0000000001
 40
0.0
 40
0.0
 40
0.0
 40
0.0
 40
0.4087168505087288
 40
0.6887487002771746
 40
0.9415836120477687
 40
1.17452070575514
 40
1.41154617586699
 40
1.599156012919487
 40
1.80099909059943
 40
2.178735911501585
 40
2.521686161369157
 40
2.762704659361267
 40
3.06256558063785
 40
3.222432137207705
 40
3.399493810628493
 40
3.567459719866414
 40
3.743172740007509
 40
3.995988754699505
 40
4.17170091132118
 40
4.337226830236035
 40
4.337226830236035
 40
4.337226830236035
 40
4.337226830236035
 10
84.07056830111519
 20
98.2349244074598
 30
0.0
 10
84.10807579134546
 20
98.23371933048271
 30
0.0
 10
84.17128149258962
 20
98.23168859649024
 30
0.0
 10
84.23914061040575
 20
98.17864878508851
 30
0.0
 10
84.29106444281428
 20
98.13467471762937
 30
0.0
 10
84.32792062356247
 20
98.08151212917444
 30
0.0
 10
84.36022609862977
 20
98.03263196100727
 30
0.0
 10
84.3815129574013
 20
97.98102575018447
 30
0.0
 10
84.4104672910338
 20
97.91910302339704
 30
0.0
 10
84.42245295473055
 20
97.83625961471898
 30
0.0
 10
84.41435521374524
 20
97.75063330810434
 30
0.0
 10
84.39322389070378
 20
97.67473346356679
 30
0.0
 10
84.37105883180725
 20
97.61650488578517
 30
0.0
 10
84.34493467146007
 20
97.56581329644205
 30
0.0
 10
84.31379133402982
 20
97.53299048841018
 30
0.0
 10
84.29218533822767
 20
97.49125660797091
 30
0.0
 10
84.25068298410257
 20
97.45712053437216
 30
0.0
 10
84.21703893714823
 20
97.41500141071448
 30
0.0
 10
84.178859950586
 20
97.37885011898583
 30
0.0
 10
84.15733446872417
 20
97.35654520764825
 30
0.0
 10
84.14598571558661
 20
97.34716701574644
 30
0.0
  0
SPLINE
  5
FFD
102
{ACAD_REACTORS
330
FD0
102
}
330
18
100
AcDbEntity
  8
ROGO
 62
     4
100
AcDbSpline
210
0.0
220
0.0
230
1.0
 70
     8
 71
     3
 72
     9
 73
     5
 74
     3
 42
0.0000000001
 43
0.0000000001
 44
0.0000000001
 40
0.0
 40
0.0
 40
0.0
 40
0.0
 40
0.0865516336707051
 40
0.2029257078463241
 40
0.2029257078463241
 40
0.2029257078463241
 40
0.2029257078463241
 10
83.96825228349285
 20
97.25239552067733
 30
0.0
 10
83.99605517237464
 20
97.26090163443574
 30
0.0
 10
84.06124078086326
 20
97.28084474910897
 30
0.0
 10
84.11509902578981
 20
97.32299477131743
 30
0.0
 10
84.14598571558661
 20
97.34716701574644
 30
0.0
 11
83.96825228349285
 21
97.25239552067733
 31
0.0
 11
84.04960029536221
 21
97.28195370492422
 31
0.0
 11
84.14598571558661
 21
97.34716701574644
 31
0.0
  0
POINT
  5
FFF
330
18
100
AcDbEntity
  8
DEFPOINTS
  6
ByBlock
 62
     0
100
AcDbPoint
 10
87.71377216104458
 20
98.23075056483226
 30
0.0
  0
LINE
  5
1002
102
{ACAD_REACTORS
330
FEF
102
}
330
18
100
AcDbEntity
  8
ROGO
 62
     4
100
AcDbLine
 10
86.95297367870626
 20
98.23075056483226
 30
0.0
 11
86.86785012292393
 21
98.06003648093593
 31
0.0
  0
LINE
  5
1003
102
{ACAD_REACTORS
330
FEF
102
}
330
18
100
AcDbEntity
  8
ROGO
 62
     4
100
AcDbLine
 10
86.86785012292393
 20
98.06003648093593
 30
0.0
 11
87.13762112356613
 21
98.23075056483226
 31
0.0
  0
LINE
  5
1004
102
{ACAD_REACTORS
330
FEF
102
}
330
18
100
AcDbEntity
  8
ROGO
 62
     4
100
AcDbLine
 10
86.76662994522894
 20
97.44894698262198
 30
0.0
 11
87.71377216104458
 21
98.23075056483226
 31
0.0
  0
LINE
  5
1005
102
{ACAD_REACTORS
330
FEF
102
}
330
18
100
AcDbEntity
  8
ROGO
 62
     4
100
AcDbLine
 10
87.13762112356613
 20
98.23075056483226
 30
0.0
 11
87.71377216104458
 21
98.23075056483226
 31
0.0
  0
LINE
  5
1006
102
{ACAD_REACTORS
330
FEF
102
}
330
18
100
AcDbEntity
  8
ROGO
 62
     4
100
AcDbLine
 10
86.37681003523079
 20
98.23075056483226
 30
0.0
 11
86.95297367870626
 21
98.23075056483226
 31
0.0
  0
POINT
  5
1008
330
18
100
AcDbEntity
  8
DEFPOINTS
  6
ByBlock
 62
     0
100
AcDbPoint
 10
81.10998224641026
 20
105.0021309630456
 30
0.0
  0
POINT
  5
1009
330
18
100
AcDbEntity
  8
DEFPOINTS
  6
ByBlock
 62
     0
100
AcDbPoint
 10
81.10998224641026
 20
105.0021309630456
 30
0.0
  0
POINT
  5
100A
330
18
100
AcDbEntity
  8
DEFPOINTS
  6
ByBlock
 62
     0
100
AcDbPoint
 10
80.86889523225769
 20
105.115017587431
 30
0.0
  0
POINT
  5
100B
330
18
100
AcDbEntity
  8
DEFPOINTS
  6
ByBlock
 62
     0
100
AcDbPoint
 10
82.13604267638718
 20
105.0021309630456
 30
0.0
  0
POINT
  5
100C
330
18
100
AcDbEntity
  8
DEFPOINTS
  6
ByBlock
 62
     0
100
AcDbPoint
 10
81.6230124613987
 20
106.4116698942245
 30
0.0
  0
POINT
  5
100D
330
18
100
AcDbEntity
  8
DEFPOINTS
  6
ByBlock
 62
     0
100
AcDbPoint
 10
81.62301246139874
 20
106.4116698942245
 30
0.0
  0
TEXT
  5
100E
330
18
100
AcDbEntity
  8
文字
100
AcDbText
 10
92.91687676124121
 20
102.6291661445048
 30
0.0
 40
2.0
  1
1.0
  7
STYLE3
100
AcDbText
  0
LINE
  5
1011
330
18
100
AcDbEntity
  8
外形線
100
AcDbLine
 10
103.3563435529028
 20
100.5882413794177
 30
0.0
 11
99.97560316089105
 21
101.4941080372766
 31
0.0
  0
LINE
  5
1012
330
18
100
AcDbEntity
  8
外形線
100
AcDbLine
 10
102.0149376697233
 20
96.90275900505874
 30
0.0
 11
98.84286041509509
 21
98.38192292115119
 31
0.0
  0
LINE
  5
1013
330
18
100
AcDbEntity
  8
外形線
100
AcDbLine
 10
102.7660964290816
 20
98.71621666939697
 30
0.0
 11
98.53747963554511
 21
100.2553073143625
 31
0.0
  0
LINE
  5
1014
330
18
100
AcDbEntity
  8
外形線
100
AcDbLine
 10
103.7811869041734
 20
102.5045858967185
 30
0.0
 11
98.36474426260629
 21
103.4596508738867
 31
0.0
  0
LINE
  5
1015
330
18
100
AcDbEntity
  8
外形線
100
AcDbLine
 10
104.037393168463
 20
104.4506656824021
 30
0.0
 11
100.5507117251419
 21
104.7557107820189
 31
0.0
  0
LINE
  5
1016
330
18
100
AcDbEntity
  8
外形線
100
AcDbLine
 10
104.1230124613987
 20
106.4116698942245
 30
0.0
 11
99.62301246139873
 21
106.4116698942245
 31
0.0
  0
LINE
  5
1017
102
{ACAD_REACTORS
330
1019
102
}
330
18
100
AcDbEntity
  8
外形線
100
AcDbLine
 10
79.87301246139878
 20
113.1950032275579
 30
0.0
 11
78.87301246139876
 21
113.1950032275579
 31
0.0
  0
LINE
  5
1018
102
{ACAD_REACTORS
330
1019
102
}
330
18
100
AcDbEntity
  8
外形線
100
AcDbLine
 10
79.87301246139878
 20
113.5283365608912
 30
0.0
 11
78.87301246139876
 21
113.5283365608912
 31
0.0
  0
HATCH
  5
1019
330
18
100
AcDbEntity
  8
外形線
100
AcDbHatch
 10
0.0
 20
0.0
 30
0.0
210
0.0
220
0.0
230
1.0
  2
SOLID
 70
     1
 71
     1
 91
        2
 92
        1
 93
        4
 72
     1
 10
81.20634579473207
 20
112.6116698942245
 11
81.03967912806544
 21
112.6116698942245
 72
     1
 10
81.03967912806544
 20
112.6116698942245
 11
81.03967912806544
 21
114.1116698942246
 72
     1
 10
81.03967912806544
 20
114.1116698942246
 11
81.20634579473207
 21
114.1116698942246
 72
     1
 10
81.20634579473207
 20
114.1116698942246
 11
81.20634579473207
 21
112.6116698942245
 97
        4
330
103A
330
103C
330
103B
330
103D
 92
        1
 93
        7
 72
     1
 10
79.87301246139878
 20
113.1950032275579
 11
79.87301246139878
 21
112.9370379542474
 72
     1
 10
79.8730124613987
 20
112.9370379542474
 11
81.03967912806544
 21
113.3616698942246
 72
     1
 10
81.03967912806544
 20
113.3616698942246
 11
79.8730124613987
 21
113.7863018342018
 72
     1
 10
79.87301246139878
 20
113.7863018342018
 11
79.87301246139878
 21
113.5283365608913
 72
     1
 10
79.87301246139878
 20
113.5283365608912
 11
78.87301246139876
 21
113.5283365608912
 72
     1
 10
78.87301246139876
 20
113.5283365608912
 11
78.87301246139876
 21
113.1950032275579
 72
     1
 10
78.87301246139876
 20
113.1950032275579
 11
79.87301246139878
 21
113.1950032275579
 97
        7
330
103E
330
1040
330
1041
330
103F
330
1018
330
1028
330
1017
 75
     0
 76
     1
 98
        1
 10
447.2084008983287
 20
-124.3982431596139
450
        0
451
        0
460
0.0
461
0.0
452
        0
462
0.0
453
        0
470

  0
TEXT
  5
101A
330
18
100
AcDbEntity
  8
文字
100
AcDbText
 10
76.82157806729936
 20
110.3852223964461
 30
0.0
 40
1.5
  1
0.05mm
  7
STYLE3
100
AcDbText
  0
LINE
  5
101B
330
18
100
AcDbEntity
  8
外形線
100
AcDbLine
 10
59.8896813698947
 20
112.2350984090312
 30
0.0
 11
63.27042176190642
 21
111.3292317511723
 31
0.0
  0
LINE
  5
101C
330
18
100
AcDbEntity
  8
外形線
100
AcDbLine
 10
59.20863175433445
 20
108.3726741060467
 30
0.0
 11
62.69531319765556
 21
108.0676290064299
 31
0.0
  0
LINE
  5
101D
330
18
100
AcDbEntity
  8
外形線
100
AcDbLine
 10
59.46483801862405
 20
110.3187538917304
 30
0.0
 11
63.896472907179
 21
109.5373370922293
 31
0.0
  0
LINE
  5
101E
330
18
100
AcDbEntity
  8
外形線
100
AcDbLine
 10
68.71754264350016
 20
124.8425908907268
 30
0.0
 11
70.72506017072882
 21
121.9755587357153
 31
0.0
  0
LINE
  5
101F
330
18
100
AcDbEntity
  8
外形線
100
AcDbLine
 10
65.71310988470142
 20
122.3215724709218
 30
0.0
 11
68.18798361885433
 21
119.8466987367688
 31
0.0
  0
LINE
  5
1020
330
18
100
AcDbEntity
  8
外形線
100
AcDbLine
 10
70.37301246139873
 20
125.8972414793743
 30
0.0
 11
72.62301246139873
 21
122.0001271623443
 31
0.0
  0
LINE
  5
1021
330
18
100
AcDbEntity
  8
外形線
100
AcDbLine
 10
67.16029124345158
 20
123.6476698644014
 30
0.0
 11
70.05283548704102
 21
120.2004698703661
 31
0.0
  0
TEXT
  5
1022
330
18
100
AcDbEntity
  8
文字
100
AcDbText
 10
69.05173256023568
 20
115.0773978741354
 30
0.0
 40
2.0
  1
0.5
  7
STYLE3
100
AcDbText
  0
LINE
  5
1023
330
18
100
AcDbEntity
  8
外形線
100
AcDbLine
 10
61.23108725307412
 20
115.9205807833902
 30
0.0
 11
64.40316450770239
 21
114.4414168672978
 31
0.0
  0
LINE
  5
1024
330
18
100
AcDbEntity
  8
外形線
100
AcDbLine
 10
60.47992849371579
 20
114.107123119052
 30
0.0
 11
64.70854528725237
 21
112.5680324740865
 31
0.0
  0
LINE
  5
1025
330
18
100
AcDbEntity
  8
外形線
100
AcDbLine
 10
63.1920914648964
 20
119.317139712123
 30
0.0
 11
66.05912361990789
 21
117.3096221848943
 31
0.0
  0
LINE
  5
1026
330
18
100
AcDbEntity
  8
外形線
100
AcDbLine
 10
64.38701249122175
 20
120.8743911121716
 30
0.0
 11
68.60025692837609
 21
117.3390592588956
 31
0.0
  0
LINE
  5
1027
330
18
100
AcDbEntity
  8
外形線
100
AcDbLine
 10
62.13744087624883
 20
117.6616698942245
 30
0.0
 11
66.03455519327884
 21
115.4116698942244
 31
0.0
  0
LINE
  5
1028
102
{ACAD_REACTORS
330
1019
102
}
330
18
100
AcDbEntity
  8
外形線
100
AcDbLine
 10
78.87301246139876
 20
113.5283365608912
 30
0.0
 11
78.87301246139876
 21
113.1950032275579
 31
0.0
  0
LINE
  5
1029
330
18
100
AcDbEntity
  8
外形線
100
AcDbLine
 10
73.92755923657117
 20
127.5547538619074
 30
0.0
 11
75.46664988153668
 21
123.3261370683708
 31
0.0
  0
LINE
  5
102A
330
18
100
AcDbEntity
  8
外形線
100
AcDbLine
 10
72.11410157223298
 20
126.8035951025491
 30
0.0
 11
73.59326548832545
 21
123.6315178479208
 31
0.0
  0
LINE
  5
102B
330
18
100
AcDbEntity
  8
外形線
100
AcDbLine
 10
75.799583946592
 20
128.1450009857285
 30
0.0
 11
76.70545060445085
 21
124.7642605937168
 31
0.0
  0
LINE
  5
102C
330
18
100
AcDbEntity
  8
外形線
100
AcDbLine
 10
77.71592846389282
 20
128.5698443369991
 30
0.0
 11
78.49734526339403
 21
124.1382094484442
 31
0.0
  0
LINE
  5
102D
330
18
100
AcDbEntity
  8
外形線
100
AcDbLine
 10
101.1085840465486
 20
117.6616698942245
 30
0.0
 11
97.21146972951864
 21
115.4116698942244
 31
0.0
  0
LINE
  5
102E
330
18
100
AcDbEntity
  8
外形線
100
AcDbLine
 10
100.053933457901
 20
119.317139712123
 30
0.0
 11
97.18690130288957
 21
117.3096221848943
 31
0.0
  0
LINE
  5
102F
330
18
100
AcDbEntity
  8
外形線
100
AcDbLine
 10
98.85901243157571
 20
120.8743911121716
 30
0.0
 11
94.64576799442136
 21
117.3390592588956
 31
0.0
  0
LINE
  5
1032
330
18
100
AcDbEntity
  8
外形線
100
AcDbLine
 10
97.53291503809604
 20
122.3215724709218
 30
0.0
 11
95.05804130394313
 21
119.8466987367688
 31
0.0
  0
LINE
  5
1033
330
18
100
AcDbEntity
  8
外形線
100
AcDbLine
 10
96.08573367934589
 20
123.6476698644014
 30
0.0
 11
93.19318943575643
 21
120.2004698703661
 31
0.0
  0
LINE
  5
1034
330
18
100
AcDbEntity
  8
外形線
100
AcDbLine
 10
94.52848227929729
 20
124.8425908907268
 30
0.0
 11
92.52096475206863
 21
121.9755587357153
 31
0.0
  0
LINE
  5
1035
330
18
100
AcDbEntity
  8
外形線
100
AcDbLine
 10
92.87301246139874
 20
125.8972414793743
 30
0.0
 11
90.62301246139872
 21
122.0001271623443
 31
0.0
  0
TEXT
  5
1036
330
18
100
AcDbEntity
  8
文字
100
AcDbText
 10
80.65672694825725
 20
120.4121035402539
 30
0.0
 40
2.0
  1
0
  7
STYLE3
100
AcDbText
  0
LINE
  5
1037
102
{ACAD_REACTORS
330
1039
102
}
330
18
100
AcDbEntity
  8
外形線
100
AcDbLine
 10
83.37301246139867
 20
113.5283365608912
 30
0.0
 11
84.3730124613987
 21
113.5283365608912
 31
0.0
  0
LINE
  5
1038
102
{ACAD_REACTORS
330
1039
102
}
330
18
100
AcDbEntity
  8
外形線
100
AcDbLine
 10
83.37301246139867
 20
113.1950032275579
 30
0.0
 11
84.3730124613987
 21
113.1950032275579
 31
0.0
  0
HATCH
  5
1039
330
18
100
AcDbEntity
  8
外形線
100
AcDbHatch
 10
0.0
 20
0.0
 30
0.0
210
0.0
220
0.0
230
1.0
  2
SOLID
 70
     1
 71
     1
 91
        2
 92
        1
 93
        4
 72
     1
 10
82.03967912806538
 20
112.6116698942245
 11
82.20634579473202
 21
112.6116698942245
 72
     1
 10
82.20634579473202
 20
112.6116698942245
 11
82.20634579473202
 21
114.1116698942246
 72
     1
 10
82.20634579473202
 20
114.1116698942246
 11
82.03967912806538
 21
114.1116698942246
 72
     1
 10
82.03967912806538
 20
114.1116698942246
 11
82.03967912806538
 21
112.6116698942245
 97
        4
330
1048
330
1047
330
1046
330
1049
 92
        1
 93
        7
 72
     1
 10
83.37301246139867
 20
113.1950032275579
 11
83.37301246139867
 21
112.9370379542474
 72
     1
 10
83.37301246139876
 20
112.9370379542474
 11
82.20634579473202
 21
113.3616698942246
 72
     1
 10
82.20634579473202
 20
113.3616698942246
 11
83.37301246139876
 21
113.7863018342018
 72
     1
 10
83.37301246139867
 20
113.7863018342018
 11
83.37301246139867
 21
113.5283365608913
 72
     1
 10
83.37301246139867
 20
113.5283365608912
 11
84.3730124613987
 21
113.5283365608912
 72
     1
 10
84.3730124613987
 20
113.5283365608912
 11
84.3730124613987
 21
113.1950032275579
 72
     1
 10
84.3730124613987
 20
113.1950032275579
 11
83.37301246139867
 21
113.1950032275579
 97
        7
330
1045
330
1043
330
1042
330
1044
330
1037
330
104A
330
1038
 75
     0
 76
     1
 98
        1
 10
-283.9623759755312
 20
-124.3982431596139
450
        0
451
        0
460
0.0
461
0.0
452
        0
462
0.0
453
        0
470

  0
LINE
  5
103A
102
{ACAD_REACTORS
330
1019
102
}
330
18
100
AcDbEntity
  8
外形線
100
AcDbLine
 10
81.20634579473207
 20
112.6116698942245
 30
0.0
 11
81.03967912806544
 21
112.6116698942245
 31
0.0
  0
LINE
  5
103B
102
{ACAD_REACTORS
330
1019
102
}
330
18
100
AcDbEntity
  8
外形線
100
AcDbLine
 10
81.20634579473207
 20
114.1116698942246
 30
0.0
 11
81.03967912806544
 21
114.1116698942246
 31
0.0
  0
LINE
  5
103C
102
{ACAD_REACTORS
330
1019
102
}
330
18
100
AcDbEntity
  8
外形線
100
AcDbLine
 10
81.03967912806544
 20
114.1116698942246
 30
0.0
 11
81.03967912806544
 21
112.6116698942245
 31
0.0
  0
LINE
  5
103D
102
{ACAD_REACTORS
330
1019
102
}
330
18
100
AcDbEntity
  8
外形線
100
AcDbLine
 10
81.20634579473207
 20
114.1116698942246
 30
0.0
 11
81.20634579473207
 21
112.6116698942245
 31
0.0
  0
LINE
  5
103E
102
{ACAD_REACTORS
330
1019
102
}
330
18
100
AcDbEntity
  8
外形線
100
AcDbLine
 10
79.87301246139878
 20
113.1950032275579
 30
0.0
 11
79.87301246139878
 21
112.9370379542474
 31
0.0
  0
LINE
  5
103F
102
{ACAD_REACTORS
330
1019
102
}
330
18
100
AcDbEntity
  8
外形線
100
AcDbLine
 10
79.87301246139878
 20
113.7863018342018
 30
0.0
 11
79.87301246139878
 21
113.5283365608913
 31
0.0
  0
LINE
  5
1040
102
{ACAD_REACTORS
330
1019
102
}
330
18
100
AcDbEntity
  8
外形線
100
AcDbLine
 10
81.03967912806544
 20
113.3616698942246
 30
0.0
 11
79.8730124613987
 21
112.9370379542474
 31
0.0
  0
LINE
  5
1041
102
{ACAD_REACTORS
330
1019
102
}
330
18
100
AcDbEntity
  8
外形線
100
AcDbLine
 10
81.03967912806544
 20
113.3616698942246
 30
0.0
 11
79.8730124613987
 21
113.7863018342018
 31
0.0
  0
LINE
  5
1042
102
{ACAD_REACTORS
330
1039
102
}
330
18
100
AcDbEntity
  8
外形線
100
AcDbLine
 10
82.20634579473202
 20
113.3616698942246
 30
0.0
 11
83.37301246139876
 21
113.7863018342018
 31
0.0
  0
LINE
  5
1043
102
{ACAD_REACTORS
330
1039
102
}
330
18
100
AcDbEntity
  8
外形線
100
AcDbLine
 10
82.20634579473202
 20
113.3616698942246
 30
0.0
 11
83.37301246139876
 21
112.9370379542474
 31
0.0
  0
LINE
  5
1044
102
{ACAD_REACTORS
330
1039
102
}
330
18
100
AcDbEntity
  8
外形線
100
AcDbLine
 10
83.37301246139867
 20
113.7863018342018
 30
0.0
 11
83.37301246139867
 21
113.5283365608913
 31
0.0
  0
LINE
  5
1045
102
{ACAD_REACTORS
330
1039
102
}
330
18
100
AcDbEntity
  8
外形線
100
AcDbLine
 10
83.37301246139867
 20
113.1950032275579
 30
0.0
 11
83.37301246139867
 21
112.9370379542474
 31
0.0
  0
LINE
  5
1046
102
{ACAD_REACTORS
330
1039
102
}
330
18
100
AcDbEntity
  8
外形線
100
AcDbLine
 10
82.03967912806538
 20
114.1116698942246
 30
0.0
 11
82.20634579473202
 21
114.1116698942246
 31
0.0
  0
LINE
  5
1047
102
{ACAD_REACTORS
330
1039
102
}
330
18
100
AcDbEntity
  8
外形線
100
AcDbLine
 10
82.20634579473202
 20
114.1116698942246
 30
0.0
 11
82.20634579473202
 21
112.6116698942245
 31
0.0
  0
LINE
  5
1048
102
{ACAD_REACTORS
330
1039
102
}
330
18
100
AcDbEntity
  8
外形線
100
AcDbLine
 10
82.03967912806538
 20
112.6116698942245
 30
0.0
 11
82.20634579473202
 21
112.6116698942245
 31
0.0
  0
LINE
  5
1049
102
{ACAD_REACTORS
330
1039
102
}
330
18
100
AcDbEntity
  8
外形線
100
AcDbLine
 10
82.03967912806538
 20
114.1116698942246
 30
0.0
 11
82.03967912806538
 21
112.6116698942245
 31
0.0
  0
LINE
  5
104A
102
{ACAD_REACTORS
330
1039
102
}
330
18
100
AcDbEntity
  8
外形線
100
AcDbLine
 10
84.3730124613987
 20
113.5283365608912
 30
0.0
 11
84.3730124613987
 21
113.1950032275579
 31
0.0
  0
TEXT
  5
104C
330
18
100
AcDbEntity
  8
文字
100
AcDbText
 10
79.14247388845899
 20
116.3990664697433
 30
0.0
 40
1.5
  1
S-9
  7
STYLE3
100
AcDbText
  0
TEXT
  5
1058
330
18
100
AcDbEntity
  8
文字
100
AcDbText
 10
89.76012864900326
 20
114.6248641785657
 30
0.0
 40
2.0
  1
0.5
  7
STYLE3
100
AcDbText
  0
LINE
  5
1059
330
18
100
AcDbEntity
  8
外形線
100
AcDbLine
 10
89.3184656862263
 20
127.5547538619074
 30
0.0
 11
87.77937504126077
 21
123.3261370683708
 31
0.0
  0
LINE
  5
105B
330
18
100
AcDbEntity
  8
外形線
100
AcDbLine
 10
81.62301246139874
 20
128.9116698942244
 30
0.0
 11
81.62301246139874
 21
123.4116698942244
 31
0.0
  0
LINE
  5
105C
330
18
100
AcDbEntity
  8
外形線
100
AcDbLine
 10
79.66200824957645
 20
128.8260506012887
 30
0.0
 11
79.96705334919326
 21
125.3393691579676
 31
0.0
  0
LINE
  5
105D
330
18
100
AcDbEntity
  8
外形線
100
AcDbLine
 10
83.58401667322102
 20
128.8260506012887
 30
0.0
 11
83.27897157360419
 21
125.3393691579676
 31
0.0
  0
LINE
  5
105E
330
18
100
AcDbEntity
  8
外形線
100
AcDbLine
 10
81.62301246139874
 20
128.9116698942244
 30
0.0
 11
81.62301246139874
 21
123.4116698942244
 31
0.0
  0
POINT
  5
105F
330
18
100
AcDbEntity
  8
DEFPOINTS
  6
ByBlock
 62
     0
100
AcDbPoint
 10
81.62301246139874
 20
123.4116698942244
 30
0.0
  0
POINT
  5
1060
330
18
100
AcDbEntity
  8
DEFPOINTS
  6
ByBlock
 62
     0
100
AcDbPoint
 10
81.62301246139874
 20
124.4116698942244
 30
0.0
  0
POINT
  5
1061
330
18
100
AcDbEntity
  8
DEFPOINTS
  6
ByBlock
 62
     0
100
AcDbPoint
 10
81.62301246139874
 20
128.9116698942244
 30
0.0
  0
LINE
  5
1062
330
18
100
AcDbEntity
  8
外形線
100
AcDbLine
 10
87.44644097620545
 20
128.1450009857285
 30
0.0
 11
86.54057431834658
 21
124.7642605937168
 31
0.0
  0
LINE
  5
1063
330
18
100
AcDbEntity
  8
外形線
100
AcDbLine
 10
85.53009645890464
 20
128.5698443369991
 30
0.0
 11
84.74867965940342
 21
124.1382094484442
 31
0.0
  0
LINE
  5
1068
330
18
100
AcDbEntity
  8
外形線
100
AcDbLine
 10
91.13192335056448
 20
126.8035951025491
 30
0.0
 11
89.65275943447201
 21
123.6315178479208
 31
0.0
  0
LINE
  5
1069
330
18
100
AcDbEntity
  8
外形線
100
AcDbLine
 10
102.0149376697233
 20
115.9205807833902
 30
0.0
 11
98.84286041509506
 21
114.4414168672978
 31
0.0
  0
LINE
  5
106A
330
18
100
AcDbEntity
  8
外形線
100
AcDbLine
 10
104.037393168463
 20
108.3726741060467
 30
0.0
 11
100.5507117251419
 21
108.0676290064299
 31
0.0
  0
LINE
  5
106B
330
18
100
AcDbEntity
  8
外形線
100
AcDbLine
 10
103.7811869041734
 20
110.3187538917304
 30
0.0
 11
99.34955201561846
 21
109.5373370922293
 31
0.0
  0
LINE
  5
106C
330
18
100
AcDbEntity
  8
外形線
100
AcDbLine
 10
103.3563435529027
 20
112.2350984090312
 30
0.0
 11
99.97560316089105
 21
111.3292317511723
 31
0.0
  0
LINE
  5
106D
330
18
100
AcDbEntity
  8
外形線
100
AcDbLine
 10
102.7660964290816
 20
114.107123119052
 30
0.0
 11
98.53747963554509
 21
112.5680324740865
 31
0.0
  0
TEXT
  5
1104
330
18
100
AcDbEntity
  8
文字
100
AcDbText
 10
159.6492070535986
 20
180.7512421936242
 30
0.0
 40
4.0
  1
Model No.S-9 Signal Gauge
  7
STYLE3
100
AcDbText
  0
LINE
  5
1105
330
18
100
AcDbEntity
  8
外形線
100
AcDbLine
 10
159.1897970535986
 20
177.6391361936242
 30
0.0
 11
242.1897970535986
 21
177.6391361936242
 31
0.0
  0
LINE
  5
1106
330
18
100
AcDbEntity
  8
外形線
100
AcDbLine
 10
159.1897970535986
 20
178.6391361936242
 30
0.0
 11
242.1897970535986
 21
178.6391361936242
 31
0.0
  0
LINE
  5
1108
330
18
100
AcDbEntity
  8
外形線
100
AcDbLine
 10
113.5991802810311
 20
20.74219781829945
 30
0.0
 11
254.3905982810312
 21
20.74219781829945
 31
0.0
  0
LINE
  5
1109
330
18
100
AcDbEntity
  8
外形線
100
AcDbLine
 10
113.5991802810311
 20
9.961991818299445
 30
0.0
 11
254.3905982810312
 21
9.961991818299445
 31
0.0
  0
TEXT
  5
110A
330
18
100
AcDbEntity
  8
0
  6
Continuous
100
AcDbText
 10
115.0566472810311
 20
11.85998181829944
 30
0.0
 40
2.1
  1
Design and specifications are subject to change without notice for future improvement.
  7
STYLE3
100
AcDbText
  0
TEXT
  5
110B
330
18
100
AcDbEntity
  8
0
  6
Continuous
100
AcDbText
 10
115.3481412810311
 20
15.78912981829945
 30
0.0
 40
3.5
  1
仕様及び外観は予告なく変更される場合がございますのでご了承下さい。
  7
STYLE3
100
AcDbText
  0
TEXT
  5
110C
330
18
100
AcDbEntity
  8
0
  6
Continuous
100
AcDbText
 10
114.7651562810312
 20
2.095353818299445
 30
0.0
 40
2.1
  1
3RD Angle Projection
  7
STYLE3
100
AcDbText
  0
TEXT
  5
110D
330
18
100
AcDbEntity
  8
0
  6
Continuous
100
AcDbText
 10
117.3885992810312
 20
5.591636818299445
 30
0.0
 40
3.0
  1
三　　角　　法
  7
STYLE3
100
AcDbText
  0
LINE
  5
110E
330
18
100
AcDbEntity
  8
外形線
100
AcDbLine
 10
113.5991802810311
 20
0.3472138182994454
 30
0.0
 11
113.5991802810311
 21
20.74219781829945
 31
0.0
  0
LINE
  5
110F
330
18
100
AcDbEntity
  8
外形線
100
AcDbLine
 10
215.6219472810312
 20
9.961991818299445
 30
0.0
 11
215.6219472810312
 21
0.3472138182994454
 31
0.0
  0
LINE
  5
1110
330
18
100
AcDbEntity
  8
外形線
100
AcDbLine
 10
185.8895972810312
 20
9.961991818299445
 30
0.0
 11
185.8895972810312
 21
0.3472138182994454
 31
0.0
  0
LINE
  5
1111
330
18
100
AcDbEntity
  8
外形線
100
AcDbLine
 10
166.3595252810312
 20
9.961991818299445
 30
0.0
 11
166.3595252810312
 21
0.3472138182994454
 31
0.0
  0
LINE
  5
1112
330
18
100
AcDbEntity
  8
外形線
100
AcDbLine
 10
148.8699082810312
 20
9.961991818299445
 30
0.0
 11
148.8699082810312
 21
0.3472138182994454
 31
0.0
  0
TEXT
  5
1113
330
18
100
AcDbEntity
  8
0
  6
Continuous
100
AcDbText
 10
150.3273772810312
 20
5.597591818299444
 30
0.0
 40
3.0
  1
単位
  7
STYLE3
100
AcDbText
  0
TEXT
  5
1114
330
18
100
AcDbEntity
  8
0
  6
Continuous
100
AcDbText
 10
150.4990982810312
 20
2.095354818299445
 30
0.0
 40
2.1
  1
Unit
  7
STYLE3
100
AcDbText
  0
TEXT
  5
1115
330
18
100
AcDbEntity
  8
0
  6
Continuous
100
AcDbText
 10
167.6452732810312
 20
5.306233818299444
 30
0.0
 40
3.0
  1
尺 度
  7
STYLE3
100
AcDbText
  0
TEXT
  5
1116
330
18
100
AcDbEntity
  8
0
  6
Continuous
100
AcDbText
 10
158.3694252810311
 20
3.843497818299445
 30
0.0
 40
2.399999999999999
  1
mm
  7
STYLE3
100
AcDbText
  0
TEXT
  5
1117
330
18
100
AcDbEntity
  8
0
  6
Continuous
100
AcDbText
 10
168.1084882810312
 20
2.386711818299445
 30
0.0
 40
2.1
  1
Scale
  7
STYLE3
100
AcDbText
  0
TEXT
  5
1118
330
18
100
AcDbEntity
  8
0
  6
Continuous
100
AcDbText
 10
177.7277772810312
 20
4.134854818299445
 30
0.0
 40
2.399999999999999
  1
1/1
  7
STYLE3
100
AcDbText
  0
TEXT
  5
1119
330
18
100
AcDbEntity
  8
0
  6
Continuous
100
AcDbText
 10
187.8215482810312
 20
2.095355818299445
 30
0.0
 40
2.1
  1
Date
  7
STYLE3
100
AcDbText
  0
TEXT
  5
111A
330
18
100
AcDbEntity
  8
0
  6
Continuous
100
AcDbText
 10
187.4381872810311
 20
5.428438818299444
 30
0.0
 40
3.0
  1
日 付
  7
STYLE3
100
AcDbText
  0
TEXT
  5
111B
330
18
100
AcDbEntity
  8
0
  6
Continuous
100
AcDbText
 10
196.5663562810312
 20
3.843496818299445
 30
0.0
 40
2.1
  1
2010.07.01
  7
STYLE3
100
AcDbText
  0
TEXT
  5
111C
330
18
100
AcDbEntity
  8
0
  6
Continuous
100
AcDbText
 10
216.9709102810312
 20
5.882993818299445
 30
0.0
 40
3.0
  1
株式会社　尾崎製作所
  7
STYLE3
100
AcDbText
  0
TEXT
  5
111D
330
18
100
AcDbEntity
  8
0
  6
Continuous
100
AcDbText
 10
217.8453892810312
 20
2.095354818299445
 30
0.0
 40
2.1
  1
OZAKI MFG. CO., LTD.
  7
STYLE3
100
AcDbText
  0
VIEWPORT
  5
177
330
15
100
AcDbEntity
 67
     1
  8
0
100
AcDbViewport
 10
127.5041203589828
 20
97.49391214526822
 30
0.0
 40
418.3086347473814
 41
243.0346063651093
 68
     1
 69
     1
 12
127.5041203589828
 22
97.49391214526822
 13
0.0
 23
0.0
 14
10.0
 24
10.0
 15
10.0
 25
10.0
 16
0.0
 26
0.0
 36
1.0
 17
0.0
 27
0.0
 37
0.0
 42
50.0
 43
0.0
 44
0.0
 45
243.0346063651093
 50
0.0
 51
0.0
 72
   100
 90
    32800
  1

281
     0
 71
     1
 74
     0
110
0.0
120
0.0
130
0.0
111
1.0
121
0.0
131
0.0
112
0.0
122
1.0
132
0.0
 79
     0
146
0.0
170
     0
  0
ENDSEC
  0
SECTION
  2
OBJECTS
  0
DICTIONARY
  5
C
330
0
100
AcDbDictionary
281
     1
  3
ACAD_COLOR
350
10AC
  3
ACAD_GROUP
350
D
  3
ACAD_LAYOUT
350
10AF
  3
ACAD_MATERIAL
350
10AB
  3
ACAD_MLINESTYLE
350
1B
  3
ACAD_PLOTSETTINGS
350
10B0
  3
ACAD_PLOTSTYLENAME
350
10A9
  3
ACAD_TABLESTYLE
350
10AD
  3
ACDBVARIABLEDICTIONARY
350
BA0
  0
DICTIONARY
  5
10CC
330
18
100
AcDbDictionary
280
     1
281
     1
  3
ACAD_SORTENTS
360
10CD
  0
DICTIONARY
  5
10AC
102
{ACAD_REACTORS
330
C
102
}
330
C
100
AcDbDictionary
281
     1
  0
DICTIONARY
  5
D
102
{ACAD_REACTORS
330
C
102
}
330
C
100
AcDbDictionary
281
     1
  0
DICTIONARY
  5
10AF
102
{ACAD_REACTORS
330
C
102
}
330
C
100
AcDbDictionary
281
     1
  3
Model
350
10B1
  3
レイアウト1
350
10B2
  0
DICTIONARY
  5
10AB
102
{ACAD_REACTORS
330
C
102
}
330
C
100
AcDbDictionary
281
     1
  0
DICTIONARY
  5
1B
102
{ACAD_REACTORS
330
C
102
}
330
C
100
AcDbDictionary
281
     1
  3
STANDARD
350
1C
  0
DICTIONARY
  5
10B0
102
{ACAD_REACTORS
330
C
102
}
330
C
100
AcDbDictionary
281
     1
  0
ACDBDICTIONARYWDFLT
  5
10A9
102
{ACAD_REACTORS
330
C
102
}
330
C
100
AcDbDictionary
281
     1
  3
Normal
350
10AA
100
AcDbDictionaryWithDefault
340
10AA
  0
DICTIONARY
  5
10AD
102
{ACAD_REACTORS
330
C
102
}
330
C
100
AcDbDictionary
281
     1
  3
Standard
350
10AE
  0
DICTIONARY
  5
BA0
102
{ACAD_REACTORS
330
C
102
}
330
C
100
AcDbDictionary
281
     1
  3
CTABLESTYLE
350
10C2
  3
SORTENTS
350
BA1
  0
SORTENTSTABLE
  5
10CD
102
{ACAD_REACTORS
330
10CC
102
}
330
10CC
100
AcDbSortentsTable
330
18
331
310
  5
310
331
282
  5
282
331
2A1
  5
2A1
331
356
  5
356
331
71A
  5
71A
331
777
  5
777
331
651
  5
651
331
632
  5
632
331
687
  5
687
331
D52
  5
D50
331
D71
  5
D6F
331
D14
  5
D12
331
1014
  5
1012
331
FDE
  5
FDC
331
1033
  5
102F
331
D33
  5
D31
331
FBF
  5
FB9
331
D88
  5
D86
331
B0A
  5
B0A
331
ACC
  5
ACC
331
AEB
  5
AEB
331
330
  5
330
331
357
  5
357
331
2A2
  5
2A2
331
311
  5
311
331
283
  5
283
331
835
  5
835
331
7AF
  5
7AF
331
759
  5
759
331
688
  5
688
331
71B
  5
71B
331
652
  5
652
331
778
  5
778
331
D72
  5
D70
331
D89
  5
D87
331
D34
  5
D32
331
D53
  5
D51
331
1034
  5
1032
331
105B
  5
1058
331
1015
  5
1013
331
FDF
  5
FDD
331
D15
  5
D13
331
DA8
  5
DA6
331
B0B
  5
B0B
331
358
  5
358
331
312
  5
312
331
331
  5
331
331
284
  5
284
331
2A3
  5
2A3
331
836
  5
836
331
689
  5
689
331
71C
  5
71C
331
653
  5
653
331
779
  5
779
331
7B0
  5
7B0
331
634
  5
634
331
DA9
  5
DA7
331
DC8
  5
DC6
331
D54
  5
D52
331
D73
  5
D71
331
D16
  5
D14
331
D35
  5
D33
331
1016
  5
1014
331
1035
  5
1033
331
105C
  5
1059
331
D8A
  5
D88
331
B0C
  5
B0C
331
332
  5
332
331
2A4
  5
2A4
331
359
  5
359
331
285
  5
285
331
837
  5
837
331
7B1
  5
7B1
331
68A
  5
68A
331
71D
  5
71D
331
635
  5
635
331
654
  5
654
331
77A
  5
77A
331
DC9
  5
DC7
331
DE8
  5
DE6
331
D74
  5
D72
331
D8B
  5
D89
331
D36
  5
D34
331
D55
  5
D53
331
1036
  5
1034
331
105D
  5
105B
331
1017
  5
1015
331
D17
  5
D15
331
DAA
  5
DA8
331
B92
  5
B92
331
ACF
  5
ACF
331
AEE
  5
AEE
331
B0D
  5
B0D
331
35A
  5
35A
331
286
  5
286
331
2A5
  5
2A5
331
838
  5
838
331
68B
  5
68B
331
71E
  5
71E
331
7B2
  5
7B2
331
636
  5
636
331
DE9
  5
DE7
331
E00
  5
DFE
331
D8C
  5
D8A
331
DAB
  5
DA9
331
D56
  5
D54
331
D75
  5
D73
331
105E
  5
105C
331
D18
  5
D16
331
1037
  5
1035
331
D37
  5
D35
331
DCA
  5
DC8
331
AEF
  5
AEF
331
B0E
  5
B0E
331
AD0
  5
AD0
331
B93
  5
B93
331
2A6
  5
2A6
331
35B
  5
35B
331
287
  5
287
331
7B3
  5
7B3
331
802
  5
802
331
637
  5
637
331
68C
  5
68C
331
71F
  5
71F
331
77C
  5
77C
331
E01
  5
DFF
331
DCB
  5
DC9
331
DEA
  5
DE8
331
D76
  5
D74
331
D8D
  5
D8B
331
D38
  5
D36
331
D57
  5
D55
331
105F
  5
105D
331
D19
  5
D17
331
DAC
  5
DAA
331
B0F
  5
B0F
331
B94
  5
B94
331
AD1
  5
AD1
331
AF0
  5
AF0
331
35C
  5
35C
331
288
  5
288
331
2A7
  5
2A7
331
77D
  5
77D
331
720
  5
720
331
73F
  5
73F
331
68D
  5
68D
331
701
  5
701
331
7B4
  5
7B4
331
DEB
  5
DE9
331
E02
  5
E00
331
D8E
  5
D8C
331
DAD
  5
DAB
331
D58
  5
D56
331
D77
  5
D75
331
D1A
  5
D18
331
D39
  5
D37
331
DCC
  5
DCA
331
C22
  5
C1D
331
AF1
  5
AF1
331
B10
  5
B10
331
B95
  5
B95
331
C60
  5
C5E
331
888
  5
888
331
84A
  5
84A
331
289
  5
289
331
2A8
  5
2A8
331
26A
  5
26A
331
35D
  5
35D
331
7B5
  5
7B5
331
804
  5
804
331
702
  5
702
331
68E
  5
68E
331
721
  5
721
331
77E
  5
77E
331
E03
  5
E01
331
DAE
  5
DAC
331
DCD
  5
DCB
331
D78
  5
D76
331
D8F
  5
D8D
331
D3A
  5
D38
331
D59
  5
D57
331
DEC
  5
DEA
331
D1B
  5
D19
331
C61
  5
C5F
331
C80
  5
C7E
331
B11
  5
B11
331
B96
  5
B96
331
C23
  5
C1E
331
AF2
  5
AF2
331
C42
  5
C3A
331
8A8
  5
8A8
331
35E
  5
35E
331
86A
  5
86A
331
889
  5
889
331
26B
  5
26B
331
2A9
  5
2A9
331
805
  5
805
331
77F
  5
77F
331
68F
  5
68F
331
722
  5
722
331
741
  5
741
331
DED
  5
DEB
331
E04
  5
E02
331
D90
  5
D8E
331
DAF
  5
DAD
331
D5A
  5
D58
331
D79
  5
D77
331
D1C
  5
D1A
331
D3B
  5
D39
331
DCE
  5
DCC
331
C81
  5
C7F
331
C98
  5
C96
331
C43
  5
C3B
331
AF3
  5
AF3
331
B12
  5
B12
331
AD4
  5
AD4
331
B97
  5
B97
331
C62
  5
C60
331
8C0
  5
8C0
331
88A
  5
88A
331
8A9
  5
8A9
331
28B
  5
28B
331
2AA
  5
2AA
331
26C
  5
26C
331
35F
  5
35F
331
86B
  5
86B
331
780
  5
780
331
742
  5
742
331
7B7
  5
7B7
331
704
  5
704
331
723
  5
723
331
806
  5
806
331
E05
  5
E03
331
DB0
  5
DAE
331
DCF
  5
DCD
331
D7A
  5
D78
331
D91
  5
D8F
331
D1D
  5
D1B
331
D3C
  5
D3A
331
D5B
  5
D59
331
DEE
  5
DEC
331
C99
  5
C97
331
CB8
  5
CB6
331
C44
  5
C42
331
B13
  5
B13
331
B98
  5
B98
331
C63
  5
C61
331
AD5
  5
AD5
331
AF4
  5
AF4
331
C82
  5
C80
331
8AA
  5
8AA
331
8C1
  5
8C1
331
84D
  5
84D
331
2AB
  5
2AB
331
360
  5
360
331
86C
  5
86C
331
28C
  5
28C
331
88B
  5
88B
331
781
  5
781
331
724
  5
724
331
743
  5
743
331
705
  5
705
331
DD0
  5
DCE
331
DEF
  5
DED
331
D92
  5
D90
331
DB1
  5
DAF
331
D5C
  5
D5A
331
D7B
  5
D79
331
E06
  5
E04
331
D1E
  5
D1C
331
D3D
  5
D3B
331
CB9
  5
CB7
331
CD8
  5
CD6
331
C83
  5
C81
331
C9A
  5
C98
331
C45
  5
C43
331
AF5
  5
AF5
331
B14
  5
B14
331
AD6
  5
AD6
331
B99
  5
B99
331
C64
  5
C62
331
8C2
  5
8C2
331
909
  5
909
331
86D
  5
86D
331
88C
  5
88C
331
342
  5
342
331
361
  5
361
331
8AB
  5
8AB
331
28D
  5
28D
331
2AC
  5
2AC
331
31B
  5
31B
331
782
  5
782
331
706
  5
706
331
725
  5
725
331
810
  5
810
331
E07
  5
E05
331
DB2
  5
DB0
331
DD1
  5
DCF
331
D7C
  5
D7A
331
D93
  5
D91
331
D1F
  5
D1D
331
D3E
  5
D3C
331
D5D
  5
D5B
331
DF0
  5
DEE
331
CD9
  5
CD7
331
CF8
  5
CF6
331
C9B
  5
C99
331
CBA
  5
CB8
331
C46
  5
C44
331
B15
  5
B15
331
B9A
  5
B9A
331
C65
  5
C63
331
AD7
  5
AD7
331
AF6
  5
AF6
331
C84
  5
C82
331
8AC
  5
8AC
331
8C3
  5
8C3
331
2AD
  5
2AD
331
362
  5
362
331
86E
  5
86E
331
28E
  5
28E
331
88D
  5
88D
331
811
  5
811
331
783
  5
783
331
726
  5
726
331
745
  5
745
331
707
  5
707
331
DD2
  5
DD0
331
DF1
  5
DEF
331
D94
  5
D92
331
DB3
  5
DB1
331
D3F
  5
D3D
331
D5E
  5
D5C
331
D20
  5
D1E
331
D7D
  5
D7B
331
E08
  5
E06
331
CF9
  5
CF7
331
CBB
  5
CB9
331
CDA
  5
CD8
331
C66
  5
C64
331
C85
  5
C83
331
C28
  5
C22
331
C47
  5
C45
331
AF7
  5
AF7
331
B16
  5
B16
331
C9C
  5
C9A
331
AD8
  5
AD8
331
8C4
  5
8C4
331
86F
  5
86F
331
88E
  5
88E
331
344
  5
344
331
28F
  5
28F
331
2AE
  5
2AE
331
363
  5
363
331
8AD
  5
8AD
331
784
  5
784
331
7E3
  5
7E3
331
727
  5
727
331
DF2
  5
DF0
331
E09
  5
E07
331
DB4
  5
DB2
331
DD3
  5
DD1
331
D7E
  5
D7C
331
D95
  5
D93
331
D21
  5
D1F
331
D40
  5
D3E
331
D5F
  5
D5D
331
CDB
  5
CD9
331
CFA
  5
CF8
331
C9D
  5
C9B
331
CBC
  5
CBA
331
C48
  5
C46
331
C67
  5
C65
331
B17
  5
B17
331
B9C
  5
10BF
331
C29
  5
C23
331
AD9
  5
AD9
331
AF8
  5
AF8
331
C86
  5
C84
331
88F
  5
88F
331
8AE
  5
8AE
331
364
  5
364
331
870
  5
870
331
8C5
  5
8C5
331
2AF
  5
2AF
331
290
  5
290
331
345
  5
345
331
7E4
  5
7E4
331
785
  5
785
331
DD4
  5
DD2
331
DF3
  5
DF1
331
D96
  5
D94
331
DB5
  5
DB3
331
D41
  5
D3F
331
D60
  5
D5E
331
D22
  5
D20
331
D7F
  5
D7D
331
E0A
  5
E08
331
CFB
  5
CF9
331
CBD
  5
CBB
331
CDC
  5
CDA
331
C68
  5
C66
331
C87
  5
C85
331
B9D
  5
B9C
331
C49
  5
C47
331
AF9
  5
AF9
331
B18
  5
B18
331
C9E
  5
C9C
331
ADA
  5
ADA
331
92C
  5
92C
331
8C6
  5
8C6
331
871
  5
871
331
890
  5
890
331
852
  5
852
331
291
  5
291
331
2B0
  5
2B0
331
365
  5
365
331
8AF
  5
8AF
331
786
  5
786
331
7E5
  5
7E5
331
DF4
  5
DF2
331
E0B
  5
E09
331
DB6
  5
DB4
331
DD5
  5
DD3
331
D61
  5
D5F
331
D80
  5
D7E
331
D23
  5
D21
331
D42
  5
D40
331
D97
  5
D95
331
CDD
  5
CDB
331
CFC
  5
CFA
331
C88
  5
C86
331
C9F
  5
C9D
331
C4A
  5
C48
331
C69
  5
C67
331
CBE
  5
CBC
331
ADB
  5
ADB
331
AFA
  5
AFA
331
891
  5
891
331
8B0
  5
8B0
331
853
  5
853
331
347
  5
347
331
366
  5
366
331
872
  5
872
331
273
  5
273
331
292
  5
292
331
9E0
  5
9E0
331
787
  5
787
331
E0C
  5
E0A
331
DD6
  5
DD4
331
DF5
  5
DF3
331
D98
  5
D96
331
DB7
  5
DB5
331
D43
  5
D41
331
D62
  5
D60
331
D24
  5
D22
331
D81
  5
D7F
331
CFD
  5
CFB
331
CBF
  5
CBD
331
CDE
  5
CDC
331
C6A
  5
C68
331
C89
  5
C87
331
ADC
  5
ADC
331
AFB
  5
AFB
331
C4B
  5
C49
331
CA0
  5
C9E
331
9E1
  5
9E1
331
8B1
  5
8B1
331
99B
  5
99B
331
873
  5
873
331
892
  5
892
331
293
  5
293
331
348
  5
348
331
274
  5
274
331
367
  5
367
331
DF6
  5
DF4
331
E0D
  5
E0B
331
DB8
  5
DB6
331
DD7
  5
DD5
331
D63
  5
D61
331
D82
  5
D80
331
D25
  5
D23
331
D44
  5
D42
331
D99
  5
D97
331
CDF
  5
CDD
331
CFE
  5
CFC
331
C8A
  5
C88
331
CA1
  5
C9F
331
C4C
  5
C4A
331
C6B
  5
C69
331
C2D
  5
C28
331
CC0
  5
CBE
331
ADD
  5
ADD
331
AFC
  5
AFC
331
893
  5
893
331
8B2
  5
8B2
331
855
  5
855
331
368
  5
368
331
874
  5
874
331
275
  5
275
331
294
  5
294
331
E0E
  5
E0C
331
DD8
  5
DD6
331
DF7
  5
DF5
331
D83
  5
D81
331
D9A
  5
D98
331
D45
  5
D43
331
D64
  5
D62
331
D26
  5
D24
331
DB9
  5
DB7
331
CFF
  5
CFD
331
CA2
  5
CA0
331
CC1
  5
CBF
331
C6C
  5
C6A
331
C8B
  5
C89
331
C2E
  5
C29
331
ADE
  5
ADE
331
AFD
  5
AFD
331
C4D
  5
C4B
331
CE0
  5
CDE
331
8B3
  5
8B3
331
938
  5
938
331
369
  5
369
331
875
  5
875
331
295
  5
295
331
34A
  5
34A
331
894
  5
894
331
276
  5
276
331
DF8
  5
DF6
331
E0F
  5
E0D
331
DBA
  5
DB8
331
DD9
  5
DD7
331
D65
  5
D63
331
D84
  5
D82
331
D27
  5
D25
331
D46
  5
D44
331
D9B
  5
D99
331
CE1
  5
CDF
331
D00
  5
CFE
331
C8C
  5
C8A
331
CA3
  5
CA1
331
C4E
  5
C4C
331
C6D
  5
C6B
331
AFE
  5
AFE
331
ADF
  5
ADF
331
C2F
  5
C2D
331
CC2
  5
CC0
331
9C5
  5
9C5
331
895
  5
895
331
8B4
  5
8B4
331
857
  5
857
331
34B
  5
34B
331
277
  5
277
331
36A
  5
36A
331
876
  5
876
331
E10
  5
E0E
331
DDA
  5
DD8
331
DF9
  5
DF7
331
D85
  5
D83
331
D9C
  5
D9A
331
D47
  5
D45
331
D66
  5
D64
331
D28
  5
D26
331
DBB
  5
DB9
331
D01
  5
CFF
331
CA4
  5
CA2
331
CC3
  5
CC1
331
C6E
  5
C6C
331
C8D
  5
C8B
331
AE0
  5
AE0
331
AFF
  5
AFF
331
C4F
  5
C4D
331
CE2
  5
CE0
331
9C6
  5
9C6
331
8B5
  5
8B5
331
36B
  5
36B
331
877
  5
877
331
297
  5
297
331
896
  5
896
331
DFA
  5
DF8
331
E11
  5
E0F
331
D9D
  5
D9B
331
DBC
  5
DBA
331
D67
  5
D65
331
D86
  5
D84
331
D29
  5
D27
331
D48
  5
D46
331
DDB
  5
DD9
331
CC4
  5
CC2
331
CE3
  5
CE1
331
C8E
  5
C8C
331
CA5
  5
CA3
331
B00
  5
B00
331
C50
  5
C4E
331
AE1
  5
AE1
331
C6F
  5
C6D
331
D02
  5
D00
331
9C7
  5
9C7
331
897
  5
897
331
8B6
  5
8B6
331
34D
  5
34D
331
36C
  5
36C
331
878
  5
878
331
E12
  5
E10
331
DDC
  5
DDA
331
DFB
  5
DF9
331
D87
  5
D85
331
D9E
  5
D9C
331
D49
  5
D47
331
D68
  5
D66
331
D2A
  5
D28
331
DBD
  5
DBB
331
D03
  5
D01
331
CA6
  5
CA4
331
CC5
  5
CC3
331
C70
  5
C6E
331
C8F
  5
C8D
331
C32
  5
C2E
331
AE2
  5
AE2
331
B01
  5
B01
331
C51
  5
C4F
331
CE4
  5
CE2
331
9C8
  5
9C8
331
8B7
  5
8B7
331
982
  5
982
331
36D
  5
36D
331
879
  5
879
331
34E
  5
34E
331
898
  5
898
331
A06
  5
A06
331
DFC
  5
DFA
331
E13
  5
E11
331
D9F
  5
D9D
331
D69
  5
D67
331
DBE
  5
DBC
331
D2B
  5
D29
331
D4A
  5
D48
331
DDD
  5
DDB
331
CC6
  5
CC4
331
CE5
  5
CE3
331
C90
  5
C8E
331
CA7
  5
CA5
331
C33
  5
C2F
331
C52
  5
C50
331
B02
  5
B02
331
C1C
  5
BAC
331
AE3
  5
AE3
331
C71
  5
C6F
331
D04
  5
D02
331
9C9
  5
9C9
331
899
  5
899
331
8B8
  5
8B8
331
85B
  5
85B
331
34F
  5
34F
331
36E
  5
36E
331
87A
  5
87A
331
E14
  5
E12
331
DBF
  5
DBD
331
DDE
  5
DDC
331
DA0
  5
D9E
331
D4B
  5
D49
331
D6A
  5
D68
331
DFD
  5
DFB
331
D2C
  5
D2A
331
CE6
  5
CE4
331
D05
  5
D03
331
CA8
  5
CA6
331
CC7
  5
CC5
331
C72
  5
C70
331
C91
  5
C8F
331
C1D
  5
BAE
331
AE4
  5
AE4
331
B03
  5
B03
331
C53
  5
C51
331
9CA
  5
9CA
331
8B9
  5
8B9
331
36F
  5
36F
331
87B
  5
87B
331
89A
  5
89A
331
DFE
  5
DFC
331
E15
  5
E13
331
DA1
  5
D9F
331
D6B
  5
D69
331
DC0
  5
DBE
331
D2D
  5
D2B
331
D4C
  5
D4A
331
DDF
  5
DDD
331
CC8
  5
CC6
331
CE7
  5
CE5
331
C92
  5
C90
331
CA9
  5
CA7
331
C54
  5
C52
331
C1E
  5
C1C
331
B04
  5
B04
331
AE5
  5
AE5
331
BA8
  5
10C0
331
C73
  5
C71
331
D06
  5
D04
331
9CB
  5
9CB
331
89B
  5
89B
331
8BA
  5
8BA
331
87C
  5
87C
331
E16
  5
E14
331
DC1
  5
DBF
331
DE0
  5
DDE
331
DA2
  5
DA0
331
D2E
  5
D2C
331
D4D
  5
D4B
331
D6C
  5
D6A
331
DFF
  5
DFD
331
CE8
  5
CE6
331
D07
  5
D05
331
CAA
  5
CA8
331
CC9
  5
CC7
331
C55
  5
C53
331
C74
  5
C72
331
C36
  5
C32
331
AE6
  5
AE6
331
B05
  5
B05
331
C93
  5
C91
331
9CC
  5
9CC
331
8BB
  5
8BB
331
9EB
  5
9EB
331
87D
  5
87D
331
89C
  5
89C
331
DE1
  5
DDF
331
DA3
  5
DA1
331
D6D
  5
D6B
331
DC2
  5
DC0
331
E17
  5
E15
331
D2F
  5
D2D
331
D4E
  5
D4C
331
D08
  5
D06
331
CCA
  5
CC8
331
CE9
  5
CE7
331
C94
  5
C92
331
CAB
  5
CA9
331
C37
  5
C33
331
C56
  5
C54
331
B06
  5
B06
331
AE7
  5
AE7
331
BAA
  5
B9D
331
C75
  5
C73
331
9EC
  5
9EC
331
9CD
  5
9CD
331
87E
  5
87E
331
89D
  5
89D
331
8BC
  5
8BC
331
E18
  5
E16
331
DC3
  5
DC1
331
DE2
  5
DE0
331
DA4
  5
DA2
331
D4F
  5
D4D
331
D6E
  5
D6C
331
CEA
  5
CE8
331
D09
  5
D07
331
CAC
  5
CAA
331
CCB
  5
CC9
331
C57
  5
C55
331
BAB
  5
BA8
331
C76
  5
C74
331
B07
  5
B07
331
C95
  5
C93
331
9CE
  5
9CE
331
8BD
  5
8BD
331
9ED
  5
9ED
331
87F
  5
87F
331
89E
  5
89E
331
DE3
  5
DE1
331
DA5
  5
DA3
331
D6F
  5
D6D
331
DC4
  5
DC2
331
E19
  5
E17
331
D0A
  5
D08
331
CCC
  5
CCA
331
CEB
  5
CE9
331
C77
  5
C75
331
C96
  5
C94
331
C58
  5
C56
331
CAD
  5
CAB
331
BAC
  5
BAA
331
9A8
  5
9A8
331
9CF
  5
9CF
331
880
  5
880
331
89F
  5
89F
331
861
  5
861
331
8BE
  5
8BE
331
E1A
  5
E18
331
DC5
  5
DC3
331
DE4
  5
DE2
331
DA6
  5
DA4
331
CEC
  5
CEA
331
D0B
  5
D09
331
CAE
  5
CAC
331
CCD
  5
CCB
331
C59
  5
C57
331
C78
  5
C76
331
C3A
  5
C36
331
C97
  5
C95
331
9D0
  5
9D0
331
8A0
  5
8A0
331
8BF
  5
8BF
331
862
  5
862
331
881
  5
881
331
F68
  5
F66
331
DE5
  5
DE3
331
DA7
  5
DA5
331
DC6
  5
DC4
331
E1B
  5
E19
331
D0C
  5
D0A
331
CCE
  5
CCC
331
CED
  5
CEB
331
C79
  5
C77
331
BAE
  5
BAB
331
C3B
  5
C37
331
C5A
  5
C58
331
CAF
  5
CAD
331
882
  5
882
331
8A1
  5
8A1
331
863
  5
863
331
9D1
  5
9D1
331
F69
  5
F67
331
E1C
  5
E1A
331
DC7
  5
DC5
331
DE6
  5
DE4
331
CEE
  5
CEC
331
D0D
  5
D0B
331
CB0
  5
CAE
331
C5B
  5
C59
331
C7A
  5
C78
331
CCF
  5
CCD
331
8A2
  5
8A2
331
A28
  5
A28
331
883
  5
883
331
F81
  5
F7C
331
F6A
  5
F68
331
DE7
  5
DE5
331
D0E
  5
D0C
331
CD0
  5
CCE
331
CEF
  5
CED
331
C7B
  5
C79
331
C5C
  5
C5A
331
CB1
  5
CAF
331
9FA
  5
9FA
331
884
  5
884
331
8A3
  5
8A3
331
865
  5
865
331
920
  5
920
331
FC0
  5
FBA
331
F6B
  5
F69
331
F82
  5
F7D
331
CF0
  5
CEE
331
D0F
  5
D0D
331
CB2
  5
CB0
331
C5D
  5
C5B
331
C7C
  5
C7A
331
CD1
  5
CCF
331
9D4
  5
9D4
331
8A4
  5
8A4
331
98E
  5
98E
331
866
  5
866
331
885
  5
885
331
FE0
  5
FDE
331
F6C
  5
F6A
331
CB3
  5
CB1
331
C7D
  5
C7B
331
CD2
  5
CD0
331
C5E
  5
C5C
331
CF1
  5
CEF
331
886
  5
886
331
8A5
  5
8A5
331
867
  5
867
331
9D5
  5
9D5
331
FF8
  5
FF6
331
F6D
  5
F6B
331
FE1
  5
FDF
331
CF2
  5
CF0
331
CB4
  5
CB2
331
C5F
  5
C5D
331
C7E
  5
C7C
331
CD3
  5
CD1
331
8FC
  5
8FC
331
8A6
  5
8A6
331
9D6
  5
9D6
331
887
  5
887
331
1018
  5
1016
331
FE2
  5
FE0
331
FF9
  5
FF7
331
FA4
  5
F9E
331
F6E
  5
F6C
331
FC3
  5
FBF
331
CB5
  5
CB3
331
C7F
  5
C7D
331
CD4
  5
CD2
331
CF3
  5
CF1
331
9D7
  5
9D7
331
8A7
  5
8A7
331
1038
  5
1036
331
FFA
  5
FF8
331
1019
  5
1017
331
FA5
  5
F9F
331
F6F
  5
F6D
331
FE3
  5
FE1
331
CD5
  5
CD3
331
CF4
  5
CF2
331
CB6
  5
CB4
331
9D8
  5
9D8
331
638
  5
638
331
1060
  5
105E
331
101A
  5
1018
331
1039
  5
1037
331
FC5
  5
FC0
331
FE4
  5
FE2
331
FA6
  5
FA4
331
F70
  5
F6E
331
FFB
  5
FF9
331
CB7
  5
CB5
331
CD6
  5
CD4
331
CF5
  5
CF3
331
639
  5
639
331
658
  5
658
331
103A
  5
1038
331
1061
  5
105F
331
FFC
  5
FFA
331
101B
  5
1019
331
F71
  5
F6F
331
FC6
  5
FC3
331
FE5
  5
FE3
331
CD7
  5
CD5
331
CF6
  5
CF4
331
659
  5
659
331
A68
  5
A68
331
9DA
  5
9DA
331
63A
  5
63A
331
1062
  5
1060
331
101C
  5
101A
331
103B
  5
1039
331
FC7
  5
FC5
331
FE6
  5
FE4
331
F89
  5
F81
331
FA8
  5
FA5
331
F72
  5
F70
331
FFD
  5
FFB
331
CF7
  5
CF5
331
65A
  5
65A
331
9DB
  5
9DB
331
A69
  5
A69
331
103C
  5
103A
331
1063
  5
1061
331
FE7
  5
FE5
331
F8A
  5
F82
331
101D
  5
101B
331
691
  5
691
331
65B
  5
65B
331
9B5
  5
9B5
331
9DC
  5
9DC
331
101E
  5
101C
331
103D
  5
103B
331
FC9
  5
FC6
331
FE8
  5
FE6
331
F8B
  5
F89
331
FAA
  5
FA6
331
FFF
  5
FFC
331
692
  5
692
331
9DD
  5
9DD
331
65C
  5
65C
331
103E
  5
103C
331
FE9
  5
FE7
331
F8C
  5
F8A
331
101F
  5
101D
331
693
  5
693
331
65D
  5
65D
331
9DE
  5
9DE
331
674
  5
674
331
1020
  5
101E
331
F8D
  5
F8B
331
FEA
  5
FE8
331
103F
  5
103D
331
708
  5
708
331
65E
  5
65E
331
A6D
  5
A6D
331
9DF
  5
9DF
331
675
  5
675
331
694
  5
694
331
1040
  5
103E
331
FEB
  5
FE9
331
1002
  5
FFD
331
F77
  5
F71
331
F8E
  5
F8C
331
1021
  5
101F
331
709
  5
709
331
695
  5
695
331
65F
  5
65F
331
A6E
  5
A6E
331
676
  5
676
331
1068
  5
1062
331
1003
  5
FFF
331
1022
  5
1020
331
F78
  5
F72
331
F8F
  5
F8D
331
FEC
  5
FEA
331
1041
  5
103F
331
70A
  5
70A
331
660
  5
660
331
A6F
  5
A6F
331
641
  5
641
331
696
  5
696
331
1023
  5
1021
331
1042
  5
1040
331
FED
  5
FEB
331
1004
  5
1002
331
FCE
  5
FC7
331
1069
  5
1063
331
70B
  5
70B
331
697
  5
697
331
661
  5
661
331
106A
  5
1068
331
1005
  5
1003
331
1024
  5
1022
331
FCF
  5
FC9
331
F7A
  5
F77
331
F91
  5
F8E
331
FEE
  5
FEC
331
1043
  5
1041
331
788
  5
788
331
70C
  5
70C
331
662
  5
662
331
679
  5
679
331
698
  5
698
331
1025
  5
1023
331
1044
  5
1042
331
FEF
  5
FED
331
1006
  5
1004
331
F92
  5
F8F
331
F7B
  5
F78
331
FD0
  5
FCE
331
106B
  5
1069
331
67A
  5
67A
331
699
  5
699
331
72C
  5
72C
331
644
  5
644
331
663
  5
663
331
789
  5
789
331
1045
  5
1043
331
106C
  5
106A
331
1026
  5
1024
331
FD1
  5
FCF
331
F7C
  5
F7A
331
F93
  5
F91
331
FF0
  5
FEE
331
69A
  5
69A
331
72D
  5
72D
331
78A
  5
78A
331
67B
  5
67B
331
645
  5
645
331
1027
  5
1025
331
1046
  5
1044
331
FF1
  5
FEF
331
1008
  5
1005
331
F94
  5
F92
331
F7D
  5
F7B
331
FD2
  5
FD0
331
106D
  5
106B
331
67C
  5
67C
331
72E
  5
72E
331
78B
  5
78B
331
1047
  5
1045
331
10BD
  5
106C
331
1009
  5
1006
331
1028
  5
1026
331
FD3
  5
FD1
331
F5F
  5
E1B
331
FF2
  5
FF0
331
278
  5
278
331
82A
  5
82A
331
78C
  5
78C
331
69C
  5
69C
331
74E
  5
74E
331
67D
  5
67D
331
1029
  5
1027
331
1048
  5
1046
331
10BE
  5
106D
331
FF3
  5
FF1
331
100A
  5
1008
331
F96
  5
F93
331
F60
  5
E1C
331
FB5
  5
FA8
331
FD4
  5
FD2
331
279
  5
279
331
298
  5
298
331
7F4
  5
7F4
331
711
  5
711
331
67E
  5
67E
331
69D
  5
69D
331
730
  5
730
331
78D
  5
78D
331
1049
  5
1047
331
10BF
  5
10BD
331
100B
  5
1009
331
102A
  5
1028
331
FB6
  5
FAA
331
FD5
  5
FD3
331
F97
  5
F94
331
FF4
  5
FF2
331
27A
  5
27A
331
299
  5
299
331
767
  5
767
331
731
  5
731
331
750
  5
750
331
69E
  5
69E
331
668
  5
668
331
67F
  5
67F
331
712
  5
712
331
7F5
  5
7F5
331
102B
  5
1029
331
104A
  5
1048
331
10C0
  5
10BE
331
FD6
  5
FD4
331
FF5
  5
FF3
331
F98
  5
F96
331
F62
  5
F5F
331
FB7
  5
FB5
331
100C
  5
100A
331
29A
  5
29A
331
27B
  5
27B
331
751
  5
751
331
7F6
  5
7F6
331
680
  5
680
331
713
  5
713
331
732
  5
732
331
669
  5
669
331
100D
  5
100B
331
102C
  5
102A
331
FB8
  5
FB6
331
FD7
  5
FD5
331
F99
  5
F97
331
FF6
  5
FF4
331
27C
  5
27C
331
29B
  5
29B
331
771
  5
771
331
7A8
  5
7A8
331
752
  5
752
331
66A
  5
66A
331
681
  5
681
331
714
  5
714
331
7F7
  5
7F7
331
102D
  5
102B
331
104C
  5
1049
331
FD8
  5
FD6
331
FF7
  5
FF5
331
F9A
  5
F98
331
FB9
  5
FB7
331
100E
  5
100C
331
29C
  5
29C
331
27D
  5
27D
331
370
  5
370
331
7A9
  5
7A9
331
682
  5
682
331
715
  5
715
331
772
  5
772
331
66B
  5
66B
331
FBA
  5
FB8
331
FD9
  5
FD7
331
F9B
  5
F99
331
102E
  5
102C
331
F65
  5
F60
331
27E
  5
27E
331
371
  5
371
331
830
  5
830
331
773
  5
773
331
7AA
  5
7AA
331
64D
  5
64D
331
66C
  5
66C
331
4F6
  5
4F6
331
716
  5
716
331
D10
  5
D0E
331
FDA
  5
FD8
331
F9C
  5
F9A
331
102F
  5
102D
331
F66
  5
F62
331
353
  5
353
331
27F
  5
27F
331
7FA
  5
7FA
331
774
  5
774
331
684
  5
684
331
717
  5
717
331
736
  5
736
331
831
  5
831
331
4F7
  5
4F7
331
66D
  5
66D
331
D30
  5
D2E
331
1011
  5
100D
331
FDB
  5
FD9
331
D11
  5
D0F
331
F67
  5
F65
331
F9D
  5
F9B
331
AE8
  5
AE8
331
AC9
  5
AC9
331
32D
  5
32D
331
280
  5
280
331
29F
  5
29F
331
354
  5
354
331
832
  5
832
331
775
  5
775
331
7AC
  5
7AC
331
64F
  5
64F
331
66E
  5
66E
331
685
  5
685
331
718
  5
718
331
D50
  5
D4E
331
D12
  5
D10
331
D31
  5
D2F
331
1012
  5
100E
331
FDC
  5
FDA
331
F9E
  5
F9C
331
1058
  5
104A
331
B08
  5
B08
331
ACA
  5
ACA
331
AE9
  5
AE9
331
32E
  5
32E
331
2A0
  5
2A0
331
355
  5
355
331
281
  5
281
331
7AD
  5
7AD
331
66F
  5
66F
331
686
  5
686
331
719
  5
719
331
650
  5
650
331
776
  5
776
331
D32
  5
D30
331
D51
  5
D4F
331
1059
  5
104C
331
D13
  5
D11
331
1013
  5
1011
331
FDD
  5
FDB
331
F9F
  5
F9D
331
1032
  5
102E
331
D70
  5
D6E
331
ACB
  5
ACB
331
AEA
  5
AEA
331
B09
  5
B09
  0
LAYOUT
  5
10B1
102
{ACAD_REACTORS
330
10AF
102
}
330
10AF
100
AcDbPlotSettings
  1

  2
A4 EPSON LP-6100.pc3
  4
A4
  6

 40
5.873749732971191
 41
5.873747825622558
 42
5.873748779296875
 43
5.873748779296875
 44
209.9733276367187
 45
297.0106506347656
 46
0.8
 47
25.0
 48
0.0
 49
0.0
140
0.0
141
0.0
142
1.0
143
1.0
 70
 28336
 72
     1
 73
     1
 74
     1
  7
AutoCAD LT 98.ctb
 75
    16
147
1.0
 76
     1
 77
     2
 78
   300
148
0.2128225079886761
149
0.2090691322566727
100
AcDbLayout
  1
Model
 70
     1
 71
     0
 10
0.0
 20
0.0
 11
12.0
 21
9.0
 12
0.0
 22
0.0
 32
0.0
 14
0.0
 24
0.0
 34
0.0
 15
0.0
 25
0.0
 35
0.0
146
0.0
 13
0.0
 23
0.0
 33
0.0
 16
1.0
 26
0.0
 36
0.0
 17
0.0
 27
1.0
 37
0.0
 76
     0
330
18
1001
ACAD_PSEXT
1000
A4 EPSON LP-6100.pc3
1000
EPSON LP-6100
1000
\\SATO-MATE2
1000

1070
     0
  0
LAYOUT
  5
10B2
102
{ACAD_REACTORS
330
10AF
102
}
330
10AF
100
AcDbPlotSettings
  1

  2
WIDR Printer
  4

  6

 40
0.0
 41
0.0
 42
0.0
 43
0.0
 44
0.0
 45
0.0
 46
0.0
 47
0.0
 48
0.0
 49
0.0
140
0.0
141
0.0
142
1.0
143
1.0
 70
   688
 72
     0
 73
     0
 74
     5
  7
AutoCad LT 98.ctb
 75
    16
147
1.0
 76
     0
 77
     2
 78
   300
148
0.0
149
0.0
100
AcDbLayout
  1
レイアウト1
 70
     1
 71
     1
 10
0.0
 20
0.0
 11
420.0
 21
297.0
 12
0.0
 22
0.0
 32
0.0
 14
-0.2
 24
-0.2
 34
0.0
 15
255.2
 25
195.2
 35
0.0
146
0.0
 13
0.0
 23
0.0
 33
0.0
 16
1.0
 26
0.0
 36
0.0
 17
0.0
 27
1.0
 37
0.0
 76
     0
330
15
331
177
  0
MLINESTYLE
  5
1C
102
{ACAD_REACTORS
330
1B
102
}
330
1B
100
AcDbMlineStyle
  2
STANDARD
 70
     0
  3

 62
   256
 51
90.0
 52
90.0
 71
     2
 49
0.5
 62
   256
  6
BYLAYER
 49
-0.5
 62
   256
  6
BYLAYER
  0
ACDBPLACEHOLDER
  5
10AA
102
{ACAD_REACTORS
330
10A9
102
}
330
10A9
  0
ACAD_PROXY_OBJECT
  5
10AE
102
{ACAD_REACTORS
330
10AD
102
}
330
10AD
100
AcDbProxyObject
 90
      499
 91
      503
 95
  2555929
 70
     0
 93
     1849
310
4214DD185B99185C992420000000000000F83F0000000000003E0FC00000000000004901028000000C1008070000C3001FDFF8000000C1003FBFF000000182007F7FE00000030400FEFFC00000060801FDFF8000000C1003FBFF000000182000000000000000C2020B0000001820100E000186003FBFF000000182007F7FE0
310
0000030400FEFFC00000060801FDFF8000000C1003FBFF000000182007F7FE0000003040000000000000012404160000003040201C00030C007F7FE00000030400FEFFC00000060801FDFF8000000C1003FBFF000000182007F7FE00000030400FEFFC000000608000
340
F
340
F
340
F
 94
        0
  0
DICTIONARYVAR
  5
10C2
102
{ACAD_REACTORS
330
BA0
102
}
330
BA0
100
DictionaryVariables
280
     0
  1
STANDARD
  0
DICTIONARYVAR
  5
BA1
102
{ACAD_REACTORS
330
BA0
102
}
330
BA0
100
DictionaryVariables
280
     0
  1
96
  0
ENDSEC
  0
EOF
