  0
SECTION
  2
HEADER
  9
$ACADVER
  1
AC1018
  9
$ACADMAINTVER
 70
     0
  9
$DWGCODEPAGE
  3
ANSI_932
  9
$INSBASE
 10
0.0
 20
0.0
 30
0.0
  9
$EXTMIN
 10
-0.2256454072593215
 20
-0.2181385412601458
 30
-0.000000001396689
  9
$EXTMAX
 10
255.2259969900183
 20
194.9477593213099
 30
0.0000000044238995
  9
$LIMMIN
 10
0.0
 20
0.0
  9
$LIMMAX
 10
420.0
 20
297.0
  9
$ORTHOMODE
 70
     0
  9
$REGENMODE
 70
     1
  9
$FILLMODE
 70
     1
  9
$QTEXTMODE
 70
     0
  9
$MIRRTEXT
 70
     1
  9
$LTSCALE
 40
1.0
  9
$ATTMODE
 70
     1
  9
$TEXTSIZE
 40
3.0
  9
$TRACEWID
 40
1.0
  9
$TEXTSTYLE
  7
4
  9
$CLAYER
  8
寸法線
  9
$CELTYPE
  6
BYLAYER
  9
$CECOLOR
 62
   256
  9
$CELTSCALE
 40
1.0
  9
$DISPSILH
 70
     0
  9
$DIMSCALE
 40
1.0
  9
$DIMASZ
 40
2.5
  9
$DIMEXO
 40
0.0
  9
$DIMDLI
 40
3.75
  9
$DIMRND
 40
0.0
  9
$DIMDLE
 40
0.0
  9
$DIMEXE
 40
1.25
  9
$DIMTP
 40
0.0
  9
$DIMTM
 40
0.0
  9
$DIMTXT
 40
2.5
  9
$DIMCEN
 40
2.5
  9
$DIMTSZ
 40
0.0
  9
$DIMTOL
 70
     0
  9
$DIMLIM
 70
     0
  9
$DIMTIH
 70
     0
  9
$DIMTOH
 70
     0
  9
$DIMSE1
 70
     0
  9
$DIMSE2
 70
     0
  9
$DIMTAD
 70
     1
  9
$DIMZIN
 70
     8
  9
$DIMBLK
  1

  9
$DIMASO
 70
     1
  9
$DIMSHO
 70
     1
  9
$DIMPOST
  1

  9
$DIMAPOST
  1

  9
$DIMALT
 70
     0
  9
$DIMALTD
 70
     4
  9
$DIMALTF
 40
0.0394
  9
$DIMLFAC
 40
1.0
  9
$DIMTOFL
 70
     1
  9
$DIMTVP
 40
0.0
  9
$DIMTIX
 70
     0
  9
$DIMSOXD
 70
     0
  9
$DIMSAH
 70
     1
  9
$DIMBLK1
  1
OPEN
  9
$DIMBLK2
  1
OPEN
  9
$DIMSTYLE
  2
STYLE3
  9
$DIMCLRD
 70
     2
  9
$DIMCLRE
 70
     2
  9
$DIMCLRT
 70
     6
  9
$DIMTFAC
 40
1.0
  9
$DIMGAP
 40
0.625
  9
$DIMJUST
 70
     0
  9
$DIMSD1
 70
     0
  9
$DIMSD2
 70
     0
  9
$DIMTOLJ
 70
     1
  9
$DIMTZIN
 70
     0
  9
$DIMALTZ
 70
     0
  9
$DIMALTTZ
 70
     0
  9
$DIMUPT
 70
     0
  9
$DIMDEC
 70
     2
  9
$DIMTDEC
 70
     4
  9
$DIMALTU
 70
     8
  9
$DIMALTTD
 70
     4
  9
$DIMTXSTY
  7
STYLE3
  9
$DIMAUNIT
 70
     0
  9
$DIMADEC
 70
     0
  9
$DIMALTRND
 40
0.0
  9
$DIMAZIN
 70
     0
  9
$DIMDSEP
 70
    46
  9
$DIMATFIT
 70
     3
  9
$DIMFRAC
 70
     0
  9
$DIMLDRBLK
  1

  9
$DIMLUNIT
 70
     2
  9
$DIMLWD
 70
    -2
  9
$DIMLWE
 70
    -2
  9
$DIMTMOVE
 70
     0
  9
$LUNITS
 70
     2
  9
$LUPREC
 70
     4
  9
$SKETCHINC
 40
1.0
  9
$FILLETRAD
 40
1.0
  9
$AUNITS
 70
     0
  9
$AUPREC
 70
     0
  9
$MENU
  1
.
  9
$ELEVATION
 40
0.0
  9
$PELEVATION
 40
0.0
  9
$THICKNESS
 40
0.0
  9
$LIMCHECK
 70
     0
  9
$CHAMFERA
 40
0.5
  9
$CHAMFERB
 40
0.5
  9
$CHAMFERC
 40
20.0
  9
$CHAMFERD
 40
0.0
  9
$SKPOLY
 70
     0
  9
$TDCREATE
 40
2451464.356372338
  9
$TDUCREATE
 40
2451463.981372338
  9
$TDUPDATE
 40
2455379.387126366
  9
$TDUUPDATE
 40
2455379.012126366
  9
$TDINDWG
 40
0.6586423958
  9
$TDUSRTIMER
 40
0.6586423958
  9
$USRTIMER
 70
     1
  9
$ANGBASE
 50
0.0
  9
$ANGDIR
 70
     0
  9
$PDMODE
 70
     0
  9
$PDSIZE
 40
0.0
  9
$PLINEWID
 40
0.0
  9
$SPLFRAME
 70
     0
  9
$SPLINETYPE
 70
     6
  9
$SPLINESEGS
 70
     8
  9
$HANDSEED
  5
13F1
  9
$SURFTAB1
 70
     6
  9
$SURFTAB2
 70
     6
  9
$SURFTYPE
 70
     6
  9
$SURFU
 70
     6
  9
$SURFV
 70
     6
  9
$UCSBASE
  2

  9
$UCSNAME
  2

  9
$UCSORG
 10
0.0
 20
0.0
 30
0.0
  9
$UCSXDIR
 10
1.0
 20
0.0
 30
0.0
  9
$UCSYDIR
 10
0.0
 20
1.0
 30
0.0
  9
$UCSORTHOREF
  2

  9
$UCSORTHOVIEW
 70
     0
  9
$UCSORGTOP
 10
0.0
 20
0.0
 30
0.0
  9
$UCSORGBOTTOM
 10
0.0
 20
0.0
 30
0.0
  9
$UCSORGLEFT
 10
0.0
 20
0.0
 30
0.0
  9
$UCSORGRIGHT
 10
0.0
 20
0.0
 30
0.0
  9
$UCSORGFRONT
 10
0.0
 20
0.0
 30
0.0
  9
$UCSORGBACK
 10
0.0
 20
0.0
 30
0.0
  9
$PUCSBASE
  2

  9
$PUCSNAME
  2

  9
$PUCSORG
 10
0.0
 20
0.0
 30
0.0
  9
$PUCSXDIR
 10
1.0
 20
0.0
 30
0.0
  9
$PUCSYDIR
 10
0.0
 20
1.0
 30
0.0
  9
$PUCSORTHOREF
  2

  9
$PUCSORTHOVIEW
 70
     0
  9
$PUCSORGTOP
 10
0.0
 20
0.0
 30
0.0
  9
$PUCSORGBOTTOM
 10
0.0
 20
0.0
 30
0.0
  9
$PUCSORGLEFT
 10
0.0
 20
0.0
 30
0.0
  9
$PUCSORGRIGHT
 10
0.0
 20
0.0
 30
0.0
  9
$PUCSORGFRONT
 10
0.0
 20
0.0
 30
0.0
  9
$PUCSORGBACK
 10
0.0
 20
0.0
 30
0.0
  9
$USERI1
 70
     0
  9
$USERI2
 70
     0
  9
$USERI3
 70
     0
  9
$USERI4
 70
     0
  9
$USERI5
 70
     0
  9
$USERR1
 40
0.0
  9
$USERR2
 40
0.0
  9
$USERR3
 40
0.0
  9
$USERR4
 40
0.0
  9
$USERR5
 40
0.0
  9
$WORLDVIEW
 70
     1
  9
$SHADEDGE
 70
     3
  9
$SHADEDIF
 70
    70
  9
$TILEMODE
 70
     1
  9
$MAXACTVP
 70
    48
  9
$PINSBASE
 10
0.0
 20
0.0
 30
0.0
  9
$PLIMCHECK
 70
     0
  9
$PEXTMIN
 10
-0.2
 20
-0.2
 30
0.0
  9
$PEXTMAX
 10
255.2
 20
195.2
 30
0.0
  9
$PLIMMIN
 10
0.0
 20
0.0
  9
$PLIMMAX
 10
420.0
 20
297.0
  9
$UNITMODE
 70
     0
  9
$VISRETAIN
 70
     1
  9
$PLINEGEN
 70
     0
  9
$PSLTSCALE
 70
     1
  9
$TREEDEPTH
 70
  3020
  9
$CMLSTYLE
  2
STANDARD
  9
$CMLJUST
 70
     0
  9
$CMLSCALE
 40
20.0
  9
$PROXYGRAPHICS
 70
     1
  9
$MEASUREMENT
 70
     1
  9
$CELWEIGHT
370
    -1
  9
$ENDCAPS
280
     0
  9
$JOINSTYLE
280
     0
  9
$LWDISPLAY
290
     0
  9
$INSUNITS
 70
     0
  9
$HYPERLINKBASE
  1

  9
$STYLESHEET
  1
AutoCAD LT 98.ctb
  9
$XEDIT
290
     1
  9
$CEPSNTYPE
380
     0
  9
$PSTYLEMODE
290
     1
  9
$FINGERPRINTGUID
  2
{762A6EF3-1A05-4B02-83E7-10D053D6DC3A}
  9
$VERSIONGUID
  2
{3DF237A0-4CE7-4F7F-93E3-7954186103C4}
  9
$EXTNAMES
290
     1
  9
$PSVPSCALE
 40
0.0
  9
$OLESTARTUP
290
     0
  9
$SORTENTS
280
    96
  9
$INDEXCTL
280
     0
  9
$HIDETEXT
280
     0
  9
$XCLIPFRAME
290
     0
  9
$HALOGAP
280
     0
  9
$OBSCOLOR
 70
   257
  9
$OBSLTYPE
280
     0
  9
$INTERSECTIONDISPLAY
280
     0
  9
$INTERSECTIONCOLOR
 70
   257
  9
$DIMASSOC
280
     1
  9
$PROJECTNAME
  1

  0
ENDSEC
  0
SECTION
  2
CLASSES
  0
CLASS
  1
HATCH
  2
AcDbHatch
  3
ObjectDBX Classes
 90
        0
 91
       23
280
     0
281
     1
  0
CLASS
  1
DICTIONARYVAR
  2
AcDbDictionaryVar
  3
ObjectDBX Classes
 90
        0
 91
        2
280
     0
281
     0
  0
CLASS
  1
LWPOLYLINE
  2
AcDbPolyline
  3
ObjectDBX Classes
 90
        0
 91
        2
280
     0
281
     1
  0
CLASS
  1
ACDBDICTIONARYWDFLT
  2
AcDbDictionaryWithDefault
  3
ObjectDBX Classes
 90
        0
 91
        1
280
     0
281
     0
  0
CLASS
  1
TABLESTYLE
  2
AcDbTableStyle
  3
ObjectDBX Classes
 90
     2047
 91
        1
280
     0
281
     0
  0
ENDSEC
  0
SECTION
  2
TABLES
  0
TABLE
  2
VPORT
  5
8
330
0
100
AcDbSymbolTable
 70
     2
  0
VPORT
  5
13F0
330
8
100
AcDbSymbolTableRecord
100
AcDbViewportTableRecord
  2
*Active
 70
     0
 10
0.0
 20
0.0
 11
1.0
 21
1.0
 12
127.5001757913795
 22
97.36481039002491
 13
0.0
 23
0.0
 14
10.0
 24
10.0
 15
10.0
 25
10.0
 16
0.0
 26
0.0
 36
1.0
 17
0.0
 27
0.0
 37
0.0
 40
196.6500491771143
 41
1.530456852791878
 42
50.0
 43
0.0
 44
0.0
 50
0.0
 51
0.0
 71
     0
 72
   100
 73
     1
 74
     1
 75
     0
 76
     0
 77
     0
 78
     0
281
     0
 65
     1
110
0.0
120
0.0
130
0.0
111
1.0
121
0.0
131
0.0
112
0.0
122
1.0
132
0.0
 79
     0
146
0.0
  0
ENDTAB
  0
TABLE
  2
LTYPE
  5
5
330
0
100
AcDbSymbolTable
 70
    12
  0
LTYPE
  5
12
330
5
100
AcDbSymbolTableRecord
100
AcDbLinetypeTableRecord
  2
BYBLOCK
 70
     0
  3

 72
    65
 73
     0
 40
0.0
  0
LTYPE
  5
13
330
5
100
AcDbSymbolTableRecord
100
AcDbLinetypeTableRecord
  2
BYLAYER
 70
     0
  3

 72
    65
 73
     0
 40
0.0
  0
LTYPE
  5
14
330
5
100
AcDbSymbolTableRecord
100
AcDbLinetypeTableRecord
  2
CONTINUOUS
 70
     0
  3
Solid line
 72
    65
 73
     0
 40
0.0
  0
LTYPE
  5
22
330
5
100
AcDbSymbolTableRecord
100
AcDbLinetypeTableRecord
  2
CENTER2
 70
     0
  3
Center (.5x) ___ _ ___ _ ___ _ ___ _ ___ _ ___
 72
    65
 73
     4
 40
28.575
 49
19.05
 74
     0
 49
-3.174999999999999
 74
     0
 49
3.174999999999999
 74
     0
 49
-3.174999999999999
 74
     0
  0
LTYPE
  5
24
330
5
100
AcDbSymbolTableRecord
100
AcDbLinetypeTableRecord
  2
PHANTOM2
 70
     0
  3
Phantom (.5x) ___ _ _ ___ _ _ ___ _ _ ___ _ _
 72
    65
 73
     6
 40
31.75
 49
15.875
 74
     0
 49
-3.174999999999999
 74
     0
 49
3.174999999999999
 74
     0
 49
-3.174999999999999
 74
     0
 49
3.174999999999999
 74
     0
 49
-3.174999999999999
 74
     0
  0
ENDTAB
  0
TABLE
  2
LAYER
  5
2
330
0
100
AcDbSymbolTable
 70
    16
  0
LAYER
  5
E
330
2
100
AcDbSymbolTableRecord
100
AcDbLayerTableRecord
  2
0
 70
     0
 62
     7
  6
CONTINUOUS
370
    -3
390
12E2
  0
LAYER
  5
25
330
2
100
AcDbSymbolTableRecord
100
AcDbLayerTableRecord
  2
外形線
 70
     0
 62
     7
  6
CONTINUOUS
370
    -3
390
12E2
  0
LAYER
  5
26
330
2
100
AcDbSymbolTableRecord
100
AcDbLayerTableRecord
  2
寸法線
 70
     0
 62
     2
  6
CONTINUOUS
370
    -3
390
12E2
  0
LAYER
  5
27
330
2
100
AcDbSymbolTableRecord
100
AcDbLayerTableRecord
  2
中心線
 70
     0
 62
     4
  6
CENTER2
370
    -3
390
12E2
  0
LAYER
  5
29
330
2
100
AcDbSymbolTableRecord
100
AcDbLayerTableRecord
  2
想像線
 70
     0
 62
     1
  6
PHANTOM2
370
    -3
390
12E2
  0
LAYER
  5
2B
330
2
100
AcDbSymbolTableRecord
100
AcDbLayerTableRecord
  2
文字
 70
     0
 62
     6
  6
CONTINUOUS
370
    -3
390
12E2
  0
LAYER
  5
53
330
2
100
AcDbSymbolTableRecord
100
AcDbLayerTableRecord
  2
DEFPOINTS
 70
     0
 62
     7
  6
CONTINUOUS
290
     0
370
    -3
390
12E2
  0
LAYER
  5
A5
330
2
100
AcDbSymbolTableRecord
100
AcDbLayerTableRecord
  2
C
 70
     0
 62
     7
  6
CONTINUOUS
370
    -3
390
12E2
  0
ENDTAB
  0
TABLE
  2
STYLE
  5
3
330
0
100
AcDbSymbolTable
 70
     8
  0
STYLE
  5
F
330
3
100
AcDbSymbolTableRecord
100
AcDbTextStyleTableRecord
  2
STANDARD
 70
     0
 40
0.0
 41
1.0
 50
0.0
 71
     0
 42
2.5
  3
txt
  4

  0
STYLE
  5
3F
330
3
100
AcDbSymbolTableRecord
100
AcDbTextStyleTableRecord
  2
STYLE3
 70
     0
 40
0.0
 41
1.0
 50
0.0
 71
     0
 42
3.0
  3
romans.shx
  4
bigfont.shx
  0
STYLE
  5
BAF
330
3
100
AcDbSymbolTableRecord
100
AcDbTextStyleTableRecord
  2
4
 70
     0
 40
0.0
 41
1.0
 50
0.0
 71
     0
 42
3.0
  3
MS PGothic.ttf
  4

1001
ACAD
1000
MS PGothic
1071
    32818
  0
ENDTAB
  0
TABLE
  2
VIEW
  5
6
330
0
100
AcDbSymbolTable
 70
     0
  0
ENDTAB
  0
TABLE
  2
UCS
  5
7
330
0
100
AcDbSymbolTable
 70
     0
  0
ENDTAB
  0
TABLE
  2
APPID
  5
9
330
0
100
AcDbSymbolTable
 70
     2
  0
APPID
  5
10
330
9
100
AcDbSymbolTableRecord
100
AcDbRegAppTableRecord
  2
ACAD
 70
     0
  0
APPID
  5
12F4
330
9
100
AcDbSymbolTableRecord
100
AcDbRegAppTableRecord
  2
ACAD_PSEXT
 70
     0
  0
ENDTAB
  0
TABLE
  2
DIMSTYLE
  5
A
330
0
100
AcDbSymbolTable
 70
     6
100
AcDbDimStyleTable
 71
     1
340
8F
  0
DIMSTYLE
105
1D
330
A
100
AcDbSymbolTableRecord
100
AcDbDimStyleTableRecord
  2
STANDARD
 70
     0
 41
2.5
 42
0.625
 43
3.75
 44
1.25
 73
     0
 74
     0
 77
     1
 78
     8
140
2.5
141
2.5
143
0.0394
147
0.625
171
     4
172
     1
273
     8
274
     4
277
     6
340
F
  0
DIMSTYLE
105
8F
102
{ACAD_REACTORS
330
F07
330
F13
330
F20
330
F38
330
F45
330
F5D
330
F76
330
F82
330
F9A
330
FA6
330
FF9
330
100A
330
1016
330
1022
330
103B
330
1048
330
1054
102
}
330
A
100
AcDbSymbolTableRecord
100
AcDbDimStyleTableRecord
  2
STYLE3
 70
     0
 41
2.5
 42
0.0
 43
3.75
 44
1.25
 73
     0
 74
     0
 77
     1
 78
     8
140
2.5
141
2.5
143
0.0394
147
0.625
171
     4
172
     1
173
     1
176
     2
177
     2
178
     6
271
     1
273
     8
274
     4
340
3F
341
45
343
45
344
45
  0
ENDTAB
  0
TABLE
  2
BLOCK_RECORD
  5
1
330
0
100
AcDbSymbolTable
 70
    29
  0
BLOCK_RECORD
  5
18
330
1
100
AcDbSymbolTableRecord
100
AcDbBlockTableRecord
  2
*MODEL_SPACE
340
12E9
  0
BLOCK_RECORD
  5
15
330
1
100
AcDbSymbolTableRecord
100
AcDbBlockTableRecord
  2
*PAPER_SPACE
340
12EA
  0
BLOCK_RECORD
  5
45
330
1
100
AcDbSymbolTableRecord
100
AcDbBlockTableRecord
  2
_OPEN
340
0
102
{BLKREFS
331
1078
331
1079
331
390
331
391
331
3B9
331
3CD
331
3CF
331
3D0
331
3D1
331
3D3
331
3E1
331
3E2
331
3F6
331
402
331
42A
331
43E
331
452
331
49B
331
4B3
331
4C3
331
135D
331
135E
331
1365
331
1366
331
136E
331
136F
331
1377
331
1378
331
137F
331
1380
331
1388
331
1389
331
1391
331
1392
331
139A
331
139B
331
13A4
331
13A5
331
13AC
331
13AD
331
13B5
331
13B6
331
13BD
331
13BE
331
13C7
331
13C8
331
13CF
331
13D0
331
13D9
331
13DA
331
13E2
331
13E3
331
13EA
331
13EB
102
}
  0
BLOCK_RECORD
  5
EFB
330
1
100
AcDbSymbolTableRecord
100
AcDbBlockTableRecord
  2
*D9
340
0
  0
BLOCK_RECORD
  5
F08
330
1
100
AcDbSymbolTableRecord
100
AcDbBlockTableRecord
  2
*D10
340
0
  0
BLOCK_RECORD
  5
F14
330
1
100
AcDbSymbolTableRecord
100
AcDbBlockTableRecord
  2
*D11
340
0
  0
BLOCK_RECORD
  5
F2C
330
1
100
AcDbSymbolTableRecord
100
AcDbBlockTableRecord
  2
*D12
340
0
  0
BLOCK_RECORD
  5
F39
330
1
100
AcDbSymbolTableRecord
100
AcDbBlockTableRecord
  2
*D13
340
0
  0
BLOCK_RECORD
  5
F51
330
1
100
AcDbSymbolTableRecord
100
AcDbBlockTableRecord
  2
*D14
340
0
  0
BLOCK_RECORD
  5
F6A
330
1
100
AcDbSymbolTableRecord
100
AcDbBlockTableRecord
  2
*D15
340
0
  0
BLOCK_RECORD
  5
F77
330
1
100
AcDbSymbolTableRecord
100
AcDbBlockTableRecord
  2
*D16
340
0
  0
BLOCK_RECORD
  5
F8D
330
1
100
AcDbSymbolTableRecord
100
AcDbBlockTableRecord
  2
*D17
340
0
  0
BLOCK_RECORD
  5
F9B
330
1
100
AcDbSymbolTableRecord
100
AcDbBlockTableRecord
  2
*D18
340
0
  0
BLOCK_RECORD
  5
FED
330
1
100
AcDbSymbolTableRecord
100
AcDbBlockTableRecord
  2
*D19
340
0
  0
BLOCK_RECORD
  5
FFA
330
1
100
AcDbSymbolTableRecord
100
AcDbBlockTableRecord
  2
*D20
340
0
  0
BLOCK_RECORD
  5
100B
330
1
100
AcDbSymbolTableRecord
100
AcDbBlockTableRecord
  2
*D21
340
0
  0
BLOCK_RECORD
  5
1017
330
1
100
AcDbSymbolTableRecord
100
AcDbBlockTableRecord
  2
*D22
340
0
  0
BLOCK_RECORD
  5
102F
330
1
100
AcDbSymbolTableRecord
100
AcDbBlockTableRecord
  2
*D23
340
0
  0
BLOCK_RECORD
  5
103C
330
1
100
AcDbSymbolTableRecord
100
AcDbBlockTableRecord
  2
*D24
340
0
  0
BLOCK_RECORD
  5
1049
330
1
100
AcDbSymbolTableRecord
100
AcDbBlockTableRecord
  2
*D25
340
0
  0
BLOCK_RECORD
  5
105E
330
1
100
AcDbSymbolTableRecord
100
AcDbBlockTableRecord
  2
A$C5F2322C5
340
0
102
{BLKREFS
331
1063
102
}
  0
ENDTAB
  0
ENDSEC
  0
SECTION
  2
BLOCKS
  0
BLOCK
  5
19
330
18
100
AcDbEntity
  8
0
100
AcDbBlockBegin
  2
*MODEL_SPACE
 70
     0
 10
0.0
 20
0.0
 30
0.0
  3
*MODEL_SPACE
  1

  0
ENDBLK
  5
1A
330
18
100
AcDbEntity
  8
0
100
AcDbBlockEnd
  0
BLOCK
  5
16
330
15
100
AcDbEntity
 67
     1
  8
0
100
AcDbBlockBegin
  2
*PAPER_SPACE
 70
     0
 10
0.0
 20
0.0
 30
0.0
  3
*PAPER_SPACE
  1

  0
ENDBLK
  5
17
330
15
100
AcDbEntity
 67
     1
  8
0
100
AcDbBlockEnd
  0
BLOCK
  5
46
330
45
100
AcDbEntity
  8
0
100
AcDbBlockBegin
  2
_OPEN
 70
     0
 10
0.0
 20
0.0
 30
0.0
  3
_OPEN
  1

  0
LINE
  5
47
330
45
100
AcDbEntity
  8
0
  6
ByBlock
 62
     0
100
AcDbLine
 10
-1.0
 20
0.1666666666666666
 30
0.0
 11
0.0
 21
0.0
 31
0.0
  0
LINE
  5
48
330
45
100
AcDbEntity
  8
0
  6
ByBlock
 62
     0
100
AcDbLine
 10
0.0
 20
0.0
 30
0.0
 11
-1.0
 21
-0.1666666666666666
 31
0.0
  0
LINE
  5
49
330
45
100
AcDbEntity
  8
0
  6
ByBlock
 62
     0
100
AcDbLine
 10
0.0
 20
0.0
 30
0.0
 11
-1.0
 21
0.0
 31
0.0
  0
ENDBLK
  5
4A
330
45
100
AcDbEntity
  8
0
100
AcDbBlockEnd
  0
BLOCK
  5
EFC
330
EFB
100
AcDbEntity
  8
0
100
AcDbBlockBegin
  2
*D9
 70
     1
 10
0.0
 20
0.0
 30
0.0
  3
*D9
  1

  0
LINE
  5
1385
330
EFB
100
AcDbEntity
  8
寸法線
 62
     2
370
    -2
100
AcDbLine
 10
110.0885333341983
 20
131.9891050270576
 30
0.0
 11
110.0885333341983
 21
165.8034284073819
 31
0.0
  0
LINE
  5
1386
330
EFB
100
AcDbEntity
  8
寸法線
 62
     2
370
    -2
100
AcDbLine
 10
89.08853333419836
 20
150.453895674866
 30
0.0
 11
89.08853333419836
 21
165.8034284073819
 31
0.0
  0
LINE
  5
1387
330
EFB
100
AcDbEntity
  8
寸法線
 62
     2
370
    -2
100
AcDbLine
 10
107.5885333341983
 20
164.5534284073819
 30
0.0
 11
91.58853333419836
 21
164.5534284073819
 31
0.0
  0
INSERT
  5
1388
330
EFB
100
AcDbEntity
  8
寸法線
 62
     2
370
    -2
100
AcDbBlockReference
  2
_OPEN
 10
110.0885333341983
 20
164.5534284073819
 30
0.0
 41
2.5
 42
2.5
 43
2.5
  0
INSERT
  5
1389
330
EFB
100
AcDbEntity
  8
寸法線
 62
     2
370
    -2
100
AcDbBlockReference
  2
_OPEN
 10
89.08853333419836
 20
164.5534284073819
 30
0.0
 41
2.5
 42
2.5
 43
2.5
 50
180.0
  0
MTEXT
  5
138A
330
EFB
100
AcDbEntity
  8
寸法線
 62
     6
100
AcDbMText
 10
99.58853333419837
 20
166.4284284073819
 30
0.0
 40
2.5
 41
0.0
 71
     5
 72
     1
  1
\A1;21
  7
STYLE3
 73
     1
 44
1.0
  0
POINT
  5
138B
330
EFB
100
AcDbEntity
  8
DEFPOINTS
 62
     0
100
AcDbPoint
 10
110.0885333341983
 20
131.9891050270576
 30
0.0
  0
POINT
  5
138C
330
EFB
100
AcDbEntity
  8
DEFPOINTS
 62
     0
100
AcDbPoint
 10
89.08853333419836
 20
150.453895674866
 30
0.0
  0
POINT
  5
138D
330
EFB
100
AcDbEntity
  8
DEFPOINTS
 62
     0
100
AcDbPoint
 10
89.08853333419836
 20
164.5534284073819
 30
0.0
  0
ENDBLK
  5
F06
330
EFB
100
AcDbEntity
  8
0
100
AcDbBlockEnd
  0
BLOCK
  5
F09
330
F08
100
AcDbEntity
  8
0
100
AcDbBlockBegin
  2
*D10
 70
     1
 10
0.0
 20
0.0
 30
0.0
  3
*D10
  1

  0
LINE
  5
137D
330
F08
100
AcDbEntity
  8
寸法線
 62
     2
370
    -2
100
AcDbLine
 10
77.08853333419836
 20
132.9891050270584
 30
0.0
 11
77.08853333419836
 21
165.8034284073819
 31
0.0
  0
LINE
  5
137E
330
F08
100
AcDbEntity
  8
寸法線
 62
     2
370
    -2
100
AcDbLine
 10
86.58853333419836
 20
164.5534284073819
 30
0.0
 11
79.58853333419836
 21
164.5534284073819
 31
0.0
  0
INSERT
  5
137F
330
F08
100
AcDbEntity
  8
寸法線
 62
     2
370
    -2
100
AcDbBlockReference
  2
_OPEN
 10
89.08853333419836
 20
164.5534284073819
 30
0.0
 41
2.5
 42
2.5
 43
2.5
  0
INSERT
  5
1380
330
F08
100
AcDbEntity
  8
寸法線
 62
     2
370
    -2
100
AcDbBlockReference
  2
_OPEN
 10
77.08853333419836
 20
164.5534284073819
 30
0.0
 41
2.5
 42
2.5
 43
2.5
 50
180.0
  0
MTEXT
  5
1381
330
F08
100
AcDbEntity
  8
寸法線
 62
     6
100
AcDbMText
 10
83.08853333419836
 20
166.4284284073819
 30
0.0
 40
2.5
 41
0.0
 71
     5
 72
     1
  1
\A1;12
  7
STYLE3
 73
     1
 44
1.0
  0
POINT
  5
1382
330
F08
100
AcDbEntity
  8
DEFPOINTS
 62
     0
100
AcDbPoint
 10
89.08853333419836
 20
150.453895674866
 30
0.0
  0
POINT
  5
1383
330
F08
100
AcDbEntity
  8
DEFPOINTS
 62
     0
100
AcDbPoint
 10
77.08853333419836
 20
132.9891050270584
 30
0.0
  0
POINT
  5
1384
330
F08
100
AcDbEntity
  8
DEFPOINTS
 62
     0
100
AcDbPoint
 10
77.08853333419836
 20
164.5534284073819
 30
0.0
  0
ENDBLK
  5
F12
330
F08
100
AcDbEntity
  8
0
100
AcDbBlockEnd
  0
BLOCK
  5
12CB
330
F14
100
AcDbEntity
  8
0
100
AcDbBlockBegin
  2
*D11
 70
     1
 10
0.0
 20
0.0
 30
0.0
  3
*D11
  1

  0
LINE
  5
1374
330
F14
100
AcDbEntity
  8
寸法線
 62
     2
370
    -2
100
AcDbLine
 10
125.0885333341983
 20
120.9891050270584
 30
0.0
 11
125.0885333341983
 21
172.7910866399573
 31
0.0
  0
LINE
  5
1375
330
F14
100
AcDbEntity
  8
寸法線
 62
     2
370
    -2
100
AcDbLine
 10
77.08853333419836
 20
165.8034284073819
 30
0.0
 11
77.08853333419836
 21
172.7910866399573
 31
0.0
  0
LINE
  5
1376
330
F14
100
AcDbEntity
  8
寸法線
 62
     2
370
    -2
100
AcDbLine
 10
122.5885333341983
 20
171.5410866399573
 30
0.0
 11
79.58853333419836
 21
171.5410866399573
 31
0.0
  0
INSERT
  5
1377
330
F14
100
AcDbEntity
  8
寸法線
 62
     2
370
    -2
100
AcDbBlockReference
  2
_OPEN
 10
125.0885333341983
 20
171.5410866399573
 30
0.0
 41
2.5
 42
2.5
 43
2.5
  0
INSERT
  5
1378
330
F14
100
AcDbEntity
  8
寸法線
 62
     2
370
    -2
100
AcDbBlockReference
  2
_OPEN
 10
77.08853333419836
 20
171.5410866399573
 30
0.0
 41
2.5
 42
2.5
 43
2.5
 50
180.0
  0
MTEXT
  5
1379
330
F14
100
AcDbEntity
  8
寸法線
 62
     6
100
AcDbMText
 10
101.0885333341983
 20
173.4160866399574
 30
0.0
 40
2.5
 41
0.0
 71
     5
 72
     1
  1
\A1;MAX48
  7
STYLE3
 73
     1
 44
1.0
  0
POINT
  5
137A
330
F14
100
AcDbEntity
  8
DEFPOINTS
 62
     0
100
AcDbPoint
 10
125.0885333341983
 20
120.9891050270584
 30
0.0
  0
POINT
  5
137B
330
F14
100
AcDbEntity
  8
DEFPOINTS
 62
     0
100
AcDbPoint
 10
77.08853333419836
 20
165.8034284073819
 30
0.0
  0
POINT
  5
137C
330
F14
100
AcDbEntity
  8
DEFPOINTS
 62
     0
100
AcDbPoint
 10
77.08853333419836
 20
171.5410866399573
 30
0.0
  0
ENDBLK
  5
12D5
330
F14
100
AcDbEntity
  8
0
100
AcDbBlockEnd
  0
BLOCK
  5
F2D
330
F2C
100
AcDbEntity
  8
0
100
AcDbBlockBegin
  2
*D12
 70
     1
 10
0.0
 20
0.0
 30
0.0
  3
*D12
  1

  0
LINE
  5
136B
330
F2C
100
AcDbEntity
  8
寸法線
 62
     2
370
    -2
100
AcDbLine
 10
191.2838142675822
 20
131.9891050270585
 30
0.0
 11
191.2838142675822
 21
166.2126977354228
 31
0.0
  0
LINE
  5
136C
330
F2C
100
AcDbEntity
  8
寸法線
 62
     2
370
    -2
100
AcDbLine
 10
163.2838142675822
 20
131.9891050270584
 30
0.0
 11
163.2838142675822
 21
166.2126977354228
 31
0.0
  0
LINE
  5
136D
330
F2C
100
AcDbEntity
  8
寸法線
 62
     2
370
    -2
100
AcDbLine
 10
188.7838142675822
 20
164.9626977354228
 30
0.0
 11
165.7838142675822
 21
164.9626977354228
 31
0.0
  0
INSERT
  5
136E
330
F2C
100
AcDbEntity
  8
寸法線
 62
     2
370
    -2
100
AcDbBlockReference
  2
_OPEN
 10
191.2838142675822
 20
164.9626977354228
 30
0.0
 41
2.5
 42
2.5
 43
2.5
  0
INSERT
  5
136F
330
F2C
100
AcDbEntity
  8
寸法線
 62
     2
370
    -2
100
AcDbBlockReference
  2
_OPEN
 10
163.2838142675822
 20
164.9626977354228
 30
0.0
 41
2.5
 42
2.5
 43
2.5
 50
180.0
  0
MTEXT
  5
1370
330
F2C
100
AcDbEntity
  8
寸法線
 62
     6
100
AcDbMText
 10
177.2838142675822
 20
166.8376977354228
 30
0.0
 40
2.5
 41
0.0
 71
     5
 72
     1
  1
\A1;28
  7
STYLE3
 73
     1
 44
1.0
  0
POINT
  5
1371
330
F2C
100
AcDbEntity
  8
DEFPOINTS
 62
     0
100
AcDbPoint
 10
191.2838142675822
 20
131.9891050270585
 30
0.0
  0
POINT
  5
1372
330
F2C
100
AcDbEntity
  8
DEFPOINTS
 62
     0
100
AcDbPoint
 10
163.2838142675822
 20
131.9891050270584
 30
0.0
  0
POINT
  5
1373
330
F2C
100
AcDbEntity
  8
DEFPOINTS
 62
     0
100
AcDbPoint
 10
163.2838142675822
 20
164.9626977354228
 30
0.0
  0
ENDBLK
  5
F37
330
F2C
100
AcDbEntity
  8
0
100
AcDbBlockEnd
  0
BLOCK
  5
F46
330
F39
100
AcDbEntity
  8
0
100
AcDbBlockBegin
  2
*D13
 70
     1
 10
0.0
 20
0.0
 30
0.0
  3
*D13
  1

  0
LINE
  5
13DF
330
F39
100
AcDbEntity
  8
寸法線
 62
     2
370
    -2
100
AcDbLine
 10
84.08853333419836
 20
82.98910502705842
 30
0.0
 11
84.08853333419836
 21
74.1907155053795
 31
0.0
  0
LINE
  5
13E0
330
F39
100
AcDbEntity
  8
寸法線
 62
     2
370
    -2
100
AcDbLine
 10
94.08853333419836
 20
82.98910502705842
 30
0.0
 11
94.08853333419836
 21
74.1907155053795
 31
0.0
  0
LINE
  5
13E1
330
F39
100
AcDbEntity
  8
寸法線
 62
     2
370
    -2
100
AcDbLine
 10
86.58853333419836
 20
75.4407155053795
 30
0.0
 11
91.58853333419836
 21
75.4407155053795
 31
0.0
  0
INSERT
  5
13E2
330
F39
100
AcDbEntity
  8
寸法線
 62
     2
370
    -2
100
AcDbBlockReference
  2
_OPEN
 10
84.08853333419836
 20
75.4407155053795
 30
0.0
 41
2.5
 42
2.5
 43
2.5
 50
180.0
  0
INSERT
  5
13E3
330
F39
100
AcDbEntity
  8
寸法線
 62
     2
370
    -2
100
AcDbBlockReference
  2
_OPEN
 10
94.08853333419836
 20
75.4407155053795
 30
0.0
 41
2.5
 42
2.5
 43
2.5
  0
MTEXT
  5
13E4
330
F39
100
AcDbEntity
  8
寸法線
 62
     6
100
AcDbMText
 10
89.08853333419836
 20
77.3157155053795
 30
0.0
 40
2.5
 41
0.0
 71
     5
 72
     1
  1
\A1;φ10
  7
STYLE3
 73
     1
 44
1.0
  0
POINT
  5
13E5
330
F39
100
AcDbEntity
  8
DEFPOINTS
 62
     0
100
AcDbPoint
 10
84.08853333419836
 20
82.98910502705842
 30
0.0
  0
POINT
  5
13E6
330
F39
100
AcDbEntity
  8
DEFPOINTS
 62
     0
100
AcDbPoint
 10
94.08853333419836
 20
82.98910502705842
 30
0.0
  0
POINT
  5
13E7
330
F39
100
AcDbEntity
  8
DEFPOINTS
 62
     0
100
AcDbPoint
 10
94.08853333419836
 20
75.4407155053795
 30
0.0
  0
ENDBLK
  5
F50
330
F39
100
AcDbEntity
  8
0
100
AcDbBlockEnd
  0
BLOCK
  5
F5E
330
F51
100
AcDbEntity
  8
0
100
AcDbBlockBegin
  2
*D14
 70
     1
 10
0.0
 20
0.0
 30
0.0
  3
*D14
  1

  0
LINE
  5
13D5
330
F51
100
AcDbEntity
  8
寸法線
 62
     2
370
    -2
100
AcDbLine
 10
85.08853333419835
 20
64.12574129935092
 30
0.0
 11
85.08853333419835
 21
62.61260268873383
 31
0.0
  0
LINE
  5
13D6
330
F51
100
AcDbEntity
  8
寸法線
 62
     2
370
    -2
100
AcDbLine
 10
93.08853333419836
 20
63.33632453753342
 30
0.0
 11
93.08853333419836
 21
65.11260268873383
 31
0.0
  0
LINE
  5
13D7
330
F51
100
AcDbEntity
  8
寸法線
 62
     2
370
    -2
100
AcDbLine
 10
87.58853333419835
 20
63.86260268873383
 30
0.0
 11
90.58853333419836
 21
63.86260268873383
 31
0.0
  0
LINE
  5
13D8
330
F51
100
AcDbEntity
  8
寸法線
 62
     2
370
    -2
100
AcDbLine
 10
93.08853333419836
 20
63.86260268873383
 30
0.0
 11
104.9337714294364
 21
63.86260268873383
 31
0.0
  0
INSERT
  5
13D9
330
F51
100
AcDbEntity
  8
寸法線
 62
     2
370
    -2
100
AcDbBlockReference
  2
_OPEN
 10
85.08853333419835
 20
63.86260268873383
 30
0.0
 41
2.5
 42
2.5
 43
2.5
 50
180.0
  0
INSERT
  5
13DA
330
F51
100
AcDbEntity
  8
寸法線
 62
     2
370
    -2
100
AcDbBlockReference
  2
_OPEN
 10
93.08853333419836
 20
63.86260268873383
 30
0.0
 41
2.5
 42
2.5
 43
2.5
  0
MTEXT
  5
13DB
330
F51
100
AcDbEntity
  8
寸法線
 62
     6
100
AcDbMText
 10
100.2611523818174
 20
65.73760268873383
 30
0.0
 40
2.5
 41
0.0
 71
     5
 72
     1
  1
\A1;φ8.0
  7
STYLE3
 73
     1
 44
1.0
  0
POINT
  5
13DC
330
F51
100
AcDbEntity
  8
DEFPOINTS
 62
     0
100
AcDbPoint
 10
85.08853333419835
 20
64.12574129935092
 30
0.0
  0
POINT
  5
13DD
330
F51
100
AcDbEntity
  8
DEFPOINTS
 62
     0
100
AcDbPoint
 10
93.08853333419836
 20
63.33632453753342
 30
0.0
  0
POINT
  5
13DE
330
F51
100
AcDbEntity
  8
DEFPOINTS
 62
     0
100
AcDbPoint
 10
93.08853333419836
 20
63.86260268873383
 30
0.0
  0
ENDBLK
  5
F69
330
F51
100
AcDbEntity
  8
0
100
AcDbBlockEnd
  0
BLOCK
  5
FBD
330
F6A
100
AcDbEntity
  8
0
100
AcDbBlockBegin
  2
*D15
 70
     1
 10
0.0
 20
0.0
 30
0.0
  3
*D15
  1

  0
LINE
  5
13B2
330
F6A
100
AcDbEntity
  8
寸法線
 62
     2
370
    -2
100
AcDbLine
 10
89.08853333419836
 20
25.98910502705844
 30
0.0
 11
70.12053933673574
 21
25.98910502705845
 31
0.0
  0
LINE
  5
13B3
330
F6A
100
AcDbEntity
  8
寸法線
 62
     2
370
    -2
100
AcDbLine
 10
86.88853333419832
 20
34.98910502705843
 30
0.0
 11
70.12053933673576
 21
34.98910502705844
 31
0.0
  0
LINE
  5
13B4
330
F6A
100
AcDbEntity
  8
寸法線
 62
     2
370
    -2
100
AcDbLine
 10
71.37053933673574
 20
28.48910502705845
 30
0.0
 11
71.37053933673576
 21
32.48910502705844
 31
0.0
  0
INSERT
  5
13B5
330
F6A
100
AcDbEntity
  8
寸法線
 62
     2
370
    -2
100
AcDbBlockReference
  2
_OPEN
 10
71.37053933673574
 20
25.98910502705845
 30
0.0
 41
2.5
 42
2.5
 43
2.5
 50
270.0
  0
INSERT
  5
13B6
330
F6A
100
AcDbEntity
  8
寸法線
 62
     2
370
    -2
100
AcDbBlockReference
  2
_OPEN
 10
71.37053933673576
 20
34.98910502705844
 30
0.0
 41
2.5
 42
2.5
 43
2.5
 50
90.0
  0
MTEXT
  5
13B7
330
F6A
100
AcDbEntity
  8
寸法線
 62
     6
100
AcDbMText
 10
69.49553933673574
 20
30.48910502705845
 30
0.0
 40
2.5
 41
0.0
 71
     5
 72
     1
  1
\A1;9
  7
STYLE3
 11
0.0000000000000001
 21
1.0
 31
0.0
 73
     1
 44
1.0
  0
POINT
  5
13B8
330
F6A
100
AcDbEntity
  8
DEFPOINTS
 62
     0
100
AcDbPoint
 10
89.08853333419836
 20
25.98910502705844
 30
0.0
  0
POINT
  5
13B9
330
F6A
100
AcDbEntity
  8
DEFPOINTS
 62
     0
100
AcDbPoint
 10
86.88853333419832
 20
34.98910502705843
 30
0.0
  0
POINT
  5
13BA
330
F6A
100
AcDbEntity
  8
DEFPOINTS
 62
     0
100
AcDbPoint
 10
71.37053933673576
 20
34.98910502705844
 30
0.0
  0
ENDBLK
  5
FC7
330
F6A
100
AcDbEntity
  8
0
100
AcDbBlockEnd
  0
BLOCK
  5
FB3
330
F77
100
AcDbEntity
  8
0
100
AcDbBlockBegin
  2
*D16
 70
     1
 10
0.0
 20
0.0
 30
0.0
  3
*D16
  1

  0
LINE
  5
13AA
330
F77
100
AcDbEntity
  8
寸法線
 62
     2
370
    -2
100
AcDbLine
 10
86.03853333419834
 20
45.98910502705841
 30
0.0
 11
70.12053933673576
 21
45.98910502705842
 31
0.0
  0
LINE
  5
13AB
330
F77
100
AcDbEntity
  8
寸法線
 62
     2
370
    -2
100
AcDbLine
 10
71.37053933673576
 20
37.48910502705844
 30
0.0
 11
71.37053933673576
 21
43.48910502705842
 31
0.0
  0
INSERT
  5
13AC
330
F77
100
AcDbEntity
  8
寸法線
 62
     2
370
    -2
100
AcDbBlockReference
  2
_OPEN
 10
71.37053933673576
 20
34.98910502705844
 30
0.0
 41
2.5
 42
2.5
 43
2.5
 50
270.0
  0
INSERT
  5
13AD
330
F77
100
AcDbEntity
  8
寸法線
 62
     2
370
    -2
100
AcDbBlockReference
  2
_OPEN
 10
71.37053933673576
 20
45.98910502705842
 30
0.0
 41
2.5
 42
2.5
 43
2.5
 50
90.0
  0
MTEXT
  5
13AE
330
F77
100
AcDbEntity
  8
寸法線
 62
     6
100
AcDbMText
 10
69.49553933673574
 20
40.48910502705843
 30
0.0
 40
2.5
 41
0.0
 71
     5
 72
     1
  1
\A1;11
  7
STYLE3
 11
0.0000000000000001
 21
1.0
 31
0.0
 73
     1
 44
1.0
  0
POINT
  5
13AF
330
F77
100
AcDbEntity
  8
DEFPOINTS
 62
     0
100
AcDbPoint
 10
86.88853333419832
 20
34.98910502705843
 30
0.0
  0
POINT
  5
13B0
330
F77
100
AcDbEntity
  8
DEFPOINTS
 62
     0
100
AcDbPoint
 10
86.03853333419834
 20
45.98910502705841
 30
0.0
  0
POINT
  5
13B1
330
F77
100
AcDbEntity
  8
DEFPOINTS
 62
     0
100
AcDbPoint
 10
71.37053933673576
 20
45.98910502705842
 30
0.0
  0
ENDBLK
  5
FBC
330
F77
100
AcDbEntity
  8
0
100
AcDbBlockEnd
  0
BLOCK
  5
FA7
330
F8D
100
AcDbEntity
  8
0
100
AcDbBlockBegin
  2
*D17
 70
     1
 10
0.0
 20
0.0
 30
0.0
  3
*D17
  1

  0
LINE
  5
13A0
330
F8D
100
AcDbEntity
  8
寸法線
 62
     2
370
    -2
100
AcDbLine
 10
85.08853333419835
 20
50.98910502705845
 30
0.0
 11
70.12053933673576
 21
50.98910502705845
 31
0.0
  0
LINE
  5
13A1
330
F8D
100
AcDbEntity
  8
寸法線
 62
     2
370
    -2
100
AcDbLine
 10
71.37053933673576
 20
43.48910502705842
 30
0.0
 11
71.37053933673576
 21
40.98910502705842
 31
0.0
  0
LINE
  5
13A2
330
F8D
100
AcDbEntity
  8
寸法線
 62
     2
370
    -2
100
AcDbLine
 10
71.37053933673576
 20
53.48910502705845
 30
0.0
 11
71.37053933673576
 21
55.98910502705845
 31
0.0
  0
LINE
  5
13A3
330
F8D
100
AcDbEntity
  8
寸法線
 62
     2
370
    -2
100
AcDbLine
 10
71.37053933673576
 20
45.98910502705842
 30
0.0
 11
71.37053933673576
 21
50.98910502705845
 31
0.0
  0
INSERT
  5
13A4
330
F8D
100
AcDbEntity
  8
寸法線
 62
     2
370
    -2
100
AcDbBlockReference
  2
_OPEN
 10
71.37053933673576
 20
45.98910502705842
 30
0.0
 41
2.5
 42
2.5
 43
2.5
 50
90.0
  0
INSERT
  5
13A5
330
F8D
100
AcDbEntity
  8
寸法線
 62
     2
370
    -2
100
AcDbBlockReference
  2
_OPEN
 10
71.37053933673576
 20
50.98910502705845
 30
0.0
 41
2.5
 42
2.5
 43
2.5
 50
270.0
  0
MTEXT
  5
13A6
330
F8D
100
AcDbEntity
  8
寸法線
 62
     6
100
AcDbMText
 10
69.49553933673574
 20
48.48910502705845
 30
0.0
 40
2.5
 41
0.0
 71
     5
 72
     1
  1
\A1;5
  7
STYLE3
 11
0.0000000000000001
 21
1.0
 31
0.0
 73
     1
 44
1.0
  0
POINT
  5
13A7
330
F8D
100
AcDbEntity
  8
DEFPOINTS
 62
     0
100
AcDbPoint
 10
86.03853333419834
 20
45.98910502705841
 30
0.0
  0
POINT
  5
13A8
330
F8D
100
AcDbEntity
  8
DEFPOINTS
 62
     0
100
AcDbPoint
 10
85.08853333419835
 20
50.98910502705845
 30
0.0
  0
POINT
  5
13A9
330
F8D
100
AcDbEntity
  8
DEFPOINTS
 62
     0
100
AcDbPoint
 10
71.37053933673576
 20
50.98910502705845
 30
0.0
  0
ENDBLK
  5
FB2
330
F8D
100
AcDbEntity
  8
0
100
AcDbBlockEnd
  0
BLOCK
  5
FC8
330
F9B
100
AcDbEntity
  8
0
100
AcDbBlockBegin
  2
*D18
 70
     1
 10
0.0
 20
0.0
 30
0.0
  3
*D18
  1

  0
LINE
  5
13CD
330
F9B
100
AcDbEntity
  8
寸法線
 62
     2
370
    -2
100
AcDbLine
 10
84.08853333419836
 20
82.98910502705842
 30
0.0
 11
70.12053933673576
 21
82.98910502705842
 31
0.0
  0
LINE
  5
13CE
330
F9B
100
AcDbEntity
  8
寸法線
 62
     2
370
    -2
100
AcDbLine
 10
71.37053933673576
 20
53.48910502705845
 30
0.0
 11
71.37053933673576
 21
80.48910502705842
 31
0.0
  0
INSERT
  5
13CF
330
F9B
100
AcDbEntity
  8
寸法線
 62
     2
370
    -2
100
AcDbBlockReference
  2
_OPEN
 10
71.37053933673576
 20
50.98910502705845
 30
0.0
 41
2.5
 42
2.5
 43
2.5
 50
270.0
  0
INSERT
  5
13D0
330
F9B
100
AcDbEntity
  8
寸法線
 62
     2
370
    -2
100
AcDbBlockReference
  2
_OPEN
 10
71.37053933673576
 20
82.98910502705842
 30
0.0
 41
2.5
 42
2.5
 43
2.5
 50
90.0
  0
MTEXT
  5
13D1
330
F9B
100
AcDbEntity
  8
寸法線
 62
     6
100
AcDbMText
 10
69.49553933673574
 20
66.98910502705844
 30
0.0
 40
2.5
 41
0.0
 71
     5
 72
     1
  1
\A1;32
  7
STYLE3
 11
0.0000000000000001
 21
1.0
 31
0.0
 73
     1
 44
1.0
  0
POINT
  5
13D2
330
F9B
100
AcDbEntity
  8
DEFPOINTS
 62
     0
100
AcDbPoint
 10
85.08853333419835
 20
50.98910502705845
 30
0.0
  0
POINT
  5
13D3
330
F9B
100
AcDbEntity
  8
DEFPOINTS
 62
     0
100
AcDbPoint
 10
84.08853333419836
 20
82.98910502705842
 30
0.0
  0
POINT
  5
13D4
330
F9B
100
AcDbEntity
  8
DEFPOINTS
 62
     0
100
AcDbPoint
 10
71.37053933673576
 20
82.98910502705842
 30
0.0
  0
ENDBLK
  5
FD1
330
F9B
100
AcDbEntity
  8
0
100
AcDbBlockEnd
  0
BLOCK
  5
12AA
330
FED
100
AcDbEntity
  8
0
100
AcDbBlockBegin
  2
*D19
 70
     1
 10
0.0
 20
0.0
 30
0.0
  3
*D19
  1

  0
LINE
  5
1397
330
FED
100
AcDbEntity
  8
寸法線
 62
     2
370
    -2
100
AcDbLine
 10
70.12053933673576
 20
25.98910502705844
 30
0.0
 11
62.43835729080955
 21
25.98910502705844
 31
0.0
  0
LINE
  5
1398
330
FED
100
AcDbEntity
  8
寸法線
 62
     2
370
    -2
100
AcDbLine
 10
70.12053933673576
 20
82.98910502705842
 30
0.0
 11
62.43835729080956
 21
82.98910502705842
 31
0.0
  0
LINE
  5
1399
330
FED
100
AcDbEntity
  8
寸法線
 62
     2
370
    -2
100
AcDbLine
 10
63.68835729080955
 20
28.48910502705844
 30
0.0
 11
63.68835729080956
 21
80.48910502705842
 31
0.0
  0
INSERT
  5
139A
330
FED
100
AcDbEntity
  8
寸法線
 62
     2
370
    -2
100
AcDbBlockReference
  2
_OPEN
 10
63.68835729080955
 20
25.98910502705844
 30
0.0
 41
2.5
 42
2.5
 43
2.5
 50
270.0
  0
INSERT
  5
139B
330
FED
100
AcDbEntity
  8
寸法線
 62
     2
370
    -2
100
AcDbBlockReference
  2
_OPEN
 10
63.68835729080956
 20
82.98910502705842
 30
0.0
 41
2.5
 42
2.5
 43
2.5
 50
90.0
  0
MTEXT
  5
139C
330
FED
100
AcDbEntity
  8
寸法線
 62
     6
100
AcDbMText
 10
61.81335729080954
 20
54.48910502705843
 30
0.0
 40
2.5
 41
0.0
 71
     5
 72
     1
  1
\A1;57
  7
STYLE3
 11
0.0000000000000001
 21
1.0
 31
0.0
 73
     1
 44
1.0
  0
POINT
  5
139D
330
FED
100
AcDbEntity
  8
DEFPOINTS
 62
     0
100
AcDbPoint
 10
70.12053933673576
 20
25.98910502705844
 30
0.0
  0
POINT
  5
139E
330
FED
100
AcDbEntity
  8
DEFPOINTS
 62
     0
100
AcDbPoint
 10
70.12053933673576
 20
82.98910502705842
 30
0.0
  0
POINT
  5
139F
330
FED
100
AcDbEntity
  8
DEFPOINTS
 62
     0
100
AcDbPoint
 10
63.68835729080956
 20
82.98910502705842
 30
0.0
  0
ENDBLK
  5
12B4
330
FED
100
AcDbEntity
  8
0
100
AcDbBlockEnd
  0
BLOCK
  5
12BF
330
FFA
100
AcDbEntity
  8
0
100
AcDbBlockBegin
  2
*D20
 70
     1
 10
0.0
 20
0.0
 30
0.0
  3
*D20
  1

  0
LINE
  5
13C3
330
FFA
100
AcDbEntity
  8
寸法線
 62
     2
370
    -2
100
AcDbLine
 10
77.08853333419835
 20
85.98910502705845
 30
0.0
 11
62.43835729080956
 21
85.98910502705845
 31
0.0
  0
LINE
  5
13C4
330
FFA
100
AcDbEntity
  8
寸法線
 62
     2
370
    -2
100
AcDbLine
 10
63.68835729080956
 20
80.48910502705842
 30
0.0
 11
63.68835729080956
 21
77.98910502705841
 31
0.0
  0
LINE
  5
13C5
330
FFA
100
AcDbEntity
  8
寸法線
 62
     2
370
    -2
100
AcDbLine
 10
63.68835729080956
 20
88.48910502705845
 30
0.0
 11
63.68835729080956
 21
90.98910502705845
 31
0.0
  0
LINE
  5
13C6
330
FFA
100
AcDbEntity
  8
寸法線
 62
     2
370
    -2
100
AcDbLine
 10
63.68835729080956
 20
82.98910502705842
 30
0.0
 11
63.68835729080956
 21
85.98910502705845
 31
0.0
  0
INSERT
  5
13C7
330
FFA
100
AcDbEntity
  8
寸法線
 62
     2
370
    -2
100
AcDbBlockReference
  2
_OPEN
 10
63.68835729080956
 20
82.98910502705842
 30
0.0
 41
2.5
 42
2.5
 43
2.5
 50
90.0
  0
INSERT
  5
13C8
330
FFA
100
AcDbEntity
  8
寸法線
 62
     2
370
    -2
100
AcDbBlockReference
  2
_OPEN
 10
63.68835729080956
 20
85.98910502705845
 30
0.0
 41
2.5
 42
2.5
 43
2.5
 50
270.0
  0
MTEXT
  5
13C9
330
FFA
100
AcDbEntity
  8
寸法線
 62
     6
100
AcDbMText
 10
61.81335729080955
 20
84.48910502705844
 30
0.0
 40
2.5
 41
0.0
 71
     5
 72
     1
  1
\A1;3
  7
STYLE3
 11
0.0000000000000001
 21
1.0
 31
0.0
 73
     1
 44
1.0
  0
POINT
  5
13CA
330
FFA
100
AcDbEntity
  8
DEFPOINTS
 62
     0
100
AcDbPoint
 10
70.12053933673576
 20
82.98910502705842
 30
0.0
  0
POINT
  5
13CB
330
FFA
100
AcDbEntity
  8
DEFPOINTS
 62
     0
100
AcDbPoint
 10
77.08853333419835
 20
85.98910502705845
 30
0.0
  0
POINT
  5
13CC
330
FFA
100
AcDbEntity
  8
DEFPOINTS
 62
     0
100
AcDbPoint
 10
63.68835729080956
 20
85.98910502705845
 30
0.0
  0
ENDBLK
  5
12CA
330
FFA
100
AcDbEntity
  8
0
100
AcDbBlockEnd
  0
BLOCK
  5
12B5
330
100B
100
AcDbEntity
  8
0
100
AcDbBlockBegin
  2
*D21
 70
     1
 10
0.0
 20
0.0
 30
0.0
  3
*D21
  1

  0
LINE
  5
13BB
330
100B
100
AcDbEntity
  8
寸法線
 62
     2
370
    -2
100
AcDbLine
 10
77.08853333419836
 20
132.9891050270584
 30
0.0
 11
62.43835729080956
 21
132.9891050270585
 31
0.0
  0
LINE
  5
13BC
330
100B
100
AcDbEntity
  8
寸法線
 62
     2
370
    -2
100
AcDbLine
 10
63.68835729080956
 20
88.48910502705845
 30
0.0
 11
63.68835729080956
 21
130.4891050270585
 31
0.0
  0
INSERT
  5
13BD
330
100B
100
AcDbEntity
  8
寸法線
 62
     2
370
    -2
100
AcDbBlockReference
  2
_OPEN
 10
63.68835729080956
 20
85.98910502705845
 30
0.0
 41
2.5
 42
2.5
 43
2.5
 50
270.0
  0
INSERT
  5
13BE
330
100B
100
AcDbEntity
  8
寸法線
 62
     2
370
    -2
100
AcDbBlockReference
  2
_OPEN
 10
63.68835729080956
 20
132.9891050270585
 30
0.0
 41
2.5
 42
2.5
 43
2.5
 50
90.0
  0
MTEXT
  5
13BF
330
100B
100
AcDbEntity
  8
寸法線
 62
     6
100
AcDbMText
 10
61.81335729080954
 20
109.4891050270584
 30
0.0
 40
2.5
 41
0.0
 71
     5
 72
     1
  1
\A1;47
  7
STYLE3
 11
0.0000000000000001
 21
1.0
 31
0.0
 73
     1
 44
1.0
  0
POINT
  5
13C0
330
100B
100
AcDbEntity
  8
DEFPOINTS
 62
     0
100
AcDbPoint
 10
77.08853333419835
 20
85.98910502705845
 30
0.0
  0
POINT
  5
13C1
330
100B
100
AcDbEntity
  8
DEFPOINTS
 62
     0
100
AcDbPoint
 10
77.08853333419836
 20
132.9891050270584
 30
0.0
  0
POINT
  5
13C2
330
100B
100
AcDbEntity
  8
DEFPOINTS
 62
     0
100
AcDbPoint
 10
63.68835729080956
 20
132.9891050270585
 30
0.0
  0
ENDBLK
  5
12BE
330
100B
100
AcDbEntity
  8
0
100
AcDbBlockEnd
  0
BLOCK
  5
12A0
330
1017
100
AcDbEntity
  8
0
100
AcDbBlockBegin
  2
*D22
 70
     1
 10
0.0
 20
0.0
 30
0.0
  3
*D22
  1

  0
LINE
  5
1363
330
1017
100
AcDbEntity
  8
寸法線
 62
     2
370
    -2
100
AcDbLine
 10
81.58853333419836
 20
144.4891050270584
 30
0.0
 11
62.43835729080956
 21
144.4891050270584
 31
0.0
  0
LINE
  5
1364
330
1017
100
AcDbEntity
  8
寸法線
 62
     2
370
    -2
100
AcDbLine
 10
63.68835729080956
 20
135.4891050270585
 30
0.0
 11
63.68835729080956
 21
141.9891050270584
 31
0.0
  0
INSERT
  5
1365
330
1017
100
AcDbEntity
  8
寸法線
 62
     2
370
    -2
100
AcDbBlockReference
  2
_OPEN
 10
63.68835729080956
 20
132.9891050270585
 30
0.0
 41
2.5
 42
2.5
 43
2.5
 50
270.0
  0
INSERT
  5
1366
330
1017
100
AcDbEntity
  8
寸法線
 62
     2
370
    -2
100
AcDbBlockReference
  2
_OPEN
 10
63.68835729080956
 20
144.4891050270584
 30
0.0
 41
2.5
 42
2.5
 43
2.5
 50
90.0
  0
MTEXT
  5
1367
330
1017
100
AcDbEntity
  8
寸法線
 62
     6
100
AcDbMText
 10
61.81335729080953
 20
138.7391050270584
 30
0.0
 40
2.5
 41
0.0
 71
     5
 72
     1
  1
\A1;11.5
  7
STYLE3
 11
0.0000000000000001
 21
1.0
 31
0.0
 73
     1
 44
1.0
  0
POINT
  5
1368
330
1017
100
AcDbEntity
  8
DEFPOINTS
 62
     0
100
AcDbPoint
 10
77.08853333419836
 20
132.9891050270584
 30
0.0
  0
POINT
  5
1369
330
1017
100
AcDbEntity
  8
DEFPOINTS
 62
     0
100
AcDbPoint
 10
81.58853333419836
 20
144.4891050270584
 30
0.0
  0
POINT
  5
136A
330
1017
100
AcDbEntity
  8
DEFPOINTS
 62
     0
100
AcDbPoint
 10
63.68835729080956
 20
144.4891050270584
 30
0.0
  0
ENDBLK
  5
12A9
330
1017
100
AcDbEntity
  8
0
100
AcDbBlockEnd
  0
BLOCK
  5
1295
330
102F
100
AcDbEntity
  8
0
100
AcDbBlockBegin
  2
*D23
 70
     1
 10
0.0
 20
0.0
 30
0.0
  3
*D23
  1

  0
LINE
  5
135A
330
102F
100
AcDbEntity
  8
寸法線
 62
     2
370
    -2
100
AcDbLine
 10
62.43835729080956
 20
144.4891050270584
 30
0.0
 11
56.07911657672585
 21
144.4891050270584
 31
0.0
  0
LINE
  5
135B
330
102F
100
AcDbEntity
  8
寸法線
 62
     2
370
    -2
100
AcDbLine
 10
62.43835729080956
 20
25.98910502705844
 30
0.0
 11
56.07911657672582
 21
25.98910502705844
 31
0.0
  0
LINE
  5
135C
330
102F
100
AcDbEntity
  8
寸法線
 62
     2
370
    -2
100
AcDbLine
 10
57.32911657672584
 20
141.9891050270583
 30
0.0
 11
57.32911657672582
 21
28.48910502705844
 31
0.0
  0
INSERT
  5
135D
330
102F
100
AcDbEntity
  8
寸法線
 62
     2
370
    -2
100
AcDbBlockReference
  2
_OPEN
 10
57.32911657672585
 20
144.4891050270584
 30
0.0
 41
2.5
 42
2.5
 43
2.5
 50
90.0
  0
INSERT
  5
135E
330
102F
100
AcDbEntity
  8
寸法線
 62
     2
370
    -2
100
AcDbBlockReference
  2
_OPEN
 10
57.32911657672582
 20
25.98910502705844
 30
0.0
 41
2.5
 42
2.5
 43
2.5
 50
270.0
  0
MTEXT
  5
135F
330
102F
100
AcDbEntity
  8
寸法線
 62
     6
100
AcDbMText
 10
55.45411657672582
 20
85.23910502705842
 30
0.0
 40
2.5
 41
0.0
 71
     5
 72
     1
  1
\A1;118.5
  7
STYLE3
 11
0.0000000000000001
 21
1.0
 31
0.0
 73
     1
 44
1.0
  0
POINT
  5
1360
330
102F
100
AcDbEntity
  8
DEFPOINTS
 62
     0
100
AcDbPoint
 10
62.43835729080956
 20
144.4891050270584
 30
0.0
  0
POINT
  5
1361
330
102F
100
AcDbEntity
  8
DEFPOINTS
 62
     0
100
AcDbPoint
 10
62.43835729080956
 20
25.98910502705844
 30
0.0
  0
POINT
  5
1362
330
102F
100
AcDbEntity
  8
DEFPOINTS
 62
     0
100
AcDbPoint
 10
57.32911657672582
 20
25.98910502705844
 30
0.0
  0
ENDBLK
  5
129F
330
102F
100
AcDbEntity
  8
0
100
AcDbBlockEnd
  0
BLOCK
  5
103D
330
103C
100
AcDbEntity
  8
0
100
AcDbBlockBegin
  2
*D24
 70
     1
 10
0.0
 20
0.0
 30
0.0
  3
*D24
  1

  0
LINE
  5
138E
330
103C
100
AcDbEntity
  8
寸法線
 62
     2
370
    -2
100
AcDbLine
 10
104.6743197718252
 20
85.98910502705841
 30
0.0
 11
133.1440767233973
 21
85.98910502705841
 31
0.0
  0
LINE
  5
138F
330
103C
100
AcDbEntity
  8
寸法線
 62
     2
370
    -2
100
AcDbLine
 10
126.0441657960656
 20
93.98910502705842
 30
0.0
 11
133.1440767233973
 21
93.98910502705842
 31
0.0
  0
LINE
  5
1390
330
103C
100
AcDbEntity
  8
寸法線
 62
     2
370
    -2
100
AcDbLine
 10
131.8940767233973
 20
88.48910502705841
 30
0.0
 11
131.8940767233973
 21
91.48910502705842
 31
0.0
  0
INSERT
  5
1391
330
103C
100
AcDbEntity
  8
寸法線
 62
     2
370
    -2
100
AcDbBlockReference
  2
_OPEN
 10
131.8940767233973
 20
85.98910502705841
 30
0.0
 41
2.5
 42
2.5
 43
2.5
 50
270.0
  0
INSERT
  5
1392
330
103C
100
AcDbEntity
  8
寸法線
 62
     2
370
    -2
100
AcDbBlockReference
  2
_OPEN
 10
131.8940767233973
 20
93.98910502705842
 30
0.0
 41
2.5
 42
2.5
 43
2.5
 50
90.0
  0
MTEXT
  5
1393
330
103C
100
AcDbEntity
  8
寸法線
 62
     6
100
AcDbMText
 10
130.0190767233973
 20
89.98910502705843
 30
0.0
 40
2.5
 41
0.0
 71
     5
 72
     1
  1
\A1;8
  7
STYLE3
 11
0.0000000000000001
 21
1.0
 31
0.0
 73
     1
 44
1.0
  0
POINT
  5
1394
330
103C
100
AcDbEntity
  8
DEFPOINTS
 62
     0
100
AcDbPoint
 10
104.6743197718252
 20
85.98910502705841
 30
0.0
  0
POINT
  5
1395
330
103C
100
AcDbEntity
  8
DEFPOINTS
 62
     0
100
AcDbPoint
 10
126.0441657960656
 20
93.98910502705842
 30
0.0
  0
POINT
  5
1396
330
103C
100
AcDbEntity
  8
DEFPOINTS
 62
     0
100
AcDbPoint
 10
131.8940767233973
 20
93.98910502705842
 30
0.0
  0
ENDBLK
  5
1047
330
103C
100
AcDbEntity
  8
0
100
AcDbBlockEnd
  0
BLOCK
  5
104A
330
1049
100
AcDbEntity
  8
0
100
AcDbBlockBegin
  2
*D25
 70
     1
 10
0.0
 20
0.0
 30
0.0
  3
*D25
  1

  0
LINE
  5
13E8
330
1049
100
AcDbEntity
  8
寸法線
 62
     2
370
    -2
100
AcDbLine
 10
127.1344890315441
 20
117.9891050270584
 30
0.0
 11
133.1440767233973
 21
117.9891050270584
 31
0.0
  0
LINE
  5
13E9
330
1049
100
AcDbEntity
  8
寸法線
 62
     2
370
    -2
100
AcDbLine
 10
131.8940767233973
 20
96.48910502705842
 30
0.0
 11
131.8940767233973
 21
115.4891050270584
 31
0.0
  0
INSERT
  5
13EA
330
1049
100
AcDbEntity
  8
寸法線
 62
     2
370
    -2
100
AcDbBlockReference
  2
_OPEN
 10
131.8940767233973
 20
93.98910502705842
 30
0.0
 41
2.5
 42
2.5
 43
2.5
 50
270.0
  0
INSERT
  5
13EB
330
1049
100
AcDbEntity
  8
寸法線
 62
     2
370
    -2
100
AcDbBlockReference
  2
_OPEN
 10
131.8940767233973
 20
117.9891050270584
 30
0.0
 41
2.5
 42
2.5
 43
2.5
 50
90.0
  0
MTEXT
  5
13EC
330
1049
100
AcDbEntity
  8
寸法線
 62
     6
100
AcDbMText
 10
130.0190767233973
 20
105.9891050270584
 30
0.0
 40
2.5
 41
0.0
 71
     5
 72
     1
  1
\A1;24
  7
STYLE3
 11
0.0000000000000001
 21
1.0
 31
0.0
 73
     1
 44
1.0
  0
POINT
  5
13ED
330
1049
100
AcDbEntity
  8
DEFPOINTS
 62
     0
100
AcDbPoint
 10
126.0441657960656
 20
93.98910502705842
 30
0.0
  0
POINT
  5
13EE
330
1049
100
AcDbEntity
  8
DEFPOINTS
 62
     0
100
AcDbPoint
 10
127.1344890315441
 20
117.9891050270584
 30
0.0
  0
POINT
  5
13EF
330
1049
100
AcDbEntity
  8
DEFPOINTS
 62
     0
100
AcDbPoint
 10
131.8940767233973
 20
117.9891050270584
 30
0.0
  0
ENDBLK
  5
1053
330
1049
100
AcDbEntity
  8
0
100
AcDbBlockEnd
  0
BLOCK
  5
1061
330
105E
100
AcDbEntity
  8
0
100
AcDbBlockBegin
  2
A$C5F2322C5
 70
     0
 10
0.0
 20
0.0
 30
0.0
  3
A$C5F2322C5
  1

  0
TEXT
  5
105F
330
105E
100
AcDbEntity
  8
文字
100
AcDbText
 10
-0.2857146575939851
 20
0.0000000741707709
 30
0.0
 40
1.5
  1
-0.03
  7
STYLE3
100
AcDbText
  0
TEXT
  5
1060
330
105E
100
AcDbEntity
  8
文字
100
AcDbText
 10
1.563464363377534
 20
1.861950467303643
 30
0.0
 40
1.5
  1
0
  7
STYLE3
100
AcDbText
  0
ENDBLK
  5
1062
330
105E
100
AcDbEntity
  8
0
100
AcDbBlockEnd
  0
ENDSEC
  0
SECTION
  2
ENTITIES
  0
LWPOLYLINE
  5
26C
330
18
100
AcDbEntity
  8
C
100
AcDbPolyline
 90
        5
 70
     0
 43
0.4
 10
0.0
 20
194.7274940416472
 10
255.0
 20
194.7274940416472
 10
255.0
 20
0.0
 10
0.0
 20
0.0
 10
0.0
 20
194.7274940416472
  0
LINE
  5
69C
330
18
100
AcDbEntity
  8
外形線
100
AcDbLine
 10
86.88853333419832
 20
34.98910502705843
 30
0.0
 11
91.28853333419835
 21
34.98910502705843
 31
0.0
  0
LINE
  5
69D
330
18
100
AcDbEntity
  8
外形線
100
AcDbLine
 10
91.08853333419835
 20
45.98910502705843
 30
0.0
 11
91.08853333419835
 21
34.98910502705843
 31
0.0
  0
LINE
  5
69E
330
18
100
AcDbEntity
  8
外形線
100
AcDbLine
 10
87.08853333419837
 20
45.98910502705843
 30
0.0
 11
87.08853333419837
 21
34.98910502705843
 31
0.0
  0
LINE
  5
701
330
18
100
AcDbEntity
  8
外形線
100
AcDbLine
 10
86.88853333419832
 20
34.98910502705843
 30
0.0
 11
86.88853333419832
 21
34.48910502705843
 31
0.0
  0
LINE
  5
702
330
18
100
AcDbEntity
  8
外形線
100
AcDbLine
 10
91.28853333419835
 20
34.98910502705843
 30
0.0
 11
91.28853333419835
 21
34.48910502705843
 31
0.0
  0
LINE
  5
704
330
18
100
AcDbEntity
  8
外形線
100
AcDbLine
 10
86.5885333341983
 20
32.38910502705846
 30
0.0
 11
91.58853333419841
 21
32.38910502705846
 31
0.0
  0
LINE
  5
705
330
18
100
AcDbEntity
  8
外形線
100
AcDbLine
 10
86.5885333341983
 20
33.58910502705845
 30
0.0
 11
91.58853333419841
 21
33.58910502705845
 31
0.0
  0
LINE
  5
706
330
18
100
AcDbEntity
  8
外形線
100
AcDbLine
 10
86.5885333341983
 20
34.48910502705846
 30
0.0
 11
91.58853333419841
 21
34.48910502705846
 31
0.0
  0
LINE
  5
707
330
18
100
AcDbEntity
  8
外形線
100
AcDbLine
 10
86.5885333341983
 20
31.48910502705846
 30
0.0
 11
91.58853333419841
 21
31.48910502705846
 31
0.0
  0
LINE
  5
708
330
18
100
AcDbEntity
  8
外形線
100
AcDbLine
 10
91.58853333419841
 20
31.48910502705846
 30
0.0
 11
90.38853333419831
 21
26.98910502705846
 31
0.0
  0
LINE
  5
709
330
18
100
AcDbEntity
  8
外形線
100
AcDbLine
 10
86.5885333341983
 20
31.48910502705846
 30
0.0
 11
87.7885333341984
 21
26.98910502705846
 31
0.0
  0
POINT
  5
70A
330
18
100
AcDbEntity
  8
DEFPOINTS
  6
ByBlock
 62
     0
100
AcDbPoint
 10
89.08853333419836
 20
25.98910502705843
 30
0.0
  0
LINE
  5
70B
330
18
100
AcDbEntity
  8
外形線
100
AcDbLine
 10
87.7885333341984
 20
26.98910502705843
 30
0.0
 11
90.38853333419831
 21
26.98910502705846
 31
0.0
  0
ARC
  5
70C
330
18
100
AcDbEntity
  8
外形線
100
AcDbCircle
 10
89.08853333419836
 20
27.13910502705843
 30
0.0
 40
1.149999999999999
100
AcDbArc
 50
187.494717453927
 51
352.5052825460744
  0
LINE
  5
711
330
18
100
AcDbEntity
  8
中心線
100
AcDbLine
 10
86.58853333419825
 20
33.866029517713
 30
0.0
 11
86.94826614724428
 21
34.48910502705849
 31
0.0
  0
LINE
  5
712
330
18
100
AcDbEntity
  8
中心線
100
AcDbLine
 10
88.65258093772235
 20
33.58910502705857
 30
0.0
 11
88.13296569545167
 21
34.48910502705849
 31
0.0
  0
LINE
  5
713
330
18
100
AcDbEntity
  8
中心線
100
AcDbLine
 10
87.49788039934315
 20
33.58910502705854
 30
0.0
 11
86.97826515707253
 21
34.48910502705849
 31
0.0
  0
LINE
  5
714
330
18
100
AcDbEntity
  8
中心線
100
AcDbLine
 10
88.07523066853276
 20
33.58910502705857
 30
0.0
 11
87.55561542626214
 21
34.48910502705849
 31
0.0
  0
LINE
  5
715
330
18
100
AcDbEntity
  8
中心線
100
AcDbLine
 10
87.58335144335291
 20
33.58910502705851
 30
0.0
 11
88.10296668562353
 21
34.48910502705849
 31
0.0
  0
LINE
  5
716
330
18
100
AcDbEntity
  8
中心線
100
AcDbLine
 10
87.00600117416332
 20
33.58910502705854
 30
0.0
 11
87.52561641643394
 21
34.48910502705849
 31
0.0
  0
LINE
  5
717
330
18
100
AcDbEntity
  8
中心線
100
AcDbLine
 10
88.16070171254256
 20
33.58910502705857
 30
0.0
 11
88.68031695481318
 21
34.48910502705849
 31
0.0
  0
LINE
  5
718
330
18
100
AcDbEntity
  8
中心線
100
AcDbLine
 10
86.92053013015362
 20
33.58910502705851
 30
0.0
 11
86.58853333419825
 21
34.16414034560322
 31
0.0
  0
LINE
  5
719
330
18
100
AcDbEntity
  8
中心線
100
AcDbLine
 10
89.08853333419825
 20
33.83401332668066
 30
0.0
 11
88.71031596464126
 21
34.48910502705849
 31
0.0
  0
LINE
  5
71A
330
18
100
AcDbEntity
  8
中心線
100
AcDbLine
 10
88.73805198173204
 20
33.58910502705848
 30
0.0
 11
89.08853333419825
 21
34.19615653663544
 31
0.0
  0
LINE
  5
71B
330
18
100
AcDbEntity
  8
中心線
100
AcDbLine
 10
86.92053013015373
 20
31.48910502705846
 30
0.0
 11
86.58853333419836
 21
32.06414034560316
 31
0.0
  0
LINE
  5
71C
330
18
100
AcDbEntity
  8
中心線
100
AcDbLine
 10
88.07523066853287
 20
31.48910502705851
 30
0.0
 11
87.55561542626224
 21
32.38910502705844
 31
0.0
  0
LINE
  5
71D
330
18
100
AcDbEntity
  8
中心線
100
AcDbLine
 10
89.08853333419836
 20
31.73401332668061
 30
0.0
 11
88.71031596464138
 21
32.38910502705844
 31
0.0
  0
LINE
  5
71E
330
18
100
AcDbEntity
  8
中心線
100
AcDbLine
 10
88.16070171254267
 20
31.48910502705851
 30
0.0
 11
88.68031695481329
 21
32.38910502705844
 31
0.0
  0
LINE
  5
71F
330
18
100
AcDbEntity
  8
中心線
100
AcDbLine
 10
87.00600117416342
 20
31.48910502705849
 30
0.0
 11
87.52561641643405
 21
32.38910502705844
 31
0.0
  0
LINE
  5
720
330
18
100
AcDbEntity
  8
中心線
100
AcDbLine
 10
88.65258093772245
 20
31.48910502705851
 30
0.0
 11
88.13296569545178
 21
32.38910502705844
 31
0.0
  0
LINE
  5
721
330
18
100
AcDbEntity
  8
中心線
100
AcDbLine
 10
87.49788039934328
 20
31.48910502705849
 30
0.0
 11
86.97826515707266
 21
32.38910502705844
 31
0.0
  0
LINE
  5
722
330
18
100
AcDbEntity
  8
中心線
100
AcDbLine
 10
86.58853333419836
 20
31.76602951771295
 30
0.0
 11
86.94826614724439
 21
32.38910502705844
 31
0.0
  0
LINE
  5
723
330
18
100
AcDbEntity
  8
中心線
100
AcDbLine
 10
87.58335144335303
 20
31.48910502705846
 30
0.0
 11
88.10296668562363
 21
32.38910502705844
 31
0.0
  0
LINE
  5
724
330
18
100
AcDbEntity
  8
中心線
100
AcDbLine
 10
88.73805198173215
 20
31.48910502705843
 30
0.0
 11
89.08853333419836
 21
32.09615653663539
 31
0.0
  0
ARC
  5
725
330
18
100
AcDbEntity
  8
外形線
100
AcDbCircle
 10
86.22797820665198
 20
32.9891050270584
 30
0.0
 40
0.7
100
AcDbArc
 50
301.0027191338767
 51
58.99728086613252
  0
LINE
  5
726
330
18
100
AcDbEntity
  8
外形線
100
AcDbLine
 10
86.5885333341983
 20
32.38910502705846
 30
0.0
 11
86.5885333341983
 21
31.48910502705846
 31
0.0
  0
LINE
  5
727
330
18
100
AcDbEntity
  8
外形線
100
AcDbLine
 10
86.5885333341983
 20
34.48910502705846
 30
0.0
 11
86.5885333341983
 21
33.58910502705848
 31
0.0
  0
ARC
  5
72C
330
18
100
AcDbEntity
  8
外形線
100
AcDbCircle
 10
91.94908846174474
 20
32.9891050270584
 30
0.0
 40
0.7
100
AcDbArc
 50
121.0027191338674
 51
238.9972808661233
  0
LINE
  5
72D
330
18
100
AcDbEntity
  8
外形線
100
AcDbLine
 10
91.58853333419841
 20
32.38910502705846
 30
0.0
 11
91.58853333419841
 21
31.48910502705846
 31
0.0
  0
LINE
  5
72E
330
18
100
AcDbEntity
  8
外形線
100
AcDbLine
 10
91.58853333419841
 20
34.48910502705846
 30
0.0
 11
91.58853333419841
 21
33.58910502705848
 31
0.0
  0
LINE
  5
730
330
18
100
AcDbEntity
  8
外形線
100
AcDbLine
 10
85.18853333419832
 20
47.98910502705844
 30
0.0
 11
92.98853333419828
 21
47.98910502705844
 31
0.0
  0
LINE
  5
731
330
18
100
AcDbEntity
  8
外形線
100
AcDbLine
 10
86.03853333419834
 20
45.98910502705841
 30
0.0
 11
92.13853333419837
 21
45.98910502705844
 31
0.0
  0
LINE
  5
732
330
18
100
AcDbEntity
  8
外形線
100
AcDbLine
 10
85.83853333419829
 20
46.78910502705842
 30
0.0
 11
92.33853333419842
 21
46.78910502705845
 31
0.0
  0
LINE
  5
736
330
18
100
AcDbEntity
  8
外形線
100
AcDbLine
 10
85.83853333419829
 20
46.78910502705842
 30
0.0
 11
85.83853333419837
 21
46.1891050270584
 31
0.0
  0
LINE
  5
73F
330
18
100
AcDbEntity
  8
外形線
100
AcDbLine
 10
85.83853333419837
 20
46.1891050270584
 30
0.0
 11
86.03853333419834
 21
45.98910502705841
 31
0.0
  0
LINE
  5
741
330
18
100
AcDbEntity
  8
外形線
100
AcDbLine
 10
87.08853333419837
 20
45.98910502705847
 30
0.0
 11
87.08853333419837
 21
38.78910502705847
 31
0.0
  0
ARC
  5
742
330
18
100
AcDbEntity
  8
外形線
100
AcDbCircle
 10
85.38853333419814
 20
47.32529529179659
 30
0.0
 40
0.7
100
AcDbArc
 50
310.0052008848602
 51
71.49566077351135
  0
LINE
  5
743
330
18
100
AcDbEntity
  8
外形線
100
AcDbLine
 10
85.18853333419825
 20
50.98910502705845
 30
0.0
 11
85.18853333419832
 21
47.98910502705844
 31
0.0
  0
LINE
  5
745
330
18
100
AcDbEntity
  8
外形線
100
AcDbLine
 10
92.33853333419842
 20
46.78910502705845
 30
0.0
 11
92.33853333419835
 21
46.18910502705843
 31
0.0
  0
LINE
  5
74E
330
18
100
AcDbEntity
  8
外形線
 48
0.5
100
AcDbLine
 10
92.13853333419837
 20
45.98910502705844
 30
0.0
 11
92.33853333419835
 21
46.18910502705843
 31
0.0
  0
LINE
  5
750
330
18
100
AcDbEntity
  8
外形線
100
AcDbLine
 10
91.08853333419824
 20
45.98910502705847
 30
0.0
 11
91.08853333419824
 21
38.78910502705847
 31
0.0
  0
LINE
  5
751
330
18
100
AcDbEntity
  8
外形線
100
AcDbLine
 10
92.98853333419819
 20
50.9891050270584
 30
0.0
 11
92.98853333419828
 21
47.98910502705844
 31
0.0
  0
ARC
  5
752
330
18
100
AcDbEntity
  8
外形線
100
AcDbCircle
 10
92.78853333419846
 20
47.32529529179659
 30
0.0
 40
0.7
100
AcDbArc
 50
108.5043392264886
 51
229.9947991151398
  0
LINE
  5
7E3
330
18
100
AcDbEntity
  8
外形線
100
AcDbLine
 10
85.08853333419835
 20
50.98910502705845
 30
0.0
 11
93.08853333419836
 21
50.98910502705841
 31
0.0
  0
LINE
  5
7E4
330
18
100
AcDbEntity
  8
外形線
100
AcDbLine
 10
93.08853333419836
 20
50.98910502705841
 30
0.0
 11
93.08853333419836
 21
82.98910502705842
 31
0.0
  0
LINE
  5
7E5
330
18
100
AcDbEntity
  8
外形線
100
AcDbLine
 10
85.08853333419835
 20
50.98910502705841
 30
0.0
 11
85.08853333419835
 21
82.98910502705842
 31
0.0
  0
LINE
  5
810
102
{ACAD_REACTORS
330
10F9
102
}
330
18
100
AcDbEntity
  8
中心線
100
AcDbLine
 10
177.2838142675822
 20
163.1660888873377
 30
0.0
 11
177.2838142675822
 21
22.70607198715214
 31
0.0
  0
LINE
  5
86C
330
18
100
AcDbEntity
  8
外形線
100
AcDbLine
 10
181.183814267582
 20
50.9891050270584
 30
0.0
 11
181.1838142675821
 21
47.98910502705846
 31
0.0
  0
LINE
  5
86D
330
18
100
AcDbEntity
  8
外形線
100
AcDbLine
 10
173.3838142675821
 20
50.98910502705845
 30
0.0
 11
173.3838142675821
 21
47.98910502705846
 31
0.0
  0
LINE
  5
86E
330
18
100
AcDbEntity
  8
外形線
100
AcDbLine
 10
180.783814267582
 20
36.73910502705847
 30
0.0
 11
179.762128220672
 21
37.54410502705848
 31
0.0
  0
LINE
  5
86F
330
18
100
AcDbEntity
  8
外形線
100
AcDbLine
 10
173.7838142675824
 20
36.73910502705847
 30
0.0
 11
174.8055003144924
 21
37.54410502705848
 31
0.0
  0
LINE
  5
870
330
18
100
AcDbEntity
  8
外形線
100
AcDbLine
 10
175.2838142675822
 20
45.98910502705843
 30
0.0
 11
175.2838142675822
 21
34.98910502705844
 31
0.0
  0
LINE
  5
871
330
18
100
AcDbEntity
  8
外形線
100
AcDbLine
 10
179.2838142675822
 20
45.98910502705843
 30
0.0
 11
179.2838142675822
 21
34.98910502705844
 31
0.0
  0
LINE
  5
872
330
18
100
AcDbEntity
  8
外形線
100
AcDbLine
 10
174.7430148049308
 20
35.98333818958345
 30
0.0
 11
173.7838142675824
 21
36.73910502705847
 31
0.0
  0
LINE
  5
873
330
18
100
AcDbEntity
  8
外形線
100
AcDbLine
 10
179.7838142675822
 20
32.38910502705848
 30
0.0
 11
179.7838142675822
 21
31.48910502705847
 31
0.0
  0
LINE
  5
874
330
18
100
AcDbEntity
  8
外形線
100
AcDbLine
 10
174.7838142675821
 20
32.38910502705848
 30
0.0
 11
174.7838142675821
 21
31.48910502705847
 31
0.0
  0
LINE
  5
875
330
18
100
AcDbEntity
  8
中心線
100
AcDbLine
 10
176.933332915116
 20
31.48910502705844
 30
0.0
 11
177.2838142675822
 21
32.0961565366354
 31
0.0
  0
LINE
  5
876
330
18
100
AcDbEntity
  8
中心線
100
AcDbLine
 10
175.7786323767368
 20
31.48910502705847
 30
0.0
 11
176.2982476190075
 21
32.38910502705845
 31
0.0
  0
LINE
  5
877
330
18
100
AcDbEntity
  8
中心線
100
AcDbLine
 10
175.6931613327271
 20
31.4891050270585
 30
0.0
 11
175.1735460904565
 21
32.38910502705845
 31
0.0
  0
LINE
  5
878
330
18
100
AcDbEntity
  8
中心線
100
AcDbLine
 10
176.8478618711063
 20
31.48910502705853
 30
0.0
 11
176.3282466288356
 21
32.38910502705845
 31
0.0
  0
LINE
  5
879
330
18
100
AcDbEntity
  8
中心線
100
AcDbLine
 10
175.2012821075473
 20
31.4891050270585
 30
0.0
 11
175.7208973498179
 21
32.38910502705845
 31
0.0
  0
LINE
  5
87A
330
18
100
AcDbEntity
  8
中心線
100
AcDbLine
 10
176.3559826459265
 20
31.48910502705853
 30
0.0
 11
176.8755978881971
 21
32.38910502705845
 31
0.0
  0
LINE
  5
87B
330
18
100
AcDbEntity
  8
中心線
100
AcDbLine
 10
176.2705116019167
 20
31.48910502705853
 30
0.0
 11
175.7508963596461
 21
32.38910502705845
 31
0.0
  0
LINE
  5
87C
330
18
100
AcDbEntity
  8
中心線
100
AcDbLine
 10
175.1158110635376
 20
31.48910502705847
 30
0.0
 11
174.7838142675822
 21
32.06414034560318
 31
0.0
  0
ARC
  5
87D
330
18
100
AcDbEntity
  8
外形線
100
AcDbCircle
 10
177.2838142675822
 20
27.13910502705845
 30
0.0
 40
1.149999999999999
100
AcDbArc
 50
187.494717453927
 51
352.5052825460744
  0
LINE
  5
87E
330
18
100
AcDbEntity
  8
外形線
100
AcDbLine
 10
175.9838142675822
 20
26.98910502705845
 30
0.0
 11
178.5838142675821
 21
26.98910502705847
 31
0.0
  0
LINE
  5
87F
330
18
100
AcDbEntity
  8
外形線
100
AcDbLine
 10
174.7838142675821
 20
31.48910502705847
 30
0.0
 11
179.7838142675822
 21
31.48910502705847
 31
0.0
  0
POINT
  5
880
330
18
100
AcDbEntity
  8
DEFPOINTS
  6
ByBlock
 62
     0
100
AcDbPoint
 10
177.2838142675822
 20
25.98910502705845
 30
0.0
  0
LINE
  5
881
330
18
100
AcDbEntity
  8
外形線
100
AcDbLine
 10
174.7838142675821
 20
31.48910502705847
 30
0.0
 11
175.9838142675822
 21
26.98910502705847
 31
0.0
  0
LINE
  5
882
330
18
100
AcDbEntity
  8
外形線
100
AcDbLine
 10
179.7838142675822
 20
31.48910502705847
 30
0.0
 11
178.5838142675821
 21
26.98910502705847
 31
0.0
  0
LINE
  5
883
330
18
100
AcDbEntity
  8
外形線
100
AcDbLine
 10
174.7838142675821
 20
34.48910502705847
 30
0.0
 11
179.7838142675822
 21
34.48910502705847
 31
0.0
  0
LINE
  5
884
330
18
100
AcDbEntity
  8
外形線
100
AcDbLine
 10
174.7838142675821
 20
33.58910502705847
 30
0.0
 11
179.7838142675822
 21
33.58910502705847
 31
0.0
  0
LINE
  5
885
330
18
100
AcDbEntity
  8
外形線
100
AcDbLine
 10
174.7838142675821
 20
32.38910502705848
 30
0.0
 11
179.7838142675822
 21
32.38910502705848
 31
0.0
  0
LINE
  5
886
330
18
100
AcDbEntity
  8
外形線
100
AcDbLine
 10
174.3838142675822
 20
33.28910502705854
 30
0.0
 11
180.1838142675822
 21
33.28910502705854
 31
0.0
  0
LINE
  5
887
330
18
100
AcDbEntity
  8
外形線
100
AcDbLine
 10
175.0838142675821
 20
34.98910502705844
 30
0.0
 11
179.4838142675822
 21
34.98910502705844
 31
0.0
  0
LINE
  5
888
330
18
100
AcDbEntity
  8
外形線
100
AcDbLine
 10
174.7838142675821
 20
34.48910502705847
 30
0.0
 11
174.7838142675821
 21
33.5891050270585
 31
0.0
  0
ARC
  5
889
330
18
100
AcDbEntity
  8
外形線
100
AcDbCircle
 10
174.4232591400358
 20
32.98910502705842
 30
0.0
 40
0.7
100
AcDbArc
 50
301.0027191338767
 51
58.99728086613252
  0
LINE
  5
88A
330
18
100
AcDbEntity
  8
中心線
100
AcDbLine
 10
174.7838142675822
 20
31.76602951771297
 30
0.0
 11
175.1435470806282
 21
32.38910502705845
 31
0.0
  0
LINE
  5
88B
330
18
100
AcDbEntity
  8
中心線
100
AcDbLine
 10
177.2838142675822
 20
31.73401332668063
 30
0.0
 11
176.9055968980252
 21
32.38910502705845
 31
0.0
  0
LINE
  5
88C
330
18
100
AcDbEntity
  8
中心線
100
AcDbLine
 10
176.9333329151159
 20
33.5891050270585
 30
0.0
 11
177.2838142675821
 21
34.19615653663546
 31
0.0
  0
LINE
  5
88D
330
18
100
AcDbEntity
  8
中心線
100
AcDbLine
 10
177.2838142675821
 20
33.83401332668068
 30
0.0
 11
176.9055968980251
 21
34.4891050270585
 31
0.0
  0
LINE
  5
88E
330
18
100
AcDbEntity
  8
中心線
100
AcDbLine
 10
175.1158110635375
 20
33.58910502705852
 30
0.0
 11
174.7838142675821
 21
34.16414034560323
 31
0.0
  0
LINE
  5
88F
330
18
100
AcDbEntity
  8
中心線
100
AcDbLine
 10
176.3559826459264
 20
33.58910502705858
 30
0.0
 11
176.875597888197
 21
34.4891050270585
 31
0.0
  0
LINE
  5
890
330
18
100
AcDbEntity
  8
中心線
100
AcDbLine
 10
175.2012821075472
 20
33.58910502705855
 30
0.0
 11
175.7208973498178
 21
34.4891050270585
 31
0.0
  0
LINE
  5
891
330
18
100
AcDbEntity
  8
中心線
100
AcDbLine
 10
175.7786323767367
 20
33.58910502705852
 30
0.0
 11
176.2982476190074
 21
34.4891050270585
 31
0.0
  0
LINE
  5
892
330
18
100
AcDbEntity
  8
中心線
100
AcDbLine
 10
176.2705116019166
 20
33.58910502705858
 30
0.0
 11
175.750896359646
 21
34.4891050270585
 31
0.0
  0
LINE
  5
893
330
18
100
AcDbEntity
  8
中心線
100
AcDbLine
 10
175.693161332727
 20
33.58910502705855
 30
0.0
 11
175.1735460904564
 21
34.4891050270585
 31
0.0
  0
LINE
  5
894
330
18
100
AcDbEntity
  8
中心線
100
AcDbLine
 10
176.8478618711062
 20
33.58910502705858
 30
0.0
 11
176.3282466288355
 21
34.4891050270585
 31
0.0
  0
LINE
  5
895
330
18
100
AcDbEntity
  8
中心線
100
AcDbLine
 10
174.7838142675821
 20
33.86602951771302
 30
0.0
 11
175.1435470806281
 21
34.4891050270585
 31
0.0
  0
LINE
  5
896
330
18
100
AcDbEntity
  8
外形線
 48
0.5
100
AcDbLine
 10
174.3838142675822
 20
35.28910502705851
 30
0.0
 11
174.3838142675822
 21
33.28910502705854
 31
0.0
  0
LINE
  5
897
330
18
100
AcDbEntity
  8
外形線
100
AcDbLine
 10
174.3838142675822
 20
35.28910502705851
 30
0.0
 11
174.7430148049308
 21
35.98333818958345
 31
0.0
  0
LINE
  5
898
330
18
100
AcDbEntity
  8
外形線
100
AcDbLine
 10
175.0838142675821
 20
34.98910502705844
 30
0.0
 11
175.0838142675821
 21
34.48910502705845
 31
0.0
  0
LINE
  5
899
330
18
100
AcDbEntity
  8
外形線
100
AcDbLine
 10
179.7838142675822
 20
34.48910502705847
 30
0.0
 11
179.7838142675822
 21
33.5891050270585
 31
0.0
  0
ARC
  5
89A
330
18
100
AcDbEntity
  8
外形線
100
AcDbCircle
 10
180.1443693951286
 20
32.98910502705842
 30
0.0
 40
0.7
100
AcDbArc
 50
121.0027191338674
 51
238.9972808661233
  0
LINE
  5
89B
330
18
100
AcDbEntity
  8
外形線
 48
0.5
100
AcDbLine
 10
180.1838142675821
 20
35.28910502705851
 30
0.0
 11
180.1838142675822
 21
33.28910502705854
 31
0.0
  0
LINE
  5
89C
330
18
100
AcDbEntity
  8
外形線
100
AcDbLine
 10
179.8246137302335
 20
35.98333818958345
 30
0.0
 11
180.783814267582
 21
36.73910502705847
 31
0.0
  0
LINE
  5
89D
330
18
100
AcDbEntity
  8
外形線
100
AcDbLine
 10
180.1838142675822
 20
35.28910502705851
 30
0.0
 11
179.8246137302335
 21
35.98333818958345
 31
0.0
  0
LINE
  5
89E
330
18
100
AcDbEntity
  8
外形線
100
AcDbLine
 10
179.4838142675822
 20
34.98910502705844
 30
0.0
 11
179.4838142675822
 21
34.48910502705845
 31
0.0
  0
ARC
  5
89F
330
18
100
AcDbEntity
  8
外形線
100
AcDbCircle
 10
173.583814267582
 20
47.3252952917966
 30
0.0
 40
0.7
100
AcDbArc
 50
310.0052008848602
 51
71.49566077351135
  0
LINE
  5
8A0
330
18
100
AcDbEntity
  8
外形線
100
AcDbLine
 10
173.7838142675824
 20
38.34910502705849
 30
0.0
 11
174.8055003144924
 21
39.15410502705849
 31
0.0
  0
LINE
  5
8A1
330
18
100
AcDbEntity
  8
外形線
100
AcDbLine
 10
173.7838142675824
 20
39.95910502705847
 30
0.0
 11
174.8055003144924
 21
40.76410502705847
 31
0.0
  0
LINE
  5
8A2
330
18
100
AcDbEntity
  8
外形線
100
AcDbLine
 10
174.8055003144924
 20
39.15410502705846
 30
0.0
 11
173.7838142675824
 21
39.95910502705847
 31
0.0
  0
LINE
  5
8A3
330
18
100
AcDbEntity
  8
外形線
100
AcDbLine
 10
173.7838142675824
 20
41.56910502705848
 30
0.0
 11
174.8055003144924
 21
42.37410502705849
 31
0.0
  0
LINE
  5
8A4
330
18
100
AcDbEntity
  8
外形線
100
AcDbLine
 10
174.8055003144924
 20
40.76410502705847
 30
0.0
 11
173.7838142675824
 21
41.56910502705848
 31
0.0
  0
LINE
  5
8A5
330
18
100
AcDbEntity
  8
外形線
100
AcDbLine
 10
173.7838142675824
 20
43.17910502705847
 30
0.0
 11
174.8055003144924
 21
43.98410502705847
 31
0.0
  0
LINE
  5
8A6
330
18
100
AcDbEntity
  8
外形線
100
AcDbLine
 10
174.8055003144924
 20
42.37410502705846
 30
0.0
 11
173.7838142675824
 21
43.17910502705847
 31
0.0
  0
LINE
  5
8A7
330
18
100
AcDbEntity
  8
外形線
100
AcDbLine
 10
174.8055003144924
 20
43.98410502705847
 30
0.0
 11
173.7838142675824
 21
44.78910502705848
 31
0.0
  0
LINE
  5
8A8
330
18
100
AcDbEntity
  8
外形線
100
AcDbLine
 10
173.3838142675821
 20
47.98910502705846
 30
0.0
 11
181.1838142675821
 21
47.98910502705846
 31
0.0
  0
LINE
  5
8A9
330
18
100
AcDbEntity
  8
外形線
100
AcDbLine
 10
174.8055003144924
 20
37.54410502705848
 30
0.0
 11
173.7838142675824
 21
38.34910502705849
 31
0.0
  0
LINE
  5
8AA
330
18
100
AcDbEntity
  8
外形線
 48
0.5
100
AcDbLine
 10
173.7838142675823
 20
47.98910502705846
 30
0.0
 11
173.7838142675824
 21
44.78910502705851
 31
0.0
  0
LINE
  5
8AB
330
18
100
AcDbEntity
  8
外形線
100
AcDbLine
 10
179.2838142675821
 20
45.98910502705848
 30
0.0
 11
179.2838142675821
 21
39.98910502705849
 31
0.0
  0
LINE
  5
8AC
330
18
100
AcDbEntity
  8
外形線
100
AcDbLine
 10
180.783814267582
 20
43.17910502705847
 30
0.0
 11
179.762128220672
 21
43.98410502705847
 31
0.0
  0
LINE
  5
8AD
330
18
100
AcDbEntity
  8
外形線
100
AcDbLine
 10
175.2838142675822
 20
45.98910502705848
 30
0.0
 11
175.2838142675822
 21
39.98910502705849
 31
0.0
  0
LINE
  5
8AE
330
18
100
AcDbEntity
  8
外形線
100
AcDbLine
 10
179.762128220672
 20
42.37410502705846
 30
0.0
 11
180.783814267582
 21
43.17910502705847
 31
0.0
  0
LINE
  5
8AF
330
18
100
AcDbEntity
  8
外形線
100
AcDbLine
 10
179.762128220672
 20
40.76410502705847
 30
0.0
 11
180.783814267582
 21
41.56910502705848
 31
0.0
  0
LINE
  5
8B0
330
18
100
AcDbEntity
  8
外形線
100
AcDbLine
 10
180.783814267582
 20
41.56910502705848
 30
0.0
 11
179.762128220672
 21
42.37410502705849
 31
0.0
  0
LINE
  5
8B1
330
18
100
AcDbEntity
  8
外形線
100
AcDbLine
 10
179.762128220672
 20
39.15410502705846
 30
0.0
 11
180.783814267582
 21
39.95910502705847
 31
0.0
  0
LINE
  5
8B2
330
18
100
AcDbEntity
  8
外形線
100
AcDbLine
 10
180.783814267582
 20
39.95910502705847
 30
0.0
 11
179.762128220672
 21
40.76410502705847
 31
0.0
  0
LINE
  5
8B3
330
18
100
AcDbEntity
  8
外形線
100
AcDbLine
 10
180.783814267582
 20
38.34910502705849
 30
0.0
 11
179.762128220672
 21
39.15410502705849
 31
0.0
  0
LINE
  5
8B4
330
18
100
AcDbEntity
  8
外形線
100
AcDbLine
 10
179.762128220672
 20
37.54410502705848
 30
0.0
 11
180.783814267582
 21
38.34910502705849
 31
0.0
  0
LINE
  5
8B5
330
18
100
AcDbEntity
  8
外形線
100
AcDbLine
 10
174.0338142675821
 20
46.78910502705844
 30
0.0
 11
180.5338142675823
 21
46.78910502705846
 31
0.0
  0
LINE
  5
8B6
330
18
100
AcDbEntity
  8
外形線
100
AcDbLine
 10
174.2338142675822
 20
45.98910502705843
 30
0.0
 11
180.3338142675822
 21
45.98910502705845
 31
0.0
  0
LINE
  5
8B7
330
18
100
AcDbEntity
  8
外形線
100
AcDbLine
 10
174.0338142675822
 20
46.18910502705841
 30
0.0
 11
174.2338142675822
 21
45.98910502705843
 31
0.0
  0
LINE
  5
8B8
330
18
100
AcDbEntity
  8
外形線
100
AcDbLine
 10
174.0338142675821
 20
46.78910502705844
 30
0.0
 11
174.0338142675822
 21
46.18910502705841
 31
0.0
  0
ARC
  5
8B9
330
18
100
AcDbEntity
  8
外形線
100
AcDbCircle
 10
180.9838142675823
 20
47.3252952917966
 30
0.0
 40
0.7
100
AcDbArc
 50
108.5043392264886
 51
229.9947991151398
  0
LINE
  5
8BA
330
18
100
AcDbEntity
  8
外形線
 48
0.5
100
AcDbLine
 10
180.3338142675822
 20
45.98910502705845
 30
0.0
 11
180.5338142675822
 21
46.18910502705844
 31
0.0
  0
LINE
  5
8BB
330
18
100
AcDbEntity
  8
外形線
100
AcDbLine
 10
179.762128220672
 20
43.98410502705847
 30
0.0
 11
180.783814267582
 21
44.78910502705848
 31
0.0
  0
LINE
  5
8BC
330
18
100
AcDbEntity
  8
外形線
100
AcDbLine
 10
180.5338142675823
 20
46.78910502705846
 30
0.0
 11
180.5338142675822
 21
46.18910502705844
 31
0.0
  0
LINE
  5
8BD
330
18
100
AcDbEntity
  8
外形線
 48
0.5
100
AcDbLine
 10
180.7838142675822
 20
47.98910502705846
 30
0.0
 11
180.7838142675823
 21
44.78910502705836
 31
0.0
  0
LINE
  5
8BE
330
18
100
AcDbEntity
  8
外形線
100
AcDbLine
 10
173.2838142675822
 20
50.98910502705843
 30
0.0
 11
173.2838142675822
 21
82.98910502705842
 31
0.0
  0
LINE
  5
8BF
330
18
100
AcDbEntity
  8
外形線
100
AcDbLine
 10
181.2838142675822
 20
50.98910502705843
 30
0.0
 11
181.2838142675822
 21
82.98910502705842
 31
0.0
  0
LINE
  5
8C0
330
18
100
AcDbEntity
  8
外形線
100
AcDbLine
 10
173.2838142675822
 20
50.98910502705845
 30
0.0
 11
181.2838142675822
 21
50.98910502705843
 31
0.0
  0
LINE
  5
8C1
330
18
100
AcDbEntity
  8
外形線
100
AcDbLine
 10
173.3838142675821
 20
50.48910502705846
 30
0.0
 11
181.183814267582
 21
50.48910502705843
 31
0.0
  0
LINE
  5
E4C
330
18
100
AcDbEntity
  8
外形線
100
AcDbLine
 10
77.08853333419836
 20
85.98910502705843
 30
0.0
 11
104.6743197718252
 21
85.98910502705841
 31
0.0
  0
LINE
  5
E4D
330
18
100
AcDbEntity
  8
外形線
100
AcDbLine
 10
168.0645906739866
 20
85.98910502705843
 30
0.0
 11
186.5030378611778
 21
85.98910502705843
 31
0.0
  0
LINE
  5
E4E
330
18
100
AcDbEntity
  8
外形線
100
AcDbLine
 10
77.08853333419836
 20
132.9891050270584
 30
0.0
 11
109.0885333341984
 21
132.9891050270576
 31
0.0
  0
LINE
  5
E4F
330
18
100
AcDbEntity
  8
外形線
100
AcDbLine
 10
164.2838142675822
 20
132.9891050270584
 30
0.0
 11
190.2838142675822
 21
132.9891050270585
 31
0.0
  0
LINE
  5
E50
330
18
100
AcDbEntity
  8
外形線
100
AcDbLine
 10
81.08853333419835
 20
140.9891050270584
 30
0.0
 11
97.08853333419837
 21
140.9891050270584
 31
0.0
  0
LINE
  5
E51
330
18
100
AcDbEntity
  8
外形線
100
AcDbLine
 10
79.08853333419836
 20
132.9891050270584
 30
0.0
 11
79.08853333419836
 21
85.98910502705845
 31
0.0
  0
LINE
  5
E52
330
18
100
AcDbEntity
  8
外形線
100
AcDbLine
 10
108.0885333341983
 20
106.5748914646853
 30
0.0
 11
108.0885333341983
 21
89.40331858943155
 31
0.0
  0
LINE
  5
E53
330
18
100
AcDbEntity
  8
外形線
100
AcDbLine
 10
110.0885333341983
 20
131.9891050270576
 30
0.0
 11
110.0885333341983
 21
109.4033185894315
 31
0.0
  0
LINE
  5
E54
330
18
100
AcDbEntity
  8
外形線
100
AcDbLine
 10
81.08853333419835
 20
139.9891050270584
 30
0.0
 11
81.08853333419835
 21
133.9891050270584
 31
0.0
  0
LINE
  5
E55
330
18
100
AcDbEntity
  8
外形線
100
AcDbLine
 10
97.08853333419837
 20
139.9891050270584
 30
0.0
 11
97.08853333419837
 21
133.9891050270584
 31
0.0
  0
ARC
  5
E56
330
18
100
AcDbEntity
  8
外形線
100
AcDbCircle
 10
82.08853333419837
 20
139.9891050270584
 30
0.0
 40
1.0
100
AcDbArc
 50
90.0
 51
180.0
  0
ARC
  5
E57
330
18
100
AcDbEntity
  8
外形線
100
AcDbCircle
 10
96.08853333419837
 20
139.9891050270584
 30
0.0
 40
1.0
100
AcDbArc
 50
0.0
 51
90.0
  0
ARC
  5
E58
330
18
100
AcDbEntity
  8
外形線
100
AcDbCircle
 10
98.08853333419836
 20
133.9891050270584
 30
0.0
 40
1.0
100
AcDbArc
 50
180.0
 51
270.0
  0
ARC
  5
E59
330
18
100
AcDbEntity
  8
外形線
100
AcDbCircle
 10
80.08853333419835
 20
133.9891050270584
 30
0.0
 40
1.0
100
AcDbArc
 50
270.0
 51
0.0
  0
LINE
  5
E5A
330
18
100
AcDbEntity
  8
中心線
100
AcDbLine
 10
101.0885333341983
 20
162.911008434567
 30
0.0
 11
101.0885333341983
 21
127.8549218976046
 31
0.0
  0
LINE
  5
E5B
330
18
100
AcDbEntity
  8
外形線
100
AcDbLine
 10
98.58853333419837
 20
140.9891050270578
 30
0.0
 11
103.5885333341983
 21
140.9891050270577
 31
0.0
  0
LINE
  5
E60
330
18
100
AcDbEntity
  8
外形線
100
AcDbLine
 10
98.58853333419837
 20
140.9891050270578
 30
0.0
 11
98.08853333419833
 21
132.9891050270578
 31
0.0
  0
LINE
  5
E61
330
18
100
AcDbEntity
  8
外形線
100
AcDbLine
 10
104.0885333341983
 20
132.9891050270577
 30
0.0
 11
103.5885333341983
 21
140.9891050270577
 31
0.0
  0
LINE
  5
E62
330
18
100
AcDbEntity
  8
外形線
100
AcDbLine
 10
99.58853333419837
 20
159.6224837993531
 30
0.0
 11
99.58853333419837
 21
140.9891050270578
 31
0.0
  0
LINE
  5
E63
330
18
100
AcDbEntity
  8
外形線
100
AcDbLine
 10
102.5885333341983
 20
160.4262085664911
 30
0.0
 11
102.5885333341983
 21
140.9891050270577
 31
0.0
  0
LINE
  5
E64
330
18
100
AcDbEntity
  8
想像線
 48
0.15
100
AcDbLine
 10
97.53290620504357
 20
159.0717643207856
 30
0.0
 11
104.5643914121525
 21
160.9555572576916
 31
0.0
  0
LINE
  5
E65
330
18
100
AcDbEntity
  8
外形線
100
AcDbLine
 10
81.08853333419835
 20
141.4891050270584
 30
0.0
 11
97.08853333419837
 21
141.4891050270584
 31
0.0
  0
LINE
  5
E66
330
18
100
AcDbEntity
  8
外形線
100
AcDbLine
 10
81.58853333419836
 20
144.4891050270584
 30
0.0
 11
96.58853333419836
 21
144.4891050270584
 31
0.0
  0
LINE
  5
E67
330
18
100
AcDbEntity
  8
外形線
100
AcDbLine
 10
81.08853333419835
 20
143.9891050270584
 30
0.0
 11
97.08853333419837
 21
143.9891050270584
 31
0.0
  0
LINE
  5
E68
330
18
100
AcDbEntity
  8
外形線
100
AcDbLine
 10
81.08853333419835
 20
143.9891050270583
 30
0.0
 11
81.08853333419835
 21
140.9891050270584
 31
0.0
  0
LINE
  5
E69
330
18
100
AcDbEntity
  8
外形線
100
AcDbLine
 10
97.08853333419837
 20
143.9891050270584
 30
0.0
 11
97.08853333419837
 21
140.9891050270584
 31
0.0
  0
LINE
  5
E6A
330
18
100
AcDbEntity
  8
外形線
100
AcDbLine
 10
81.08853333419835
 20
143.9891050270583
 30
0.0
 11
81.58853333419836
 21
144.4891050270584
 31
0.0
  0
LINE
  5
E6B
330
18
100
AcDbEntity
  8
外形線
100
AcDbLine
 10
97.08853333419837
 20
143.9891050270584
 30
0.0
 11
96.58853333419836
 21
144.4891050270584
 31
0.0
  0
LINE
  5
E6C
330
18
100
AcDbEntity
  8
外形線
100
AcDbLine
 10
78.58853333419836
 20
132.9891050270584
 30
0.0
 11
78.58853333419836
 21
85.98910502705845
 31
0.0
  0
LINE
  5
E6D
330
18
100
AcDbEntity
  8
外形線
100
AcDbLine
 10
77.08853333419836
 20
132.9891050270584
 30
0.0
 11
77.08853333419836
 21
85.98910502705845
 31
0.0
  0
LINE
  5
E72
330
18
100
AcDbEntity
  8
外形線
100
AcDbLine
 10
105.3814265530118
 20
86.28199824587186
 30
0.0
 11
107.7956401153849
 21
88.696211808245
 31
0.0
  0
LINE
  5
E73
330
18
100
AcDbEntity
  8
外形線
100
AcDbLine
 10
108.0885333341983
 20
106.9891050270584
 30
0.0
 11
108.0885333341983
 21
106.9891050270584
 31
0.0
  0
LINE
  5
E76
330
18
100
AcDbEntity
  8
外形線
100
AcDbLine
 10
108.3814265530118
 20
107.2819982458719
 30
0.0
 11
109.7956401153849
 21
108.6962118082449
 31
0.0
  0
LINE
  5
E77
330
18
100
AcDbEntity
  8
中心線
 48
0.5
100
AcDbLine
 10
101.0970708554057
 20
93.98910502705843
 30
0.0
 11
126.0441657960656
 21
93.98910502705842
 31
0.0
  0
LINE
  5
E78
330
18
100
AcDbEntity
  8
中心線
 48
0.5
100
AcDbLine
 10
102.9506203557193
 20
117.9891050270584
 30
0.0
 11
127.1344890315441
 21
117.9891050270584
 31
0.0
  0
LINE
  5
E79
330
18
100
AcDbEntity
  8
外形線
100
AcDbLine
 10
84.08853333419836
 20
82.98910502705842
 30
0.0
 11
94.08853333419836
 21
82.98910502705842
 31
0.0
  0
LINE
  5
E7A
330
18
100
AcDbEntity
  8
外形線
100
AcDbLine
 10
84.08853333419836
 20
85.98910502705841
 30
0.0
 11
84.08853333419836
 21
82.98910502705842
 31
0.0
  0
LINE
  5
E7B
330
18
100
AcDbEntity
  8
外形線
100
AcDbLine
 10
94.08853333419836
 20
85.98910502705841
 30
0.0
 11
94.08853333419836
 21
82.98910502705842
 31
0.0
  0
LINE
  5
E7C
330
18
100
AcDbEntity
  8
中心線
100
AcDbLine
 10
89.08853333419836
 20
150.453895674866
 30
0.0
 11
89.08853333419836
 21
23.33303177328814
 31
0.0
  0
LINE
  5
E7D
330
18
100
AcDbEntity
  8
外形線
100
AcDbLine
 10
112.7885333341984
 20
97.48910502705843
 30
0.0
 11
112.7885333341984
 21
90.48910502705842
 31
0.0
  0
LINE
  5
E7E
330
18
100
AcDbEntity
  8
外形線
100
AcDbLine
 10
123.2885333341983
 20
96.98910502705841
 30
0.0
 11
123.2885333341984
 21
90.98910502705843
 31
0.0
  0
LINE
  5
E7F
330
18
100
AcDbEntity
  8
外形線
100
AcDbLine
 10
108.0885333341984
 20
96.73910502705842
 30
0.0
 11
112.7885333341984
 21
96.7391050270584
 31
0.0
  0
LINE
  5
E80
330
18
100
AcDbEntity
  8
外形線
100
AcDbLine
 10
108.0885333341983
 20
91.23910502705841
 30
0.0
 11
112.7885333341984
 21
91.23910502705841
 31
0.0
  0
LINE
  5
E81
330
18
100
AcDbEntity
  8
外形線
100
AcDbLine
 10
112.7885333341984
 20
97.48910502705841
 30
0.0
 11
122.7885333341983
 21
97.4891050270584
 31
0.0
  0
LINE
  5
E82
330
18
100
AcDbEntity
  8
外形線
100
AcDbLine
 10
112.7885333341984
 20
90.48910502705842
 30
0.0
 11
122.7885333341983
 21
90.48910502705842
 31
0.0
  0
LINE
  5
E83
330
18
100
AcDbEntity
  8
外形線
100
AcDbLine
 10
122.7885333341983
 20
97.48910502705841
 30
0.0
 11
122.7885333341983
 21
90.48910502705842
 31
0.0
  0
LINE
  5
E85
330
18
100
AcDbEntity
  8
外形線
100
AcDbLine
 10
122.7885333341983
 20
97.4891050270584
 30
0.0
 11
123.2885333341983
 21
96.98910502705841
 31
0.0
  0
LINE
  5
E86
330
18
100
AcDbEntity
  8
外形線
100
AcDbLine
 10
123.2885333341984
 20
90.98910502705843
 30
0.0
 11
122.7885333341983
 21
90.48910502705842
 31
0.0
  0
LINE
  5
E88
330
18
100
AcDbEntity
  8
外形線
100
AcDbLine
 10
110.0885333341983
 20
120.7391050270584
 30
0.0
 11
114.5885333341983
 21
120.7391050270584
 31
0.0
  0
LINE
  5
E89
330
18
100
AcDbEntity
  8
外形線
100
AcDbLine
 10
125.0885333341983
 20
120.9891050270584
 30
0.0
 11
125.0885333341983
 21
114.9891050270584
 31
0.0
  0
LINE
  5
E8A
330
18
100
AcDbEntity
  8
外形線
100
AcDbLine
 10
124.5885333341983
 20
121.4891050270584
 30
0.0
 11
124.5885333341983
 21
114.4891050270584
 31
0.0
  0
LINE
  5
E8B
330
18
100
AcDbEntity
  8
外形線
100
AcDbLine
 10
114.5885333341983
 20
121.4891050270584
 30
0.0
 11
114.5885333341983
 21
114.4891050270584
 31
0.0
  0
LINE
  5
E8C
330
18
100
AcDbEntity
  8
外形線
100
AcDbLine
 10
114.5885333341983
 20
121.4891050270584
 30
0.0
 11
124.5885333341983
 21
121.4891050270584
 31
0.0
  0
LINE
  5
E8D
330
18
100
AcDbEntity
  8
外形線
100
AcDbLine
 10
124.5885333341983
 20
121.4891050270584
 30
0.0
 11
125.0885333341983
 21
120.9891050270584
 31
0.0
  0
LINE
  5
E8E
330
18
100
AcDbEntity
  8
外形線
100
AcDbLine
 10
110.0885333341983
 20
115.2391050270584
 30
0.0
 11
114.5885333341983
 21
115.2391050270584
 31
0.0
  0
LINE
  5
E8F
330
18
100
AcDbEntity
  8
外形線
100
AcDbLine
 10
114.5885333341983
 20
114.4891050270584
 30
0.0
 11
124.5885333341983
 21
114.4891050270584
 31
0.0
  0
LINE
  5
E90
330
18
100
AcDbEntity
  8
外形線
100
AcDbLine
 10
125.0885333341983
 20
114.9891050270584
 30
0.0
 11
124.5885333341983
 21
114.4891050270584
 31
0.0
  0
LINE
  5
EAC
330
18
100
AcDbEntity
  8
外形線
100
AcDbLine
 10
172.2838142675822
 20
82.98910502705842
 30
0.0
 11
182.2838142675822
 21
82.98910502705842
 31
0.0
  0
LINE
  5
EAD
330
18
100
AcDbEntity
  8
外形線
100
AcDbLine
 10
172.2838142675822
 20
85.98910502705841
 30
0.0
 11
172.2838142675822
 21
82.98910502705842
 31
0.0
  0
LINE
  5
EAE
330
18
100
AcDbEntity
  8
外形線
100
AcDbLine
 10
182.2838142675822
 20
85.98910502705841
 30
0.0
 11
182.2838142675822
 21
82.98910502705842
 31
0.0
  0
LINE
  5
EB0
330
18
100
AcDbEntity
  8
外形線
100
AcDbLine
 10
178.7838142675822
 20
160.4262085664917
 30
0.0
 11
178.7838142675822
 21
140.9891050270584
 31
0.0
  0
LINE
  5
EB1
330
18
100
AcDbEntity
  8
外形線
100
AcDbLine
 10
175.7838142675822
 20
159.6224837993537
 30
0.0
 11
175.7838142675822
 21
140.9891050270585
 31
0.0
  0
LINE
  5
EB2
330
18
100
AcDbEntity
  8
外形線
100
AcDbLine
 10
180.2838142675822
 20
132.9891050270583
 30
0.0
 11
179.7838142675822
 21
140.9891050270583
 31
0.0
  0
LINE
  5
EB3
330
18
100
AcDbEntity
  8
外形線
100
AcDbLine
 10
174.7838142675822
 20
140.9891050270585
 30
0.0
 11
174.2838142675822
 21
132.9891050270585
 31
0.0
  0
LINE
  5
EB5
330
18
100
AcDbEntity
  8
外形線
100
AcDbLine
 10
174.7838142675822
 20
140.9891050270585
 30
0.0
 11
179.7838142675822
 21
140.9891050270583
 31
0.0
  0
LINE
  5
EB9
330
18
100
AcDbEntity
  8
想像線
 48
0.15
100
AcDbLine
 10
173.7281871384274
 20
159.0717643207862
 30
0.0
 11
180.7596723455364
 21
160.9555572576922
 31
0.0
  0
LINE
  5
EBB
330
18
100
AcDbEntity
  8
中心線
 48
0.3
100
AcDbLine
 10
171.5158287605578
 20
93.98910502705842
 30
0.0
 11
183.0517997746066
 21
93.9891050270584
 31
0.0
  0
LINE
  5
EBC
330
18
100
AcDbEntity
  8
外形線
100
AcDbLine
 10
169.2838142675822
 20
143.9891050270584
 30
0.0
 11
175.7838142675822
 21
143.9891050270584
 31
0.0
  0
LINE
  5
EBD
330
18
100
AcDbEntity
  8
外形線
100
AcDbLine
 10
169.7838142675822
 20
144.4891050270584
 30
0.0
 11
175.7838142675822
 21
144.4891050270584
 31
0.0
  0
LINE
  5
EBE
330
18
100
AcDbEntity
  8
外形線
100
AcDbLine
 10
169.2838142675822
 20
141.4891050270584
 30
0.0
 11
175.7838142675822
 21
141.4891050270584
 31
0.0
  0
LINE
  5
EBF
330
18
100
AcDbEntity
  8
外形線
100
AcDbLine
 10
169.2838142675822
 20
140.9891050270584
 30
0.0
 11
185.2838142675822
 21
140.9891050270584
 31
0.0
  0
LINE
  5
EC0
330
18
100
AcDbEntity
  8
外形線
100
AcDbLine
 10
169.2838142675822
 20
139.9891050270584
 30
0.0
 11
169.2838142675822
 21
133.9891050270584
 31
0.0
  0
ARC
  5
EC1
330
18
100
AcDbEntity
  8
外形線
100
AcDbCircle
 10
168.2838142675822
 20
133.9891050270584
 30
0.0
 40
1.0
100
AcDbArc
 50
270.0
 51
0.0
  0
LINE
  5
EC2
330
18
100
AcDbEntity
  8
外形線
100
AcDbLine
 10
169.2838142675822
 20
143.9891050270583
 30
0.0
 11
169.7838142675822
 21
144.4891050270584
 31
0.0
  0
LINE
  5
EC3
330
18
100
AcDbEntity
  8
外形線
100
AcDbLine
 10
169.2838142675822
 20
143.9891050270583
 30
0.0
 11
169.2838142675822
 21
140.9891050270584
 31
0.0
  0
ARC
  5
EC4
330
18
100
AcDbEntity
  8
外形線
100
AcDbCircle
 10
170.2838142675822
 20
139.9891050270584
 30
0.0
 40
1.0
100
AcDbArc
 50
90.0
 51
180.0
  0
LINE
  5
EC5
330
18
100
AcDbEntity
  8
外形線
100
AcDbLine
 10
185.2838142675822
 20
139.9891050270584
 30
0.0
 11
185.2838142675822
 21
133.9891050270584
 31
0.0
  0
ARC
  5
EC6
330
18
100
AcDbEntity
  8
外形線
100
AcDbCircle
 10
186.2838142675822
 20
133.9891050270584
 30
0.0
 40
1.0
100
AcDbArc
 50
180.0
 51
270.0
  0
LINE
  5
EC7
330
18
100
AcDbEntity
  8
外形線
100
AcDbLine
 10
185.2838142675822
 20
143.9891050270584
 30
0.0
 11
184.7838142675822
 21
144.4891050270584
 31
0.0
  0
LINE
  5
EC8
330
18
100
AcDbEntity
  8
外形線
100
AcDbLine
 10
185.2838142675822
 20
143.9891050270584
 30
0.0
 11
185.2838142675822
 21
140.9891050270584
 31
0.0
  0
ARC
  5
EC9
330
18
100
AcDbEntity
  8
外形線
100
AcDbCircle
 10
184.2838142675822
 20
139.9891050270584
 30
0.0
 40
1.0
100
AcDbArc
 50
0.0
 51
90.0
  0
LINE
  5
ECA
330
18
100
AcDbEntity
  8
外形線
100
AcDbLine
 10
178.7838142675822
 20
141.4891050270584
 30
0.0
 11
185.2838142675822
 21
141.4891050270584
 31
0.0
  0
LINE
  5
ECB
330
18
100
AcDbEntity
  8
外形線
100
AcDbLine
 10
178.7838142675822
 20
143.9891050270584
 30
0.0
 11
185.2838142675822
 21
143.9891050270584
 31
0.0
  0
LINE
  5
ECC
330
18
100
AcDbEntity
  8
外形線
100
AcDbLine
 10
178.7838142675822
 20
144.4891050270584
 30
0.0
 11
184.7838142675822
 21
144.4891050270584
 31
0.0
  0
LINE
  5
ECE
330
18
100
AcDbEntity
  8
中心線
 48
0.3
100
AcDbLine
 10
163.7617175694931
 20
135.9891050270584
 30
0.0
 11
175.5727656420703
 21
135.9891050270584
 31
0.0
  0
LINE
  5
ECF
102
{ACAD_REACTORS
330
10F9
102
}
330
18
100
AcDbEntity
  8
中心線
 48
0.3
100
AcDbLine
 10
171.2838142675822
 20
124.0408848160513
 30
0.0
 11
171.2838142675822
 21
111.849617792663
 31
0.0
  0
LINE
  5
ED0
102
{ACAD_REACTORS
330
10F9
102
}
330
18
100
AcDbEntity
  8
中心線
 48
0.3
100
AcDbLine
 10
183.2838142675822
 20
124.0408848160513
 30
0.0
 11
183.2838142675822
 21
111.849617792663
 31
0.0
  0
CIRCLE
  5
ED1
330
18
100
AcDbEntity
  8
外形線
100
AcDbCircle
 10
177.2838142675822
 20
93.98910502705843
 30
0.0
 40
3.5
  0
CIRCLE
  5
ED3
330
18
100
AcDbEntity
  8
外形線
100
AcDbCircle
 10
183.2838142675822
 20
117.9891050270584
 30
0.0
 40
3.5
  0
LINE
  5
ED4
102
{ACAD_REACTORS
330
10F9
102
}
330
18
100
AcDbEntity
  8
中心線
 48
0.3
100
AcDbLine
 10
177.5158287605578
 20
117.9891050270584
 30
0.0
 11
189.0517997746066
 21
117.9891050270584
 31
0.0
  0
CIRCLE
  5
ED5
330
18
100
AcDbEntity
  8
外形線
100
AcDbCircle
 10
171.2838142675822
 20
117.9891050270584
 30
0.0
 40
3.5
  0
LINE
  5
ED6
102
{ACAD_REACTORS
330
10F9
102
}
330
18
100
AcDbEntity
  8
中心線
 48
0.3
100
AcDbLine
 10
165.5158287605578
 20
117.9891050270584
 30
0.0
 11
177.0517997746066
 21
117.9891050270584
 31
0.0
  0
LINE
  5
EDD
330
18
100
AcDbEntity
  8
外形線
100
AcDbLine
 10
163.2838142675822
 20
131.9891050270584
 30
0.0
 11
163.2838142675822
 21
101.9891050270584
 31
0.0
  0
LINE
  5
EDE
330
18
100
AcDbEntity
  8
外形線
100
AcDbLine
 10
191.2838142675822
 20
131.9891050270585
 30
0.0
 11
191.2838142675822
 21
101.9891050270584
 31
0.0
  0
LINE
  5
EE0
330
18
100
AcDbEntity
  8
外形線
100
AcDbLine
 10
167.0944481738413
 20
86.7465694020221
 30
0.0
 11
163.2838142675822
 21
101.9891050270584
 31
0.0
  0
LINE
  5
EE1
330
18
100
AcDbEntity
  8
外形線
100
AcDbLine
 10
191.2838142675822
 20
101.9891050270584
 30
0.0
 11
187.4731803613231
 21
86.7465694020221
 31
0.0
  0
LINE
  5
EE2
330
18
100
AcDbEntity
  8
外形線
100
AcDbLine
 10
166.2838142675822
 20
108.9891050270584
 30
0.0
 11
188.2838142675822
 21
108.9891050270584
 31
0.0
  0
LINE
  5
EE3
330
18
100
AcDbEntity
  8
外形線
100
AcDbLine
 10
166.2838142675822
 20
130.9891050270584
 30
0.0
 11
188.2838142675822
 21
130.9891050270584
 31
0.0
  0
LINE
  5
EE4
330
18
100
AcDbEntity
  8
外形線
100
AcDbLine
 10
165.2838142675822
 20
129.9891050270584
 30
0.0
 11
165.2838142675822
 21
109.9891050270584
 31
0.0
  0
LINE
  5
EE5
330
18
100
AcDbEntity
  8
外形線
100
AcDbLine
 10
189.2838142675822
 20
129.9891050270584
 30
0.0
 11
189.2838142675822
 21
109.9891050270584
 31
0.0
  0
ARC
  5
EE6
330
18
100
AcDbEntity
  8
外形線
100
AcDbCircle
 10
166.2838142675822
 20
109.9891050270584
 30
0.0
 40
1.0
100
AcDbArc
 50
180.0
 51
269.9999999999999
  0
ARC
  5
EE7
330
18
100
AcDbEntity
  8
外形線
100
AcDbCircle
 10
188.2838142675822
 20
109.9891050270584
 30
0.0
 40
1.0
100
AcDbArc
 50
269.9999999999999
 51
359.9999999999999
  0
ARC
  5
EE8
330
18
100
AcDbEntity
  8
外形線
100
AcDbCircle
 10
188.2838142675822
 20
129.9891050270584
 30
0.0
 40
1.0
100
AcDbArc
 50
0.0
 51
89.99999999999992
  0
ARC
  5
EE9
330
18
100
AcDbEntity
  8
外形線
100
AcDbCircle
 10
166.2838142675822
 20
129.9891050270584
 30
0.0
 40
1.0
100
AcDbArc
 50
90.0
 51
180.0
  0
ARC
  5
EEA
330
18
100
AcDbEntity
  8
外形線
100
AcDbCircle
 10
164.2838142675822
 20
131.9891050270584
 30
0.0
 40
1.0
100
AcDbArc
 50
90.00000000000005
 51
180.0
  0
ARC
  5
EEB
330
18
100
AcDbEntity
  8
外形線
100
AcDbCircle
 10
190.2838142675822
 20
131.9891050270585
 30
0.0
 40
1.0
100
AcDbArc
 50
0.0
 51
90.00000000000005
  0
ARC
  5
EEC
330
18
100
AcDbEntity
  8
外形線
100
AcDbCircle
 10
186.5030378611778
 20
86.98910502705842
 30
0.0
 40
1.0
100
AcDbArc
 50
270.0
 51
345.9637565320735
  0
ARC
  5
EED
330
18
100
AcDbEntity
  8
外形線
100
AcDbCircle
 10
168.0645906739866
 20
86.98910502705842
 30
0.0
 40
1.0
100
AcDbArc
 50
194.0362434679265
 51
270.0
  0
LINE
  5
EEE
330
18
100
AcDbEntity
  8
外形線
100
AcDbLine
 10
163.2838142675822
 20
103.9891050270584
 30
0.0
 11
191.2838142675822
 21
103.9891050270584
 31
0.0
  0
LINE
  5
EEF
330
18
100
AcDbEntity
  8
外形線
100
AcDbLine
 10
163.2838142675822
 20
105.9891050270584
 30
0.0
 11
191.2838142675822
 21
105.9891050270584
 31
0.0
  0
LINE
  5
EF0
330
18
100
AcDbEntity
  8
外形線
100
AcDbLine
 10
167.2838142675822
 20
137.9891050270584
 30
0.0
 11
167.2838142675822
 21
133.9891050270584
 31
0.0
  0
LINE
  5
EF2
330
18
100
AcDbEntity
  8
外形線
100
AcDbLine
 10
167.2838142675822
 20
137.9891050270584
 30
0.0
 11
169.2838142675822
 21
137.9891050270584
 31
0.0
  0
LINE
  5
EF3
330
18
100
AcDbEntity
  8
外形線
100
AcDbLine
 10
167.2838142675822
 20
133.9891050270584
 30
0.0
 11
169.2838142675822
 21
133.9891050270584
 31
0.0
  0
LINE
  5
EF4
330
18
100
AcDbEntity
  8
中心線
 48
0.3
100
AcDbLine
 10
167.2838142675822
 20
137.4891050270584
 30
0.0
 11
169.2838142675822
 21
137.4891050270584
 31
0.0
  0
LINE
  5
EF5
330
18
100
AcDbEntity
  8
中心線
 48
0.3
100
AcDbLine
 10
167.2838142675822
 20
134.4891050270584
 30
0.0
 11
169.2838142675822
 21
134.4891050270584
 31
0.0
  0
ARC
  5
EF6
330
18
100
AcDbEntity
  8
外形線
100
AcDbCircle
 10
104.6743197718252
 20
86.98910502705841
 30
0.0
 40
1.0
100
AcDbArc
 50
270.0
 51
315.0
  0
ARC
  5
EF7
330
18
100
AcDbEntity
  8
外形線
100
AcDbCircle
 10
109.0885333341983
 20
131.9891050270576
 30
0.0
 40
1.0
100
AcDbArc
 50
0.0
 51
89.99999999999841
  0
ARC
  5
EF8
330
18
100
AcDbEntity
  8
外形線
100
AcDbCircle
 10
109.0885333341983
 20
109.4033185894315
 30
0.0
 40
1.0
100
AcDbArc
 50
315.0
 51
360.0
  0
ARC
  5
EF9
330
18
100
AcDbEntity
  8
外形線
100
AcDbCircle
 10
109.0885333341983
 20
106.5748914646853
 30
0.0
 40
1.0
100
AcDbArc
 50
135.0
 51
180.0
  0
ARC
  5
EFA
330
18
100
AcDbEntity
  8
外形線
100
AcDbCircle
 10
107.0885333341983
 20
89.40331858943155
 30
0.0
 40
1.0
100
AcDbArc
 50
315.0000000000002
 51
0.0
  0
DIMENSION
  5
F07
330
18
100
AcDbEntity
  8
寸法線
100
AcDbDimension
  2
*D9
 10
89.08853333419836
 20
164.5534284073819
 30
0.0
 11
99.58853333419837
 21
166.4284284073819
 31
0.0
 70
    32
 71
     5
 42
21.0
  3
STYLE3
100
AcDbAlignedDimension
 13
110.0885333341983
 23
131.9891050270576
 33
0.0
 14
89.08853333419836
 24
150.453895674866
 34
0.0
100
AcDbRotatedDimension
1001
ACAD
1000
DSTYLE
1002
{
1070
   271
1070
     2
1002
}
  0
DIMENSION
  5
F13
330
18
100
AcDbEntity
  8
寸法線
100
AcDbDimension
  2
*D10
 10
77.08853333419836
 20
164.5534284073819
 30
0.0
 11
83.08853333419836
 21
166.4284284073819
 31
0.0
 70
    32
 71
     5
 42
12.0
  3
STYLE3
100
AcDbAlignedDimension
 13
89.08853333419836
 23
150.453895674866
 33
0.0
 14
77.08853333419836
 24
132.9891050270584
 34
0.0
100
AcDbRotatedDimension
1001
ACAD
1000
DSTYLE
1002
{
1070
    75
1070
     1
1070
   271
1070
     2
1070
   279
1070
     1
1002
}
  0
DIMENSION
  5
F20
330
18
100
AcDbEntity
  8
寸法線
100
AcDbDimension
  2
*D11
 10
77.08853333419836
 20
171.5410866399573
 30
0.0
 11
101.0885333341983
 21
173.4160866399574
 31
0.0
 70
    32
  1
MAX<>
 71
     5
 42
47.99999999999997
  3
STYLE3
100
AcDbAlignedDimension
 13
125.0885333341983
 23
120.9891050270584
 33
0.0
 14
77.08853333419836
 24
165.8034284073819
 34
0.0
100
AcDbRotatedDimension
1001
ACAD
1000
DSTYLE
1002
{
1070
   271
1070
     2
1002
}
  0
DIMENSION
  5
F38
330
18
100
AcDbEntity
  8
寸法線
100
AcDbDimension
  2
*D12
 10
163.2838142675822
 20
164.9626977354228
 30
0.0
 11
177.2838142675822
 21
166.8376977354228
 31
0.0
 70
    32
 71
     5
 42
28.00000000000003
  3
STYLE3
100
AcDbAlignedDimension
 13
191.2838142675822
 23
131.9891050270585
 33
0.0
 14
163.2838142675822
 24
131.9891050270584
 34
0.0
100
AcDbRotatedDimension
1001
ACAD
1000
DSTYLE
1002
{
1070
   271
1070
     2
1002
}
  0
DIMENSION
  5
F45
330
18
100
AcDbEntity
  8
寸法線
100
AcDbDimension
  2
*D13
 10
94.08853333419836
 20
75.4407155053795
 30
0.0
 11
89.08853333419836
 21
77.3157155053795
 31
0.0
 70
    32
  1
φ<>
 71
     5
 42
10.0
  3
STYLE3
100
AcDbAlignedDimension
 13
84.08853333419836
 23
82.98910502705842
 33
0.0
 14
94.08853333419836
 24
82.98910502705842
 34
0.0
100
AcDbRotatedDimension
1001
ACAD
1000
DSTYLE
1002
{
1070
   271
1070
     2
1002
}
  0
DIMENSION
  5
F5D
330
18
100
AcDbEntity
  8
寸法線
100
AcDbDimension
  2
*D14
 10
93.08853333419836
 20
63.86260268873383
 30
0.0
 11
100.2611523818174
 21
65.73760268873383
 31
0.0
 70
    32
  1
φ<>.0
 71
     5
 42
8.0
  3
STYLE3
100
AcDbAlignedDimension
 13
85.08853333419835
 23
64.12574129935092
 33
0.0
 14
93.08853333419836
 24
63.33632453753342
 34
0.0
100
AcDbRotatedDimension
1001
ACAD
1000
DSTYLE
1002
{
1070
   271
1070
     2
1002
}
  0
DIMENSION
  5
F76
330
18
100
AcDbEntity
  8
寸法線
100
AcDbDimension
  2
*D15
 10
71.37053933673576
 20
34.98910502705844
 30
0.0
 11
69.49553933673574
 21
30.48910502705845
 31
0.0
 70
    32
 71
     5
 42
8.999999999999992
  3
STYLE3
100
AcDbAlignedDimension
 13
89.08853333419836
 23
25.98910502705844
 33
0.0
 14
86.88853333419832
 24
34.98910502705843
 34
0.0
 50
90.0
100
AcDbRotatedDimension
1001
ACAD
1000
DSTYLE
1002
{
1070
   271
1070
     2
1002
}
  0
DIMENSION
  5
F82
330
18
100
AcDbEntity
  8
寸法線
100
AcDbDimension
  2
*D16
 10
71.37053933673576
 20
45.98910502705842
 30
0.0
 11
69.49553933673574
 21
40.48910502705843
 31
0.0
 70
    32
 71
     5
 42
10.99999999999998
  3
STYLE3
100
AcDbAlignedDimension
 13
86.88853333419832
 23
34.98910502705843
 33
0.0
 14
86.03853333419834
 24
45.98910502705841
 34
0.0
 50
90.0
100
AcDbRotatedDimension
1001
ACAD
1000
DSTYLE
1002
{
1070
    75
1070
     1
1070
   271
1070
     2
1070
   279
1070
     1
1002
}
  0
DIMENSION
  5
F9A
330
18
100
AcDbEntity
  8
寸法線
100
AcDbDimension
  2
*D17
 10
71.37053933673576
 20
50.98910502705845
 30
0.0
 11
69.49553933673574
 21
48.48910502705845
 31
0.0
 70
    32
 71
     5
 42
5.000000000000028
  3
STYLE3
100
AcDbAlignedDimension
 13
86.03853333419834
 23
45.98910502705841
 33
0.0
 14
85.08853333419835
 24
50.98910502705845
 34
0.0
 50
90.0
100
AcDbRotatedDimension
1001
ACAD
1000
DSTYLE
1002
{
1070
    75
1070
     1
1070
   271
1070
     2
1070
   279
1070
     1
1002
}
  0
DIMENSION
  5
FA6
330
18
100
AcDbEntity
  8
寸法線
100
AcDbDimension
  2
*D18
 10
71.37053933673576
 20
82.98910502705842
 30
0.0
 11
69.49553933673574
 21
66.98910502705844
 31
0.0
 70
    32
 71
     5
 42
31.99999999999997
  3
STYLE3
100
AcDbAlignedDimension
 13
85.08853333419835
 23
50.98910502705845
 33
0.0
 14
84.08853333419836
 24
82.98910502705842
 34
0.0
 50
90.0
100
AcDbRotatedDimension
1001
ACAD
1000
DSTYLE
1002
{
1070
    75
1070
     1
1070
   271
1070
     2
1070
   279
1070
     1
1002
}
  0
DIMENSION
  5
FF9
330
18
100
AcDbEntity
  8
寸法線
100
AcDbDimension
  2
*D19
 10
63.68835729080956
 20
82.98910502705842
 30
0.0
 11
61.81335729080954
 21
54.48910502705843
 31
0.0
 70
    32
 71
     5
 42
56.99999999999998
  3
STYLE3
100
AcDbAlignedDimension
 13
70.12053933673576
 23
25.98910502705844
 33
0.0
 14
70.12053933673576
 24
82.98910502705842
 34
0.0
 50
90.0
100
AcDbRotatedDimension
1001
ACAD
1000
DSTYLE
1002
{
1070
   271
1070
     2
1002
}
  0
DIMENSION
  5
100A
330
18
100
AcDbEntity
  8
寸法線
100
AcDbDimension
  2
*D20
 10
63.68835729080956
 20
85.98910502705845
 30
0.0
 11
61.81335729080955
 21
84.48910502705844
 31
0.0
 70
    32
 71
     5
 42
3.000000000000028
  3
STYLE3
100
AcDbAlignedDimension
 13
70.12053933673576
 23
82.98910502705842
 33
0.0
 14
77.08853333419835
 24
85.98910502705845
 34
0.0
 50
90.0
100
AcDbRotatedDimension
1001
ACAD
1000
DSTYLE
1002
{
1070
    75
1070
     1
1070
   271
1070
     2
1070
   279
1070
     1
1002
}
  0
DIMENSION
  5
1016
330
18
100
AcDbEntity
  8
寸法線
100
AcDbDimension
  2
*D21
 10
63.68835729080956
 20
132.9891050270585
 30
0.0
 11
61.81335729080954
 21
109.4891050270584
 31
0.0
 70
    32
 71
     5
 42
47.00000000000002
  3
STYLE3
100
AcDbAlignedDimension
 13
77.08853333419835
 23
85.98910502705845
 33
0.0
 14
77.08853333419836
 24
132.9891050270584
 34
0.0
 50
90.0
100
AcDbRotatedDimension
1001
ACAD
1000
DSTYLE
1002
{
1070
    75
1070
     1
1070
   271
1070
     2
1070
   279
1070
     1
1002
}
  0
DIMENSION
  5
1022
330
18
100
AcDbEntity
  8
寸法線
100
AcDbDimension
  2
*D22
 10
63.68835729080956
 20
144.4891050270584
 30
0.0
 11
61.81335729080953
 21
138.7391050270584
 31
0.0
 70
    32
 71
     5
 42
11.49999999999991
  3
STYLE3
100
AcDbAlignedDimension
 13
77.08853333419836
 23
132.9891050270584
 33
0.0
 14
81.58853333419836
 24
144.4891050270584
 34
0.0
 50
90.0
100
AcDbRotatedDimension
1001
ACAD
1000
DSTYLE
1002
{
1070
    75
1070
     1
1070
   271
1070
     2
1070
   279
1070
     1
1002
}
  0
DIMENSION
  5
103B
330
18
100
AcDbEntity
  8
寸法線
100
AcDbDimension
  2
*D23
 10
57.32911657672582
 20
25.98910502705844
 30
0.0
 11
55.45411657672582
 21
85.23910502705842
 31
0.0
 70
    32
 71
     5
 42
118.4999999999999
  3
STYLE3
100
AcDbAlignedDimension
 13
62.43835729080956
 23
144.4891050270584
 33
0.0
 14
62.43835729080956
 24
25.98910502705844
 34
0.0
 50
90.0
100
AcDbRotatedDimension
1001
ACAD
1000
DSTYLE
1002
{
1070
   271
1070
     2
1002
}
  0
DIMENSION
  5
1048
330
18
100
AcDbEntity
  8
寸法線
100
AcDbDimension
  2
*D24
 10
131.8940767233973
 20
93.98910502705842
 30
0.0
 11
130.0190767233973
 21
89.98910502705843
 31
0.0
 70
    32
 71
     5
 42
8.0
  3
STYLE3
100
AcDbAlignedDimension
 13
104.6743197718252
 23
85.98910502705841
 33
0.0
 14
126.0441657960656
 24
93.98910502705842
 34
0.0
 50
90.0
100
AcDbRotatedDimension
1001
ACAD
1000
DSTYLE
1002
{
1070
   271
1070
     2
1002
}
  0
DIMENSION
  5
1054
330
18
100
AcDbEntity
  8
寸法線
100
AcDbDimension
  2
*D25
 10
131.8940767233973
 20
117.9891050270584
 30
0.0
 11
130.0190767233973
 21
105.9891050270584
 31
0.0
 70
    32
 71
     5
 42
24.00000000000002
  3
STYLE3
100
AcDbAlignedDimension
 13
126.0441657960656
 23
93.98910502705842
 33
0.0
 14
127.1344890315441
 24
117.9891050270584
 34
0.0
 50
90.0
100
AcDbRotatedDimension
1001
ACAD
1000
DSTYLE
1002
{
1070
    75
1070
     1
1070
   271
1070
     2
1070
   279
1070
     1
1002
}
  0
INSERT
  5
1063
330
18
100
AcDbEntity
  8
寸法線
100
AcDbBlockReference
  2
A$C5F2322C5
 10
105.5028035968623
 20
65.10193882833608
 30
0.0
  0
LINE
  5
1074
330
18
100
AcDbEntity
  8
0
  6
ByBlock
 62
     2
100
AcDbLine
 10
165.0056383123694
 20
76.49379741018027
 30
0.0
 11
173.837115489983
 21
89.07786612668955
 31
0.0
  0
LINE
  5
1075
330
18
100
AcDbEntity
  8
0
  6
ByBlock
 62
     2
100
AcDbLine
 10
180.7305130451814
 20
98.90034392742732
 30
0.0
 11
182.1666375358477
 21
100.9466934692477
 31
0.0
  0
LINE
  5
1077
330
18
100
AcDbEntity
  8
0
  6
ByBlock
 62
     2
100
AcDbLine
 10
179.294388554515
 20
96.85399438560697
 30
0.0
 11
175.2732399806494
 21
91.1242156685099
 31
0.0
  0
INSERT
  5
1078
330
18
100
AcDbEntity
  8
0
  6
ByBlock
 62
     2
100
AcDbBlockReference
  2
_OPEN
 10
179.294388554515
 20
96.85399438560697
 30
0.0
 41
2.5
 42
2.5
 43
2.5
 50
234.9388898075392
  0
INSERT
  5
1079
330
18
100
AcDbEntity
  8
0
  6
ByBlock
 62
     2
100
AcDbBlockReference
  2
_OPEN
 10
175.2732399806494
 20
91.1242156685099
 30
0.0
 41
2.5
 42
2.5
 43
2.5
 50
54.93888980753915
  0
POINT
  5
107A
330
18
100
AcDbEntity
  8
DEFPOINTS
  6
ByBlock
 62
     0
100
AcDbPoint
 10
175.2732399806494
 20
91.1242156685099
 30
0.0
  0
POINT
  5
107B
330
18
100
AcDbEntity
  8
DEFPOINTS
  6
ByBlock
 62
     0
100
AcDbPoint
 10
179.294388554515
 20
96.85399438560697
 30
0.0
  0
LINE
  5
107C
330
18
100
AcDbEntity
  8
寸法線
100
AcDbLine
 10
165.0056383123694
 20
76.49379741018027
 30
0.0
 11
154.5664735584555
 21
76.49379741018027
 31
0.0
  0
TEXT
  5
107D
330
18
100
AcDbEntity
  8
文字
100
AcDbText
 10
154.3748618111317
 20
77.04536999572531
 30
0.0
 40
2.5
  1
3-φ7
  7
STYLE3
100
AcDbText
  0
LINE
  5
107E
102
{ACAD_REACTORS
330
10F9
102
}
330
18
100
AcDbEntity
  8
外形線
100
AcDbLine
 10
167.5838142675822
 20
112.2891050270584
 30
0.0
 11
186.9838142675821
 21
112.2891050270584
 31
0.0
  0
LINE
  5
107F
102
{ACAD_REACTORS
330
10F9
102
}
330
18
100
AcDbEntity
  8
外形線
100
AcDbLine
 10
167.3838142675822
 20
113.2891050270584
 30
0.0
 11
187.1838142675822
 21
113.2891050270584
 31
0.0
  0
LINE
  5
1080
102
{ACAD_REACTORS
330
10F9
102
}
330
18
100
AcDbEntity
  8
外形線
100
AcDbLine
 10
167.3838142675822
 20
122.2891050270584
 30
0.0
 11
169.4838142675822
 21
122.2891050270584
 31
0.0
  0
LINE
  5
1081
102
{ACAD_REACTORS
330
10F9
102
}
330
18
100
AcDbEntity
  8
外形線
100
AcDbLine
 10
167.5838142675822
 20
125.2891050270584
 30
0.0
 11
169.4838142675822
 21
125.2891050270584
 31
0.0
  0
LINE
  5
1082
102
{ACAD_REACTORS
330
10F9
102
}
330
18
100
AcDbEntity
  8
外形線
100
AcDbLine
 10
166.5838142675822
 20
124.2891050270584
 30
0.0
 11
166.5838142675822
 21
113.2891050270584
 31
0.0
  0
LINE
  5
1083
102
{ACAD_REACTORS
330
10F9
102
}
330
18
100
AcDbEntity
  8
外形線
100
AcDbLine
 10
187.9838142675822
 20
124.2891050270584
 30
0.0
 11
187.9838142675821
 21
113.2891050270584
 31
0.0
  0
LINE
  5
1084
102
{ACAD_REACTORS
330
10F9
102
}
330
18
100
AcDbEntity
  8
外形線
100
AcDbLine
 10
173.2838142675822
 20
125.2891050270585
 30
0.0
 11
173.2838142675822
 21
122.2891050270584
 31
0.0
  0
LINE
  5
1085
102
{ACAD_REACTORS
330
10F9
102
}
330
18
100
AcDbEntity
  8
外形線
100
AcDbLine
 10
181.2838142675822
 20
125.2891050270584
 30
0.0
 11
181.2838142675822
 21
122.2891050270584
 31
0.0
  0
LINE
  5
1086
102
{ACAD_REACTORS
330
10F9
102
}
330
18
100
AcDbEntity
  8
外形線
100
AcDbLine
 10
169.4838142675822
 20
125.2891050270584
 30
0.0
 11
169.4838142675822
 21
122.2891050270584
 31
0.0
  0
LINE
  5
1087
102
{ACAD_REACTORS
330
10F9
102
}
330
18
100
AcDbEntity
  8
外形線
100
AcDbLine
 10
185.0838142675822
 20
125.2891050270584
 30
0.0
 11
185.0838142675822
 21
122.2891050270584
 31
0.0
  0
LINE
  5
1088
102
{ACAD_REACTORS
330
10F9
102
}
330
18
100
AcDbEntity
  8
外形線
100
AcDbLine
 10
173.2838142675822
 20
125.2891050270584
 30
0.0
 11
181.2838142675822
 21
125.2891050270584
 31
0.0
  0
LINE
  5
1089
102
{ACAD_REACTORS
330
10F9
102
}
330
18
100
AcDbEntity
  8
外形線
100
AcDbLine
 10
173.2838142675822
 20
122.2891050270584
 30
0.0
 11
181.2838142675822
 21
122.2891050270584
 31
0.0
  0
LINE
  5
108A
102
{ACAD_REACTORS
330
10F9
102
}
330
18
100
AcDbEntity
  8
外形線
100
AcDbLine
 10
185.0838142675822
 20
125.2891050270584
 30
0.0
 11
186.9838142675822
 21
125.2891050270584
 31
0.0
  0
LINE
  5
108B
102
{ACAD_REACTORS
330
10F9
102
}
330
18
100
AcDbEntity
  8
外形線
100
AcDbLine
 10
185.0838142675822
 20
122.2891050270584
 30
0.0
 11
187.1838142675822
 21
122.2891050270584
 31
0.0
  0
LINE
  5
108C
102
{ACAD_REACTORS
330
10F9
102
}
330
18
100
AcDbEntity
  8
外形線
100
AcDbLine
 10
167.3838142675822
 20
122.2891050270584
 30
0.0
 11
167.3838142675822
 21
113.2891050270584
 31
0.0
  0
LINE
  5
108D
102
{ACAD_REACTORS
330
10F9
102
}
330
18
100
AcDbEntity
  8
外形線
100
AcDbLine
 10
187.1838142675822
 20
122.2891050270584
 30
0.0
 11
187.1838142675822
 21
113.2891050270584
 31
0.0
  0
ARC
  5
10C0
102
{ACAD_REACTORS
330
10F9
102
}
330
18
100
AcDbEntity
  8
外形線
100
AcDbCircle
 10
167.5838142675822
 20
124.2891050270584
 30
0.0
 40
1.0
100
AcDbArc
 50
90.0
 51
180.0
  0
ARC
  5
10C1
102
{ACAD_REACTORS
330
10F9
102
}
330
18
100
AcDbEntity
  8
外形線
100
AcDbCircle
 10
186.9838142675822
 20
124.2891050270584
 30
0.0
 40
1.0
100
AcDbArc
 50
0.0
 51
90.00000000000055
  0
ARC
  5
10C2
102
{ACAD_REACTORS
330
10F9
102
}
330
18
100
AcDbEntity
  8
外形線
100
AcDbCircle
 10
186.9838142675821
 20
113.2891050270584
 30
0.0
 40
1.0
100
AcDbArc
 50
269.9999999999998
 51
0.0
  0
ARC
  5
10C3
102
{ACAD_REACTORS
330
10F9
102
}
330
18
100
AcDbEntity
  8
外形線
100
AcDbCircle
 10
167.5838142675822
 20
113.2891050270584
 30
0.0
 40
1.0
100
AcDbArc
 50
180.0
 51
269.9999999999998
  0
HATCH
  5
10F9
330
18
100
AcDbEntity
  8
寸法線
100
AcDbHatch
 10
0.0
 20
0.0
 30
0.0
210
0.0
220
0.0
230
1.0
  2
SOLID
 70
     1
 71
     1
 91
        8
 92
        7
 72
     0
 73
     1
 93
        4
 10
177.2838142675822
 20
122.2891050270584
 10
181.2838142675822
 20
122.2891050270584
 10
181.2838142675822
 20
125.2891050270584
 10
177.2838142675822
 20
125.2891050270584
 97
        4
330
1088
330
810
330
1089
330
1085
 92
        7
 72
     0
 73
     1
 93
        4
 10
177.2838142675822
 20
125.2891050270584
 10
173.2838142675822
 20
125.2891050270585
 10
173.2838142675822
 20
122.2891050270584
 10
177.2838142675822
 20
122.2891050270584
 97
        4
330
1088
330
1084
330
1089
330
810
 92
        7
 72
     1
 73
     1
 93
        7
 10
169.4838142675822
 20
125.2891050270584
 42
0.0
 10
167.5838142675822
 20
125.2891050270584
 42
0.4142135623730951
 10
166.5838142675822
 20
124.2891050270584
 42
0.0
 10
166.5838142675822
 20
117.9891050270584
 42
0.0
 10
167.3838142675822
 20
117.9891050270584
 42
0.0
 10
167.3838142675822
 20
122.2891050270584
 42
0.0
 10
169.4838142675822
 20
122.2891050270584
 42
0.0
 97
        7
330
1081
330
10C0
330
1082
330
ED6
330
108C
330
1080
330
1086
 92
        7
 72
     1
 73
     1
 93
        7
 10
166.5838142675822
 20
113.2891050270584
 42
0.4142135623730942
 10
167.5838142675822
 20
112.2891050270584
 42
0.0
 10
171.2838142675822
 20
112.2891050270584
 42
0.0
 10
171.2838142675822
 20
113.2891050270584
 42
0.0
 10
167.3838142675822
 20
113.2891050270584
 42
0.0
 10
167.3838142675822
 20
117.9891050270584
 42
0.0
 10
166.5838142675822
 20
117.9891050270584
 42
0.0
 97
        7
330
ED6
330
1082
330
10C3
330
107E
330
ECF
330
107F
330
108C
 92
        7
 72
     0
 73
     1
 93
        4
 10
177.2838142675822
 20
112.2891050270584
 10
177.2838142675822
 20
113.2891050270584
 10
171.2838142675822
 20
113.2891050270584
 10
171.2838142675821
 20
112.2891050270584
 97
        4
330
107F
330
ECF
330
107E
330
810
 92
        7
 72
     0
 73
     1
 93
        4
 10
177.2838142675822
 20
113.2891050270584
 10
177.2838142675822
 20
112.2891050270584
 10
183.2838142675822
 20
112.2891050270584
 10
183.2838142675822
 20
113.2891050270584
 97
        4
330
107F
330
810
330
107E
330
ED0
 92
        7
 72
     1
 73
     1
 93
        7
 10
183.2838142675821
 20
113.2891050270584
 42
0.0
 10
183.2838142675822
 20
112.2891050270584
 42
0.0
 10
186.9838142675821
 20
112.2891050270584
 42
0.4142135623730958
 10
187.9838142675821
 20
113.2891050270584
 42
0.0
 10
187.9838142675821
 20
117.9891050270584
 42
0.0
 10
187.1838142675822
 20
117.9891050270584
 42
0.0
 10
187.1838142675821
 20
113.2891050270584
 42
0.0
 97
        7
330
1083
330
ED4
330
108D
330
107F
330
ED0
330
107E
330
10C2
 92
        7
 72
     1
 73
     1
 93
        7
 10
187.1838142675822
 20
117.9891050270584
 42
0.0
 10
187.9838142675822
 20
117.9891050270584
 42
0.0
 10
187.9838142675822
 20
124.2891050270584
 42
0.4142135623730979
 10
186.9838142675822
 20
125.2891050270584
 42
0.0
 10
185.0838142675822
 20
125.2891050270584
 42
0.0
 10
185.0838142675822
 20
122.2891050270584
 42
0.0
 10
187.1838142675822
 20
122.2891050270584
 42
0.0
 97
        7
330
10C1
330
108A
330
1087
330
108B
330
108D
330
ED4
330
1083
 75
     0
 76
     1
 47
0.0388306456286899
 98
        8
 10
178.5543941752204
 20
123.5857055373259
 10
176.1456988670927
 20
123.5080444028971
 10
168.9584626999067
 20
123.7410282675513
 10
166.9771162012196
 20
117.0233262984261
 10
174.1643523684056
 20
112.5189717355675
 10
179.5644923031625
 20
112.984939464876
 10
186.7905782275457
 20
112.868447301865
 10
187.5287265748355
 20
119.5084876751934
450
        0
451
        0
460
0.0
461
0.0
452
        0
462
0.0
453
        0
470

  0
TEXT
  5
110F
330
18
100
AcDbEntity
  8
文字
100
AcDbText
 10
167.728033639141
 20
110.2237997715483
 30
0.0
 40
1.0
  1
SIGNAL  CHECKER
 41
1.6
  7
4
100
AcDbText
  0
TEXT
  5
1112
330
18
100
AcDbEntity
  8
文字
100
AcDbText
 10
177.7960295108266
 20
127.0609300219895
 30
0.0
 40
1.8
  1
SC-2A
 41
1.399999999999999
  7
4
100
AcDbText
  0
TEXT
  5
1114
330
18
100
AcDbEntity
  8
文字
100
AcDbText
 10
180.3360474877262
 20
129.4143480281843
 30
0.0
 40
1.024906755959363
  1
MODEL
 41
1.3
  7
4
100
AcDbText
  0
TEXT
  5
1115
330
18
100
AcDbEntity
  8
文字
100
AcDbText
 10
170.2517197137642
 20
122.3267159246699
 30
0.0
 40
3.0
  1
1
  7
4
100
AcDbText
  0
TEXT
  5
1116
330
18
100
AcDbEntity
  8
文字
100
AcDbText
 10
182.1925602855141
 20
122.3267159246699
 30
0.0
 40
3.0
  1
2
  7
4
100
AcDbText
  0
HATCH
  5
11DF
330
18
100
AcDbEntity
  8
寸法線
100
AcDbHatch
 10
0.0
 20
0.0
 30
0.0
210
0.0
220
0.0
230
1.0
  2
SOLID
 70
     1
 71
     0
 91
       10
 92
        7
 72
     0
 73
     1
 93
        4
 10
176.2325236954065
 20
127.1891050270584
 10
176.2325236954065
 20
130.4891050270584
 10
166.6325236954065
 20
130.4891050270584
 10
166.6325236954065
 20
127.1891050270584
 97
        0
 92
       20
 93
       17
 72
     1
 10
174.4356217150401
 20
128.3308882224213
 11
174.1073011865512
 21
128.3308882224213
 72
     1
 10
174.1073011865512
 20
128.3308882224213
 11
173.9913356166237
 21
128.5634555282831
 72
     1
 10
173.9913356166237
 20
128.5634555282831
 11
173.8753700466963
 21
128.3308882224213
 72
     1
 10
173.8753700466963
 20
128.3308882224213
 11
167.8440251866293
 21
128.3308882224213
 72
     1
 10
167.8440251866293
 20
128.3308882224213
 11
168.2848955138593
 21
129.2219120984148
 72
     1
 10
168.2848955138593
 20
129.2219120984148
 11
168.9851193806092
 21
129.2219120984148
 72
     4
 94
        3
 73
     0
 74
     0
 95
       18
 96
       14
 40
0.1087402787915014
 40
0.1087402787915014
 40
0.1087402787915014
 40
0.1087402787915014
 40
0.5992371417938475
 40
1.083176791562496
 40
1.448211145705696
 40
1.714037220764907
 40
2.164002567013297
 40
2.740236056362883
 40
3.395137510199602
 40
4.071816045172726
 40
4.784906178399433
 40
5.506895915094292
 40
6.060470601257719
 40
6.060470601257719
 40
6.060470601257719
 40
6.060470601257719
 10
168.9851193806092
 20
129.2219120984148
 10
169.0075524218761
 20
129.213690764717
 10
169.0516667661121
 20
129.1963096089284
 10
169.1055070835596
 20
129.1566400681397
 10
169.1348692679313
 20
129.1108448247338
 10
169.1631124020355
 20
129.0657218120856
 10
169.1670649770974
 20
129.0009852188303
 10
169.1605903921156
 20
128.9191424745408
 10
169.1187910563995
 20
128.833748016538
 10
169.051700664157
 20
128.759058681977
 10
168.9684032602482
 20
128.6992783126609
 10
168.8805632746341
 20
128.652352262188
 10
168.8177752282247
 20
128.6518846986179
 10
168.7905262140134
 20
128.6516817834597
 72
     1
 10
168.7905262140133
 20
128.6516817834597
 11
168.4033472730259
 21
128.6516817834597
 72
     1
 10
168.4033472730259
 20
128.6516817834597
 11
168.2986183749762
 21
128.4202000598135
 72
     1
 10
168.2986183749762
 20
128.4202000598135
 11
173.5915761012887
 21
128.4202000598135
 72
     1
 10
173.5915761012887
 20
128.4202000598135
 11
173.9913356166238
 21
129.2219120984148
 72
     1
 10
173.9913356166238
 20
129.2219120984148
 11
174.3196633286589
 21
129.2219120984147
 72
     1
 10
174.3196633286589
 20
129.2219120984147
 11
174.2711555433677
 21
129.1246304229523
 72
     1
 10
174.2711555433677
 20
129.1246304229523
 11
174.4248849506591
 21
129.2219120984147
 72
     1
 10
174.4248849506591
 20
129.2219120984147
 11
174.753205479148
 21
129.2219120984148
 72
     1
 10
174.753205479148
 20
129.2219120984148
 11
174.2134750740588
 21
128.776400160418
 72
     1
 10
174.2134750740588
 20
128.776400160418
 11
174.4356217150401
 21
128.3308882224213
 97
        0
 92
       20
 93
        8
 72
     1
 10
173.5875704353771
 20
128.6516817834597
 11
173.0964235585617
 21
128.6516817834597
 72
     4
 94
        3
 73
     0
 74
     0
 95
       26
 96
       22
 40
0.0
 40
0.0
 40
0.0
 40
0.0
 40
0.1094204162425951
 40
0.3490575921815022
 40
0.459179294191082
 40
0.653770343230133
 40
0.7880942882745954
 40
0.9741069891657115
 40
1.105058463392918
 40
1.348201803934438
 40
1.692052299391429
 40
1.884275813088349
 40
2.080311995327712
 40
2.368532583376607
 40
2.722618183621123
 40
2.918704176887568
 40
3.187351002818171
 40
3.394472016966909
 40
3.671865869583647
 40
4.056557304454374
 40
4.631218890929293
 40
4.631218890929293
 40
4.631218890929293
 40
4.631218890929293
 10
173.0964235585616
 20
128.6516817834597
 10
173.0903529962628
 20
128.6540073198273
 10
173.0709875438915
 20
128.6614259182283
 10
173.0405214640859
 20
128.6651532980911
 10
173.0231169128509
 20
128.6943630880631
 10
173.0020735832753
 20
128.7104871324806
 10
172.9828422084863
 20
128.7348327813584
 10
172.9671365409673
 20
128.7569372747652
 10
172.9533453993069
 20
128.7879859165396
 10
172.9502565095468
 20
128.8314805297203
 10
172.9480995325613
 20
128.8783119365888
 10
172.9565772722774
 20
128.9216602307889
 10
172.9680087020825
 20
128.9605596212546
 10
172.9809140444734
 20
129.009366531266
 10
173.0062564419888
 20
129.0536489179479
 10
173.0373334322294
 20
129.091677192347
 10
173.0619842553451
 20
129.1235936912281
 10
173.0956141145408
 20
129.1544927774011
 10
173.1427676708803
 20
129.1772224740658
 10
173.2071271965783
 20
129.2163201947572
 10
173.265742754204
 20
129.2198172994403
 10
173.3008540308538
 20
129.2219120984148
 72
     1
 10
173.3008540308539
 20
129.2219120984148
 11
173.8719056871384
 21
129.2219120984148
 72
     1
 10
173.8719056871384
 20
129.2219120984148
 11
173.7661145385426
 21
129.0097494502396
 72
     1
 10
173.7661145385426
 20
129.0097494502396
 11
173.4092640488384
 21
129.0097494502396
 72
     4
 94
        3
 73
     0
 74
     0
 95
       16
 96
       12
 40
0.0
 40
0.0
 40
0.0
 40
0.0
 40
0.3029648785292594
 40
0.4509413735127369
 40
0.5239132529538859
 40
0.6008137308948632
 40
0.710934995373763
 40
0.811205891223145
 40
0.9157860995407135
 40
1.091122375522274
 40
1.264668647774946
 40
1.264668647774946
 40
1.264668647774946
 40
1.264668647774946
 10
173.4092640488384
 20
129.0097494502396
 10
173.3907951820454
 20
129.0069337468996
 10
173.3633056056984
 20
129.0027427755311
 10
173.3384467633224
 20
128.9830647894066
 10
173.3244281022099
 20
128.971357697499
 10
173.3196588912444
 20
128.9558541845864
 10
173.3068502882679
 20
128.943949866563
 10
173.2962923560935
 20
128.9275895017124
 10
173.2937713612168
 20
128.9051182755921
 10
173.2956218291749
 20
128.8735833343644
 10
173.3177323011491
 20
128.8670781093118
 10
173.3287308162892
 20
128.8638421848904
 72
     1
 10
173.3287308162893
 20
128.8638421848904
 11
173.6933604636735
 21
128.8638421848904
 72
     1
 10
173.6933604636735
 20
128.8638421848904
 11
173.5875704353771
 21
128.6516817834597
 97
        0
 92
       22
 72
     1
 73
     1
 93
        5
 10
172.5707486535544
 20
128.6516817834597
 42
0.0
 10
172.3470368321435
 20
128.6516817834597
 42
-1.041949275323285
 10
172.3470368321432
 20
129.2219120984148
 42
0.0
 10
172.4851969473099
 20
129.2219120984148
 42
0.0
 10
172.5541781205422
 20
129.2219120984148
 42
-0.9713627655769558
 97
        0
 92
       22
 72
     1
 73
     1
 93
        7
 10
172.449806017564
 20
128.8475347060305
 42
0.0
 10
172.4291412410375
 20
128.8504230839845
 42
-0.5021586771279523
 10
172.3785671737897
 20
128.9275735333273
 42
-0.468527350884102
 10
172.4500034416747
 20
128.9912552454161
 42
0.0
 10
172.4657143906442
 20
128.9890592788359
 42
-0.4858031856705802
 10
172.5157239263231
 20
128.9091999227882
 42
0.0
 10
172.5151817942465
 20
128.9053212620346
 42
-0.5192769690505641
 97
        0
 92
       20
 93
        8
 72
     1
 10
171.9287817415843
 20
129.0097494502397
 11
171.57193125188
 21
129.0097494502396
 72
     4
 94
        3
 73
     0
 74
     0
 95
       16
 96
       12
 40
0.0
 40
0.0
 40
0.0
 40
0.0
 40
0.3029648785292891
 40
0.4509413735127203
 40
0.5239132529538693
 40
0.6008137308948465
 40
0.7109349953737907
 40
0.8112058912231434
 40
0.9157860995406091
 40
1.091122375522293
 40
1.264668647774888
 40
1.264668647774888
 40
1.264668647774888
 40
1.264668647774888
 10
171.5719312518801
 20
129.0097494502396
 10
171.5534623850872
 20
129.0069337468996
 10
171.5259728087401
 20
129.0027427755311
 10
171.5011139663641
 20
128.9830647894066
 10
171.4870953052516
 20
128.971357697499
 10
171.4823260942861
 20
128.9558541845864
 10
171.4695174913096
 20
128.943949866563
 10
171.4589595591352
 20
128.9275895017124
 10
171.4564385642584
 20
128.9051182755921
 10
171.4582890322166
 20
128.8735833343644
 10
171.4803995041908
 20
128.8670781093118
 10
171.4913980193309
 20
128.8638421848904
 72
     1
 10
171.4913980193309
 20
128.8638421848904
 11
171.8560276667152
 21
128.8638421848904
 72
     1
 10
171.8560276667152
 20
128.8638421848904
 11
171.7502376384188
 21
128.6516817834597
 72
     1
 10
171.7502376384188
 20
128.6516817834597
 11
171.2590907616034
 21
128.6516817834597
 72
     4
 94
        3
 73
     0
 74
     0
 95
       26
 96
       22
 40
0.0
 40
0.0
 40
0.0
 40
0.0
 40
0.1094204162426324
 40
0.3490575921815191
 40
0.4591792941910989
 40
0.6537703432301499
 40
0.7880942882745683
 40
0.9741069891656529
 40
1.105058463392934
 40
1.348201803934398
 40
1.692052299391388
 40
1.88427581308842
 40
2.080311995327689
 40
2.368532583376621
 40
2.722618183621087
 40
2.918704176887577
 40
3.187351002818137
 40
3.394472016966912
 40
3.67186586958365
 40
4.056557304454377
 40
4.631218890929288
 40
4.631218890929288
 40
4.631218890929288
 40
4.631218890929288
 10
171.2590907616033
 20
128.6516817834597
 10
171.2530201993046
 20
128.6540073198273
 10
171.2336547469332
 20
128.6614259182283
 10
171.2031886671276
 20
128.6651532980912
 10
171.1857841158926
 20
128.6943630880631
 10
171.164740786317
 20
128.7104871324807
 10
171.145509411528
 20
128.7348327813584
 10
171.129803744009
 20
128.7569372747652
 10
171.1160126023486
 20
128.7879859165396
 10
171.1129237125885
 20
128.8314805297203
 10
171.110766735603
 20
128.8783119365888
 10
171.1192444753191
 20
128.9216602307889
 10
171.1306759051242
 20
128.9605596212546
 10
171.1435812475151
 20
129.009366531266
 10
171.1689236450305
 20
129.0536489179479
 10
171.2000006352711
 20
129.091677192347
 10
171.2246514583869
 20
129.1235936912281
 10
171.2582813175825
 20
129.1544927774011
 10
171.305434873922
 20
129.1772224740658
 10
171.36979439962
 20
129.2163201947572
 10
171.4284099572457
 20
129.2198172994403
 10
171.4635212338955
 20
129.2219120984148
 72
     1
 10
171.4635212338957
 20
129.2219120984148
 11
172.0345728901801
 21
129.2219120984148
 72
     1
 10
172.0345728901801
 20
129.2219120984148
 11
171.9287817415843
 21
129.0097494502397
 97
        0
 92
       22
 72
     0
 73
     1
 93
        8
 10
171.134247482232
 20
128.6516817834597
 10
170.8184419532825
 20
128.6516817834598
 10
170.7401512249608
 20
128.7602501072995
 10
170.3763645952783
 20
128.7602501072995
 10
170.2980738669566
 20
128.6516817834597
 10
169.982268338007
 20
128.6516817834597
 10
170.393472500418
 20
129.2219120984148
 10
170.7230433198211
 20
129.2219120984148
 97
        0
 92
        6
 72
     0
 73
     1
 93
        3
 10
170.657575632956
 20
128.8747603923132
 10
170.458940187283
 20
128.8747603923132
 10
170.5582579101195
 20
129.0124875399218
 97
        0
 92
       22
 72
     0
 73
     1
 93
       12
 10
170.1700544906773
 20
129.2219120984148
 10
170.1054235665997
 20
129.0912893440042
 10
169.7000686822347
 20
129.0912893440042
 10
169.649535331014
 20
128.9891585819852
 10
170.054890215379
 20
128.9891585819852
 10
170.0030729976668
 20
128.8844330531449
 10
169.5977181133018
 20
128.8844330531449
 10
169.547182622742
 20
128.7822979674004
 10
169.952537507107
 20
128.7822979674004
 10
169.8879098340368
 20
128.6516817834597
 10
169.1166496101434
 20
128.6516817834598
 10
169.3987942667839
 20
129.2219120984147
 97
        0
 92
        4
 93
        4
 72
     4
 94
        3
 73
     0
 74
     0
 95
       15
 96
       11
 40
0.0
 40
0.0
 40
0.0
 40
0.0
 40
0.3714260192954959
 40
0.5407758541881006
 40
0.7329991907503102
 40
0.8639506649775173
 40
1.071051779626874
 40
1.195099689928134
 40
1.407925254728536
 40
1.478867154939799
 40
1.478867154939799
 40
1.478867154939799
 40
1.478867154939799
 10
168.7378697668995
 20
129.0014023999983
 10
168.7629815949596
 20
129.0015174255751
 10
168.7995430353648
 20
129.0016848964881
 10
168.8195361331499
 20
128.9564582889751
 10
168.8105742734484
 20
128.9273394090013
 10
168.7993084854003
 20
128.8974433949672
 10
168.7793992863869
 20
128.8771286025351
 10
168.7526782251522
 20
128.8575620328219
 10
168.7274255453413
 20
128.8551934119431
 10
168.7110015118333
 20
128.8508416003222
 10
168.7068955014909
 20
128.8497536468962
 72
     1
 10
168.7068955014908
 20
128.8497536468962
 11
168.4929606026038
 21
128.8497536468962
 72
     1
 10
168.4929606026038
 20
128.8497536468962
 11
168.561570800216
 21
129.0014023999983
 72
     1
 10
168.561570800216
 20
129.0014023999983
 11
168.7378697668995
 21
129.0014023999983
 97
        0
 75
     0
 76
     1
 47
0.0599744459730108
 98
       10
 10
174.8382850209712
 20
127.6876384064803
 10
174.8382850209712
 20
127.6876384064803
 10
174.8382850209712
 20
127.6876384064803
 10
174.8382850209712
 20
127.6876384064803
 10
174.8382850209712
 20
127.6876384064803
 10
174.8382850209712
 20
127.6876384064803
 10
174.8382850209712
 20
127.6876384064803
 10
174.8382850209712
 20
127.6876384064803
 10
174.8382850209712
 20
127.6876384064803
 10
174.8382850209712
 20
127.6876384064803
450
        0
451
        0
460
0.0
461
0.0
452
        0
462
0.0
453
        0
470

  0
LINE
  5
11E8
102
{ACAD_REACTORS
330
11F0
102
}
330
18
100
AcDbEntity
  8
外形線
100
AcDbLine
 10
177.8997209976766
 20
129.9891050270584
 30
0.0
 11
179.8997209976766
 21
129.9891050270584
 31
0.0
  0
LINE
  5
11E9
102
{ACAD_REACTORS
330
11F0
102
}
330
18
100
AcDbEntity
  8
外形線
100
AcDbLine
 10
177.8997209976766
 20
129.7891050270584
 30
0.0
 11
179.8997209976766
 21
129.7891050270584
 31
0.0
  0
LINE
  5
11EA
102
{ACAD_REACTORS
330
11F0
102
}
330
18
100
AcDbEntity
  8
外形線
100
AcDbLine
 10
186.7536384150147
 20
129.9891050270584
 30
0.0
 11
188.7536384150147
 21
129.9891050270584
 31
0.0
  0
LINE
  5
11EB
102
{ACAD_REACTORS
330
11F0
102
}
330
18
100
AcDbEntity
  8
外形線
100
AcDbLine
 10
186.7536384150147
 20
129.7891050270584
 30
0.0
 11
188.7536384150147
 21
129.7891050270584
 31
0.0
  0
LINE
  5
11EC
102
{ACAD_REACTORS
330
11F0
102
}
330
18
100
AcDbEntity
  8
外形線
100
AcDbLine
 10
177.8997209976766
 20
129.9891050270584
 30
0.0
 11
177.8997209976766
 21
129.7891050270584
 31
0.0
  0
LINE
  5
11ED
102
{ACAD_REACTORS
330
11F0
102
}
330
18
100
AcDbEntity
  8
外形線
100
AcDbLine
 10
179.8997209976766
 20
129.9891050270584
 30
0.0
 11
179.8997209976766
 21
129.7891050270584
 31
0.0
  0
LINE
  5
11EE
102
{ACAD_REACTORS
330
11F0
102
}
330
18
100
AcDbEntity
  8
外形線
100
AcDbLine
 10
186.7536384150147
 20
129.9891050270584
 30
0.0
 11
186.7536384150147
 21
129.7891050270584
 31
0.0
  0
LINE
  5
11EF
102
{ACAD_REACTORS
330
11F0
102
}
330
18
100
AcDbEntity
  8
外形線
100
AcDbLine
 10
188.7536384150147
 20
129.9891050270584
 30
0.0
 11
188.7536384150147
 21
129.7891050270584
 31
0.0
  0
HATCH
  5
11F0
330
18
100
AcDbEntity
  8
外形線
100
AcDbHatch
 10
0.0
 20
0.0
 30
0.0
210
0.0
220
0.0
230
1.0
  2
SOLID
 70
     1
 71
     1
 91
        2
 92
        1
 93
        4
 72
     1
 10
179.8997209976766
 20
129.9891050270584
 11
179.8997209976766
 21
129.7891050270584
 72
     1
 10
179.8997209976766
 20
129.7891050270584
 11
177.8997209976766
 21
129.7891050270584
 72
     1
 10
177.8997209976766
 20
129.7891050270584
 11
177.8997209976766
 21
129.9891050270584
 72
     1
 10
177.8997209976766
 20
129.9891050270584
 11
179.8997209976766
 21
129.9891050270584
 97
        4
330
11ED
330
11E9
330
11EC
330
11E8
 92
        1
 93
        4
 72
     1
 10
188.7536384150147
 20
129.9891050270584
 11
188.7536384150147
 21
129.7891050270584
 72
     1
 10
188.7536384150147
 20
129.7891050270584
 11
186.7536384150147
 21
129.7891050270584
 72
     1
 10
186.7536384150147
 20
129.7891050270584
 11
186.7536384150147
 21
129.9891050270584
 72
     1
 10
186.7536384150147
 20
129.9891050270584
 11
188.7536384150147
 21
129.9891050270584
 97
        4
330
11EF
330
11EB
330
11EE
330
11EA
 75
     0
 76
     1
 98
        1
 10
32.41538892575545
 20
-14.45589751806614
450
        0
451
        0
460
0.0
461
0.0
452
        0
462
0.0
453
        0
470

  0
LINE
  5
125D
330
18
100
AcDbEntity
  8
中心線
 48
0.3
100
AcDbLine
 10
83.20552837265234
 20
135.9891050270584
 30
0.0
 11
95.01657644522948
 21
135.9891050270584
 31
0.0
  0
CIRCLE
  5
125E
330
18
100
AcDbEntity
  8
外形線
100
AcDbCircle
 10
89.08853333419836
 20
135.9891050270584
 30
0.0
 40
2.0
  0
CIRCLE
  5
125F
330
18
100
AcDbEntity
  8
寸法線
100
AcDbCircle
 10
89.08853333419836
 20
135.9891050270584
 30
0.0
 40
1.555901655513878
  0
LWPOLYLINE
  5
1260
330
18
100
AcDbEntity
  8
外形線
100
AcDbPolyline
 90
        6
 70
     1
 43
0.0
 10
89.08853333419836
 20
134.691474848052
 10
90.21231403393523
 20
135.3402899375552
 10
90.21231403393523
 20
136.6379201165616
 10
89.08853333419836
 20
137.2867352060648
 10
87.96475263446149
 20
136.6379201165616
 10
87.96475263446149
 20
135.3402899375552
  0
LINE
  5
1263
330
18
100
AcDbEntity
  8
寸法線
100
AcDbLine
 10
85.61336796019975
 20
141.4891050270584
 30
0.0
 11
87.05674363317383
 21
143.9891050270584
 31
0.0
  0
LINE
  5
1264
330
18
100
AcDbEntity
  8
寸法線
100
AcDbLine
 10
92.2734012555809
 20
143.9891050270584
 30
0.0
 11
93.08853333419836
 21
142.5772548520137
 31
0.0
  0
LINE
  5
1265
330
18
100
AcDbEntity
  8
寸法線
100
AcDbLine
 10
85.08853333419835
 20
142.2807975782348
 30
0.0
 11
86.07482509963531
 21
143.9891050270584
 31
0.0
  0
LINE
  5
1266
330
18
100
AcDbEntity
  8
寸法線
100
AcDbLine
 10
86.75032684652775
 20
141.4891050270584
 30
0.0
 11
88.19370251950184
 21
143.9891050270584
 31
0.0
  0
LINE
  5
1267
330
18
100
AcDbEntity
  8
寸法線
100
AcDbLine
 10
87.88728499269678
 20
141.4891050270584
 30
0.0
 11
89.33066066567088
 21
143.9891050270584
 31
0.0
  0
LINE
  5
1268
330
18
100
AcDbEntity
  8
寸法線
100
AcDbLine
 10
89.12760337405883
 20
141.4891050270584
 30
0.0
 11
90.57097904703288
 21
143.9891050270584
 31
0.0
  0
LINE
  5
1269
330
18
100
AcDbEntity
  8
寸法線
100
AcDbLine
 10
90.2645622603868
 20
141.4891050270584
 30
0.0
 11
91.70793793336091
 21
143.9891050270584
 31
0.0
  0
LINE
  5
126A
330
18
100
AcDbEntity
  8
寸法線
100
AcDbLine
 10
91.40152114671479
 20
141.4891050270584
 30
0.0
 11
92.8448968196889
 21
143.9891050270584
 31
0.0
  0
LINE
  5
126B
330
18
100
AcDbEntity
  8
寸法線
100
AcDbLine
 10
92.53847929288395
 20
141.4891050270584
 30
0.0
 11
93.08853333419836
 21
142.4418265735235
 31
0.0
  0
LINE
  5
126C
330
18
100
AcDbEntity
  8
寸法線
100
AcDbLine
 10
91.18812248684935
 20
143.9891050270584
 30
0.0
 11
92.63149815982339
 21
141.4891050270584
 31
0.0
  0
LINE
  5
126D
330
18
100
AcDbEntity
  8
寸法線
100
AcDbLine
 10
90.05116360052136
 20
143.9891050270584
 30
0.0
 11
91.49453927349544
 21
141.4891050270584
 31
0.0
  0
LINE
  5
126E
330
18
100
AcDbEntity
  8
寸法線
100
AcDbLine
 10
88.86252533675591
 20
143.9891050270584
 30
0.0
 11
90.30590100972998
 21
141.4891050270584
 31
0.0
  0
LINE
  5
126F
330
18
100
AcDbEntity
  8
寸法線
100
AcDbLine
 10
87.62220695539387
 20
143.9891050270584
 30
0.0
 11
89.06558262836794
 21
141.4891050270584
 31
0.0
  0
LINE
  5
1270
330
18
100
AcDbEntity
  8
寸法線
100
AcDbLine
 10
86.33020845643537
 20
143.9891050270584
 30
0.0
 11
87.77358412940944
 21
141.4891050270584
 31
0.0
  0
LINE
  5
1271
330
18
100
AcDbEntity
  8
寸法線
100
AcDbLine
 10
85.08853333419835
 20
144.2599914574483
 30
0.0
 11
86.68830536067787
 21
141.4891050270584
 31
0.0
  0
LINE
  5
1272
330
18
100
AcDbEntity
  8
寸法線
100
AcDbLine
 10
85.08853333419835
 20
142.5592586684661
 30
0.0
 11
85.70638682713934
 21
141.4891050270584
 31
0.0
  0
LINE
  5
1273
330
18
100
AcDbEntity
  8
寸法線
100
AcDbLine
 10
114.5885333341983
 20
120.765251620289
 30
0.0
 11
124.5885333341983
 21
120.7652516202889
 31
0.0
  0
LINE
  5
1274
330
18
100
AcDbEntity
  8
寸法線
100
AcDbLine
 10
114.5885333341983
 20
119.9810771347373
 30
0.0
 11
124.5885333341983
 21
119.9810771347372
 31
0.0
  0
LINE
  5
1275
330
18
100
AcDbEntity
  8
寸法線
100
AcDbLine
 10
114.5885333341983
 20
119.0159389514567
 30
0.0
 11
124.5885333341983
 21
119.0159389514566
 31
0.0
  0
LINE
  5
1276
330
18
100
AcDbEntity
  8
寸法線
100
AcDbLine
 10
114.5885333341983
 20
116.8443787311484
 30
0.0
 11
124.5885333341983
 21
116.8443787311484
 31
0.0
  0
LINE
  5
1277
330
18
100
AcDbEntity
  8
寸法線
100
AcDbLine
 10
114.5885333341983
 20
115.9395620880321
 30
0.0
 11
124.5885333341983
 21
115.9395620880321
 31
0.0
  0
LINE
  5
1278
330
18
100
AcDbEntity
  8
寸法線
100
AcDbLine
 10
114.5885333341983
 20
115.0950660623161
 30
0.0
 11
124.5885333341983
 21
115.095066062316
 31
0.0
  0
LINE
  5
1279
330
18
100
AcDbEntity
  8
寸法線
100
AcDbLine
 10
112.7885333341984
 20
95.01593895145667
 30
0.0
 11
122.7885333341983
 21
95.01593895145665
 31
0.0
  0
LINE
  5
127A
330
18
100
AcDbEntity
  8
寸法線
100
AcDbLine
 10
112.7885333341984
 20
95.98107713473728
 30
0.0
 11
122.7885333341983
 21
95.98107713473725
 31
0.0
  0
LINE
  5
127B
330
18
100
AcDbEntity
  8
寸法線
100
AcDbLine
 10
112.7885333341984
 20
96.765251620289
 30
0.0
 11
122.7885333341983
 21
96.76525162028896
 31
0.0
  0
LINE
  5
127C
330
18
100
AcDbEntity
  8
寸法線
100
AcDbLine
 10
112.7885333341984
 20
91.0950660623161
 30
0.0
 11
122.7885333341983
 21
91.09506606231606
 31
0.0
  0
LINE
  5
127D
330
18
100
AcDbEntity
  8
寸法線
100
AcDbLine
 10
112.7885333341984
 20
91.93956208803211
 30
0.0
 11
122.7885333341983
 21
91.93956208803207
 31
0.0
  0
LINE
  5
127E
330
18
100
AcDbEntity
  8
寸法線
100
AcDbLine
 10
112.7885333341984
 20
92.84437873114841
 30
0.0
 11
122.7885333341983
 21
92.84437873114837
 31
0.0
  0
LINE
  5
1341
330
18
100
AcDbEntity
  8
外形線
100
AcDbLine
 10
87.10561454555705
 20
184.4003757911428
 30
0.0
 11
184.105614545557
 21
184.4003757911428
 31
0.0
  0
LINE
  5
1342
330
18
100
AcDbEntity
  8
外形線
100
AcDbLine
 10
87.10561454555705
 20
183.4003757911428
 30
0.0
 11
184.105614545557
 21
183.4003757911428
 31
0.0
  0
TEXT
  5
1343
330
18
100
AcDbEntity
  8
文字
100
AcDbText
 10
87.71395654555703
 20
186.7909177911428
 30
0.0
 40
4.0
  1
Model No.SC-2A Signal Checker
  7
STYLE3
100
AcDbText
  0
TEXT
  5
1344
330
18
100
AcDbEntity
  8
0
  6
Continuous
100
AcDbText
 10
196.5541669819637
 20
4.156125859008552
 30
0.0
 40
2.1
  1
2010.07.01
  7
STYLE3
100
AcDbText
  0
TEXT
  5
1345
330
18
100
AcDbEntity
  8
0
  6
Continuous
100
AcDbText
 10
115.3359529819637
 20
16.10175985900855
 30
0.0
 40
3.5
  1
仕様及び外観は予告なく変更される場合がございますのでご了承下さい。
  7
STYLE3
100
AcDbText
  0
TEXT
  5
1346
330
18
100
AcDbEntity
  8
0
  6
Continuous
100
AcDbText
 10
115.0444589819637
 20
12.17261185900855
 30
0.0
 40
2.1
  1
Design and specifications are subject to change without notice for future improvement.
  7
STYLE3
100
AcDbText
  0
LINE
  5
1347
330
18
100
AcDbEntity
  8
外形線
100
AcDbLine
 10
113.5869919819637
 20
10.27462085900855
 30
0.0
 11
254.3784089819637
 21
10.27462085900855
 31
0.0
  0
LINE
  5
1348
330
18
100
AcDbEntity
  8
外形線
100
AcDbLine
 10
113.5869919819637
 20
21.05482685900855
 30
0.0
 11
254.3784089819637
 21
21.05482685900855
 31
0.0
  0
TEXT
  5
1349
330
18
100
AcDbEntity
  8
0
  6
Continuous
100
AcDbText
 10
114.7529679819637
 20
2.407983859008552
 30
0.0
 40
2.1
  1
3RD Angle Projection
  7
STYLE3
100
AcDbText
  0
LINE
  5
134A
330
18
100
AcDbEntity
  8
外形線
100
AcDbLine
 10
113.5869919819637
 20
0.6598428590085522
 30
0.0
 11
113.5869919819637
 21
21.05482685900855
 31
0.0
  0
TEXT
  5
134B
330
18
100
AcDbEntity
  8
0
  6
Continuous
100
AcDbText
 10
117.3764099819637
 20
5.904266859008552
 30
0.0
 40
3.0
  1
三　　角　　法
  7
STYLE3
100
AcDbText
  0
LINE
  5
134C
330
18
100
AcDbEntity
  8
外形線
100
AcDbLine
 10
148.8577189819637
 20
10.27462085900855
 30
0.0
 11
148.8577189819637
 21
0.6598428590085522
 31
0.0
  0
LINE
  5
134D
330
18
100
AcDbEntity
  8
外形線
100
AcDbLine
 10
166.3473369819637
 20
10.27462085900855
 30
0.0
 11
166.3473369819637
 21
0.6598428590085522
 31
0.0
  0
LINE
  5
134E
330
18
100
AcDbEntity
  8
外形線
100
AcDbLine
 10
185.8774089819637
 20
10.27462085900855
 30
0.0
 11
185.8774089819637
 21
0.6598428590085522
 31
0.0
  0
TEXT
  5
134F
330
18
100
AcDbEntity
  8
0
  6
Continuous
100
AcDbText
 10
158.3572359819637
 20
4.156126859008551
 30
0.0
 40
2.399999999999999
  1
mm
  7
STYLE3
100
AcDbText
  0
TEXT
  5
1350
330
18
100
AcDbEntity
  8
0
  6
Continuous
100
AcDbText
 10
150.4869099819637
 20
2.407984859008552
 30
0.0
 40
2.1
  1
Unit
  7
STYLE3
100
AcDbText
  0
TEXT
  5
1351
330
18
100
AcDbEntity
  8
0
  6
Continuous
100
AcDbText
 10
150.3151879819637
 20
5.910220859008552
 30
0.0
 40
3.0
  1
単位
  7
STYLE3
100
AcDbText
  0
TEXT
  5
1352
330
18
100
AcDbEntity
  8
0
  6
Continuous
100
AcDbText
 10
168.0962999819637
 20
2.699341859008552
 30
0.0
 40
2.1
  1
Scale
  7
STYLE3
100
AcDbText
  0
TEXT
  5
1353
330
18
100
AcDbEntity
  8
0
  6
Continuous
100
AcDbText
 10
167.6330839819637
 20
5.618863859008552
 30
0.0
 40
3.0
  1
尺 度
  7
STYLE3
100
AcDbText
  0
TEXT
  5
1354
330
18
100
AcDbEntity
  8
0
  6
Continuous
100
AcDbText
 10
187.4259989819637
 20
5.741068859008552
 30
0.0
 40
3.0
  1
日 付
  7
STYLE3
100
AcDbText
  0
TEXT
  5
1355
330
18
100
AcDbEntity
  8
0
  6
Continuous
100
AcDbText
 10
187.8093599819637
 20
2.407985859008552
 30
0.0
 40
2.1
  1
Date
  7
STYLE3
100
AcDbText
  0
TEXT
  5
1356
330
18
100
AcDbEntity
  8
0
  6
Continuous
100
AcDbText
 10
177.7155879819637
 20
4.447483859008552
 30
0.0
 40
2.399999999999999
  1
1/1
  7
STYLE3
100
AcDbText
  0
LINE
  5
1357
330
18
100
AcDbEntity
  8
外形線
100
AcDbLine
 10
215.6097579819637
 20
10.27462085900855
 30
0.0
 11
215.6097579819637
 21
0.6598428590085522
 31
0.0
  0
TEXT
  5
1358
330
18
100
AcDbEntity
  8
0
  6
Continuous
100
AcDbText
 10
217.8332009819637
 20
2.407983859008552
 30
0.0
 40
2.1
  1
OZAKI MFG. CO., LTD.
  7
STYLE3
100
AcDbText
  0
TEXT
  5
1359
330
18
100
AcDbEntity
  8
0
  6
Continuous
100
AcDbText
 10
216.9587219819637
 20
6.195623859008551
 30
0.0
 40
3.0
  1
株式会社　尾崎製作所
  7
STYLE3
100
AcDbText
  0
VIEWPORT
  5
177
330
15
100
AcDbEntity
 67
     1
  8
0
100
AcDbViewport
 10
127.5041203589828
 20
97.49391214526822
 30
0.0
 40
418.3086347473814
 41
243.0346063651093
 68
     1
 69
     1
 12
127.5041203589828
 22
97.49391214526822
 13
0.0
 23
0.0
 14
10.0
 24
10.0
 15
10.0
 25
10.0
 16
0.0
 26
0.0
 36
1.0
 17
0.0
 27
0.0
 37
0.0
 42
50.0
 43
0.0
 44
0.0
 45
243.0346063651093
 50
0.0
 51
0.0
 72
   100
 90
    32800
  1

281
     0
 71
     1
 74
     0
110
0.0
120
0.0
130
0.0
111
1.0
121
0.0
131
0.0
112
0.0
122
1.0
132
0.0
 79
     0
146
0.0
170
     0
  0
ENDSEC
  0
SECTION
  2
OBJECTS
  0
DICTIONARY
  5
C
330
0
100
AcDbDictionary
281
     1
  3
ACAD_COLOR
350
12E4
  3
ACAD_GROUP
350
D
  3
ACAD_LAYOUT
350
12E7
  3
ACAD_MATERIAL
350
12E3
  3
ACAD_MLINESTYLE
350
1B
  3
ACAD_PLOTSETTINGS
350
12E8
  3
ACAD_PLOTSTYLENAME
350
12E1
  3
ACAD_TABLESTYLE
350
12E5
  3
ACDBVARIABLEDICTIONARY
350
BA0
  0
DICTIONARY
  5
12E4
102
{ACAD_REACTORS
330
C
102
}
330
C
100
AcDbDictionary
281
     1
  0
DICTIONARY
  5
D
102
{ACAD_REACTORS
330
C
102
}
330
C
100
AcDbDictionary
281
     1
  0
DICTIONARY
  5
12E7
102
{ACAD_REACTORS
330
C
102
}
330
C
100
AcDbDictionary
281
     1
  3
Model
350
12E9
  3
レイアウト1
350
12EA
  0
DICTIONARY
  5
12E3
102
{ACAD_REACTORS
330
C
102
}
330
C
100
AcDbDictionary
281
     1
  0
DICTIONARY
  5
1B
102
{ACAD_REACTORS
330
C
102
}
330
C
100
AcDbDictionary
281
     1
  3
STANDARD
350
1C
  0
DICTIONARY
  5
12E8
102
{ACAD_REACTORS
330
C
102
}
330
C
100
AcDbDictionary
281
     1
  0
ACDBDICTIONARYWDFLT
  5
12E1
102
{ACAD_REACTORS
330
C
102
}
330
C
100
AcDbDictionary
281
     1
  3
Normal
350
12E2
100
AcDbDictionaryWithDefault
340
12E2
  0
DICTIONARY
  5
12E5
102
{ACAD_REACTORS
330
C
102
}
330
C
100
AcDbDictionary
281
     1
  3
Standard
350
12E6
  0
DICTIONARY
  5
BA0
102
{ACAD_REACTORS
330
C
102
}
330
C
100
AcDbDictionary
281
     1
  3
CTABLESTYLE
350
12FA
  3
SORTENTS
350
BA1
  0
LAYOUT
  5
12E9
102
{ACAD_REACTORS
330
12E7
102
}
330
12E7
100
AcDbPlotSettings
  1

  2
A4 EPSON LP-6100.pc3
  4
A4
  6

 40
5.873749732971191
 41
5.873747825622558
 42
5.873748779296875
 43
5.873748779296875
 44
209.9733276367187
 45
297.0106506347656
 46
0.8
 47
25.0
 48
0.0
 49
0.0
140
0.0
141
0.0
142
1.0
143
1.0
 70
 28336
 72
     1
 73
     1
 74
     1
  7
AutoCAD LT 98.ctb
 75
    16
147
1.0
 76
     1
 77
     2
 78
   300
148
0.2128225079886761
149
0.2090691322566727
100
AcDbLayout
  1
Model
 70
     1
 71
     0
 10
0.0
 20
0.0
 11
12.0
 21
9.0
 12
0.0
 22
0.0
 32
0.0
 14
0.0
 24
0.0
 34
0.0
 15
0.0
 25
0.0
 35
0.0
146
0.0
 13
0.0
 23
0.0
 33
0.0
 16
1.0
 26
0.0
 36
0.0
 17
0.0
 27
1.0
 37
0.0
 76
     0
330
18
1001
ACAD_PSEXT
1000
A4 EPSON LP-6100.pc3
1000
EPSON LP-6100
1000
\\SATO-MATE2
1000

1070
     0
  0
LAYOUT
  5
12EA
102
{ACAD_REACTORS
330
12E7
102
}
330
12E7
100
AcDbPlotSettings
  1

  2
WIDR Printer
  4

  6

 40
0.0
 41
0.0
 42
0.0
 43
0.0
 44
0.0
 45
0.0
 46
0.0
 47
0.0
 48
0.0
 49
0.0
140
0.0
141
0.0
142
1.0
143
1.0
 70
   688
 72
     0
 73
     0
 74
     5
  7
AutoCad LT 98.ctb
 75
    16
147
1.0
 76
     0
 77
     2
 78
   300
148
0.0
149
0.0
100
AcDbLayout
  1
レイアウト1
 70
     1
 71
     1
 10
0.0
 20
0.0
 11
420.0
 21
297.0
 12
0.0
 22
0.0
 32
0.0
 14
-0.2
 24
-0.2
 34
0.0
 15
255.2
 25
195.2
 35
0.0
146
0.0
 13
0.0
 23
0.0
 33
0.0
 16
1.0
 26
0.0
 36
0.0
 17
0.0
 27
1.0
 37
0.0
 76
     0
330
15
331
177
  0
MLINESTYLE
  5
1C
102
{ACAD_REACTORS
330
1B
102
}
330
1B
100
AcDbMlineStyle
  2
STANDARD
 70
     0
  3

 62
   256
 51
90.0
 52
90.0
 71
     2
 49
0.5
 62
   256
  6
BYLAYER
 49
-0.5
 62
   256
  6
BYLAYER
  0
ACDBPLACEHOLDER
  5
12E2
102
{ACAD_REACTORS
330
12E1
102
}
330
12E1
  0
ACAD_PROXY_OBJECT
  5
12E6
102
{ACAD_REACTORS
330
12E5
102
}
330
12E5
100
AcDbProxyObject
 90
      499
 91
      504
 95
  2555929
 70
     0
 93
     1849
310
4214DD185B99185C992420000000000000F83F0000000000003E0FC00000000000004901028000000C1008070000C3001FDFF8000000C1003FBFF000000182007F7FE00000030400FEFFC00000060801FDFF8000000C1003FBFF000000182000000000000000C2020B0000001820100E000186003FBFF000000182007F7FE0
310
0000030400FEFFC00000060801FDFF8000000C1003FBFF000000182007F7FE0000003040000000000000012404160000003040201C00030C007F7FE00000030400FEFFC00000060801FDFF8000000C1003FBFF000000182007F7FE00000030400FEFFC000000608000
340
F
340
F
340
F
 94
        0
  0
DICTIONARYVAR
  5
12FA
102
{ACAD_REACTORS
330
BA0
102
}
330
BA0
100
DictionaryVariables
280
     0
  1
STANDARD
  0
DICTIONARYVAR
  5
BA1
102
{ACAD_REACTORS
330
BA0
102
}
330
BA0
100
DictionaryVariables
280
     0
  1
96
  0
ENDSEC
  0
EOF
