  0
SECTION
  2
HEADER
  9
$ACADVER
  1
AC1018
  9
$ACADMAINTVER
 70
     0
  9
$DWGCODEPAGE
  3
ANSI_932
  9
$INSBASE
 10
0.0
 20
0.0
 30
0.0
  9
$EXTMIN
 10
-0.4064047129232904
 20
-0.4045308316445926
 30
-1.000015232943269
  9
$EXTMAX
 10
377.9292089849747
 20
282.9178396073212
 30
0.0000152690345416
  9
$LIMMIN
 10
0.0
 20
0.0
  9
$LIMMAX
 10
420.0
 20
297.0
  9
$ORTHOMODE
 70
     1
  9
$REGENMODE
 70
     1
  9
$FILLMODE
 70
     1
  9
$QTEXTMODE
 70
     0
  9
$MIRRTEXT
 70
     1
  9
$LTSCALE
 40
1.0
  9
$ATTMODE
 70
     1
  9
$TEXTSIZE
 40
3.0
  9
$TRACEWID
 40
1.0
  9
$TEXTSTYLE
  7
4
  9
$CLAYER
  8
文字
  9
$CELTYPE
  6
BYLAYER
  9
$CECOLOR
 62
   256
  9
$CELTSCALE
 40
1.0
  9
$DISPSILH
 70
     0
  9
$DIMSCALE
 40
1.0
  9
$DIMASZ
 40
2.5
  9
$DIMEXO
 40
0.0
  9
$DIMDLI
 40
3.75
  9
$DIMRND
 40
0.0
  9
$DIMDLE
 40
0.0
  9
$DIMEXE
 40
1.25
  9
$DIMTP
 40
0.0
  9
$DIMTM
 40
0.0
  9
$DIMTXT
 40
2.5
  9
$DIMCEN
 40
2.5
  9
$DIMTSZ
 40
0.0
  9
$DIMTOL
 70
     0
  9
$DIMLIM
 70
     0
  9
$DIMTIH
 70
     0
  9
$DIMTOH
 70
     0
  9
$DIMSE1
 70
     0
  9
$DIMSE2
 70
     0
  9
$DIMTAD
 70
     1
  9
$DIMZIN
 70
     8
  9
$DIMBLK
  1

  9
$DIMASO
 70
     1
  9
$DIMSHO
 70
     1
  9
$DIMPOST
  1

  9
$DIMAPOST
  1

  9
$DIMALT
 70
     0
  9
$DIMALTD
 70
     4
  9
$DIMALTF
 40
0.0394
  9
$DIMLFAC
 40
1.0
  9
$DIMTOFL
 70
     1
  9
$DIMTVP
 40
0.0
  9
$DIMTIX
 70
     0
  9
$DIMSOXD
 70
     0
  9
$DIMSAH
 70
     1
  9
$DIMBLK1
  1
OPEN
  9
$DIMBLK2
  1
OPEN
  9
$DIMSTYLE
  2
STYLE3
  9
$DIMCLRD
 70
     2
  9
$DIMCLRE
 70
     2
  9
$DIMCLRT
 70
     6
  9
$DIMTFAC
 40
1.0
  9
$DIMGAP
 40
0.625
  9
$DIMJUST
 70
     0
  9
$DIMSD1
 70
     0
  9
$DIMSD2
 70
     0
  9
$DIMTOLJ
 70
     1
  9
$DIMTZIN
 70
     0
  9
$DIMALTZ
 70
     0
  9
$DIMALTTZ
 70
     0
  9
$DIMUPT
 70
     0
  9
$DIMDEC
 70
     2
  9
$DIMTDEC
 70
     4
  9
$DIMALTU
 70
     8
  9
$DIMALTTD
 70
     4
  9
$DIMTXSTY
  7
STYLE3
  9
$DIMAUNIT
 70
     0
  9
$DIMADEC
 70
     0
  9
$DIMALTRND
 40
0.0
  9
$DIMAZIN
 70
     0
  9
$DIMDSEP
 70
    46
  9
$DIMATFIT
 70
     3
  9
$DIMFRAC
 70
     0
  9
$DIMLDRBLK
  1

  9
$DIMLUNIT
 70
     2
  9
$DIMLWD
 70
    -2
  9
$DIMLWE
 70
    -2
  9
$DIMTMOVE
 70
     0
  9
$LUNITS
 70
     2
  9
$LUPREC
 70
     4
  9
$SKETCHINC
 40
1.0
  9
$FILLETRAD
 40
0.0
  9
$AUNITS
 70
     0
  9
$AUPREC
 70
     0
  9
$MENU
  1
.
  9
$ELEVATION
 40
0.0
  9
$PELEVATION
 40
0.0
  9
$THICKNESS
 40
0.0
  9
$LIMCHECK
 70
     0
  9
$CHAMFERA
 40
0.5
  9
$CHAMFERB
 40
0.5
  9
$CHAMFERC
 40
20.0
  9
$CHAMFERD
 40
0.0
  9
$SKPOLY
 70
     0
  9
$TDCREATE
 40
2451337.665185764
  9
$TDUCREATE
 40
2451337.290185764
  9
$TDUPDATE
 40
2455363.387631655
  9
$TDUUPDATE
 40
2455363.012631655
  9
$TDINDWG
 40
0.3966937963
  9
$TDUSRTIMER
 40
0.3966937963
  9
$USRTIMER
 70
     1
  9
$ANGBASE
 50
0.0
  9
$ANGDIR
 70
     0
  9
$PDMODE
 70
     0
  9
$PDSIZE
 40
0.0
  9
$PLINEWID
 40
0.0
  9
$SPLFRAME
 70
     0
  9
$SPLINETYPE
 70
     6
  9
$SPLINESEGS
 70
     8
  9
$HANDSEED
  5
64B
  9
$SURFTAB1
 70
     6
  9
$SURFTAB2
 70
     6
  9
$SURFTYPE
 70
     6
  9
$SURFU
 70
     6
  9
$SURFV
 70
     6
  9
$UCSBASE
  2

  9
$UCSNAME
  2

  9
$UCSORG
 10
0.0
 20
0.0
 30
0.0
  9
$UCSXDIR
 10
1.0
 20
0.0
 30
0.0
  9
$UCSYDIR
 10
0.0
 20
1.0
 30
0.0
  9
$UCSORTHOREF
  2

  9
$UCSORTHOVIEW
 70
     0
  9
$UCSORGTOP
 10
0.0
 20
0.0
 30
0.0
  9
$UCSORGBOTTOM
 10
0.0
 20
0.0
 30
0.0
  9
$UCSORGLEFT
 10
0.0
 20
0.0
 30
0.0
  9
$UCSORGRIGHT
 10
0.0
 20
0.0
 30
0.0
  9
$UCSORGFRONT
 10
0.0
 20
0.0
 30
0.0
  9
$UCSORGBACK
 10
0.0
 20
0.0
 30
0.0
  9
$PUCSBASE
  2

  9
$PUCSNAME
  2

  9
$PUCSORG
 10
0.0
 20
0.0
 30
0.0
  9
$PUCSXDIR
 10
1.0
 20
0.0
 30
0.0
  9
$PUCSYDIR
 10
0.0
 20
1.0
 30
0.0
  9
$PUCSORTHOREF
  2

  9
$PUCSORTHOVIEW
 70
     0
  9
$PUCSORGTOP
 10
0.0
 20
0.0
 30
0.0
  9
$PUCSORGBOTTOM
 10
0.0
 20
0.0
 30
0.0
  9
$PUCSORGLEFT
 10
0.0
 20
0.0
 30
0.0
  9
$PUCSORGRIGHT
 10
0.0
 20
0.0
 30
0.0
  9
$PUCSORGFRONT
 10
0.0
 20
0.0
 30
0.0
  9
$PUCSORGBACK
 10
0.0
 20
0.0
 30
0.0
  9
$USERI1
 70
     0
  9
$USERI2
 70
     0
  9
$USERI3
 70
     0
  9
$USERI4
 70
     0
  9
$USERI5
 70
     0
  9
$USERR1
 40
0.0
  9
$USERR2
 40
0.0
  9
$USERR3
 40
0.0
  9
$USERR4
 40
0.0
  9
$USERR5
 40
0.0
  9
$WORLDVIEW
 70
     1
  9
$SHADEDGE
 70
     3
  9
$SHADEDIF
 70
    70
  9
$TILEMODE
 70
     1
  9
$MAXACTVP
 70
    48
  9
$PINSBASE
 10
0.0
 20
0.0
 30
0.0
  9
$PLIMCHECK
 70
     0
  9
$PEXTMIN
 10
1.000000000000000E+20
 20
1.000000000000000E+20
 30
1.000000000000000E+20
  9
$PEXTMAX
 10
-1.000000000000000E+20
 20
-1.000000000000000E+20
 30
-1.000000000000000E+20
  9
$PLIMMIN
 10
0.0
 20
0.0
  9
$PLIMMAX
 10
420.0
 20
297.0
  9
$UNITMODE
 70
     0
  9
$VISRETAIN
 70
     1
  9
$PLINEGEN
 70
     0
  9
$PSLTSCALE
 70
     1
  9
$TREEDEPTH
 70
  3020
  9
$CMLSTYLE
  2
STANDARD
  9
$CMLJUST
 70
     0
  9
$CMLSCALE
 40
20.0
  9
$PROXYGRAPHICS
 70
     1
  9
$MEASUREMENT
 70
     1
  9
$CELWEIGHT
370
    -1
  9
$ENDCAPS
280
     0
  9
$JOINSTYLE
280
     0
  9
$LWDISPLAY
290
     0
  9
$INSUNITS
 70
     0
  9
$HYPERLINKBASE
  1

  9
$STYLESHEET
  1
AutoCAD LT 98.ctb
  9
$XEDIT
290
     1
  9
$CEPSNTYPE
380
     0
  9
$PSTYLEMODE
290
     1
  9
$FINGERPRINTGUID
  2
{9531AAFC-DA05-423C-85A8-610767304945}
  9
$VERSIONGUID
  2
{FFE37032-8BD8-493F-8C9E-403D8CFB2DC1}
  9
$EXTNAMES
290
     1
  9
$PSVPSCALE
 40
0.0
  9
$OLESTARTUP
290
     0
  9
$SORTENTS
280
    96
  9
$INDEXCTL
280
     0
  9
$HIDETEXT
280
     0
  9
$XCLIPFRAME
290
     0
  9
$HALOGAP
280
     0
  9
$OBSCOLOR
 70
   257
  9
$OBSLTYPE
280
     0
  9
$INTERSECTIONDISPLAY
280
     0
  9
$INTERSECTIONCOLOR
 70
   257
  9
$DIMASSOC
280
     1
  9
$PROJECTNAME
  1

  0
ENDSEC
  0
SECTION
  2
CLASSES
  0
CLASS
  1
HATCH
  2
AcDbHatch
  3
ObjectDBX Classes
 90
        0
 91
        9
280
     0
281
     1
  0
CLASS
  1
DICTIONARYVAR
  2
AcDbDictionaryVar
  3
ObjectDBX Classes
 90
        0
 91
        2
280
     0
281
     0
  0
CLASS
  1
ACDBDICTIONARYWDFLT
  2
AcDbDictionaryWithDefault
  3
ObjectDBX Classes
 90
        0
 91
        1
280
     0
281
     0
  0
CLASS
  1
TABLESTYLE
  2
AcDbTableStyle
  3
ObjectDBX Classes
 90
     2047
 91
        1
280
     0
281
     0
  0
CLASS
  1
SORTENTSTABLE
  2
AcDbSortentsTable
  3
ObjectDBX Classes
 90
        0
 91
        1
280
     0
281
     0
  0
ENDSEC
  0
SECTION
  2
TABLES
  0
TABLE
  2
VPORT
  5
8
330
0
100
AcDbSymbolTable
 70
     2
  0
VPORT
  5
64A
330
8
100
AcDbSymbolTableRecord
100
AcDbViewportTableRecord
  2
*Active
 70
     0
 10
0.0
 20
0.0
 11
1.0
 21
1.0
 12
188.7614021360256
 22
141.2566543878383
 13
0.0
 23
0.0
 14
10.0
 24
10.0
 15
10.0
 25
10.0
 16
0.0
 26
0.0
 36
1.0
 17
0.0
 27
0.0
 37
0.0
 40
285.4769131799464
 41
1.530456852791878
 42
50.0
 43
0.0
 44
0.0
 50
0.0
 51
0.0
 71
     0
 72
   100
 73
     1
 74
     1
 75
     0
 76
     0
 77
     0
 78
     0
281
     0
 65
     1
110
0.0
120
0.0
130
0.0
111
1.0
121
0.0
131
0.0
112
0.0
122
1.0
132
0.0
 79
     0
146
0.0
  0
ENDTAB
  0
TABLE
  2
LTYPE
  5
5
330
0
100
AcDbSymbolTable
 70
    12
  0
LTYPE
  5
12
330
5
100
AcDbSymbolTableRecord
100
AcDbLinetypeTableRecord
  2
BYBLOCK
 70
     0
  3

 72
    65
 73
     0
 40
0.0
  0
LTYPE
  5
13
330
5
100
AcDbSymbolTableRecord
100
AcDbLinetypeTableRecord
  2
BYLAYER
 70
     0
  3

 72
    65
 73
     0
 40
0.0
  0
LTYPE
  5
14
330
5
100
AcDbSymbolTableRecord
100
AcDbLinetypeTableRecord
  2
CONTINUOUS
 70
     0
  3
Solid line
 72
    65
 73
     0
 40
0.0
  0
LTYPE
  5
22
330
5
100
AcDbSymbolTableRecord
100
AcDbLinetypeTableRecord
  2
CENTER2
 70
     0
  3
Center (.5x) ___ _ ___ _ ___ _ ___ _ ___ _ ___
 72
    65
 73
     4
 40
28.575
 49
19.05
 74
     0
 49
-3.174999999999999
 74
     0
 49
3.174999999999999
 74
     0
 49
-3.174999999999999
 74
     0
  0
LTYPE
  5
23
330
5
100
AcDbSymbolTableRecord
100
AcDbLinetypeTableRecord
  2
HIDDEN2
 70
     0
  3
Hidden (.5x) _ _ _ _ _ _ _ _ _ _ _ _ _ _ _ _ _
 72
    65
 73
     2
 40
4.762499999999999
 49
3.174999999999999
 74
     0
 49
-1.587499999999999
 74
     0
  0
ENDTAB
  0
TABLE
  2
LAYER
  5
2
330
0
100
AcDbSymbolTable
 70
    16
  0
LAYER
  5
E
330
2
100
AcDbSymbolTableRecord
100
AcDbLayerTableRecord
  2
0
 70
     0
 62
     7
  6
CONTINUOUS
370
    -3
390
5E8
  0
LAYER
  5
25
330
2
100
AcDbSymbolTableRecord
100
AcDbLayerTableRecord
  2
外形線
 70
     0
 62
     7
  6
CONTINUOUS
370
    -3
390
5E8
  0
LAYER
  5
27
330
2
100
AcDbSymbolTableRecord
100
AcDbLayerTableRecord
  2
中心線
 70
     0
 62
     4
  6
CENTER2
370
    -3
390
5E8
  0
LAYER
  5
2B
330
2
100
AcDbSymbolTableRecord
100
AcDbLayerTableRecord
  2
文字
 70
     0
 62
     6
  6
CONTINUOUS
370
    -3
390
5E8
  0
LAYER
  5
53
330
2
100
AcDbSymbolTableRecord
100
AcDbLayerTableRecord
  2
DEFPOINTS
 70
     0
 62
     7
  6
CONTINUOUS
290
     0
370
    -3
390
5E8
  0
LAYER
  5
A5
330
2
100
AcDbSymbolTableRecord
100
AcDbLayerTableRecord
  2
C
 70
     0
 62
     7
  6
CONTINUOUS
370
    -3
390
5E8
  0
LAYER
  5
1FE
330
2
100
AcDbSymbolTableRecord
100
AcDbLayerTableRecord
  2
隠れ線2
 70
     0
 62
     1
  6
HIDDEN2
370
    -3
390
5E8
  0
LAYER
  5
56C
330
2
100
AcDbSymbolTableRecord
100
AcDbLayerTableRecord
  2
ROGO
 70
     0
 62
     6
  6
CONTINUOUS
370
    -3
390
5E8
  0
ENDTAB
  0
TABLE
  2
STYLE
  5
3
330
0
100
AcDbSymbolTable
 70
     7
  0
STYLE
  5
F
330
3
100
AcDbSymbolTableRecord
100
AcDbTextStyleTableRecord
  2
STANDARD
 70
     0
 40
0.0
 41
1.0
 50
0.0
 71
     0
 42
2.5
  3
txt
  4

  0
STYLE
  5
3F
330
3
100
AcDbSymbolTableRecord
100
AcDbTextStyleTableRecord
  2
STYLE3
 70
     0
 40
0.0
 41
1.0
 50
0.0
 71
     0
 42
3.0
  3
romans.shx
  4
bigfont.shx
  0
STYLE
  5
5C3
330
3
100
AcDbSymbolTableRecord
100
AcDbTextStyleTableRecord
  2
4
 70
     0
 40
0.0
 41
1.0
 50
0.0
 71
     0
 42
3.0
  3
MS PGothic.ttf
  4

1001
ACAD
1000
MS PGothic
1071
    32818
  0
ENDTAB
  0
TABLE
  2
VIEW
  5
6
330
0
100
AcDbSymbolTable
 70
     0
  0
ENDTAB
  0
TABLE
  2
UCS
  5
7
330
0
100
AcDbSymbolTable
 70
     0
  0
ENDTAB
  0
TABLE
  2
APPID
  5
9
330
0
100
AcDbSymbolTable
 70
     2
  0
APPID
  5
10
330
9
100
AcDbSymbolTableRecord
100
AcDbRegAppTableRecord
  2
ACAD
 70
     0
  0
APPID
  5
5FD
330
9
100
AcDbSymbolTableRecord
100
AcDbRegAppTableRecord
  2
ACAD_PSEXT
 70
     0
  0
ENDTAB
  0
TABLE
  2
DIMSTYLE
  5
A
330
0
100
AcDbSymbolTable
 70
     4
100
AcDbDimStyleTable
 71
     1
340
8F
  0
DIMSTYLE
105
1D
330
A
100
AcDbSymbolTableRecord
100
AcDbDimStyleTableRecord
  2
STANDARD
 70
     0
 41
2.5
 42
0.625
 43
3.75
 44
1.25
 73
     0
 74
     0
 77
     1
 78
     8
140
2.5
141
2.5
143
0.0394
147
0.625
171
     4
172
     1
273
     8
274
     4
277
     6
340
F
  0
DIMSTYLE
105
8F
102
{ACAD_REACTORS
330
3AA
330
3B7
330
3C4
330
3EF
330
3FC
330
42A
330
446
330
46A
330
4A0
330
4E0
330
4EC
330
543
102
}
330
A
100
AcDbSymbolTableRecord
100
AcDbDimStyleTableRecord
  2
STYLE3
 70
     0
 41
2.5
 42
0.0
 43
3.75
 44
1.25
 73
     0
 74
     0
 77
     1
 78
     8
140
2.5
141
2.5
143
0.0394
147
0.625
171
     4
172
     1
173
     1
176
     2
177
     2
178
     6
271
     1
273
     8
274
     4
340
3F
341
45
343
45
344
45
  0
ENDTAB
  0
TABLE
  2
BLOCK_RECORD
  5
1
330
0
100
AcDbSymbolTable
 70
    17
  0
BLOCK_RECORD
  5
18
102
{ACAD_XDICTIONARY
360
5F9
102
}
330
1
100
AcDbSymbolTableRecord
100
AcDbBlockTableRecord
  2
*MODEL_SPACE
340
5EF
  0
BLOCK_RECORD
  5
15
330
1
100
AcDbSymbolTableRecord
100
AcDbBlockTableRecord
  2
*PAPER_SPACE
340
5F0
  0
BLOCK_RECORD
  5
45
330
1
100
AcDbSymbolTableRecord
100
AcDbBlockTableRecord
  2
_OPEN
340
0
102
{BLKREFS
331
418
331
419
331
3A3
331
3A4
331
3B0
331
3B1
331
48B
331
48C
331
3E8
331
3E9
331
480
331
481
331
423
331
424
331
44B
331
44C
331
463
331
464
331
499
331
49A
331
4D9
331
4DA
331
4F0
331
4F1
331
548
331
549
102
}
  0
BLOCK_RECORD
  5
39E
330
1
100
AcDbSymbolTableRecord
100
AcDbBlockTableRecord
  2
*D2
340
0
  0
BLOCK_RECORD
  5
3AB
330
1
100
AcDbSymbolTableRecord
100
AcDbBlockTableRecord
  2
*D3
340
0
  0
BLOCK_RECORD
  5
3B8
330
1
100
AcDbSymbolTableRecord
100
AcDbBlockTableRecord
  2
*D4
340
0
  0
BLOCK_RECORD
  5
3E4
330
1
100
AcDbSymbolTableRecord
100
AcDbBlockTableRecord
  2
*D5
340
0
  0
BLOCK_RECORD
  5
3F0
330
1
100
AcDbSymbolTableRecord
100
AcDbBlockTableRecord
  2
*D6
340
0
  0
BLOCK_RECORD
  5
41E
330
1
100
AcDbSymbolTableRecord
100
AcDbBlockTableRecord
  2
*D7
340
0
  0
BLOCK_RECORD
  5
43A
330
1
100
AcDbSymbolTableRecord
100
AcDbBlockTableRecord
  2
*D8
340
0
  0
BLOCK_RECORD
  5
45E
330
1
100
AcDbSymbolTableRecord
100
AcDbBlockTableRecord
  2
*D9
340
0
  0
BLOCK_RECORD
  5
492
330
1
100
AcDbSymbolTableRecord
100
AcDbBlockTableRecord
  2
*D10
340
0
  0
BLOCK_RECORD
  5
4D4
330
1
100
AcDbSymbolTableRecord
100
AcDbBlockTableRecord
  2
*D11
340
0
  0
BLOCK_RECORD
  5
4E1
330
1
100
AcDbSymbolTableRecord
100
AcDbBlockTableRecord
  2
*D12
340
0
  0
BLOCK_RECORD
  5
537
330
1
100
AcDbSymbolTableRecord
100
AcDbBlockTableRecord
  2
*D13
340
0
  0
BLOCK_RECORD
  5
56D
330
1
100
AcDbSymbolTableRecord
100
AcDbBlockTableRecord
  2
ROGO
340
0
102
{BLKREFS
331
5C2
102
}
  0
BLOCK_RECORD
  5
610
330
1
100
AcDbSymbolTableRecord
100
AcDbBlockTableRecord
  2
A$C792C231F
340
0
102
{BLKREFS
331
615
331
631
102
}
  0
ENDTAB
  0
ENDSEC
  0
SECTION
  2
BLOCKS
  0
BLOCK
  5
19
330
18
100
AcDbEntity
  8
0
100
AcDbBlockBegin
  2
*MODEL_SPACE
 70
     0
 10
0.0
 20
0.0
 30
0.0
  3
*MODEL_SPACE
  1

  0
ENDBLK
  5
1A
330
18
100
AcDbEntity
  8
0
100
AcDbBlockEnd
  0
BLOCK
  5
16
330
15
100
AcDbEntity
 67
     1
  8
0
100
AcDbBlockBegin
  2
*PAPER_SPACE
 70
     0
 10
0.0
 20
0.0
 30
0.0
  3
*PAPER_SPACE
  1

  0
ENDBLK
  5
17
330
15
100
AcDbEntity
 67
     1
  8
0
100
AcDbBlockEnd
  0
BLOCK
  5
46
330
45
100
AcDbEntity
  8
0
100
AcDbBlockBegin
  2
_OPEN
 70
     0
 10
0.0
 20
0.0
 30
0.0
  3
_OPEN
  1

  0
LINE
  5
47
330
45
100
AcDbEntity
  8
0
  6
ByBlock
 62
     0
100
AcDbLine
 10
-1.0
 20
0.1666666666666666
 30
0.0
 11
0.0
 21
0.0
 31
0.0
  0
LINE
  5
48
330
45
100
AcDbEntity
  8
0
  6
ByBlock
 62
     0
100
AcDbLine
 10
0.0
 20
0.0
 30
0.0
 11
-1.0
 21
-0.1666666666666666
 31
0.0
  0
LINE
  5
49
330
45
100
AcDbEntity
  8
0
  6
ByBlock
 62
     0
100
AcDbLine
 10
0.0
 20
0.0
 30
0.0
 11
-1.0
 21
0.0
 31
0.0
  0
ENDBLK
  5
4A
330
45
100
AcDbEntity
  8
0
100
AcDbBlockEnd
  0
BLOCK
  5
39F
330
39E
100
AcDbEntity
  8
0
100
AcDbBlockBegin
  2
*D2
 70
     1
 10
0.0
 20
0.0
 30
0.0
  3
*D2
  1

  0
LINE
  5
3A0
330
39E
100
AcDbEntity
  8
0
  6
ByBlock
 62
     2
100
AcDbLine
 10
35.26171345367266
 20
47.24968143000023
 30
0.0
 11
35.26171345367266
 21
36.432634718087
 31
0.0
  0
LINE
  5
3A1
330
39E
100
AcDbEntity
  8
0
  6
ByBlock
 62
     2
100
AcDbLine
 10
135.2617134536726
 20
47.24968143000023
 30
0.0
 11
135.2617134536726
 21
36.432634718087
 31
0.0
  0
LINE
  5
3A2
330
39E
100
AcDbEntity
  8
0
  6
ByBlock
 62
     2
100
AcDbLine
 10
37.76171345367266
 20
37.682634718087
 30
0.0
 11
132.7617134536726
 21
37.682634718087
 31
0.0
  0
INSERT
  5
3A3
330
39E
100
AcDbEntity
  8
0
  6
ByBlock
 62
     2
100
AcDbBlockReference
  2
_OPEN
 10
35.26171345367266
 20
37.682634718087
 30
0.0
 41
2.5
 42
2.5
 43
2.5
 50
180.0
  0
INSERT
  5
3A4
330
39E
100
AcDbEntity
  8
0
  6
ByBlock
 62
     2
100
AcDbBlockReference
  2
_OPEN
 10
135.2617134536726
 20
37.682634718087
 30
0.0
 41
2.5
 42
2.5
 43
2.5
  0
MTEXT
  5
3A5
330
39E
100
AcDbEntity
  8
0
  6
ByBlock
 62
     6
100
AcDbMText
 10
85.26171345367265
 20
39.557634718087
 30
0.0
 40
2.5
 41
0.0
 71
     5
 72
     1
  1
\A1;100
  7
STYLE3
 73
     1
 44
1.0
  0
POINT
  5
3A6
330
39E
100
AcDbEntity
  8
DEFPOINTS
  6
ByBlock
 62
     0
100
AcDbPoint
 10
35.26171345367266
 20
47.24968143000023
 30
0.0
  0
POINT
  5
3A7
330
39E
100
AcDbEntity
  8
DEFPOINTS
  6
ByBlock
 62
     0
100
AcDbPoint
 10
135.2617134536726
 20
47.24968143000023
 30
0.0
  0
POINT
  5
3A8
330
39E
100
AcDbEntity
  8
DEFPOINTS
  6
ByBlock
 62
     0
100
AcDbPoint
 10
135.2617134536726
 20
37.682634718087
 30
0.0
  0
ENDBLK
  5
3A9
330
39E
100
AcDbEntity
  8
0
100
AcDbBlockEnd
  0
BLOCK
  5
3AC
330
3AB
100
AcDbEntity
  8
0
100
AcDbBlockBegin
  2
*D3
 70
     1
 10
0.0
 20
0.0
 30
0.0
  3
*D3
  1

  0
LINE
  5
3AD
330
3AB
100
AcDbEntity
  8
0
  6
ByBlock
 62
     2
100
AcDbLine
 10
190.2961374364384
 20
47.24968143000023
 30
0.0
 11
190.2961374364384
 21
36.432634718087
 31
0.0
  0
LINE
  5
3AE
330
3AB
100
AcDbEntity
  8
0
  6
ByBlock
 62
     2
100
AcDbLine
 10
330.2961374364384
 20
47.24968143000023
 30
0.0
 11
330.2961374364384
 21
36.432634718087
 31
0.0
  0
LINE
  5
3AF
330
3AB
100
AcDbEntity
  8
0
  6
ByBlock
 62
     2
100
AcDbLine
 10
192.7961374364384
 20
37.682634718087
 30
0.0
 11
327.7961374364384
 21
37.682634718087
 31
0.0
  0
INSERT
  5
3B0
330
3AB
100
AcDbEntity
  8
0
  6
ByBlock
 62
     2
100
AcDbBlockReference
  2
_OPEN
 10
190.2961374364384
 20
37.682634718087
 30
0.0
 41
2.5
 42
2.5
 43
2.5
 50
180.0
  0
INSERT
  5
3B1
330
3AB
100
AcDbEntity
  8
0
  6
ByBlock
 62
     2
100
AcDbBlockReference
  2
_OPEN
 10
330.2961374364384
 20
37.682634718087
 30
0.0
 41
2.5
 42
2.5
 43
2.5
  0
MTEXT
  5
3B2
330
3AB
100
AcDbEntity
  8
0
  6
ByBlock
 62
     6
100
AcDbMText
 10
260.2961374364384
 20
39.557634718087
 30
0.0
 40
2.5
 41
0.0
 71
     5
 72
     1
  1
\A1;140
  7
STYLE3
 73
     1
 44
1.0
  0
POINT
  5
3B3
330
3AB
100
AcDbEntity
  8
DEFPOINTS
  6
ByBlock
 62
     0
100
AcDbPoint
 10
190.2961374364384
 20
47.24968143000023
 30
0.0
  0
POINT
  5
3B4
330
3AB
100
AcDbEntity
  8
DEFPOINTS
  6
ByBlock
 62
     0
100
AcDbPoint
 10
330.2961374364384
 20
47.24968143000023
 30
0.0
  0
POINT
  5
3B5
330
3AB
100
AcDbEntity
  8
DEFPOINTS
  6
ByBlock
 62
     0
100
AcDbPoint
 10
330.2961374364384
 20
37.682634718087
 30
0.0
  0
ENDBLK
  5
3B6
330
3AB
100
AcDbEntity
  8
0
100
AcDbBlockEnd
  0
BLOCK
  5
487
330
3B8
100
AcDbEntity
  8
0
100
AcDbBlockBegin
  2
*D4
 70
     1
 10
0.0
 20
0.0
 30
0.0
  3
*D4
  1

  0
LINE
  5
488
330
3B8
100
AcDbEntity
  8
0
  6
ByBlock
 62
     2
100
AcDbLine
 10
330.2961374364384
 20
47.24968143000023
 30
0.0
 11
357.5671760481303
 21
47.24968143000023
 31
0.0
  0
LINE
  5
489
330
3B8
100
AcDbEntity
  8
0
  6
ByBlock
 62
     2
100
AcDbLine
 10
315.2961374364384
 20
97.24968143000024
 30
0.0
 11
357.5671760481303
 21
97.24968143000022
 31
0.0
  0
LINE
  5
48A
330
3B8
100
AcDbEntity
  8
0
  6
ByBlock
 62
     2
100
AcDbLine
 10
356.3171760481302
 20
49.74968143000023
 30
0.0
 11
356.3171760481302
 21
94.74968143000022
 31
0.0
  0
INSERT
  5
48B
330
3B8
100
AcDbEntity
  8
0
  6
ByBlock
 62
     2
100
AcDbBlockReference
  2
_OPEN
 10
356.3171760481302
 20
47.24968143000023
 30
0.0
 41
2.5
 42
2.5
 43
2.5
 50
270.0
  0
INSERT
  5
48C
330
3B8
100
AcDbEntity
  8
0
  6
ByBlock
 62
     2
100
AcDbBlockReference
  2
_OPEN
 10
356.3171760481302
 20
97.24968143000022
 30
0.0
 41
2.5
 42
2.5
 43
2.5
 50
90.0
  0
MTEXT
  5
48D
330
3B8
100
AcDbEntity
  8
0
  6
ByBlock
 62
     6
100
AcDbMText
 10
354.4421760481303
 20
72.24968143000022
 30
0.0
 40
2.5
 41
0.0
 71
     5
 72
     1
  1
\A1;50
  7
STYLE3
 11
0.0000000000000001
 21
1.0
 31
0.0
 73
     1
 44
1.0
  0
POINT
  5
48E
330
3B8
100
AcDbEntity
  8
DEFPOINTS
  6
ByBlock
 62
     0
100
AcDbPoint
 10
330.2961374364384
 20
47.24968143000023
 30
0.0
  0
POINT
  5
48F
330
3B8
100
AcDbEntity
  8
DEFPOINTS
  6
ByBlock
 62
     0
100
AcDbPoint
 10
315.2961374364384
 20
97.24968143000024
 30
0.0
  0
POINT
  5
490
330
3B8
100
AcDbEntity
  8
DEFPOINTS
  6
ByBlock
 62
     0
100
AcDbPoint
 10
356.3171760481302
 20
97.24968143000022
 30
0.0
  0
ENDBLK
  5
491
330
3B8
100
AcDbEntity
  8
0
100
AcDbBlockEnd
  0
BLOCK
  5
3E5
330
3E4
100
AcDbEntity
  8
0
100
AcDbBlockBegin
  2
*D5
 70
     1
 10
0.0
 20
0.0
 30
0.0
  3
*D5
  1

  0
LINE
  5
3E6
330
3E4
100
AcDbEntity
  8
0
  6
ByBlock
 62
     2
100
AcDbLine
 10
309.2961374364384
 20
268.2496814300002
 30
0.0
 11
357.5671760481303
 21
268.2496814300002
 31
0.0
  0
LINE
  5
3E7
330
3E4
100
AcDbEntity
  8
0
  6
ByBlock
 62
     2
100
AcDbLine
 10
356.3171760481302
 20
100.7496814300002
 30
0.0
 11
356.3171760481302
 21
265.7496814300003
 31
0.0
  0
INSERT
  5
3E8
330
3E4
100
AcDbEntity
  8
0
  6
ByBlock
 62
     2
100
AcDbBlockReference
  2
_OPEN
 10
356.3171760481302
 20
98.24968143000022
 30
0.0
 41
2.5
 42
2.5
 43
2.5
 50
270.0
  0
INSERT
  5
3E9
330
3E4
100
AcDbEntity
  8
0
  6
ByBlock
 62
     2
100
AcDbBlockReference
  2
_OPEN
 10
356.3171760481302
 20
268.2496814300002
 30
0.0
 41
2.5
 42
2.5
 43
2.5
 50
90.0
  0
MTEXT
  5
3EA
330
3E4
100
AcDbEntity
  8
0
  6
ByBlock
 62
     6
100
AcDbMText
 10
354.4421760481303
 20
183.2496814300002
 30
0.0
 40
2.5
 41
0.0
 71
     5
 72
     1
  1
\A1;170
  7
STYLE3
 11
0.0000000000000001
 21
1.0
 31
0.0
 73
     1
 44
1.0
  0
POINT
  5
3EB
330
3E4
100
AcDbEntity
  8
DEFPOINTS
  6
ByBlock
 62
     0
100
AcDbPoint
 10
315.2961374364384
 20
98.24968143000024
 30
0.0
  0
POINT
  5
3EC
330
3E4
100
AcDbEntity
  8
DEFPOINTS
  6
ByBlock
 62
     0
100
AcDbPoint
 10
309.2961374364384
 20
268.2496814300002
 30
0.0
  0
POINT
  5
3ED
330
3E4
100
AcDbEntity
  8
DEFPOINTS
  6
ByBlock
 62
     0
100
AcDbPoint
 10
356.3171760481302
 20
268.2496814300002
 30
0.0
  0
ENDBLK
  5
3EE
330
3E4
100
AcDbEntity
  8
0
100
AcDbBlockEnd
  0
BLOCK
  5
47C
330
3F0
100
AcDbEntity
  8
0
100
AcDbBlockBegin
  2
*D6
 70
     1
 10
0.0
 20
0.0
 30
0.0
  3
*D6
  1

  0
LINE
  5
47D
330
3F0
100
AcDbEntity
  8
0
  6
ByBlock
 62
     2
100
AcDbLine
 10
357.5671760481303
 20
267.2496814300002
 30
0.0
 11
366.1431611389621
 21
267.2496814300002
 31
0.0
  0
LINE
  5
47E
330
3F0
100
AcDbEntity
  8
0
  6
ByBlock
 62
     2
100
AcDbLine
 10
357.5671760481303
 20
47.24968143000023
 30
0.0
 11
366.1431611389621
 21
47.24968143000023
 31
0.0
  0
LINE
  5
47F
330
3F0
100
AcDbEntity
  8
0
  6
ByBlock
 62
     2
100
AcDbLine
 10
364.8931611389621
 20
264.7496814300002
 30
0.0
 11
364.8931611389621
 21
49.74968143000023
 31
0.0
  0
INSERT
  5
480
330
3F0
100
AcDbEntity
  8
0
  6
ByBlock
 62
     2
100
AcDbBlockReference
  2
_OPEN
 10
364.8931611389621
 20
267.2496814300002
 30
0.0
 41
2.5
 42
2.5
 43
2.5
 50
90.0
  0
INSERT
  5
481
330
3F0
100
AcDbEntity
  8
0
  6
ByBlock
 62
     2
100
AcDbBlockReference
  2
_OPEN
 10
364.8931611389621
 20
47.24968143000023
 30
0.0
 41
2.5
 42
2.5
 43
2.5
 50
270.0
  0
MTEXT
  5
482
330
3F0
100
AcDbEntity
  8
0
  6
ByBlock
 62
     6
100
AcDbMText
 10
363.0181611389621
 20
157.2496814300002
 30
0.0
 40
2.5
 41
0.0
 71
     5
 72
     1
  1
\A1;220
  7
STYLE3
 11
0.0000000000000001
 21
1.0
 31
0.0
 73
     1
 44
1.0
  0
POINT
  5
483
330
3F0
100
AcDbEntity
  8
DEFPOINTS
  6
ByBlock
 62
     0
100
AcDbPoint
 10
357.5671760481303
 20
267.2496814300002
 30
0.0
  0
POINT
  5
484
330
3F0
100
AcDbEntity
  8
DEFPOINTS
  6
ByBlock
 62
     0
100
AcDbPoint
 10
357.5671760481303
 20
47.24968143000023
 30
0.0
  0
POINT
  5
485
330
3F0
100
AcDbEntity
  8
DEFPOINTS
  6
ByBlock
 62
     0
100
AcDbPoint
 10
364.8931611389621
 20
47.24968143000023
 30
0.0
  0
ENDBLK
  5
486
330
3F0
100
AcDbEntity
  8
0
100
AcDbBlockEnd
  0
BLOCK
  5
41F
330
41E
100
AcDbEntity
  8
0
100
AcDbBlockBegin
  2
*D7
 70
     1
 10
0.0
 20
0.0
 30
0.0
  3
*D7
  1

  0
LINE
  5
420
330
41E
100
AcDbEntity
  8
0
  6
ByBlock
 62
     2
100
AcDbLine
 10
214.7961374364383
 20
171.8738357239478
 30
0.0
 11
195.7683811942975
 21
171.8738357239478
 31
0.0
  0
LINE
  5
421
330
41E
100
AcDbEntity
  8
0
  6
ByBlock
 62
     2
100
AcDbLine
 10
214.7961374364383
 20
189.8738357239478
 30
0.0
 11
195.7683811942975
 21
189.8738357239478
 31
0.0
  0
LINE
  5
422
330
41E
100
AcDbEntity
  8
0
  6
ByBlock
 62
     2
100
AcDbLine
 10
197.0183811942975
 20
174.3738357239478
 30
0.0
 11
197.0183811942975
 21
187.3738357239478
 31
0.0
  0
INSERT
  5
423
330
41E
100
AcDbEntity
  8
0
  6
ByBlock
 62
     2
100
AcDbBlockReference
  2
_OPEN
 10
197.0183811942975
 20
171.8738357239478
 30
0.0
 41
2.5
 42
2.5
 43
2.5
 50
270.0
  0
INSERT
  5
424
330
41E
100
AcDbEntity
  8
0
  6
ByBlock
 62
     2
100
AcDbBlockReference
  2
_OPEN
 10
197.0183811942975
 20
189.8738357239478
 30
0.0
 41
2.5
 42
2.5
 43
2.5
 50
90.0
  0
MTEXT
  5
425
330
41E
100
AcDbEntity
  8
0
  6
ByBlock
 62
     6
100
AcDbMText
 10
195.1433811942975
 20
180.8738357239478
 30
0.0
 40
2.5
 41
0.0
 71
     5
 72
     1
  1
\A1;18
  7
STYLE3
 11
0.0000000000000001
 21
1.0
 31
0.0
 73
     1
 44
1.0
  0
POINT
  5
426
330
41E
100
AcDbEntity
  8
DEFPOINTS
  6
ByBlock
 62
     0
100
AcDbPoint
 10
214.7961374364383
 20
171.8738357239478
 30
0.0
  0
POINT
  5
427
330
41E
100
AcDbEntity
  8
DEFPOINTS
  6
ByBlock
 62
     0
100
AcDbPoint
 10
214.7961374364383
 20
189.8738357239478
 30
0.0
  0
POINT
  5
428
330
41E
100
AcDbEntity
  8
DEFPOINTS
  6
ByBlock
 62
     0
100
AcDbPoint
 10
197.0183811942975
 20
189.8738357239478
 30
0.0
  0
ENDBLK
  5
429
330
41E
100
AcDbEntity
  8
0
100
AcDbBlockEnd
  0
BLOCK
  5
447
330
43A
100
AcDbEntity
  8
0
100
AcDbBlockBegin
  2
*D8
 70
     1
 10
0.0
 20
0.0
 30
0.0
  3
*D8
  1

  0
LINE
  5
448
330
43A
100
AcDbEntity
  8
0
  6
ByBlock
 62
     2
100
AcDbLine
 10
285.7961374364383
 20
129.6746558205906
 30
0.0
 11
285.7961374364383
 21
132.0381984361397
 31
0.0
  0
LINE
  5
449
330
43A
100
AcDbEntity
  8
0
  6
ByBlock
 62
     2
100
AcDbLine
 10
310.7961374364383
 20
129.8973640768881
 30
0.0
 11
310.7961374364383
 21
132.0381984361397
 31
0.0
  0
LINE
  5
44A
330
43A
100
AcDbEntity
  8
0
  6
ByBlock
 62
     2
100
AcDbLine
 10
288.2961374364384
 20
130.7881984361397
 30
0.0
 11
308.2961374364383
 21
130.7881984361397
 31
0.0
  0
INSERT
  5
44B
330
43A
100
AcDbEntity
  8
0
  6
ByBlock
 62
     2
100
AcDbBlockReference
  2
_OPEN
 10
285.7961374364383
 20
130.7881984361397
 30
0.0
 41
2.5
 42
2.5
 43
2.5
 50
180.0
  0
INSERT
  5
44C
330
43A
100
AcDbEntity
  8
0
  6
ByBlock
 62
     2
100
AcDbBlockReference
  2
_OPEN
 10
310.7961374364383
 20
130.7881984361397
 30
0.0
 41
2.5
 42
2.5
 43
2.5
  0
MTEXT
  5
44D
330
43A
100
AcDbEntity
  8
0
  6
ByBlock
 62
     6
100
AcDbMText
 10
298.2961374364383
 20
132.6631984361397
 30
0.0
 40
2.5
 41
0.0
 71
     5
 72
     1
  1
\A1;φ25
  7
STYLE3
 73
     1
 44
1.0
  0
POINT
  5
44E
330
43A
100
AcDbEntity
  8
DEFPOINTS
  6
ByBlock
 62
     0
100
AcDbPoint
 10
285.7961374364383
 20
129.6746558205906
 30
0.0
  0
POINT
  5
44F
330
43A
100
AcDbEntity
  8
DEFPOINTS
  6
ByBlock
 62
     0
100
AcDbPoint
 10
310.7961374364383
 20
129.8973640768881
 30
0.0
  0
POINT
  5
450
330
43A
100
AcDbEntity
  8
DEFPOINTS
  6
ByBlock
 62
     0
100
AcDbPoint
 10
310.7961374364383
 20
130.7881984361397
 30
0.0
  0
ENDBLK
  5
451
330
43A
100
AcDbEntity
  8
0
100
AcDbBlockEnd
  0
BLOCK
  5
45F
330
45E
100
AcDbEntity
  8
0
100
AcDbBlockBegin
  2
*D9
 70
     1
 10
0.0
 20
0.0
 30
0.0
  3
*D9
  1

  0
LINE
  5
460
330
45E
100
AcDbEntity
  8
0
  6
ByBlock
 62
     2
100
AcDbLine
 10
223.2961374364383
 20
133.6834104372227
 30
0.0
 11
223.2961374364383
 21
129.5381984361397
 31
0.0
  0
LINE
  5
461
330
45E
100
AcDbEntity
  8
0
  6
ByBlock
 62
     2
100
AcDbLine
 10
285.7961374364383
 20
136.3559135149775
 30
0.0
 11
285.7961374364383
 21
129.5381984361397
 31
0.0
  0
LINE
  5
462
330
45E
100
AcDbEntity
  8
0
  6
ByBlock
 62
     2
100
AcDbLine
 10
225.7961374364383
 20
130.7881984361397
 30
0.0
 11
283.2961374364383
 21
130.7881984361397
 31
0.0
  0
INSERT
  5
463
330
45E
100
AcDbEntity
  8
0
  6
ByBlock
 62
     2
100
AcDbBlockReference
  2
_OPEN
 10
223.2961374364383
 20
130.7881984361397
 30
0.0
 41
2.5
 42
2.5
 43
2.5
 50
180.0
  0
INSERT
  5
464
330
45E
100
AcDbEntity
  8
0
  6
ByBlock
 62
     2
100
AcDbBlockReference
  2
_OPEN
 10
285.7961374364383
 20
130.7881984361397
 30
0.0
 41
2.5
 42
2.5
 43
2.5
  0
MTEXT
  5
465
330
45E
100
AcDbEntity
  8
0
  6
ByBlock
 62
     6
100
AcDbMText
 10
254.5461374364383
 20
132.6631984361397
 30
0.0
 40
2.5
 41
0.0
 71
     5
 72
     1
  1
\A1;62.5
  7
STYLE3
 73
     1
 44
1.0
  0
POINT
  5
466
330
45E
100
AcDbEntity
  8
DEFPOINTS
  6
ByBlock
 62
     0
100
AcDbPoint
 10
223.2961374364383
 20
133.6834104372227
 30
0.0
  0
POINT
  5
467
330
45E
100
AcDbEntity
  8
DEFPOINTS
  6
ByBlock
 62
     0
100
AcDbPoint
 10
285.7961374364383
 20
136.3559135149775
 30
0.0
  0
POINT
  5
468
330
45E
100
AcDbEntity
  8
DEFPOINTS
  6
ByBlock
 62
     0
100
AcDbPoint
 10
285.7961374364383
 20
130.7881984361397
 30
0.0
  0
ENDBLK
  5
469
330
45E
100
AcDbEntity
  8
0
100
AcDbBlockEnd
  0
BLOCK
  5
493
330
492
100
AcDbEntity
  8
0
100
AcDbBlockBegin
  2
*D10
 70
     1
 10
0.0
 20
0.0
 30
0.0
  3
*D10
  1

  0
LINE
  5
494
330
492
100
AcDbEntity
  8
0
  6
ByBlock
 62
     2
100
AcDbLine
 10
341.1716941521883
 20
97.24968143000024
 30
0.0
 11
349.9044813269411
 21
97.24968143000022
 31
0.0
  0
LINE
  5
495
330
492
100
AcDbEntity
  8
0
  6
ByBlock
 62
     2
100
AcDbLine
 10
324.4894781607639
 20
92.24968143000024
 30
0.0
 11
349.9044813269411
 21
92.24968143000022
 31
0.0
  0
LINE
  5
496
330
492
100
AcDbEntity
  8
0
  6
ByBlock
 62
     2
100
AcDbLine
 10
348.6544813269411
 20
99.74968143000022
 30
0.0
 11
348.6544813269411
 21
102.2496814300002
 31
0.0
  0
LINE
  5
497
330
492
100
AcDbEntity
  8
0
  6
ByBlock
 62
     2
100
AcDbLine
 10
348.6544813269411
 20
89.74968143000022
 30
0.0
 11
348.6544813269411
 21
87.24968143000022
 31
0.0
  0
LINE
  5
498
330
492
100
AcDbEntity
  8
0
  6
ByBlock
 62
     2
100
AcDbLine
 10
348.6544813269411
 20
97.24968143000022
 30
0.0
 11
348.6544813269411
 21
92.24968143000022
 31
0.0
  0
INSERT
  5
499
330
492
100
AcDbEntity
  8
0
  6
ByBlock
 62
     2
100
AcDbBlockReference
  2
_OPEN
 10
348.6544813269411
 20
97.24968143000022
 30
0.0
 41
2.5
 42
2.5
 43
2.5
 50
270.0
  0
INSERT
  5
49A
330
492
100
AcDbEntity
  8
0
  6
ByBlock
 62
     2
100
AcDbBlockReference
  2
_OPEN
 10
348.6544813269411
 20
92.24968143000022
 30
0.0
 41
2.5
 42
2.5
 43
2.5
 50
90.0
  0
MTEXT
  5
49B
330
492
100
AcDbEntity
  8
0
  6
ByBlock
 62
     6
100
AcDbMText
 10
346.7794813269411
 20
94.74968143000024
 30
0.0
 40
2.5
 41
0.0
 71
     5
 72
     1
  1
\A1;5
  7
STYLE3
 11
0.0000000000000001
 21
1.0
 31
0.0
 73
     1
 44
1.0
  0
POINT
  5
49C
330
492
100
AcDbEntity
  8
DEFPOINTS
  6
ByBlock
 62
     0
100
AcDbPoint
 10
341.1716941521883
 20
97.24968143000024
 30
0.0
  0
POINT
  5
49D
330
492
100
AcDbEntity
  8
DEFPOINTS
  6
ByBlock
 62
     0
100
AcDbPoint
 10
324.4894781607639
 20
92.24968143000024
 30
0.0
  0
POINT
  5
49E
330
492
100
AcDbEntity
  8
DEFPOINTS
  6
ByBlock
 62
     0
100
AcDbPoint
 10
348.6544813269411
 20
92.24968143000022
 30
0.0
  0
ENDBLK
  5
49F
330
492
100
AcDbEntity
  8
0
100
AcDbBlockEnd
  0
BLOCK
  5
4D5
330
4D4
100
AcDbEntity
  8
0
100
AcDbBlockBegin
  2
*D11
 70
     1
 10
0.0
 20
0.0
 30
0.0
  3
*D11
  1

  0
LINE
  5
4D6
330
4D4
100
AcDbEntity
  8
0
  6
ByBlock
 62
     2
100
AcDbLine
 10
190.2961374364384
 20
47.24968143000023
 30
0.0
 11
173.3166039666419
 21
47.24968143000024
 31
0.0
  0
LINE
  5
4D7
330
4D4
100
AcDbEntity
  8
0
  6
ByBlock
 62
     2
100
AcDbLine
 10
199.2961374364383
 20
107.2496814300002
 30
0.0
 11
173.3166039666419
 21
107.2496814300002
 31
0.0
  0
LINE
  5
4D8
330
4D4
100
AcDbEntity
  8
0
  6
ByBlock
 62
     2
100
AcDbLine
 10
174.5666039666418
 20
49.74968143000023
 30
0.0
 11
174.5666039666418
 21
104.7496814300002
 31
0.0
  0
INSERT
  5
4D9
330
4D4
100
AcDbEntity
  8
0
  6
ByBlock
 62
     2
100
AcDbBlockReference
  2
_OPEN
 10
174.5666039666418
 20
47.24968143000023
 30
0.0
 41
2.5
 42
2.5
 43
2.5
 50
270.0
  0
INSERT
  5
4DA
330
4D4
100
AcDbEntity
  8
0
  6
ByBlock
 62
     2
100
AcDbBlockReference
  2
_OPEN
 10
174.5666039666418
 20
107.2496814300002
 30
0.0
 41
2.5
 42
2.5
 43
2.5
 50
90.0
  0
MTEXT
  5
4DB
330
4D4
100
AcDbEntity
  8
0
  6
ByBlock
 62
     6
100
AcDbMText
 10
172.6916039666418
 20
77.24968143000022
 30
0.0
 40
2.5
 41
0.0
 71
     5
 72
     1
  1
\A1;60
  7
STYLE3
 11
0.0000000000000001
 21
1.0
 31
0.0
 73
     1
 44
1.0
  0
POINT
  5
4DC
330
4D4
100
AcDbEntity
  8
DEFPOINTS
  6
ByBlock
 62
     0
100
AcDbPoint
 10
190.2961374364384
 20
47.24968143000023
 30
0.0
  0
POINT
  5
4DD
330
4D4
100
AcDbEntity
  8
DEFPOINTS
  6
ByBlock
 62
     0
100
AcDbPoint
 10
199.2961374364383
 20
107.2496814300002
 30
0.0
  0
POINT
  5
4DE
330
4D4
100
AcDbEntity
  8
DEFPOINTS
  6
ByBlock
 62
     0
100
AcDbPoint
 10
174.5666039666418
 20
107.2496814300002
 30
0.0
  0
ENDBLK
  5
4DF
330
4D4
100
AcDbEntity
  8
0
100
AcDbBlockEnd
  0
BLOCK
  5
4ED
330
4E1
100
AcDbEntity
  8
0
100
AcDbBlockBegin
  2
*D12
 70
     1
 10
0.0
 20
0.0
 30
0.0
  3
*D12
  1

  0
LINE
  5
4EE
330
4E1
100
AcDbEntity
  8
0
  6
ByBlock
 62
     2
100
AcDbLine
 10
195.7683811942975
 20
170.8738357239478
 30
0.0
 11
173.3166039666419
 21
170.8738357239478
 31
0.0
  0
LINE
  5
4EF
330
4E1
100
AcDbEntity
  8
0
  6
ByBlock
 62
     2
100
AcDbLine
 10
174.5666039666418
 20
109.7496814300002
 30
0.0
 11
174.5666039666418
 21
168.3738357239478
 31
0.0
  0
INSERT
  5
4F0
330
4E1
100
AcDbEntity
  8
0
  6
ByBlock
 62
     2
100
AcDbBlockReference
  2
_OPEN
 10
174.5666039666418
 20
107.2496814300002
 30
0.0
 41
2.5
 42
2.5
 43
2.5
 50
270.0
  0
INSERT
  5
4F1
330
4E1
100
AcDbEntity
  8
0
  6
ByBlock
 62
     2
100
AcDbBlockReference
  2
_OPEN
 10
174.5666039666418
 20
170.8738357239478
 30
0.0
 41
2.5
 42
2.5
 43
2.5
 50
90.0
  0
MTEXT
  5
4F2
330
4E1
100
AcDbEntity
  8
0
  6
ByBlock
 62
     6
100
AcDbMText
 10
172.6916039666418
 20
139.061758576974
 30
0.0
 40
2.5
 41
0.0
 71
     5
 72
     1
  1
\A1;MAX110
  7
STYLE3
 11
0.0000000000000001
 21
1.0
 31
0.0
 73
     1
 44
1.0
  0
POINT
  5
4F3
330
4E1
100
AcDbEntity
  8
DEFPOINTS
  6
ByBlock
 62
     0
100
AcDbPoint
 10
199.2961374364383
 20
107.2496814300002
 30
0.0
  0
POINT
  5
4F4
330
4E1
100
AcDbEntity
  8
DEFPOINTS
  6
ByBlock
 62
     0
100
AcDbPoint
 10
195.7683811942975
 20
170.8738357239478
 30
0.0
  0
POINT
  5
4F5
330
4E1
100
AcDbEntity
  8
DEFPOINTS
  6
ByBlock
 62
     0
100
AcDbPoint
 10
174.5666039666418
 20
170.8738357239478
 30
0.0
  0
ENDBLK
  5
4F6
330
4E1
100
AcDbEntity
  8
0
100
AcDbBlockEnd
  0
BLOCK
  5
544
330
537
100
AcDbEntity
  8
0
100
AcDbBlockBegin
  2
*D13
 70
     1
 10
0.0
 20
0.0
 30
0.0
  3
*D13
  1

  0
LINE
  5
545
330
537
100
AcDbEntity
  8
0
  6
ByBlock
 62
     2
100
AcDbLine
 10
81.26171345367266
 20
188.8738357239478
 30
0.0
 11
81.26171345367266
 21
198.1339320232955
 31
0.0
  0
LINE
  5
546
330
537
100
AcDbEntity
  8
0
  6
ByBlock
 62
     2
100
AcDbLine
 10
89.26171345367267
 20
188.8738357239478
 30
0.0
 11
89.26171345367267
 21
198.1339320232955
 31
0.0
  0
LINE
  5
547
330
537
100
AcDbEntity
  8
0
  6
ByBlock
 62
     2
100
AcDbLine
 10
83.76171345367266
 20
196.8839320232955
 30
0.0
 11
86.76171345367267
 21
196.8839320232955
 31
0.0
  0
INSERT
  5
548
330
537
100
AcDbEntity
  8
0
  6
ByBlock
 62
     2
100
AcDbBlockReference
  2
_OPEN
 10
81.26171345367266
 20
196.8839320232955
 30
0.0
 41
2.5
 42
2.5
 43
2.5
 50
180.0
  0
INSERT
  5
549
330
537
100
AcDbEntity
  8
0
  6
ByBlock
 62
     2
100
AcDbBlockReference
  2
_OPEN
 10
89.26171345367267
 20
196.8839320232955
 30
0.0
 41
2.5
 42
2.5
 43
2.5
  0
MTEXT
  5
54A
330
537
100
AcDbEntity
  8
0
  6
ByBlock
 62
     6
100
AcDbMText
 10
85.26171345367265
 20
198.7589320232955
 30
0.0
 40
2.5
 41
0.0
 71
     5
 72
     1
  1
\A1;φ8
  7
STYLE3
 73
     1
 44
1.0
  0
POINT
  5
54B
330
537
100
AcDbEntity
  8
DEFPOINTS
  6
ByBlock
 62
     0
100
AcDbPoint
 10
81.26171345367266
 20
188.8738357239478
 30
0.0
  0
POINT
  5
54C
330
537
100
AcDbEntity
  8
DEFPOINTS
  6
ByBlock
 62
     0
100
AcDbPoint
 10
89.26171345367267
 20
188.8738357239478
 30
0.0
  0
POINT
  5
54D
330
537
100
AcDbEntity
  8
DEFPOINTS
  6
ByBlock
 62
     0
100
AcDbPoint
 10
89.26171345367267
 20
196.8839320232955
 30
0.0
  0
ENDBLK
  5
54E
330
537
100
AcDbEntity
  8
0
100
AcDbBlockEnd
  0
BLOCK
  5
5C0
330
56D
100
AcDbEntity
  8
0
100
AcDbBlockBegin
  2
ROGO
 70
     0
 10
0.0
 20
0.0
 30
0.0
  3
ROGO
  1

  0
HATCH
  5
56E
330
56D
100
AcDbEntity
  8
ROGO
 62
     4
100
AcDbHatch
 10
0.0
 20
0.0
 30
0.0
210
0.0
220
0.0
230
1.0
  2
SOLID
 70
     1
 71
     1
 91
        1
 92
        7
 72
     0
 73
     1
 93
       11
 10
38.38165352405156
 20
4.949786840425588
 10
36.55777800832078
 20
4.949786840425588
 10
35.70378540756275
 20
4.409370842614521
 10
35.97325427788326
 20
4.949786840425588
 10
34.14933885635003
 20
4.949786840425645
 10
31.68121527448045
 20
0.0
 10
33.50513069601385
 20
0.0
 10
34.14933885635003
 20
1.291950329371957
 10
34.79354701668632
 20
0.0
 10
36.61742253241704
 20
0.0
 10
35.38336074148237
 20
2.474893420212765
 97
       11
330
5BC
330
5BF
330
5BE
330
5BD
330
573
330
570
330
5B9
330
5B8
330
5BA
330
5B7
330
5BB
 75
     0
 76
     1
 47
0.0514683685270805
 98
        1
 10
33.99236623130548
 20
2.826231829978155
450
        0
451
        0
460
0.0
461
0.0
452
        0
462
0.0
453
        0
470

  0
HATCH
  5
56F
330
56D
100
AcDbEntity
  8
ROGO
 62
     4
100
AcDbHatch
 10
0.0
 20
0.0
 30
0.0
210
0.0
220
0.0
230
1.0
  2
SOLID
 70
     1
 71
     1
 91
        1
 92
        5
 93
        8
 72
     1
 10
33.48588559853425
 20
4.949786840425645
 11
30.31359802057352
 21
4.949786840425645
 72
     4
 94
        3
 73
     0
 74
     0
 95
       26
 96
       22
 40
0.0
 40
0.0
 40
0.0
 40
0.0
 40
0.7089867102952115
 40
1.183598414482279
 40
1.525832104103439
 40
1.781366926528389
 40
2.112809002752968
 40
2.354729406992515
 40
2.791581270399936
 40
3.147172406765291
 40
3.389031356825354
 40
3.626186440486682
 40
4.050410779375985
 40
4.350388020238963
 40
4.511948940797758
 40
4.741441456013356
 40
4.907163150576407
 40
5.147239172635527
 40
5.28310143501293
 40
5.578752957634333
 40
5.713750011164293
 40
5.713750011164293
 40
5.713750011164293
 40
5.713750011164293
 10
30.31359802057318
 20
4.949786840425645
 10
30.11854899911117
 20
4.938149881331241
 10
29.7929297608427
 20
4.91872287919773
 10
29.43540181805798
 20
4.70152849352172
 10
29.17345591634097
 20
4.575261222274434
 10
28.98663641691252
 20
4.403611624277345
 10
28.84969696652098
 20
4.226310128312206
 10
28.67705908163674
 20
4.015056695877603
 10
28.53627781964582
 20
3.769060622409767
 10
28.46458648155834
 20
3.497930064177694
 10
28.40108297470425
 20
3.28183743611737
 10
28.35398771091377
 20
3.041030402807223
 10
28.36597007927202
 20
2.780874095348053
 10
28.38312937914947
 20
2.539254235598093
 10
28.45974148051295
 20
2.366773831190926
 10
28.5469890936244
 20
2.243979668736869
 10
28.65382260102928
 20
2.108735512341411
 10
28.77072182070049
 20
2.019163745498303
 10
28.86740701734601
 20
1.85689847078413
 10
29.03665119246222
 20
1.836192251465718
 10
29.14422952328943
 20
1.794980695042454
 10
29.17795251342483
 20
1.782061951090668
 72
     1
 10
29.1779525134246
 20
1.782061951090668
 11
31.90635566072177
 21
1.782061951090724
 72
     1
 10
31.90635566072177
 20
1.782061951090668
 11
32.49403698331935
 21
2.960648509043437
 72
     1
 10
32.49403698331941
 20
2.960648509043437
 11
30.46845823186379
 21
2.960648509043437
 72
     4
 94
        3
 73
     0
 74
     0
 95
       16
 96
       12
 40
0.0
 40
0.0
 40
0.0
 40
0.0
 40
0.2141121027475241
 40
0.4304326162973471
 40
0.5594580803306056
 40
0.6831669452691567
 40
0.8190286678446897
 40
0.9139043619204622
 40
1.003933161420314
 40
1.186498641432482
 40
1.560280494298353
 40
1.560280494298353
 40
1.560280494298353
 40
1.560280494298353
 10
30.46845823186391
 20
2.960648509043437
 10
30.40735963846879
 20
2.978624611086559
 10
30.2845322640714
 20
3.014762225606943
 10
30.27425260468789
 20
3.189944104912854
 10
30.28825715338957
 20
3.314775529002304
 10
30.34690823463126
 20
3.405660095425673
 10
30.41806216907168
 20
3.471790575521367
 10
30.44455593462857
 20
3.557915185941965
 10
30.52243194464864
 20
3.622950041937542
 10
30.66052697686496
 20
3.732264550099898
 10
30.81323617682881
 20
3.755546097864453
 10
30.9158338246271
 20
3.771187801431096
 72
     1
 10
30.91583382462705
 20
3.77118780143121
 11
32.89819805248612
 21
3.77118780143121
 72
     1
 10
32.89819805248612
 20
3.77118780143121
 11
33.48588559853425
 21
4.949786840425701
 97
        8
330
571
330
595
330
5A1
330
59A
330
5B5
330
5B4
330
5B6
330
572
 75
     0
 76
     1
 47
0.0514683685270805
 98
        1
 10
30.86099532083267
 20
4.369765638819899
450
        0
451
        0
460
0.0
461
0.0
452
        0
462
0.0
453
        0
470

  0
LINE
  5
570
102
{ACAD_REACTORS
330
574
330
56E
330
579
102
}
330
56D
100
AcDbEntity
  8
ROGO
 62
     4
100
AcDbLine
 10
0.0000000000000568
 20
0.0
 30
0.0
 11
33.50513069601385
 21
0.0
 31
0.0
  0
LINE
  5
571
102
{ACAD_REACTORS
330
56F
102
}
330
56D
100
AcDbEntity
  8
ROGO
 62
     4
100
AcDbLine
 10
30.31359802057415
 20
4.949786840425645
 30
0.0
 11
33.48588559853425
 21
4.949786840425645
 31
0.0
  0
LINE
  5
572
102
{ACAD_REACTORS
330
56F
102
}
330
56D
100
AcDbEntity
  8
ROGO
 62
     4
100
AcDbLine
 10
33.48588559853425
 20
4.949786840425645
 30
0.0
 11
32.89819805248607
 21
3.77118780143121
 31
0.0
  0
LINE
  5
573
102
{ACAD_REACTORS
330
574
330
56E
102
}
330
56D
100
AcDbEntity
  8
ROGO
 62
     4
100
AcDbLine
 10
34.14933885635003
 20
4.949786840425645
 30
0.0
 11
31.6812152744804
 21
0.0
 31
0.0
  0
HATCH
  5
574
330
56D
100
AcDbEntity
  8
ROGO
 62
     4
100
AcDbHatch
 10
0.0
 20
0.0
 30
0.0
210
0.0
220
0.0
230
1.0
  2
SOLID
 70
     1
 71
     1
 91
        1
 92
        7
 72
     0
 73
     1
 93
        4
 10
31.9286078056424
 20
0.4961422127159381
 10
2.525341286638024
 20
0.4961422127159381
 10
2.30087247590319
 20
-0.0000000000000568
 10
31.68121527448045
 20
-0.0000000000000568
 97
        4
330
578
330
582
330
570
330
573
 75
     0
 76
     1
 47
0.0514683685270805
 98
        1
 10
21.09111831761885
 20
0.3649205710345882
450
        0
451
        0
460
0.0
461
0.0
452
        0
462
0.0
453
        0
470

  0
HATCH
  5
575
330
56D
100
AcDbEntity
  8
ROGO
 62
     4
100
AcDbHatch
 10
0.0
 20
0.0
 30
0.0
210
0.0
220
0.0
230
1.0
  2
SOLID
 70
     1
 71
     1
 91
        2
 92
        7
 72
     0
 73
     1
 93
        8
 10
15.99342784516449
 20
4.949786840425645
 10
14.16260675403379
 20
4.949786840425645
 10
11.87829877231911
 20
1.782061951090668
 10
13.63265136986962
 20
1.782061951090668
 10
14.06756947612285
 20
2.38517717067981
 10
16.08846512307536
 20
2.385177170679696
 10
16.52338322932866
 20
1.782061951090668
 10
18.27773582687916
 20
1.782061951090668
 97
        8
330
577
330
57F
330
584
330
580
330
576
330
598
330
59E
330
597
 92
       22
 72
     0
 73
     1
 93
        3
 10
15.62974388152605
 20
3.021300979620718
 10
14.52629071767222
 20
3.021300979620718
 10
15.07801729959914
 20
3.786398348131172
 97
        3
330
5A3
330
5A2
330
5A4
 75
     0
 76
     1
 47
0.0514683685270805
 98
        2
 10
16.20617981601185
 20
3.326837253266262
 10
16.20617981601185
 20
3.326837253266262
450
        0
451
        0
460
0.0
461
0.0
452
        0
462
0.0
453
        0
470

  0
LINE
  5
576
102
{ACAD_REACTORS
330
575
102
}
330
56D
100
AcDbEntity
  8
ROGO
 62
     4
100
AcDbLine
 10
14.06756947612285
 20
2.385177170679753
 30
0.0
 11
16.08846512307542
 21
2.385177170679753
 31
0.0
  0
LINE
  5
577
102
{ACAD_REACTORS
330
575
102
}
330
56D
100
AcDbEntity
  8
ROGO
 62
     4
100
AcDbLine
 10
14.16260675403379
 20
4.949786840425645
 30
0.0
 11
15.99342784516443
 21
4.949786840425645
 31
0.0
  0
LINE
  5
578
102
{ACAD_REACTORS
330
574
102
}
330
56D
100
AcDbEntity
  8
ROGO
 62
     4
100
AcDbLine
 10
2.490933298034235
 20
0.4961422127159381
 30
0.0
 11
31.92860780564246
 21
0.4961422127159381
 31
0.0
  0
HATCH
  5
579
330
56D
100
AcDbEntity
  8
ROGO
 62
     4
100
AcDbHatch
 10
0.0
 20
0.0
 30
0.0
210
0.0
220
0.0
230
1.0
  2
SOLID
 70
     1
 71
     1
 91
        2
 92
        5
 93
        6
 72
     4
 94
        3
 73
     0
 74
     0
 95
       18
 96
       14
 40
0.108740278791501
 40
0.108740278791501
 40
0.108740278791501
 40
0.108740278791501
 40
0.6623149649549278
 40
1.384304701649787
 40
2.097394834876493
 40
2.774073369849618
 40
3.428974823686337
 40
4.005208313035923
 40
4.455173659284313
 40
4.720999734343524
 40
5.086034088486724
 40
5.569973738255373
 40
6.060470601257719
 40
6.060470601257719
 40
6.060470601257719
 40
6.060470601257719
 10
5.257971706506339
 20
1.782061951090668
 10
5.409344543521854
 20
1.783189178773909
 10
5.758142655701249
 20
1.785786572703102
 10
6.246108485316483
 20
2.046468641233957
 10
6.708839512865949
 20
2.378558603499755
 10
7.081537876611037
 20
2.793470364329778
 10
7.313740186156906
 20
3.267850878540173
 10
7.349707589953482
 20
3.722501028309523
 10
7.327750373593119
 20
4.082123644518105
 10
7.170855034099304
 20
4.33278953599904
 10
7.007743182975218
 20
4.587189781908875
 10
6.708651203549891
 20
4.807560723981168
 10
6.463588634008544
 20
4.904115955004613
 10
6.338969333173452
 20
4.949786840425758
 72
     1
 10
6.338969333173679
 20
4.949786840425645
 11
2.449108495127859
 21
4.949786840425645
 72
     1
 10
2.449108495127859
 20
4.949786840425645
 11
0.0
 21
-0.0000000000000568
 72
     1
 10
-0.0000000000000568
 20
0.0
 11
2.300872475903247
 21
0.0
 72
     1
 10
2.300872475903304
 20
0.0
 11
3.107127853020472
 21
1.782061951090724
 72
     1
 10
3.107127853020472
 20
1.782061951090668
 11
5.257971706506168
 21
1.782061951090668
 97
        6
330
57B
330
585
330
57C
330
570
330
582
330
581
 92
       20
 93
        4
 72
     1
 10
3.604944905315051
 20
2.882384321244217
 11
3.98608604239348
 21
3.724818539558043
 72
     1
 10
3.98608604239348
 20
3.724818539557986
 11
4.965456325034381
 21
3.724818539557986
 72
     4
 94
        3
 73
     0
 74
     0
 95
       15
 96
       11
 40
0.0
 40
0.0
 40
0.0
 40
0.0
 40
0.458245544397197
 40
0.6671803073175111
 40
0.9043351724393449
 40
1.065896092998139
 40
1.321406364485703
 40
1.474450037341961
 40
1.737022829061231
 40
1.824547148828933
 40
1.824547148828933
 40
1.824547148828933
 40
1.824547148828933
 10
4.965456325033528
 20
3.724818539557986
 10
5.104956735089615
 20
3.72545752589923
 10
5.308061659054601
 20
3.726387854865265
 10
5.419126665259284
 20
3.475146476562713
 10
5.369342033880457
 20
3.313386222112512
 10
5.306758694724408
 20
3.147308857819552
 10
5.196159760245848
 20
3.034456783979635
 10
5.047719790425048
 20
2.925761212639713
 10
4.907436925306626
 20
2.912603127013085
 10
4.816198668830168
 20
2.888428084712359
 10
4.793389093792598
 20
2.88238432124416
 72
     1
 10
4.793389093792541
 20
2.882384321244217
 11
3.604944905315051
 21
2.882384321244217
 97
        4
330
588
330
586
330
58A
330
587
 75
     0
 76
     1
 47
0.0514683685270805
 98
        2
 10
2.469899197802817
 20
3.410271770727717
 10
2.469899197802817
 20
3.410271770727717
450
        0
451
        0
460
0.0
461
0.0
452
        0
462
0.0
453
        0
470

  0
HATCH
  5
57A
330
56D
100
AcDbEntity
  8
ROGO
 62
     4
100
AcDbHatch
 10
0.0
 20
0.0
 30
0.0
210
0.0
220
0.0
230
1.0
  2
SOLID
 70
     1
 71
     1
 91
        1
 92
        1
 93
       12
 72
     1
 10
8.637002599138838
 20
4.949786840425645
 11
12.92148229673961
 21
4.949786840425701
 72
     1
 10
12.92148229673961
 20
4.949786840425645
 11
12.56244669050807
 21
4.224155565819216
 72
     1
 10
12.56244669050812
 20
4.224155565819273
 11
10.31063242784853
 21
4.224155565819273
 72
     1
 10
10.31063242784847
 20
4.224155565819273
 11
10.02991119959222
 21
3.656802080167153
 72
     1
 10
10.02991119959228
 20
3.656802080167153
 11
12.28172546225187
 21
3.656802080167153
 72
     1
 10
12.28172546225181
 20
3.656802080167153
 11
11.99387214064069
 21
3.075034230307551
 72
     1
 10
11.99387214064069
 20
3.075034230307551
 11
9.742057877981153
 21
3.075034230307494
 72
     1
 10
9.742057877981153
 20
3.075034230307551
 11
9.461324765337508
 21
2.507656725636252
 72
     1
 10
9.461324765337565
 20
2.507656725636138
 11
11.71313902799716
 21
2.507656725636138
 72
     1
 10
11.71313902799716
 20
2.507656725636138
 11
11.3541214816563
 21
1.782061951090668
 72
     1
 10
11.35412148165636
 20
1.782061951090668
 11
7.06964178405559
 21
1.782061951090668
 72
     1
 10
7.06964178405559
 20
1.782061951090668
 11
8.637002599138838
 21
4.949786840425645
 97
       12
330
589
330
58B
330
58D
330
58C
330
58E
330
591
330
590
330
592
330
58F
330
57E
330
583
330
57D
 75
     0
 76
     1
 98
        1
 10
-166.6183073243049
 20
-214.0842147101267
450
        0
451
        0
460
0.0
461
0.0
452
        0
462
0.0
453
        0
470

  0
SPLINE
  5
57B
102
{ACAD_REACTORS
330
579
102
}
330
56D
100
AcDbEntity
  8
ROGO
 62
     4
100
AcDbSpline
210
0.0
220
0.0
230
1.0
 70
     8
 71
     3
 72
    18
 73
    14
 74
     0
 42
0.0000000001
 43
0.0000000001
 40
0.1087402787915014
 40
0.1087402787915014
 40
0.1087402787915014
 40
0.1087402787915014
 40
0.5992371417938475
 40
1.083176791562496
 40
1.448211145705696
 40
1.714037220764907
 40
2.164002567013297
 40
2.740236056362883
 40
3.395137510199602
 40
4.071816045172726
 40
4.784906178399433
 40
5.506895915094292
 40
6.060470601257719
 40
6.060470601257719
 40
6.060470601257719
 40
6.060470601257719
 10
6.338969333173452
 20
4.949786840425758
 30
0.0
 10
6.463588634008544
 20
4.904115955004613
 30
0.0
 10
6.708651203549891
 20
4.807560723981168
 30
0.0
 10
7.007743182975218
 20
4.587189781908875
 30
0.0
 10
7.170855034099304
 20
4.33278953599904
 30
0.0
 10
7.327750373593119
 20
4.082123644518105
 30
0.0
 10
7.349707589953482
 20
3.722501028309523
 30
0.0
 10
7.313740186156906
 20
3.267850878540173
 30
0.0
 10
7.081537876611037
 20
2.793470364329778
 30
0.0
 10
6.708839512865949
 20
2.378558603499755
 30
0.0
 10
6.246108485316483
 20
2.046468641233957
 30
0.0
 10
5.758142655701249
 20
1.785786572703102
 30
0.0
 10
5.409344543521854
 20
1.783189178773909
 30
0.0
 10
5.257971706506339
 20
1.782061951090668
 30
0.0
  0
LINE
  5
57C
102
{ACAD_REACTORS
330
579
102
}
330
56D
100
AcDbEntity
  8
ROGO
 62
     4
100
AcDbLine
 10
2.449108495127859
 20
4.949786840425645
 30
0.0
 11
0.0
 21
0.0
 31
0.0
  0
LINE
  5
57D
102
{ACAD_REACTORS
330
57A
102
}
330
56D
100
AcDbEntity
  8
ROGO
 62
     4
100
AcDbLine
 10
8.637002599138952
 20
4.949786840425645
 30
0.0
 11
7.06964178405559
 21
1.782061951090668
 31
0.0
  0
LINE
  5
57E
102
{ACAD_REACTORS
330
57A
102
}
330
56D
100
AcDbEntity
  8
ROGO
 62
     4
100
AcDbLine
 10
11.71313902799716
 20
2.507656725636195
 30
0.0
 11
11.35412148165636
 21
1.782061951090668
 31
0.0
  0
LINE
  5
57F
102
{ACAD_REACTORS
330
575
102
}
330
56D
100
AcDbEntity
  8
ROGO
 62
     4
100
AcDbLine
 10
14.16260675403384
 20
4.949786840425645
 30
0.0
 11
11.87829877231911
 21
1.782061951090668
 31
0.0
  0
LINE
  5
580
102
{ACAD_REACTORS
330
575
102
}
330
56D
100
AcDbEntity
  8
ROGO
 62
     4
100
AcDbLine
 10
14.06756947612285
 20
2.385177170679753
 30
0.0
 11
13.63265136986962
 21
1.782061951090781
 31
0.0
  0
LINE
  5
581
102
{ACAD_REACTORS
330
579
102
}
330
56D
100
AcDbEntity
  8
ROGO
 62
     4
100
AcDbLine
 10
5.257971707251897
 20
1.782061951090668
 30
0.0
 11
3.107127853020358
 21
1.782061951090668
 31
0.0
  0
LINE
  5
582
102
{ACAD_REACTORS
330
574
330
579
102
}
330
56D
100
AcDbEntity
  8
ROGO
 62
     4
100
AcDbLine
 10
3.107127853020472
 20
1.782061951090668
 30
0.0
 11
2.300872475903304
 21
0.0
 31
0.0
  0
LINE
  5
583
102
{ACAD_REACTORS
330
57A
102
}
330
56D
100
AcDbEntity
  8
ROGO
 62
     4
100
AcDbLine
 10
7.06964178405559
 20
1.782061951090668
 30
0.0
 11
11.35412148165636
 21
1.782061951090668
 31
0.0
  0
LINE
  5
584
102
{ACAD_REACTORS
330
575
102
}
330
56D
100
AcDbEntity
  8
ROGO
 62
     4
100
AcDbLine
 10
11.87829877231917
 20
1.782061951090668
 30
0.0
 11
13.63265136986962
 21
1.782061951090668
 31
0.0
  0
LINE
  5
585
102
{ACAD_REACTORS
330
579
102
}
330
56D
100
AcDbEntity
  8
ROGO
 62
     4
100
AcDbLine
 10
2.449108495127859
 20
4.949786840425645
 30
0.0
 11
6.338969333173452
 21
4.949786840425645
 31
0.0
  0
LINE
  5
586
102
{ACAD_REACTORS
330
579
102
}
330
56D
100
AcDbEntity
  8
ROGO
 62
     4
100
AcDbLine
 10
4.965456325033528
 20
3.724818539557986
 30
0.0
 11
3.986086042393537
 21
3.724818539557986
 31
0.0
  0
LINE
  5
587
102
{ACAD_REACTORS
330
579
102
}
330
56D
100
AcDbEntity
  8
ROGO
 62
     4
100
AcDbLine
 10
4.793389093792598
 20
2.88238432124416
 30
0.0
 11
3.604944905315107
 21
2.882384321244217
 31
0.0
  0
LINE
  5
588
102
{ACAD_REACTORS
330
579
102
}
330
56D
100
AcDbEntity
  8
ROGO
 62
     4
100
AcDbLine
 10
3.986086042393537
 20
3.724818539557986
 30
0.0
 11
3.604944905315051
 21
2.882384321244217
 31
0.0
  0
LINE
  5
589
102
{ACAD_REACTORS
330
57A
102
}
330
56D
100
AcDbEntity
  8
ROGO
 62
     4
100
AcDbLine
 10
8.637002599138838
 20
4.949786840425645
 30
0.0
 11
12.92148229673961
 21
4.949786840425758
 31
0.0
  0
SPLINE
  5
58A
102
{ACAD_REACTORS
330
579
102
}
330
56D
100
AcDbEntity
  8
ROGO
 62
     4
100
AcDbSpline
210
0.0
220
0.0
230
1.0
 70
     8
 71
     3
 72
    15
 73
    11
 74
     9
 42
0.0000000001
 43
0.0000000001
 44
0.0000000001
 40
0.0
 40
0.0
 40
0.0
 40
0.0
 40
0.3714260192954959
 40
0.5407758541881006
 40
0.7329991907503102
 40
0.8639506649775173
 40
1.071051779626874
 40
1.195099689928134
 40
1.407925254728536
 40
1.478867154939799
 40
1.478867154939799
 40
1.478867154939799
 40
1.478867154939799
 10
4.965456325033528
 20
3.724818539557986
 30
0.0
 10
5.104956735089532
 20
3.725457525899206
 30
0.0
 10
5.308061659054509
 20
3.726387854865235
 30
0.0
 10
5.419126665259303
 20
3.475146476562761
 30
0.0
 10
5.369342033880415
 20
3.31338622211255
 30
0.0
 10
5.306758694724477
 20
3.147308857819524
 30
0.0
 10
5.19615976024584
 20
3.034456783979611
 30
0.0
 10
5.047719790425087
 20
2.925761212639771
 30
0.0
 10
4.907436925306584
 20
2.912603127013052
 30
0.0
 10
4.816198668830153
 20
2.888428084712352
 30
0.0
 10
4.793389093792598
 20
2.88238432124416
 30
0.0
 11
4.965456325033528
 21
3.724818539557986
 31
0.0
 11
5.326797807465993
 21
3.63885563544693
 31
0.0
 11
5.395624897846573
 21
3.484122968540759
 31
0.0
 11
5.361211847366689
 21
3.295005139989939
 31
0.0
 11
5.309591776936599
 21
3.174657074234517
 31
0.0
 11
5.171937596175325
 21
3.019924407328176
 31
0.0
 11
5.068697455314975
 21
2.951154084039387
 31
0.0
 11
4.862216184173178
 21
2.899576902066371
 31
0.0
 11
4.793389093792598
 21
2.88238432124416
 31
0.0
  0
LINE
  5
58B
102
{ACAD_REACTORS
330
57A
102
}
330
56D
100
AcDbEntity
  8
ROGO
 62
     4
100
AcDbLine
 10
12.92148229673961
 20
4.949786840425645
 30
0.0
 11
12.56244669050807
 21
4.224155565819273
 31
0.0
  0
LINE
  5
58C
102
{ACAD_REACTORS
330
57A
102
}
330
56D
100
AcDbEntity
  8
ROGO
 62
     4
100
AcDbLine
 10
10.31063242784847
 20
4.224155565819273
 30
0.0
 11
10.02991119959222
 21
3.656802080167153
 31
0.0
  0
LINE
  5
58D
102
{ACAD_REACTORS
330
57A
102
}
330
56D
100
AcDbEntity
  8
ROGO
 62
     4
100
AcDbLine
 10
10.31063242784847
 20
4.224155565819273
 30
0.0
 11
12.56244669050807
 21
4.224155565819273
 31
0.0
  0
LINE
  5
58E
102
{ACAD_REACTORS
330
57A
102
}
330
56D
100
AcDbEntity
  8
ROGO
 62
     4
100
AcDbLine
 10
10.02991119959222
 20
3.656802080167153
 30
0.0
 11
12.28172546225187
 21
3.656802080167153
 31
0.0
  0
LINE
  5
58F
102
{ACAD_REACTORS
330
57A
102
}
330
56D
100
AcDbEntity
  8
ROGO
 62
     4
100
AcDbLine
 10
9.461324765337565
 20
2.507656725636195
 30
0.0
 11
11.71313902799716
 21
2.507656725636195
 31
0.0
  0
LINE
  5
590
102
{ACAD_REACTORS
330
57A
102
}
330
56D
100
AcDbEntity
  8
ROGO
 62
     4
100
AcDbLine
 10
9.742057877981153
 20
3.075034230307551
 30
0.0
 11
11.99387214064069
 21
3.075034230307608
 31
0.0
  0
LINE
  5
591
102
{ACAD_REACTORS
330
57A
102
}
330
56D
100
AcDbEntity
  8
ROGO
 62
     4
100
AcDbLine
 10
12.28172546225187
 20
3.656802080167153
 30
0.0
 11
11.99387214064069
 21
3.075034230307551
 31
0.0
  0
LINE
  5
592
102
{ACAD_REACTORS
330
57A
102
}
330
56D
100
AcDbEntity
  8
ROGO
 62
     4
100
AcDbLine
 10
9.742057877981153
 20
3.075034230307551
 30
0.0
 11
9.461324765337508
 21
2.507656725636195
 31
0.0
  0
HATCH
  5
593
330
56D
100
AcDbEntity
  8
ROGO
 62
     4
100
AcDbHatch
 10
0.0
 20
0.0
 30
0.0
210
0.0
220
0.0
230
1.0
  2
SOLID
 70
     1
 71
     1
 91
        2
 92
        7
 72
     1
 73
     1
 93
        4
 10
26.16568830176476
 20
4.949786840425645
 42
0.0
 10
24.88477496917216
 20
4.949786840425645
 42
0.9597396185052668
 10
24.88477496917204
 20
1.782061951090668
 42
0.0
 10
26.25774038752116
 20
1.782061951090668
 42
0.9713627655772736
 97
        4
330
5B3
330
59B
330
5A0
330
59C
 92
       22
 72
     1
 73
     1
 93
        8
 10
25.9709322672415
 20
3.347576112203057
 42
0.0
 10
25.92877650574593
 20
3.045974519724552
 42
-0.3696060376523694
 10
25.58588379175427
 20
2.870057733155022
 42
0.0
 10
25.47108749766136
 20
2.886103156372541
 42
-0.3541938351274232
 10
25.17427477727125
 20
3.157453445413239
 42
0.0
 10
25.21643053876682
 20
3.459055037891914
 42
-0.3439742752229287
 10
25.58698051573322
 20
3.668449396631842
 42
0.0
 10
25.69536003945933
 20
3.653300864703851
 42
-0.3460733018205655
 97
        8
330
5AB
330
5B1
330
5AD
330
5B0
330
5AC
330
5AF
330
5AA
330
5AE
 75
     0
 76
     1
 47
0.0514683685270805
 98
        2
 10
26.4770758482868
 20
3.660574202124962
 10
26.4770758482868
 20
3.660574202124962
450
        0
451
        0
460
0.0
461
0.0
452
        0
462
0.0
453
        0
470

  0
HATCH
  5
594
330
56D
100
AcDbEntity
  8
ROGO
 62
     4
100
AcDbHatch
 10
0.0
 20
0.0
 30
0.0
210
0.0
220
0.0
230
1.0
  2
SOLID
 70
     1
 71
     1
 91
        1
 92
        5
 93
        8
 72
     1
 10
23.27919423493069
 20
4.949786840425645
 11
20.10690665697018
 21
4.949786840425701
 72
     4
 94
        3
 73
     0
 74
     0
 95
       26
 96
       22
 40
0.0
 40
0.0
 40
0.0
 40
0.0
 40
0.7089867102952115
 40
1.183598414482279
 40
1.525832104103439
 40
1.781366926528389
 40
2.112809002752968
 40
2.354729406992515
 40
2.791581270399936
 40
3.147172406765291
 40
3.389031356825354
 40
3.626186440486682
 40
4.050410779375985
 40
4.350388020238963
 40
4.511948940797758
 40
4.741441456013356
 40
4.907163150576407
 40
5.147239172635527
 40
5.28310143501293
 40
5.578752957634333
 40
5.713750011164293
 40
5.713750011164293
 40
5.713750011164293
 40
5.713750011164293
 10
20.10690665696961
 20
4.949786840425645
 10
19.9118576355076
 20
4.938149881331241
 10
19.58623839723913
 20
4.91872287919773
 10
19.22871045445441
 20
4.701528493521777
 10
18.9667645527374
 20
4.575261222274434
 10
18.77994505330895
 20
4.403611624277402
 10
18.64300560291741
 20
4.226310128312206
 10
18.47036771803317
 20
4.01505669587766
 10
18.32958645604225
 20
3.769060622409824
 10
18.25789511795477
 20
3.497930064177751
 10
18.19439161110068
 20
3.281837436117484
 10
18.14729634731026
 20
3.041030402807223
 10
18.15927871566845
 20
2.780874095348053
 10
18.1764380155459
 20
2.53925423559815
 10
18.25305011690938
 20
2.366773831190926
 10
18.34029773002083
 20
2.243979668736869
 10
18.44713123742571
 20
2.108735512341468
 10
18.56403045709697
 20
2.019163745498303
 10
18.66071565374244
 20
1.85689847078413
 10
18.82995982885865
 20
1.836192251465718
 10
18.93753815968586
 20
1.794980695042511
 10
18.97126114982126
 20
1.782061951090668
 72
     1
 10
18.97126114982103
 20
1.782061951090668
 11
21.6996642971182
 21
1.782061951090724
 72
     1
 10
21.6996642971182
 20
1.782061951090781
 11
22.28734561971584
 21
2.960648509043551
 72
     1
 10
22.28734561971584
 20
2.960648509043494
 11
20.26176686826005
 21
2.960648509043494
 72
     4
 94
        3
 73
     0
 74
     0
 95
       16
 96
       12
 40
0.0
 40
0.0
 40
0.0
 40
0.0
 40
0.2141121027475241
 40
0.4304326162973471
 40
0.5594580803306056
 40
0.6831669452691567
 40
0.8190286678446897
 40
0.9139043619204622
 40
1.003933161420314
 40
1.186498641432482
 40
1.560280494298353
 40
1.560280494298353
 40
1.560280494298353
 40
1.560280494298353
 10
20.26176686826034
 20
2.960648509043494
 10
20.20066827486522
 20
2.978624611086615
 10
20.07784090046783
 20
3.014762225607
 10
20.06756124108432
 20
3.18994410491291
 10
20.081565789786
 20
3.314775529002361
 10
20.14021687102769
 20
3.40566009542573
 10
20.21137080546811
 20
3.471790575521481
 10
20.237864571025
 20
3.557915185942079
 10
20.31574058104508
 20
3.622950041937542
 10
20.45383561326139
 20
3.732264550099955
 10
20.60654481322524
 20
3.755546097864453
 10
20.70914246102353
 20
3.77118780143121
 72
     1
 10
20.70914246102353
 20
3.77118780143121
 11
22.69150668888256
 21
3.771187801431267
 72
     1
 10
22.69150668888256
 20
3.77118780143121
 11
23.27919423493069
 21
4.949786840425645
 97
        8
330
5A9
330
596
330
59D
330
599
330
5A8
330
5A5
330
5A7
330
5A6
 75
     0
 76
     1
 47
0.0514683685270805
 98
        1
 10
21.21637307488407
 20
4.244614142874524
450
        0
451
        0
460
0.0
461
0.0
452
        0
462
0.0
453
        0
470

  0
SPLINE
  5
595
102
{ACAD_REACTORS
330
56F
102
}
330
56D
100
AcDbEntity
  8
ROGO
 62
     4
100
AcDbSpline
210
0.0
220
0.0
230
1.0
 70
     8
 71
     3
 72
    26
 73
    22
 74
    20
 42
0.0000000001
 43
0.0000000001
 44
0.0000000001
 40
0.0
 40
0.0
 40
0.0
 40
0.0
 40
0.5746615864749196
 40
0.9593530213456462
 40
1.236746873962384
 40
1.443867888111121
 40
1.712514714041724
 40
1.90860070730817
 40
2.262686307552686
 40
2.55090689560158
 40
2.746943077840944
 40
2.939166591537864
 40
3.283017086994854
 40
3.526160427536374
 40
3.657111901763582
 40
3.843124602654698
 40
3.97744854769916
 40
4.172039596738211
 40
4.282161298747791
 40
4.521798474686698
 40
4.631218890929293
 40
4.631218890929293
 40
4.631218890929293
 40
4.631218890929293
 10
30.31359802057318
 20
4.949786840425645
 30
0.0
 10
30.11854899911117
 20
4.938149881331216
 30
0.0
 10
29.79292976084273
 20
4.918722879197668
 30
0.0
 10
29.43540181805795
 20
4.701528493521752
 30
0.0
 10
29.17345591634098
 20
4.575261222274342
 30
0.0
 10
28.98663641691248
 20
4.403611624277403
 30
0.0
 10
28.84969696652104
 20
4.226310128312151
 30
0.0
 10
28.67705908163667
 20
4.015056695877607
 30
0.0
 10
28.53627781964588
 20
3.769060622409776
 30
0.0
 10
28.46458648155826
 20
3.49793006417775
 30
0.0
 10
28.40108297470428
 20
3.28183743611741
 30
0.0
 10
28.35398771091379
 20
3.041030402807234
 30
0.0
 10
28.36597007927193
 20
2.780874095348088
 30
0.0
 10
28.38312937914937
 20
2.539254235598058
 30
0.0
 10
28.45974148051292
 20
2.366773831190866
 30
0.0
 10
28.54698909362438
 20
2.243979668736892
 30
0.0
 10
28.65382260102934
 20
2.108735512341419
 30
0.0
 10
28.77072182070049
 20
2.019163745498228
 30
0.0
 10
28.86740701734603
 20
1.85689847078413
 30
0.0
 10
29.03665119246222
 20
1.836192251465618
 30
0.0
 10
29.14422952328949
 20
1.794980695042471
 30
0.0
 10
29.17795251342483
 20
1.782061951090668
 30
0.0
 11
30.31359802057318
 21
4.949786840425645
 31
0.0
 11
29.74577526699892
 21
4.861394196539322
 31
0.0
 11
29.40163981509602
 21
4.689468948810883
 31
0.0
 11
29.1607454934744
 21
4.551928862726811
 31
0.0
 11
29.00588528218367
 21
4.414388216149177
 31
0.0
 11
28.83381805094274
 21
4.208077806776145
 31
0.0
 11
28.7133708901319
 21
4.053345139869975
 31
0.0
 11
28.54130266946999
 21
3.743879245563732
 31
0.0
 11
28.45526954855979
 21
3.468798512902026
 31
0.0
 11
28.4036494781297
 21
3.279680684351205
 31
0.0
 11
28.36923543822883
 21
3.090562855800612
 31
0.0
 11
28.36923543822883
 21
2.746712360343622
 31
0.0
 11
28.4036494781297
 21
2.506016789326224
 31
0.0
 11
28.45526954855979
 21
2.385668723570802
 31
0.0
 11
28.55850968942019
 21
2.230936056664518
 31
0.0
 11
28.64454379975138
 21
2.127780571731193
 31
0.0
 11
28.78219699109144
 21
1.99024048564712
 31
0.0
 11
28.85102408147219
 21
1.904277581536064
 31
0.0
 11
29.07471237256442
 21
1.818315237918568
 31
0.0
 11
29.17795251342483
 21
1.782061951090668
 31
0.0
  0
SPLINE
  5
596
102
{ACAD_REACTORS
330
594
102
}
330
56D
100
AcDbEntity
  8
ROGO
 62
     4
100
AcDbSpline
210
0.0
220
0.0
230
1.0
 70
     8
 71
     3
 72
    26
 73
    22
 74
    20
 42
0.0000000001
 43
0.0000000001
 44
0.0000000001
 40
0.0
 40
0.0
 40
0.0
 40
0.0
 40
0.5746615864749109
 40
0.9593530213456375
 40
1.236746873962375
 40
1.44386788811115
 40
1.71251471404171
 40
1.9086007073082
 40
2.262686307552666
 40
2.550906895601598
 40
2.746943077840867
 40
2.939166591537899
 40
3.28301708699489
 40
3.526160427536353
 40
3.657111901763635
 40
3.843124602654719
 40
3.977448547699138
 40
4.172039596738189
 40
4.282161298747769
 40
4.521798474686655
 40
4.631218890929288
 40
4.631218890929288
 40
4.631218890929288
 40
4.631218890929288
 10
20.10690665696961
 20
4.949786840425645
 30
0.0
 10
19.91185763550759
 20
4.938149881331241
 30
0.0
 10
19.58623839723914
 20
4.918722879197736
 30
0.0
 10
19.22871045445439
 20
4.701528493521801
 30
0.0
 10
18.96676455273739
 20
4.575261222274411
 30
0.0
 10
18.77994505330897
 20
4.4036116242774
 30
0.0
 10
18.64300560291743
 20
4.226310128312206
 30
0.0
 10
18.47036771803315
 20
4.015056695877609
 30
0.0
 10
18.32958645604223
 20
3.769060622409829
 30
0.0
 10
18.25789511795483
 20
3.497930064177774
 30
0.0
 10
18.19439161110065
 20
3.281837436117467
 30
0.0
 10
18.14729634731024
 20
3.041030402807263
 30
0.0
 10
18.15927871566836
 20
2.780874095348114
 30
0.0
 10
18.17643801554578
 20
2.539254235598062
 30
0.0
 10
18.25305011690943
 20
2.366773831190911
 30
0.0
 10
18.3402977300208
 20
2.243979668736876
 30
0.0
 10
18.44713123742579
 20
2.10873551234148
 30
0.0
 10
18.56403045709692
 20
2.019163745498289
 30
0.0
 10
18.66071565374245
 20
1.856898470784175
 30
0.0
 10
18.82995982885869
 20
1.836192251465799
 30
0.0
 10
18.93753815968592
 20
1.794980695042517
 30
0.0
 10
18.97126114982126
 20
1.782061951090668
 30
0.0
 11
20.10690665696961
 21
4.949786840425645
 31
0.0
 11
19.53908390339535
 21
4.861394196539379
 31
0.0
 11
19.19494845149245
 21
4.68946894881094
 31
0.0
 11
18.95405412987082
 21
4.551928862726867
 31
0.0
 11
18.7991939185801
 21
4.414388216149177
 31
0.0
 11
18.62712668733917
 21
4.208077806776202
 31
0.0
 11
18.50667952652833
 21
4.053345139869975
 31
0.0
 11
18.33461130586641
 21
3.743879245563789
 31
0.0
 11
18.24857818495627
 21
3.468798512902026
 31
0.0
 11
18.19695811452612
 21
3.279680684351319
 31
0.0
 11
18.16254407462526
 21
3.090562855800612
 31
0.0
 11
18.16254407462526
 21
2.746712360343622
 31
0.0
 11
18.19695811452612
 21
2.506016789326281
 31
0.0
 11
18.24857818495627
 21
2.385668723570802
 31
0.0
 11
18.35181832581662
 21
2.230936056664518
 31
0.0
 11
18.43785243614781
 21
2.12778057173125
 31
0.0
 11
18.57550562748787
 21
1.990240485647177
 31
0.0
 11
18.64433271786862
 21
1.904277581536121
 31
0.0
 11
18.86802100896085
 21
1.818315237918682
 31
0.0
 11
18.97126114982126
 21
1.782061951090668
 31
0.0
  0
LINE
  5
597
102
{ACAD_REACTORS
330
575
102
}
330
56D
100
AcDbEntity
  8
ROGO
 62
     4
100
AcDbLine
 10
15.99342784516443
 20
4.949786840425645
 30
0.0
 11
18.27773582687916
 21
1.782061951090668
 31
0.0
  0
LINE
  5
598
102
{ACAD_REACTORS
330
575
102
}
330
56D
100
AcDbEntity
  8
ROGO
 62
     4
100
AcDbLine
 10
16.08846512307542
 20
2.385177170679753
 30
0.0
 11
16.52338322932866
 21
1.782061951090781
 31
0.0
  0
LINE
  5
599
102
{ACAD_REACTORS
330
594
102
}
330
56D
100
AcDbEntity
  8
ROGO
 62
     4
100
AcDbLine
 10
22.28734561971584
 20
2.960648509043494
 30
0.0
 11
21.69966429711815
 21
1.782061951090668
 31
0.0
  0
LINE
  5
59A
102
{ACAD_REACTORS
330
56F
102
}
330
56D
100
AcDbEntity
  8
ROGO
 62
     4
100
AcDbLine
 10
32.49403698331935
 20
2.960648509043494
 30
0.0
 11
31.90635566072177
 21
1.782061951090611
 31
0.0
  0
ARC
  5
59B
102
{ACAD_REACTORS
330
593
102
}
330
56D
100
AcDbEntity
  8
ROGO
 62
     4
100
AcDbCircle
 10
24.94987936318324
 20
3.365924395758156
 30
0.0
 40
1.585199932421021
100
AcDbArc
 50
92.3538081120337
 51
270.0
  0
ARC
  5
59C
102
{ACAD_REACTORS
330
593
102
}
330
56D
100
AcDbEntity
  8
ROGO
 62
     4
100
AcDbCircle
 10
26.16568830176476
 20
3.364586908004639
 30
0.0
 40
1.585199932421021
100
AcDbArc
 50
273.3290215232082
 51
90.0000000000006
  0
LINE
  5
59D
102
{ACAD_REACTORS
330
594
102
}
330
56D
100
AcDbEntity
  8
ROGO
 62
     4
100
AcDbLine
 10
18.97126114982109
 20
1.782061951090668
 30
0.0
 11
21.6996642971182
 21
1.782061951090668
 31
0.0
  0
LINE
  5
59E
102
{ACAD_REACTORS
330
575
102
}
330
56D
100
AcDbEntity
  8
ROGO
 62
     4
100
AcDbLine
 10
18.27773582687911
 20
1.782061951090668
 30
0.0
 11
16.52338322932866
 21
1.782061951090668
 31
0.0
  0
LINE
  5
59F
330
56D
100
AcDbEntity
  8
ROGO
 62
     4
100
AcDbLine
 10
24.8847749691733
 20
1.782061951090668
 30
0.0
 11
26.25774038752019
 21
1.782061951090668
 31
0.0
  0
LINE
  5
5A0
102
{ACAD_REACTORS
330
593
102
}
330
56D
100
AcDbEntity
  8
ROGO
 62
     4
100
AcDbLine
 10
24.8847749691721
 20
1.782061951090668
 30
0.0
 11
26.25774038752121
 21
1.782061951090668
 31
0.0
  0
LINE
  5
5A1
102
{ACAD_REACTORS
330
56F
102
}
330
56D
100
AcDbEntity
  8
ROGO
 62
     4
100
AcDbLine
 10
29.1779525134246
 20
1.782061951090668
 30
0.0
 11
31.90635566072177
 21
1.782061951090668
 31
0.0
  0
LINE
  5
5A2
102
{ACAD_REACTORS
330
575
102
}
330
56D
100
AcDbEntity
  8
ROGO
 62
     4
100
AcDbLine
 10
15.07801729959914
 20
3.786398348131228
 30
0.0
 11
14.52629071767222
 21
3.021300979620718
 31
0.0
  0
LINE
  5
5A3
102
{ACAD_REACTORS
330
575
102
}
330
56D
100
AcDbEntity
  8
ROGO
 62
     4
100
AcDbLine
 10
14.52629071767222
 20
3.021300979620775
 30
0.0
 11
15.62974388152599
 21
3.021300979620775
 31
0.0
  0
LINE
  5
5A4
102
{ACAD_REACTORS
330
575
102
}
330
56D
100
AcDbEntity
  8
ROGO
 62
     4
100
AcDbLine
 10
15.07801729959914
 20
3.786398348131228
 30
0.0
 11
15.62974388152599
 21
3.021300979620718
 31
0.0
  0
SPLINE
  5
5A5
102
{ACAD_REACTORS
330
594
102
}
330
56D
100
AcDbEntity
  8
ROGO
 62
     4
100
AcDbSpline
210
0.0
220
0.0
230
1.0
 70
     8
 71
     3
 72
    16
 73
    12
 74
    10
 42
0.0000000001
 43
0.0000000001
 44
0.0000000001
 40
0.0
 40
0.0
 40
0.0
 40
0.0
 40
0.3029648785292891
 40
0.4509413735127203
 40
0.5239132529538693
 40
0.6008137308948465
 40
0.7109349953737907
 40
0.8112058912231434
 40
0.9157860995406091
 40
1.091122375522293
 40
1.264668647774888
 40
1.264668647774888
 40
1.264668647774888
 40
1.264668647774888
 10
20.70914246102353
 20
3.77118780143121
 30
0.0
 10
20.60654481322523
 20
3.75554609786451
 30
0.0
 10
20.45383561326141
 20
3.732264550100005
 30
0.0
 10
20.31574058104511
 20
3.622950041937553
 30
0.0
 10
20.237864571025
 20
3.557915185941986
 30
0.0
 10
20.21137080546809
 20
3.471790575521536
 30
0.0
 10
20.14021687102763
 20
3.405660095425645
 30
0.0
 10
20.08156578978607
 20
3.314775529002434
 30
0.0
 10
20.06756124108431
 20
3.189944104912836
 30
0.0
 10
20.07784090046788
 20
3.014762225607029
 30
0.0
 10
20.2006682748652
 20
2.978624611086606
 30
0.0
 10
20.26176686826034
 20
2.960648509043494
 30
0.0
 11
20.70914246102353
 21
3.77118780143121
 31
0.0
 11
20.41662806897176
 21
3.692301503097155
 31
0.0
 11
20.29618090816098
 21
3.606339159479716
 31
0.0
 11
20.24456083773083
 21
3.554761417013025
 31
0.0
 11
20.21014679782997
 21
3.48599109372418
 31
0.0
 11
20.14131970744944
 21
3.400028750106798
 31
0.0
 11
20.08969963701918
 21
3.314065845995742
 31
0.0
 11
20.07249261706875
 21
3.210910921556092
 31
0.0
 11
20.10690665696961
 21
3.038985113333978
 31
0.0
 11
20.26176686826034
 21
2.960648509043494
 31
0.0
  0
LINE
  5
5A6
102
{ACAD_REACTORS
330
594
102
}
330
56D
100
AcDbEntity
  8
ROGO
 62
     4
100
AcDbLine
 10
23.27919423493069
 20
4.949786840425645
 30
0.0
 11
22.69150668888256
 21
3.77118780143121
 31
0.0
  0
LINE
  5
5A7
102
{ACAD_REACTORS
330
594
102
}
330
56D
100
AcDbEntity
  8
ROGO
 62
     4
100
AcDbLine
 10
20.70914246102342
 20
3.77118780143121
 30
0.0
 11
22.69150668888256
 21
3.771187801431267
 31
0.0
  0
LINE
  5
5A8
102
{ACAD_REACTORS
330
594
102
}
330
56D
100
AcDbEntity
  8
ROGO
 62
     4
100
AcDbLine
 10
20.26176686826017
 20
2.960648509043494
 30
0.0
 11
22.28734561971584
 21
2.960648509043494
 31
0.0
  0
LINE
  5
5A9
102
{ACAD_REACTORS
330
594
102
}
330
56D
100
AcDbEntity
  8
ROGO
 62
     4
100
AcDbLine
 10
20.10690665697052
 20
4.949786840425758
 30
0.0
 11
23.27919423493069
 21
4.949786840425758
 31
0.0
  0
LINE
  5
5AA
102
{ACAD_REACTORS
330
593
102
}
330
56D
100
AcDbEntity
  8
ROGO
 62
     4
100
AcDbLine
 10
25.58056374536529
 20
3.669346287921371
 30
0.0
 11
25.69536003945927
 21
3.653300864703908
 31
0.0
  0
LINE
  5
5AB
102
{ACAD_REACTORS
330
593
102
}
330
56D
100
AcDbEntity
  8
ROGO
 62
     4
100
AcDbLine
 10
25.97093226724161
 20
3.347576112203455
 30
0.0
 11
25.92877650574604
 21
3.04597451972495
 31
0.0
  0
LINE
  5
5AC
102
{ACAD_REACTORS
330
593
102
}
330
56D
100
AcDbEntity
  8
ROGO
 62
     4
100
AcDbLine
 10
25.17427477727125
 20
3.157453445413295
 30
0.0
 11
25.21643053876682
 21
3.45905503789163
 31
0.0
  0
LINE
  5
5AD
102
{ACAD_REACTORS
330
593
102
}
330
56D
100
AcDbEntity
  8
ROGO
 62
     4
100
AcDbLine
 10
25.4710874976596
 20
2.886103156372769
 30
0.0
 11
25.58588379175365
 21
2.870057733155078
 31
0.0
  0
ARC
  5
5AE
102
{ACAD_REACTORS
330
593
102
}
330
56D
100
AcDbEntity
  8
ROGO
 62
     4
100
AcDbCircle
 10
25.6387443480632
 20
3.325209828916854
 30
0.0
 40
0.3329400310507254
100
AcDbArc
 50
3.851923331663601
 51
80.20940670206341
  0
ARC
  5
5AF
102
{ACAD_REACTORS
330
593
102
}
330
56D
100
AcDbEntity
  8
ROGO
 62
     4
100
AcDbCircle
 10
25.53588647264388
 20
3.326301951055086
 30
0.0
 40
0.3459414339941871
100
AcDbArc
 50
82.57970078354313
 51
157.4341870372611
  0
ARC
  5
5B0
102
{ACAD_REACTORS
330
593
102
}
330
56D
100
AcDbEntity
  8
ROGO
 62
     4
100
AcDbCircle
 10
25.49018017588719
 20
3.204994782556525
 30
0.0
 40
0.3194626732688521
100
AcDbArc
 50
188.5583509056651
 51
266.5736774635929
  0
ARC
  5
5B1
102
{ACAD_REACTORS
330
593
102
}
330
56D
100
AcDbEntity
  8
ROGO
 62
     4
100
AcDbCircle
 10
25.6545957362211
 20
3.158263540113921
 30
0.0
 40
0.2962835103026008
100
AcDbArc
 50
256.5902863289752
 51
337.7287536965499
  0
LINE
  5
5B2
330
56D
100
AcDbEntity
  8
ROGO
 62
     4
100
AcDbLine
 10
24.88477496917261
 20
4.949786840425645
 30
0.0
 11
25.78248633299404
 21
4.949786840425645
 31
0.0
  0
LINE
  5
5B3
102
{ACAD_REACTORS
330
593
102
}
330
56D
100
AcDbEntity
  8
ROGO
 62
     4
100
AcDbLine
 10
24.88477496917216
 20
4.949786840425645
 30
0.0
 11
26.16568830176476
 21
4.949786840425645
 31
0.0
  0
SPLINE
  5
5B4
102
{ACAD_REACTORS
330
56F
102
}
330
56D
100
AcDbEntity
  8
ROGO
 62
     4
100
AcDbSpline
210
0.0
220
0.0
230
1.0
 70
     8
 71
     3
 72
    16
 73
    12
 74
    10
 42
0.0000000001
 43
0.0000000001
 44
0.0000000001
 40
0.0
 40
0.0
 40
0.0
 40
0.0
 40
0.3029648785292594
 40
0.4509413735127369
 40
0.5239132529538859
 40
0.6008137308948632
 40
0.710934995373763
 40
0.811205891223145
 40
0.9157860995407135
 40
1.091122375522274
 40
1.264668647774946
 40
1.264668647774946
 40
1.264668647774946
 40
1.264668647774946
 10
30.9158338246271
 20
3.771187801431096
 30
0.0
 10
30.81323617682881
 20
3.755546097864422
 30
0.0
 10
30.660526976865
 20
3.732264550099954
 30
0.0
 10
30.5224319446486
 20
3.62295004193761
 30
0.0
 10
30.44455593462858
 20
3.557915185941908
 30
0.0
 10
30.41806216907167
 20
3.4717905755215
 30
0.0
 10
30.34690823463119
 20
3.405660095425618
 30
0.0
 10
30.28825715338954
 20
3.314775529002425
 30
0.0
 10
30.27425260468793
 20
3.189944104912787
 30
0.0
 10
30.28453226407141
 20
3.014762225606994
 30
0.0
 10
30.40735963846873
 20
2.978624611086564
 30
0.0
 10
30.46845823186391
 20
2.960648509043437
 30
0.0
 11
30.9158338246271
 21
3.771187801431096
 31
0.0
 11
30.62331943257533
 21
3.692301503097155
 31
0.0
 11
30.50287227176449
 21
3.606339159479716
 31
0.0
 11
30.4512522013344
 21
3.554761417012969
 31
0.0
 11
30.41683816143353
 21
3.485991093724123
 31
0.0
 11
30.34801107105301
 21
3.400028750106798
 31
0.0
 11
30.29639100062269
 21
3.314065845995742
 31
0.0
 11
30.27918398067232
 21
3.210910921555978
 31
0.0
 11
30.31359802057313
 21
3.038985113333978
 31
0.0
 11
30.46845823186391
 21
2.960648509043437
 31
0.0
  0
LINE
  5
5B5
102
{ACAD_REACTORS
330
56F
102
}
330
56D
100
AcDbEntity
  8
ROGO
 62
     4
100
AcDbLine
 10
30.46845823186379
 20
2.960648509043494
 30
0.0
 11
32.49403698331941
 21
2.960648509043494
 31
0.0
  0
LINE
  5
5B6
102
{ACAD_REACTORS
330
56F
102
}
330
56D
100
AcDbEntity
  8
ROGO
 62
     4
100
AcDbLine
 10
30.91583382462699
 20
3.77118780143121
 30
0.0
 11
32.89819805248607
 21
3.77118780143121
 31
0.0
  0
LINE
  5
5B7
102
{ACAD_REACTORS
330
56E
102
}
330
56D
100
AcDbEntity
  8
ROGO
 62
     4
100
AcDbLine
 10
35.38336074148231
 20
2.474893420212765
 30
0.0
 11
36.6174225324171
 21
0.0
 31
0.0
  0
LINE
  5
5B8
102
{ACAD_REACTORS
330
56E
102
}
330
56D
100
AcDbEntity
  8
ROGO
 62
     4
100
AcDbLine
 10
34.14933885635003
 20
1.291950329372127
 30
0.0
 11
34.79354701668626
 21
0.0
 31
0.0
  0
LINE
  5
5B9
102
{ACAD_REACTORS
330
56E
102
}
330
56D
100
AcDbEntity
  8
ROGO
 62
     4
100
AcDbLine
 10
34.14933885635008
 20
1.29195032937207
 30
0.0
 11
33.50513069601385
 21
0.0
 31
0.0
  0
LINE
  5
5BA
102
{ACAD_REACTORS
330
56E
102
}
330
56D
100
AcDbEntity
  8
ROGO
 62
     4
100
AcDbLine
 10
34.79354701668626
 20
0.0
 30
0.0
 11
36.6174225324171
 21
0.0
 31
0.0
  0
LINE
  5
5BB
102
{ACAD_REACTORS
330
56E
102
}
330
56D
100
AcDbEntity
  8
ROGO
 62
     4
100
AcDbLine
 10
35.38336074148231
 20
2.474893420212765
 30
0.0
 11
38.38165352405161
 21
4.949786840425645
 31
0.0
  0
LINE
  5
5BC
102
{ACAD_REACTORS
330
56E
102
}
330
56D
100
AcDbEntity
  8
ROGO
 62
     4
100
AcDbLine
 10
36.55777800832078
 20
4.949786840425645
 30
0.0
 11
38.38165352405156
 21
4.949786840425645
 31
0.0
  0
LINE
  5
5BD
102
{ACAD_REACTORS
330
56E
102
}
330
56D
100
AcDbEntity
  8
ROGO
 62
     4
100
AcDbLine
 10
34.14933885635003
 20
4.949786840425645
 30
0.0
 11
35.97325427788326
 21
4.949786840425588
 31
0.0
  0
LINE
  5
5BE
102
{ACAD_REACTORS
330
56E
102
}
330
56D
100
AcDbEntity
  8
ROGO
 62
     4
100
AcDbLine
 10
35.97325427788326
 20
4.949786840425588
 30
0.0
 11
35.70378540756269
 21
4.409370842614521
 31
0.0
  0
LINE
  5
5BF
102
{ACAD_REACTORS
330
56E
102
}
330
56D
100
AcDbEntity
  8
ROGO
 62
     4
100
AcDbLine
 10
35.70378540756269
 20
4.409370842614521
 30
0.0
 11
36.55777800832078
 21
4.949786840425645
 31
0.0
  0
ENDBLK
  5
5C1
330
56D
100
AcDbEntity
  8
0
100
AcDbBlockEnd
  0
BLOCK
  5
611
330
610
100
AcDbEntity
  8
0
100
AcDbBlockBegin
  2
A$C792C231F
 70
     0
 10
0.0
 20
0.0
 30
0.0
  3
A$C792C231F
  1

  0
LINE
  5
612
330
610
100
AcDbEntity
  8
外形線
100
AcDbLine
 10
0.0
 20
0.0
 30
0.0
 11
101.377516
 21
0.0
 31
0.0
  0
ENDBLK
  5
613
330
610
100
AcDbEntity
  8
0
100
AcDbBlockEnd
  0
ENDSEC
  0
SECTION
  2
ENTITIES
  0
LWPOLYLINE
  5
1A0
330
18
100
AcDbEntity
  8
C
100
AcDbPolyline
 90
        5
 70
     0
 43
0.8
 10
0.0
 20
282.5
 10
377.4999999999999
 20
282.5
 10
377.4999999999999
 20
0.0
 10
0.0
 20
0.0
 10
0.0
 20
282.5
  0
LINE
  5
223
330
18
100
AcDbEntity
  8
中心線
100
AcDbLine
 10
298.2961374364383
 20
272.0497411911796
 30
0.0
 11
298.2961374364383
 21
78.68853443839201
 31
0.0
  0
LINE
  5
224
330
18
100
AcDbEntity
  8
外形線
100
AcDbLine
 10
200.2961374364383
 20
47.24968143000023
 30
0.0
 11
190.2961374364384
 21
47.24968143000023
 31
0.0
  0
LINE
  5
228
330
18
100
AcDbEntity
  8
外形線
100
AcDbLine
 10
248.2961374364383
 20
97.24968143000019
 30
0.0
 11
198.2961374364383
 21
97.24968143000024
 31
0.0
  0
LINE
  5
229
330
18
100
AcDbEntity
  8
外形線
100
AcDbLine
 10
201.2961374364385
 20
92.24968143000021
 30
0.0
 11
196.1027967121129
 21
92.24968143000024
 31
0.0
  0
LINE
  5
22B
330
18
100
AcDbEntity
  8
外形線
100
AcDbLine
 10
190.2961374364384
 20
47.24968143000023
 30
0.0
 11
193.109441238543
 21
89.44923846157156
 31
0.0
  0
ARC
  5
22C
330
18
100
AcDbEntity
  8
外形線
100
AcDbCircle
 10
196.1027967121129
 20
89.24968143000024
 30
0.0
 40
3.0
100
AcDbArc
 50
90.0
 51
176.1859251657097
  0
LINE
  5
22D
330
18
100
AcDbEntity
  8
外形線
100
AcDbLine
 10
203.2961374364384
 20
95.24968143000023
 30
0.0
 11
203.2961374364385
 21
94.2496814300002
 31
0.0
  0
ARC
  5
237
330
18
100
AcDbEntity
  8
外形線
100
AcDbCircle
 10
205.2961374364384
 20
95.24968143000023
 30
0.0
 40
2.0
100
AcDbArc
 50
90.0
 51
180.0
  0
ARC
  5
238
330
18
100
AcDbEntity
  8
外形線
100
AcDbCircle
 10
201.2961374364385
 20
94.2496814300002
 30
0.0
 40
2.0
100
AcDbArc
 50
270.0
 51
360.0
  0
ARC
  5
239
330
18
100
AcDbEntity
  8
外形線
100
AcDbCircle
 10
245.2961374364382
 20
94.2496814300002
 30
0.0
 40
2.0
100
AcDbArc
 50
180.0000000000001
 51
270.0
  0
ARC
  5
23A
330
18
100
AcDbEntity
  8
外形線
100
AcDbCircle
 10
241.2961374364383
 20
95.24968143000023
 30
0.0
 40
2.0
100
AcDbArc
 50
0.000000000000007
 51
90.0
  0
LINE
  5
23B
330
18
100
AcDbEntity
  8
外形線
100
AcDbLine
 10
243.2961374364383
 20
95.24968143000023
 30
0.0
 11
243.2961374364382
 21
94.2496814300002
 31
0.0
  0
LINE
  5
23C
330
18
100
AcDbEntity
  8
外形線
100
AcDbLine
 10
201.2961374364385
 20
92.24968143000021
 30
0.0
 11
275.2961374364385
 21
92.24968143000021
 31
0.0
  0
ARC
  5
23D
330
18
100
AcDbEntity
  8
外形線
100
AcDbCircle
 10
319.2961374364383
 20
94.2496814300002
 30
0.0
 40
2.0
100
AcDbArc
 50
180.0000000000001
 51
270.0
  0
ARC
  5
23E
330
18
100
AcDbEntity
  8
外形線
100
AcDbCircle
 10
315.2961374364384
 20
95.24968143000023
 30
0.0
 40
2.0
100
AcDbArc
 50
0.000000000000007
 51
90.0
  0
LINE
  5
23F
330
18
100
AcDbEntity
  8
外形線
100
AcDbLine
 10
277.2961374364385
 20
95.24968143000023
 30
0.0
 11
277.2961374364385
 21
94.2496814300002
 31
0.0
  0
ARC
  5
240
330
18
100
AcDbEntity
  8
外形線
100
AcDbCircle
 10
275.2961374364385
 20
94.2496814300002
 30
0.0
 40
2.0
100
AcDbArc
 50
270.0
 51
360.0
  0
LINE
  5
241
330
18
100
AcDbEntity
  8
外形線
100
AcDbLine
 10
279.2961374364385
 20
97.24968143000021
 30
0.0
 11
315.2961374364384
 21
97.24968143000024
 31
0.0
  0
ARC
  5
242
330
18
100
AcDbEntity
  8
外形線
100
AcDbCircle
 10
279.2961374364385
 20
95.24968143000023
 30
0.0
 40
2.0
100
AcDbArc
 50
90.0
 51
180.0
  0
LINE
  5
244
330
18
100
AcDbEntity
  8
外形線
100
AcDbLine
 10
317.2961374364384
 20
95.24968143000023
 30
0.0
 11
317.2961374364384
 21
94.2496814300002
 31
0.0
  0
ARC
  5
245
330
18
100
AcDbEntity
  8
外形線
100
AcDbCircle
 10
324.4894781607639
 20
89.24968143000024
 30
0.0
 40
3.0
100
AcDbArc
 50
3.814074834290332
 51
90.0
  0
LINE
  5
246
330
18
100
AcDbEntity
  8
外形線
100
AcDbLine
 10
275.2961374364385
 20
92.2496814300001
 30
0.0
 11
324.4894781607639
 21
92.24968143000024
 31
0.0
  0
LINE
  5
247
330
18
100
AcDbEntity
  8
外形線
100
AcDbLine
 10
319.2961374364384
 20
49.24968143000024
 30
0.0
 11
201.2961374364384
 21
49.24968143000024
 31
0.0
  0
LINE
  5
249
330
18
100
AcDbEntity
  8
外形線
100
AcDbLine
 10
200.2961374364383
 20
48.24968143000024
 30
0.0
 11
200.2961374364383
 21
47.24968143000023
 31
0.0
  0
ARC
  5
24A
330
18
100
AcDbEntity
  8
外形線
100
AcDbCircle
 10
201.2961374364384
 20
48.24968143000024
 30
0.0
 40
1.0
100
AcDbArc
 50
90.0
 51
180.0
  0
ARC
  5
25C
330
18
100
AcDbEntity
  8
外形線
100
AcDbCircle
 10
319.2961374364384
 20
48.24968143000024
 30
0.0
 40
1.0
100
AcDbArc
 50
0.000000000000007
 51
90.0
  0
LINE
  5
25D
330
18
100
AcDbEntity
  8
外形線
100
AcDbLine
 10
320.2961374364384
 20
47.24968143000023
 30
0.0
 11
330.2961374364384
 21
47.24968143000023
 31
0.0
  0
LINE
  5
25E
330
18
100
AcDbEntity
  8
外形線
100
AcDbLine
 10
320.2961374364384
 20
48.24968143000024
 30
0.0
 11
320.2961374364384
 21
47.24968143000023
 31
0.0
  0
LINE
  5
25F
330
18
100
AcDbEntity
  8
外形線
100
AcDbLine
 10
330.2961374364384
 20
47.24968143000023
 30
0.0
 11
327.4828336343337
 21
89.44923846157156
 31
0.0
  0
LINE
  5
260
330
18
100
AcDbEntity
  8
外形線
100
AcDbLine
 10
287.2961374364384
 20
267.2496814300002
 30
0.0
 11
309.2961374364384
 21
267.2496814300002
 31
0.0
  0
LINE
  5
261
330
18
100
AcDbEntity
  8
外形線
100
AcDbLine
 10
285.7961374364383
 20
265.7496814300003
 30
0.0
 11
285.7961374364383
 21
216.8738357239478
 31
0.0
  0
LINE
  5
262
330
18
100
AcDbEntity
  8
外形線
100
AcDbLine
 10
310.7961374364383
 20
265.7496814300003
 30
0.0
 11
310.7961374364383
 21
216.8738357239477
 31
0.0
  0
ARC
  5
263
330
18
100
AcDbEntity
  8
外形線
100
AcDbCircle
 10
309.2961374364384
 20
265.7496814300003
 30
0.0
 40
1.5
100
AcDbArc
 50
0.000000000000007
 51
90.0
  0
ARC
  5
264
330
18
100
AcDbEntity
  8
外形線
100
AcDbCircle
 10
287.2961374364384
 20
265.7496814300003
 30
0.0
 40
1.5
100
AcDbArc
 50
90.0
 51
180.0
  0
LINE
  5
265
330
18
100
AcDbEntity
  8
外形線
100
AcDbLine
 10
311.4981784653056
 20
170.8738357239477
 30
0.0
 11
214.7961374364383
 21
170.8738357239478
 31
0.0
  0
LINE
  5
266
330
18
100
AcDbEntity
  8
外形線
100
AcDbLine
 10
311.4981784653056
 20
216.8738357239477
 30
0.0
 11
284.7961374364384
 21
216.8738357239478
 31
0.0
  0
LINE
  5
267
330
18
100
AcDbEntity
  8
外形線
100
AcDbLine
 10
283.2961374364383
 20
215.3738357239478
 30
0.0
 11
283.2961374364383
 21
172.3738357239478
 31
0.0
  0
ARC
  5
269
330
18
100
AcDbEntity
  8
外形線
100
AcDbCircle
 10
284.7961374364384
 20
215.3738357239478
 30
0.0
 40
1.5
100
AcDbArc
 50
90.0
 51
180.0
  0
ARC
  5
26A
330
18
100
AcDbEntity
  8
外形線
100
AcDbCircle
 10
284.7961374364384
 20
172.3738357239478
 30
0.0
 40
1.5
100
AcDbArc
 50
180.0
 51
270.0
  0
LINE
  5
26E
330
18
100
AcDbEntity
  8
外形線
100
AcDbLine
 10
310.7961374364383
 20
170.8738357239478
 30
0.0
 11
310.7961374364383
 21
97.24968143000024
 31
0.0
  0
LINE
  5
26F
330
18
100
AcDbEntity
  8
外形線
100
AcDbLine
 10
285.7961374364383
 20
170.8738357239478
 30
0.0
 11
285.7961374364383
 21
97.24968143000021
 31
0.0
  0
ARC
  5
270
330
18
100
AcDbEntity
  8
外形線
100
AcDbCircle
 10
309.7961374364384
 20
215.3738357239478
 30
0.0
 40
1.5
100
AcDbArc
 50
50.86035623555751
 51
89.99999999999991
  0
ARC
  5
271
330
18
100
AcDbEntity
  8
外形線
100
AcDbCircle
 10
309.7961374364384
 20
172.3738357239478
 30
0.0
 40
1.5
100
AcDbArc
 50
270.0
 51
309.1396437644401
  0
LINE
  5
272
330
18
100
AcDbEntity
  8
中心線
100
AcDbLine
 10
287.8907497397218
 20
193.8738357239477
 30
0.0
 11
351.15611068353
 21
193.8738357239477
 31
0.0
  0
LINE
  5
27C
330
18
100
AcDbEntity
  8
外形線
100
AcDbLine
 10
233.2961374364383
 20
188.8738357239478
 30
0.0
 11
233.2961374364383
 21
170.8738357239478
 31
0.0
  0
LINE
  5
27D
330
18
100
AcDbEntity
  8
外形線
100
AcDbLine
 10
213.2961374364383
 20
187.3738357239478
 30
0.0
 11
213.2961374364383
 21
172.3738357239478
 31
0.0
  0
ARC
  5
27E
330
18
100
AcDbEntity
  8
外形線
100
AcDbCircle
 10
214.7961374364383
 20
172.3738357239478
 30
0.0
 40
1.5
100
AcDbArc
 50
180.0
 51
270.0
  0
LINE
  5
27F
330
18
100
AcDbEntity
  8
外形線
100
AcDbLine
 10
248.2961374364383
 20
188.8738357239478
 30
0.0
 11
228.5876400585675
 21
188.8738357239478
 31
0.0
  0
ARC
  5
280
330
18
100
AcDbEntity
  8
外形線
100
AcDbCircle
 10
214.7961374364383
 20
187.3738357239478
 30
0.0
 40
1.5
100
AcDbArc
 50
90.0
 51
180.0
  0
LINE
  5
283
330
18
100
AcDbEntity
  8
外形線
100
AcDbLine
 10
282.4271941475414
 20
212.2779888972756
 30
0.0
 11
248.2961374364383
 21
188.8738357239478
 31
0.0
  0
ARC
  5
284
330
18
100
AcDbEntity
  8
外形線
100
AcDbCircle
 10
281.2961374364384
 20
213.9274466009676
 30
0.0
 40
2.0
100
AcDbArc
 50
304.4389893088036
 51
0.000000000000007
  0
LINE
  5
285
330
18
100
AcDbEntity
  8
中心線
100
AcDbLine
 10
223.2961374364383
 20
193.2852181483488
 30
0.0
 11
223.2961374364383
 21
78.68853443839203
 31
0.0
  0
LINE
  5
286
330
18
100
AcDbEntity
  8
隠れ線2
100
AcDbLine
 10
217.0461374364383
 20
188.8738357239478
 30
0.0
 11
217.0461374364383
 21
187.8738357239478
 31
0.0
  0
LINE
  5
287
330
18
100
AcDbEntity
  8
隠れ線2
100
AcDbLine
 10
229.5461374364383
 20
188.8738357239478
 30
0.0
 11
229.5461374364383
 21
187.8738357239478
 31
0.0
  0
LINE
  5
288
330
18
100
AcDbEntity
  8
隠れ線2
100
AcDbLine
 10
229.5461374364383
 20
187.8738357239478
 30
0.0
 11
229.5411354348367
 21
187.8738357239478
 31
0.0
  0
LINE
  5
28B
330
18
100
AcDbEntity
  8
隠れ線2
100
AcDbLine
 10
217.0511394380399
 20
187.8738357239478
 30
0.0
 11
217.0461374364383
 21
187.8738357239478
 31
0.0
  0
LINE
  5
28F
330
18
100
AcDbEntity
  8
中心線
100
AcDbLine
 10
321.2961374364383
 20
221.7451927539753
 30
0.0
 11
321.2961374364383
 21
164.6498947917973
 31
0.0
  0
LINE
  5
292
330
18
100
AcDbEntity
  8
外形線
100
AcDbLine
 10
198.2961374364383
 20
106.2496814300002
 30
0.0
 11
198.2961374364383
 21
97.24968143000024
 31
0.0
  0
LINE
  5
293
330
18
100
AcDbEntity
  8
外形線
100
AcDbLine
 10
248.2961374364383
 20
106.2496814300001
 30
0.0
 11
248.2961374364383
 21
97.24968143000019
 31
0.0
  0
LINE
  5
294
330
18
100
AcDbEntity
  8
外形線
100
AcDbLine
 10
247.2961374364383
 20
107.2496814300001
 30
0.0
 11
199.2961374364383
 21
107.2496814300002
 31
0.0
  0
LINE
  5
295
330
18
100
AcDbEntity
  8
外形線
100
AcDbLine
 10
248.2961374364383
 20
106.2496814300001
 30
0.0
 11
247.2961374364383
 21
107.2496814300001
 31
0.0
  0
LINE
  5
296
330
18
100
AcDbEntity
  8
外形線
100
AcDbLine
 10
199.2961374364383
 20
107.2496814300002
 30
0.0
 11
198.2961374364383
 21
106.2496814300002
 31
0.0
  0
LINE
  5
297
330
18
100
AcDbEntity
  8
外形線
100
AcDbLine
 10
248.2961374364383
 20
106.2496814300001
 30
0.0
 11
198.2961374364383
 21
106.2496814300002
 31
0.0
  0
LINE
  5
2EF
330
18
100
AcDbEntity
  8
中心線
100
AcDbLine
 10
85.26171345367265
 20
272.0497413540067
 30
0.0
 11
85.26171345367265
 21
78.68853443839201
 31
0.0
  0
LINE
  5
2F0
330
18
100
AcDbEntity
  8
外形線
100
AcDbLine
 10
85.26171345367265
 20
49.24968143000024
 30
0.0
 11
124.2617134536727
 21
49.24968143000024
 31
0.0
  0
LINE
  5
2F1
330
18
100
AcDbEntity
  8
外形線
100
AcDbLine
 10
135.2617134536726
 20
47.24968143000023
 30
0.0
 11
132.4484096515679
 21
89.44923846157156
 31
0.0
  0
LINE
  5
2F2
330
18
100
AcDbEntity
  8
外形線
100
AcDbLine
 10
125.2617134536727
 20
47.24968143000023
 30
0.0
 11
135.2617134536726
 21
47.24968143000023
 31
0.0
  0
ARC
  5
2F3
330
18
100
AcDbEntity
  8
外形線
100
AcDbCircle
 10
124.2617134536727
 20
48.24968143000024
 30
0.0
 40
1.0
100
AcDbArc
 50
0.0
 51
90.0
  0
LINE
  5
2F4
330
18
100
AcDbEntity
  8
外形線
100
AcDbLine
 10
125.2617134536727
 20
48.24968143000024
 30
0.0
 11
125.2617134536727
 21
47.24968143000023
 31
0.0
  0
LINE
  5
2F5
330
18
100
AcDbEntity
  8
外形線
100
AcDbLine
 10
60.26171345367268
 20
106.2496814300002
 30
0.0
 11
110.2617134536726
 21
106.2496814300002
 31
0.0
  0
LINE
  5
2F6
330
18
100
AcDbEntity
  8
外形線
100
AcDbLine
 10
60.26171345367268
 20
97.24968143000021
 30
0.0
 11
110.2617134536726
 21
97.24968143000026
 31
0.0
  0
LINE
  5
2F7
330
18
100
AcDbEntity
  8
外形線
100
AcDbLine
 10
61.26171345367265
 20
107.2496814300002
 30
0.0
 11
109.2617134536726
 21
107.2496814300002
 31
0.0
  0
LINE
  5
2F8
330
18
100
AcDbEntity
  8
外形線
100
AcDbLine
 10
107.2617134536725
 20
92.24968143000024
 30
0.0
 11
85.26171345367259
 21
92.24968143000024
 31
0.0
  0
LINE
  5
2F9
330
18
100
AcDbEntity
  8
外形線
100
AcDbLine
 10
60.26171345367268
 20
106.2496814300002
 30
0.0
 11
60.26171345367268
 21
97.24968143000021
 31
0.0
  0
LINE
  5
2FA
330
18
100
AcDbEntity
  8
外形線
100
AcDbLine
 10
65.26171345367266
 20
95.24968143000023
 30
0.0
 11
65.26171345367271
 21
94.24968143000024
 31
0.0
  0
ARC
  5
2FB
330
18
100
AcDbEntity
  8
外形線
100
AcDbCircle
 10
63.26171345367271
 20
94.24968143000024
 30
0.0
 40
2.0
100
AcDbArc
 50
270.0
 51
360.0
  0
ARC
  5
2FC
330
18
100
AcDbEntity
  8
外形線
100
AcDbCircle
 10
67.26171345367266
 20
95.24968143000023
 30
0.0
 40
2.0
100
AcDbArc
 50
90.0
 51
180.0
  0
LINE
  5
2FD
330
18
100
AcDbEntity
  8
外形線
100
AcDbLine
 10
60.26171345367268
 20
106.2496814300002
 30
0.0
 11
61.26171345367265
 21
107.2496814300002
 31
0.0
  0
ARC
  5
2FE
330
18
100
AcDbEntity
  8
外形線
100
AcDbCircle
 10
129.4550541779981
 20
89.24968143000024
 30
0.0
 40
3.0
100
AcDbArc
 50
3.814074834290325
 51
90.0
  0
LINE
  5
2FF
330
18
100
AcDbEntity
  8
外形線
100
AcDbLine
 10
110.2617134536726
 20
106.2496814300002
 30
0.0
 11
110.2617134536726
 21
97.24968143000026
 31
0.0
  0
LINE
  5
300
330
18
100
AcDbEntity
  8
外形線
100
AcDbLine
 10
107.2617134536725
 20
92.24968143000024
 30
0.0
 11
129.4550541779981
 21
92.24968143000035
 31
0.0
  0
LINE
  5
301
330
18
100
AcDbEntity
  8
外形線
100
AcDbLine
 10
105.2617134536725
 20
95.24968143000023
 30
0.0
 11
105.2617134536725
 21
94.24968143000024
 31
0.0
  0
ARC
  5
302
330
18
100
AcDbEntity
  8
外形線
100
AcDbCircle
 10
107.2617134536725
 20
94.24968143000024
 30
0.0
 40
2.0
100
AcDbArc
 50
180.0
 51
270.0
  0
ARC
  5
303
330
18
100
AcDbEntity
  8
外形線
100
AcDbCircle
 10
103.2617134536725
 20
95.24968143000023
 30
0.0
 40
2.0
100
AcDbArc
 50
0.0
 51
90.0
  0
LINE
  5
304
330
18
100
AcDbEntity
  8
外形線
100
AcDbLine
 10
109.2617134536726
 20
107.2496814300002
 30
0.0
 11
110.2617134536726
 21
106.2496814300002
 31
0.0
  0
LINE
  5
306
330
18
100
AcDbEntity
  8
外形線
100
AcDbLine
 10
35.26171345367266
 20
47.24968143000023
 30
0.0
 11
38.07501725577737
 21
89.44923846157156
 31
0.0
  0
LINE
  5
307
330
18
100
AcDbEntity
  8
外形線
100
AcDbLine
 10
85.26171345367265
 20
49.24968143000024
 30
0.0
 11
46.2617134536726
 21
49.24968143000024
 31
0.0
  0
LINE
  5
308
330
18
100
AcDbEntity
  8
外形線
100
AcDbLine
 10
45.26171345367259
 20
47.24968143000023
 30
0.0
 11
35.26171345367266
 21
47.24968143000023
 31
0.0
  0
ARC
  5
309
330
18
100
AcDbEntity
  8
外形線
100
AcDbCircle
 10
46.2617134536726
 20
48.24968143000024
 30
0.0
 40
1.0
100
AcDbArc
 50
90.0
 51
180.0
  0
LINE
  5
30A
330
18
100
AcDbEntity
  8
外形線
100
AcDbLine
 10
45.26171345367259
 20
48.24968143000024
 30
0.0
 11
45.26171345367259
 21
47.24968143000023
 31
0.0
  0
LINE
  5
30B
330
18
100
AcDbEntity
  8
外形線
100
AcDbLine
 10
63.26171345367277
 20
92.24968143000024
 30
0.0
 11
41.06837272934718
 21
92.24968143000035
 31
0.0
  0
LINE
  5
30C
330
18
100
AcDbEntity
  8
外形線
100
AcDbLine
 10
63.26171345367277
 20
92.24968143000024
 30
0.0
 11
85.26171345367272
 21
92.24968143000024
 31
0.0
  0
ARC
  5
30D
330
18
100
AcDbEntity
  8
外形線
100
AcDbCircle
 10
41.06837272934718
 20
89.24968143000024
 30
0.0
 40
3.0
100
AcDbArc
 50
90.0
 51
176.1859251657097
  0
LINE
  5
30E
330
18
100
AcDbEntity
  8
外形線
100
AcDbLine
 10
97.76171345367272
 20
265.7496814300003
 30
0.0
 11
97.76171345367272
 21
216.8738357239479
 31
0.0
  0
LINE
  5
30F
330
18
100
AcDbEntity
  8
外形線
100
AcDbLine
 10
72.76171345367266
 20
265.7496814300003
 30
0.0
 11
72.76171345367266
 21
216.8738357239479
 31
0.0
  0
LINE
  5
310
330
18
100
AcDbEntity
  8
外形線
100
AcDbLine
 10
74.26171345367265
 20
267.2496814300002
 30
0.0
 11
96.26171345367271
 21
267.2496814300002
 31
0.0
  0
ARC
  5
311
330
18
100
AcDbEntity
  8
外形線
100
AcDbCircle
 10
74.26171345367265
 20
265.7496814300003
 30
0.0
 40
1.5
100
AcDbArc
 50
90.0
 51
180.0
  0
ARC
  5
312
330
18
100
AcDbEntity
  8
外形線
100
AcDbCircle
 10
96.26171345367271
 20
265.7496814300003
 30
0.0
 40
1.5
100
AcDbArc
 50
0.0
 51
90.0
  0
LINE
  5
313
330
18
100
AcDbEntity
  8
外形線
100
AcDbLine
 10
68.76171345367265
 20
216.8738357239479
 30
0.0
 11
101.7617134536726
 21
216.8738357239479
 31
0.0
  0
LINE
  5
314
330
18
100
AcDbEntity
  8
外形線
100
AcDbLine
 10
68.76171345367265
 20
170.8738357239478
 30
0.0
 11
101.7617134536727
 21
170.8738357239479
 31
0.0
  0
LINE
  5
315
330
18
100
AcDbEntity
  8
外形線
100
AcDbLine
 10
103.2617134536726
 20
215.3738357239479
 30
0.0
 11
103.2617134536727
 21
172.3738357239479
 31
0.0
  0
LINE
  5
316
330
18
100
AcDbEntity
  8
外形線
100
AcDbLine
 10
67.26171345367266
 20
215.3738357239479
 30
0.0
 11
67.26171345367266
 21
172.3738357239478
 31
0.0
  0
LINE
  5
31C
330
18
100
AcDbEntity
  8
外形線
100
AcDbLine
 10
97.76171345367266
 20
170.8738357239478
 30
0.0
 11
97.76171345367266
 21
107.2496814300002
 31
0.0
  0
LINE
  5
31D
330
18
100
AcDbEntity
  8
外形線
100
AcDbLine
 10
72.76171345367266
 20
170.8738357239478
 30
0.0
 11
72.76171345367266
 21
107.2496814300002
 31
0.0
  0
LINE
  5
31F
330
18
100
AcDbEntity
  8
外形線
100
AcDbLine
 10
76.76171345367265
 20
188.8738357239478
 30
0.0
 11
93.76171345367266
 21
188.8738357239478
 31
0.0
  0
LINE
  5
320
330
18
100
AcDbEntity
  8
外形線
100
AcDbLine
 10
95.26171345367265
 20
187.3738357239478
 30
0.0
 11
95.26171345367265
 21
172.3738357239478
 31
0.0
  0
LINE
  5
321
330
18
100
AcDbEntity
  8
外形線
100
AcDbLine
 10
75.26171345367266
 20
187.3738357239478
 30
0.0
 11
75.26171345367266
 21
172.3738357239478
 31
0.0
  0
LINE
  5
322
330
18
100
AcDbEntity
  8
外形線
100
AcDbLine
 10
67.26171345367266
 20
212.8738357239478
 30
0.0
 11
103.2617134536726
 21
212.8738357239479
 31
0.0
  0
ARC
  5
324
330
18
100
AcDbEntity
  8
外形線
100
AcDbCircle
 10
76.76171345367265
 20
187.3738357239478
 30
0.0
 40
1.5
100
AcDbArc
 50
90.0
 51
180.0
  0
ARC
  5
325
330
18
100
AcDbEntity
  8
外形線
100
AcDbCircle
 10
93.76171345367266
 20
187.3738357239478
 30
0.0
 40
1.5
100
AcDbArc
 50
0.0
 51
90.0
  0
ARC
  5
326
330
18
100
AcDbEntity
  8
外形線
100
AcDbCircle
 10
93.76171345367266
 20
172.3738357239478
 30
0.0
 40
1.5
100
AcDbArc
 50
270.0
 51
0.0
  0
ARC
  5
327
330
18
100
AcDbEntity
  8
外形線
100
AcDbCircle
 10
76.76171345367265
 20
172.3738357239478
 30
0.0
 40
1.5
100
AcDbArc
 50
180.0
 51
270.0000000000001
  0
LINE
  5
328
330
18
100
AcDbEntity
  8
外形線
100
AcDbLine
 10
103.2617134536726
 20
212.8738357239479
 30
0.0
 11
94.82237362545248
 21
188.4344958957276
 31
0.0
  0
LINE
  5
329
330
18
100
AcDbEntity
  8
外形線
100
AcDbLine
 10
67.26171345367266
 20
212.8738357239479
 30
0.0
 11
75.70105328189282
 21
188.4344958957276
 31
0.0
  0
LINE
  5
32A
330
18
100
AcDbEntity
  8
中心線
100
AcDbLine
 10
95.10512730214941
 20
193.8738357239478
 30
0.0
 11
145.0888392516426
 21
193.8738357239478
 31
0.0
  0
ARC
  5
32C
330
18
100
AcDbEntity
  8
外形線
100
AcDbCircle
 10
68.76171345367265
 20
215.3738357239479
 30
0.0
 40
1.5
100
AcDbArc
 50
90.0
 51
180.0
  0
ARC
  5
32D
330
18
100
AcDbEntity
  8
外形線
100
AcDbCircle
 10
101.7617134536726
 20
215.3738357239479
 30
0.0
 40
1.5
100
AcDbArc
 50
0.0000000000001018
 51
90.0
  0
ARC
  5
32E
330
18
100
AcDbEntity
  8
外形線
100
AcDbCircle
 10
101.7617134536727
 20
172.3738357239479
 30
0.0
 40
1.5
100
AcDbArc
 50
270.0000000000001
 51
0.0000000000000763
  0
ARC
  5
32F
330
18
100
AcDbEntity
  8
外形線
100
AcDbCircle
 10
68.76171345367265
 20
172.3738357239478
 30
0.0
 40
1.5
100
AcDbArc
 50
180.0
 51
270.0000000000001
  0
LINE
  5
338
330
18
100
AcDbEntity
  8
中心線
100
AcDbLine
 10
87.26432585527504
 20
182.8738357239478
 30
0.0
 11
105.3870431706787
 21
182.8738357239478
 31
0.0
  0
LINE
  5
339
330
18
100
AcDbEntity
  8
外形線
100
AcDbLine
 10
123.2617134536727
 20
57.24968143000023
 30
0.0
 11
47.26171345367268
 21
57.24968143000023
 31
0.0
  0
LINE
  5
33A
330
18
100
AcDbEntity
  8
外形線
100
AcDbLine
 10
123.2617134536727
 20
71.24968143000028
 30
0.0
 11
47.26171345367266
 21
71.24968143000026
 31
0.0
  0
LINE
  5
33B
330
18
100
AcDbEntity
  8
外形線
100
AcDbLine
 10
124.2617134536727
 20
70.24968143000028
 30
0.0
 11
124.2617134536727
 21
58.24968143000024
 31
0.0
  0
LINE
  5
33C
330
18
100
AcDbEntity
  8
外形線
100
AcDbLine
 10
46.26171345367266
 20
70.24968143000027
 30
0.0
 11
46.26171345367267
 21
58.24968143000024
 31
0.0
  0
CIRCLE
  5
33D
330
18
100
AcDbEntity
  8
外形線
100
AcDbCircle
 10
321.2961374364383
 20
193.8738357239477
 30
0.0
 40
25.0
  0
CIRCLE
  5
33E
330
18
100
AcDbEntity
  8
外形線
100
AcDbCircle
 10
321.2961374364383
 20
193.8738357239477
 30
0.0
 40
22.5
  0
CIRCLE
  5
33F
330
18
100
AcDbEntity
  8
外形線
100
AcDbCircle
 10
321.2961374364383
 20
193.8738357239477
 30
0.0
 40
11.5
  0
LINE
  5
348
330
18
100
AcDbEntity
  8
外形線
100
AcDbLine
 10
124.7617134536727
 20
218.8738357239478
 30
0.0
 11
139.2617134536726
 21
218.8738357239478
 31
0.0
  0
LINE
  5
349
330
18
100
AcDbEntity
  8
外形線
100
AcDbLine
 10
124.7617134536727
 20
168.8738357239477
 30
0.0
 11
139.2617134536727
 21
168.8738357239478
 31
0.0
  0
LINE
  5
34A
330
18
100
AcDbEntity
  8
外形線
100
AcDbLine
 10
110.2617134536727
 20
203.8738357239478
 30
0.0
 11
110.2617134536727
 21
183.8738357239478
 31
0.0
  0
LINE
  5
34B
330
18
100
AcDbEntity
  8
外形線
100
AcDbLine
 10
123.7617134536727
 20
217.8738357239478
 30
0.0
 11
123.7617134536727
 21
169.8738357239477
 31
0.0
  0
LINE
  5
34C
330
18
100
AcDbEntity
  8
外形線
100
AcDbLine
 10
140.2617134536726
 20
217.8738357239478
 30
0.0
 11
140.2617134536727
 21
169.8738357239478
 31
0.0
  0
LINE
  5
34D
330
18
100
AcDbEntity
  8
外形線
100
AcDbLine
 10
123.7617134536727
 20
217.8738357239478
 30
0.0
 11
124.7617134536727
 21
218.8738357239478
 31
0.0
  0
LINE
  5
34E
330
18
100
AcDbEntity
  8
外形線
100
AcDbLine
 10
139.2617134536726
 20
218.8738357239478
 30
0.0
 11
140.2617134536726
 21
217.8738357239478
 31
0.0
  0
LINE
  5
34F
330
18
100
AcDbEntity
  8
外形線
100
AcDbLine
 10
140.2617134536727
 20
169.8738357239478
 30
0.0
 11
139.2617134536727
 21
168.8738357239478
 31
0.0
  0
LINE
  5
350
330
18
100
AcDbEntity
  8
外形線
100
AcDbLine
 10
124.7617134536727
 20
168.8738357239477
 30
0.0
 11
123.7617134536727
 21
169.8738357239477
 31
0.0
  0
LINE
  5
351
330
18
100
AcDbEntity
  8
外形線
100
AcDbLine
 10
139.2617134536726
 20
218.8738357239478
 30
0.0
 11
139.2617134536727
 21
168.8738357239478
 31
0.0
  0
LINE
  5
352
330
18
100
AcDbEntity
  8
外形線
100
AcDbLine
 10
124.7617134536727
 20
218.8738357239478
 30
0.0
 11
124.7617134536727
 21
168.8738357239477
 31
0.0
  0
LINE
  5
353
330
18
100
AcDbEntity
  8
外形線
100
AcDbLine
 10
110.2617134536727
 20
203.8738357239478
 30
0.0
 11
123.7617134536727
 21
203.8738357239477
 31
0.0
  0
LINE
  5
354
330
18
100
AcDbEntity
  8
外形線
100
AcDbLine
 10
110.2617134536727
 20
183.8738357239478
 30
0.0
 11
123.7617134536727
 21
183.8738357239478
 31
0.0
  0
LINE
  5
355
330
18
100
AcDbEntity
  8
外形線
100
AcDbLine
 10
103.2617134536727
 20
199.8738357239478
 30
0.0
 11
110.2617134536727
 21
199.8738357239478
 31
0.0
  0
LINE
  5
356
330
18
100
AcDbEntity
  8
外形線
100
AcDbLine
 10
103.2617134536727
 20
187.8738357239478
 30
0.0
 11
110.2617134536727
 21
187.8738357239478
 31
0.0
  0
LINE
  5
357
330
18
100
AcDbEntity
  8
外形線
100
AcDbLine
 10
126.5294222647348
 20
216.446450406193
 30
0.0
 11
137.4940046426104
 21
216.446450406193
 31
0.0
  0
LINE
  5
360
330
18
100
AcDbEntity
  8
外形線
100
AcDbLine
 10
126.7794222647349
 20
209.7547226234149
 30
0.0
 11
137.2440046426104
 21
209.7547226234149
 31
0.0
  0
LINE
  5
361
330
18
100
AcDbEntity
  8
外形線
100
AcDbLine
 10
126.7794222647349
 20
211.7547226234149
 30
0.0
 11
137.2440046426104
 21
211.7547226234149
 31
0.0
  0
ARC
  5
362
330
18
100
AcDbEntity
  8
外形線
100
AcDbCircle
 10
126.7794222647349
 20
210.7547226234149
 30
0.0
 40
1.0
100
AcDbArc
 50
90.0
 51
270.0
  0
ARC
  5
363
330
18
100
AcDbEntity
  8
外形線
100
AcDbCircle
 10
137.2440046426104
 20
210.7547226234149
 30
0.0
 40
1.0
100
AcDbArc
 50
270.0
 51
90.0
  0
LINE
  5
364
330
18
100
AcDbEntity
  8
外形線
100
AcDbLine
 10
126.5294222647348
 20
214.946450406193
 30
0.0
 11
137.4940046426104
 21
214.946450406193
 31
0.0
  0
ARC
  5
366
330
18
100
AcDbEntity
  8
外形線
100
AcDbCircle
 10
137.4940046426104
 20
215.696450406193
 30
0.0
 40
0.75
100
AcDbArc
 50
270.0
 51
90.0
  0
ARC
  5
367
330
18
100
AcDbEntity
  8
外形線
100
AcDbCircle
 10
137.4940046426104
 20
215.696450406193
 30
0.0
 40
0.75
100
AcDbArc
 50
270.0
 51
90.0
  0
ARC
  5
36A
330
18
100
AcDbEntity
  8
外形線
100
AcDbCircle
 10
126.5294222647348
 20
215.696450406193
 30
0.0
 40
0.75
100
AcDbArc
 50
90.0
 51
270.0
  0
LINE
  5
36C
330
18
100
AcDbEntity
  8
外形線
100
AcDbLine
 10
126.5294222647348
 20
172.8012210417025
 30
0.0
 11
137.4940046426104
 21
172.8012210417025
 31
0.0
  0
LINE
  5
36D
330
18
100
AcDbEntity
  8
外形線
100
AcDbLine
 10
126.5294222647348
 20
171.3012210417025
 30
0.0
 11
137.4940046426104
 21
171.3012210417025
 31
0.0
  0
LINE
  5
36E
330
18
100
AcDbEntity
  8
外形線
100
AcDbLine
 10
126.7794222647349
 20
175.9929488244806
 30
0.0
 11
137.2440046426104
 21
175.9929488244806
 31
0.0
  0
LINE
  5
36F
330
18
100
AcDbEntity
  8
外形線
100
AcDbLine
 10
126.7794222647349
 20
177.9929488244806
 30
0.0
 11
137.2440046426104
 21
177.9929488244806
 31
0.0
  0
ARC
  5
370
330
18
100
AcDbEntity
  8
外形線
100
AcDbCircle
 10
126.7794222647349
 20
176.9929488244806
 30
0.0
 40
1.0
100
AcDbArc
 50
90.00000000000003
 51
270.0
  0
ARC
  5
371
330
18
100
AcDbEntity
  8
外形線
100
AcDbCircle
 10
126.5294222647348
 20
172.0512210417025
 30
0.0
 40
0.75
100
AcDbArc
 50
90.00000000000003
 51
270.0
  0
ARC
  5
372
330
18
100
AcDbEntity
  8
外形線
100
AcDbCircle
 10
137.4940046426104
 20
172.0512210417025
 30
0.0
 40
0.75
100
AcDbArc
 50
270.0
 51
90.00000000000003
  0
ARC
  5
373
330
18
100
AcDbEntity
  8
外形線
100
AcDbCircle
 10
137.4940046426104
 20
172.0512210417025
 30
0.0
 40
0.75
100
AcDbArc
 50
270.0
 51
90.00000000000003
  0
ARC
  5
374
330
18
100
AcDbEntity
  8
外形線
100
AcDbCircle
 10
137.2440046426104
 20
176.9929488244806
 30
0.0
 40
1.0
100
AcDbArc
 50
270.0
 51
90.00000000000003
  0
LINE
  5
38B
330
18
100
AcDbEntity
  8
中心線
100
AcDbLine
 10
208.9905854131314
 20
182.8738357239478
 30
0.0
 11
239.0147878951655
 21
182.8738357239478
 31
0.0
  0
LINE
  5
38D
330
18
100
AcDbEntity
  8
外形線
100
AcDbLine
 10
99.26171345367265
 20
190.8738357239478
 30
0.0
 11
102.2617134536726
 21
190.8738357239478
 31
0.0
  0
LINE
  5
38E
330
18
100
AcDbEntity
  8
外形線
100
AcDbLine
 10
99.26171345367265
 20
174.8738357239478
 30
0.0
 11
102.2617134536726
 21
174.8738357239478
 31
0.0
  0
LINE
  5
38F
330
18
100
AcDbEntity
  8
外形線
100
AcDbLine
 10
98.76171345367266
 20
190.3738357239478
 30
0.0
 11
98.76171345367266
 21
175.3738357239478
 31
0.0
  0
LINE
  5
390
330
18
100
AcDbEntity
  8
外形線
100
AcDbLine
 10
102.7617134536726
 20
190.3738357239478
 30
0.0
 11
102.7617134536726
 21
175.3738357239478
 31
0.0
  0
LINE
  5
391
330
18
100
AcDbEntity
  8
外形線
100
AcDbLine
 10
98.76171345367266
 20
190.3738357239478
 30
0.0
 11
99.26171345367265
 21
190.8738357239478
 31
0.0
  0
LINE
  5
392
330
18
100
AcDbEntity
  8
外形線
100
AcDbLine
 10
102.2617134536726
 20
190.8738357239478
 30
0.0
 11
102.7617134536726
 21
190.3738357239478
 31
0.0
  0
LINE
  5
393
330
18
100
AcDbEntity
  8
外形線
100
AcDbLine
 10
102.7617134536726
 20
175.3738357239478
 30
0.0
 11
102.2617134536726
 21
174.8738357239478
 31
0.0
  0
LINE
  5
394
330
18
100
AcDbEntity
  8
外形線
100
AcDbLine
 10
99.26171345367265
 20
174.8738357239478
 30
0.0
 11
98.76171345367266
 21
175.3738357239478
 31
0.0
  0
LINE
  5
395
330
18
100
AcDbEntity
  8
外形線
100
AcDbLine
 10
102.2617134536726
 20
190.8738357239478
 30
0.0
 11
102.2617134536726
 21
174.8738357239478
 31
0.0
  0
LINE
  5
396
330
18
100
AcDbEntity
  8
外形線
100
AcDbLine
 10
99.26171345367265
 20
190.8738357239478
 30
0.0
 11
99.26171345367265
 21
174.8738357239478
 31
0.0
  0
LINE
  5
397
330
18
100
AcDbEntity
  8
外形線
100
AcDbLine
 10
95.26171345367265
 20
184.8738357239478
 30
0.0
 11
98.76171345367266
 21
184.8738357239478
 31
0.0
  0
LINE
  5
398
330
18
100
AcDbEntity
  8
外形線
100
AcDbLine
 10
95.26171345367265
 20
180.8738357239478
 30
0.0
 11
98.76171345367266
 21
180.8738357239478
 31
0.0
  0
LINE
  5
399
330
18
100
AcDbEntity
  8
外形線
 62
     4
100
AcDbLine
 10
95.26171345367265
 20
184.3738357239478
 30
0.0
 11
98.76171345367266
 21
184.3738357239478
 31
0.0
  0
LINE
  5
39A
330
18
100
AcDbEntity
  8
外形線
 62
     4
100
AcDbLine
 10
95.26171345367265
 20
181.3738357239478
 30
0.0
 11
98.76171345367266
 21
181.3738357239478
 31
0.0
  0
DIMENSION
  5
3AA
330
18
100
AcDbEntity
  8
外形線
100
AcDbDimension
  2
*D2
 10
135.2617134536726
 20
37.682634718087
 30
0.0
 11
85.26171345367265
 21
39.557634718087
 31
0.0
 70
    32
 71
     5
 42
-1.0
  3
STYLE3
100
AcDbAlignedDimension
 13
35.26171345367266
 23
47.24968143000023
 33
0.0
 14
135.2617134536726
 24
47.24968143000023
 34
0.0
100
AcDbRotatedDimension
1001
ACAD
1000
DSTYLE
1002
{
1070
   271
1070
     2
1002
}
  0
DIMENSION
  5
3B7
330
18
100
AcDbEntity
  8
外形線
100
AcDbDimension
  2
*D3
 10
330.2961374364384
 20
37.682634718087
 30
0.0
 11
260.2961374364384
 21
39.557634718087
 31
0.0
 70
    32
 71
     5
 42
-1.0
  3
STYLE3
100
AcDbAlignedDimension
 13
190.2961374364384
 23
47.24968143000023
 33
0.0
 14
330.2961374364384
 24
47.24968143000023
 34
0.0
100
AcDbRotatedDimension
1001
ACAD
1000
DSTYLE
1002
{
1070
   271
1070
     2
1002
}
  0
DIMENSION
  5
3C4
330
18
100
AcDbEntity
  8
外形線
100
AcDbDimension
  2
*D4
 10
356.3171760481302
 20
97.24968143000022
 30
0.0
 11
354.4421760481303
 21
72.24968143000022
 31
0.0
 70
    32
 71
     5
 42
-1.0
  3
STYLE3
100
AcDbAlignedDimension
 13
330.2961374364384
 23
47.24968143000023
 33
0.0
 14
315.2961374364384
 24
97.24968143000024
 34
0.0
 50
90.0
100
AcDbRotatedDimension
1001
ACAD
1000
DSTYLE
1002
{
1070
   271
1070
     2
1002
}
  0
DIMENSION
  5
3EF
330
18
100
AcDbEntity
  8
外形線
100
AcDbDimension
  2
*D5
 10
356.3171760481302
 20
267.2496814300002
 30
0.0
 11
354.4421760481303
 21
183.2496814300002
 31
0.0
 12
0.0
 22
-1.0
 32
0.0
 70
    32
 71
     5
 42
-1.0
  3
STYLE3
100
AcDbAlignedDimension
 13
315.2961374364384
 23
97.24968143000024
 33
0.0
 14
309.2961374364384
 24
267.2496814300002
 34
0.0
 50
90.0
100
AcDbRotatedDimension
1001
ACAD
1000
DSTYLE
1002
{
1070
    75
1070
     1
1070
   271
1070
     2
1070
   279
1070
     1
1002
}
  0
DIMENSION
  5
3FC
330
18
100
AcDbEntity
  8
外形線
100
AcDbDimension
  2
*D6
 10
364.8931611389621
 20
47.24968143000023
 30
0.0
 11
363.0181611389621
 21
157.2496814300002
 31
0.0
 70
    32
 71
     5
 42
-1.0
  3
STYLE3
100
AcDbAlignedDimension
 13
357.5671760481303
 23
267.2496814300002
 33
0.0
 14
357.5671760481303
 24
47.24968143000023
 34
0.0
 50
90.0
100
AcDbRotatedDimension
1001
ACAD
1000
DSTYLE
1002
{
1070
   271
1070
     2
1002
}
  0
LINE
  5
415
330
18
100
AcDbEntity
  8
0
  6
ByBlock
 62
     2
100
AcDbLine
 10
198.2961374364383
 20
106.2496814300002
 30
0.0
 11
198.2961374364383
 21
117.9904442274746
 31
0.0
  0
LINE
  5
416
330
18
100
AcDbEntity
  8
0
  6
ByBlock
 62
     2
100
AcDbLine
 10
248.2961374364383
 20
106.2496814300001
 30
0.0
 11
248.2961374364383
 21
117.9904442274746
 31
0.0
  0
LINE
  5
417
330
18
100
AcDbEntity
  8
0
  6
ByBlock
 62
     2
100
AcDbLine
 10
200.7961374364384
 20
116.7404442274746
 30
0.0
 11
245.7961374364383
 21
116.7404442274746
 31
0.0
  0
INSERT
  5
418
330
18
100
AcDbEntity
  8
0
  6
ByBlock
 62
     2
100
AcDbBlockReference
  2
_OPEN
 10
198.2961374364383
 20
116.7404442274746
 30
0.0
 41
2.5
 42
2.5
 43
2.5
 50
180.0
  0
INSERT
  5
419
330
18
100
AcDbEntity
  8
0
  6
ByBlock
 62
     2
100
AcDbBlockReference
  2
_OPEN
 10
248.2961374364383
 20
116.7404442274746
 30
0.0
 41
2.5
 42
2.5
 43
2.5
  0
MTEXT
  5
41A
330
18
100
AcDbEntity
  8
0
  6
ByBlock
 62
     6
100
AcDbMText
 10
223.7002724476392
 20
118.6154442274746
 30
0.0
 40
2.5
 41
0.0
 71
     5
 72
     1
  1
\A1;φ50
  7
STYLE3
 73
     1
 44
1.0
  0
POINT
  5
41B
330
18
100
AcDbEntity
  8
DEFPOINTS
  6
ByBlock
 62
     0
100
AcDbPoint
 10
198.2961374364383
 20
106.2496814300002
 30
0.0
  0
POINT
  5
41C
330
18
100
AcDbEntity
  8
DEFPOINTS
  6
ByBlock
 62
     0
100
AcDbPoint
 10
248.2961374364383
 20
106.2496814300001
 30
0.0
  0
POINT
  5
41D
330
18
100
AcDbEntity
  8
DEFPOINTS
  6
ByBlock
 62
     0
100
AcDbPoint
 10
248.2961374364383
 20
116.7404442274746
 30
0.0
  0
DIMENSION
  5
42A
330
18
100
AcDbEntity
  8
外形線
100
AcDbDimension
  2
*D7
 10
197.0183811942975
 20
188.8738357239478
 30
0.0
 11
195.1433811942975
 21
180.8738357239478
 31
0.0
 12
0.0
 22
-1.0
 32
0.0
 70
    32
 71
     5
 42
-1.0
  3
STYLE3
100
AcDbAlignedDimension
 13
214.7961374364383
 23
170.8738357239478
 33
0.0
 14
214.7961374364383
 24
188.8738357239478
 34
0.0
 50
90.0
100
AcDbRotatedDimension
1001
ACAD
1000
DSTYLE
1002
{
1070
   271
1070
     2
1002
}
  0
DIMENSION
  5
446
330
18
100
AcDbEntity
  8
外形線
100
AcDbDimension
  2
*D8
 10
310.7961374364383
 20
129.7881984361397
 30
0.0
 11
298.2961374364383
 21
132.6631984361397
 31
0.0
 12
0.0
 22
-1.0
 32
0.0
 70
    32
  1
φ25
 71
     5
 42
-1.0
  3
STYLE3
100
AcDbAlignedDimension
 13
285.7961374364383
 23
128.6746558205906
 33
0.0
 14
310.7961374364383
 24
128.8973640768881
 34
0.0
100
AcDbRotatedDimension
1001
ACAD
1000
DSTYLE
1002
{
1070
   271
1070
     2
1002
}
  0
DIMENSION
  5
46A
330
18
100
AcDbEntity
  8
外形線
100
AcDbDimension
  2
*D9
 10
285.7961374364383
 20
129.7881984361397
 30
0.0
 11
254.5461374364383
 21
132.6631984361397
 31
0.0
 12
0.0
 22
-1.0
 32
0.0
 70
    32
 71
     5
 42
-1.0
  3
STYLE3
100
AcDbAlignedDimension
 13
223.2961374364383
 23
132.6834104372227
 33
0.0
 14
285.7961374364383
 24
135.3559135149775
 34
0.0
100
AcDbRotatedDimension
1001
ACAD
1000
DSTYLE
1002
{
1070
   271
1070
     2
1002
}
  0
DIMENSION
  5
4A0
330
18
100
AcDbEntity
  8
外形線
100
AcDbDimension
  2
*D10
 10
348.6544813269411
 20
92.24968143000022
 30
0.0
 11
346.7794813269411
 21
94.74968143000024
 31
0.0
 70
    32
 71
     5
 42
-1.0
  3
STYLE3
100
AcDbAlignedDimension
 13
341.1716941521883
 23
97.24968143000024
 33
0.0
 14
324.4894781607639
 24
92.24968143000024
 34
0.0
 50
90.0
100
AcDbRotatedDimension
1001
ACAD
1000
DSTYLE
1002
{
1070
   271
1070
     2
1002
}
  0
CIRCLE
  5
4B6
330
18
100
AcDbEntity
  8
外形線
100
AcDbCircle
 10
223.2961374364383
 20
182.8738357239478
 30
0.0
 40
8.0
  0
CIRCLE
  5
4B8
330
18
100
AcDbEntity
  8
外形線
100
AcDbCircle
 10
223.2961374364383
 20
182.8738357239478
 30
0.0
 40
7.5
  0
LINE
  5
4B9
330
18
100
AcDbEntity
  8
外形線
100
AcDbLine
 10
218.0046348143092
 20
188.8738357239478
 30
0.0
 11
214.7961374364383
 21
188.8738357239478
 31
0.0
  0
LINE
  5
4C7
330
18
100
AcDbEntity
  8
外形線
100
AcDbLine
 10
99.26171345367267
 20
189.8738357239478
 30
0.0
 11
102.2617134536726
 21
189.8738357239478
 31
0.0
  0
LINE
  5
4C8
330
18
100
AcDbEntity
  8
外形線
100
AcDbLine
 10
99.26171345367269
 20
188.7738357239478
 30
0.0
 11
102.2617134536726
 21
188.7738357239478
 31
0.0
  0
LINE
  5
4C9
330
18
100
AcDbEntity
  8
外形線
100
AcDbLine
 10
99.2617134536727
 20
187.5738357239478
 30
0.0
 11
102.2617134536727
 21
187.5738357239478
 31
0.0
  0
LINE
  5
4CA
330
18
100
AcDbEntity
  8
外形線
100
AcDbLine
 10
99.26171345367272
 20
186.2738357239478
 30
0.0
 11
102.2617134536727
 21
186.2738357239478
 31
0.0
  0
LINE
  5
4CB
330
18
100
AcDbEntity
  8
外形線
100
AcDbLine
 10
99.26171345367272
 20
184.8738357239478
 30
0.0
 11
102.2617134536727
 21
184.8738357239478
 31
0.0
  0
LINE
  5
4CD
330
18
100
AcDbEntity
  8
外形線
100
AcDbLine
 10
99.26171345367272
 20
180.8738357239478
 30
0.0
 11
102.2617134536727
 21
180.8738357239478
 31
0.0
  0
LINE
  5
4CE
330
18
100
AcDbEntity
  8
外形線
100
AcDbLine
 10
99.26171345367272
 20
179.4738357239478
 30
0.0
 11
102.2617134536727
 21
179.4738357239478
 31
0.0
  0
LINE
  5
4CF
330
18
100
AcDbEntity
  8
外形線
100
AcDbLine
 10
99.2617134536727
 20
178.1738357239478
 30
0.0
 11
102.2617134536727
 21
178.1738357239478
 31
0.0
  0
LINE
  5
4D0
330
18
100
AcDbEntity
  8
外形線
100
AcDbLine
 10
99.26171345367269
 20
176.9738357239478
 30
0.0
 11
102.2617134536726
 21
176.9738357239478
 31
0.0
  0
LINE
  5
4D1
330
18
100
AcDbEntity
  8
外形線
100
AcDbLine
 10
99.26171345367267
 20
175.8738357239478
 30
0.0
 11
102.2617134536726
 21
175.8738357239478
 31
0.0
  0
LINE
  5
4D2
330
18
100
AcDbEntity
  8
外形線
100
AcDbLine
 10
102.2617134536726
 20
182.8738357239478
 30
0.0
 11
99.26171345367265
 21
182.8738357239478
 31
0.0
  0
DIMENSION
  5
4E0
330
18
100
AcDbEntity
  8
外形線
100
AcDbDimension
  2
*D11
 10
174.5666039666418
 20
107.2496814300002
 30
0.0
 11
172.6916039666418
 21
77.24968143000022
 31
0.0
 70
    32
 71
     5
 42
-1.0
  3
STYLE3
100
AcDbAlignedDimension
 13
190.2961374364384
 23
47.24968143000023
 33
0.0
 14
199.2961374364383
 24
107.2496814300002
 34
0.0
 50
90.0
100
AcDbRotatedDimension
1001
ACAD
1000
DSTYLE
1002
{
1070
   271
1070
     2
1002
}
  0
DIMENSION
  5
4EC
330
18
100
AcDbEntity
  8
外形線
100
AcDbDimension
  2
*D12
 10
174.5666039666418
 20
170.8738357239478
 30
0.0
 11
172.6916039666418
 21
139.061758576974
 31
0.0
 70
    32
  1
MAX110
 71
     5
 42
-1.0
  3
STYLE3
100
AcDbAlignedDimension
 13
199.2961374364383
 23
107.2496814300002
 33
0.0
 14
195.7683811942975
 24
170.8738357239478
 34
0.0
 50
90.0
100
AcDbRotatedDimension
1001
ACAD
1000
DSTYLE
1002
{
1070
    75
1070
     1
1070
   271
1070
     2
1070
   279
1070
     1
1002
}
  0
LINE
  5
4FB
330
18
100
AcDbEntity
  8
外形線
100
AcDbLine
 10
300.2961374364383
 20
51.22274221888495
 30
0.0
 11
300.2961374364383
 21
90.55038059387731
 31
0.0
  0
LINE
  5
500
330
18
100
AcDbEntity
  8
隠れ線2
100
AcDbLine
 10
90.26171345367265
 20
187.8738357239478
 30
0.0
 11
90.26171345367265
 21
170.8738357239478
 31
0.0
  0
LINE
  5
501
330
18
100
AcDbEntity
  8
隠れ線2
100
AcDbLine
 10
80.26171345367265
 20
187.8738357239478
 30
0.0
 11
80.26171345367265
 21
170.8738357239478
 31
0.0
  0
LINE
  5
503
330
18
100
AcDbEntity
  8
隠れ線2
100
AcDbLine
 10
79.01171345367266
 20
188.8738357239478
 30
0.0
 11
79.01171345367266
 21
187.8738357239478
 31
0.0
  0
LINE
  5
504
330
18
100
AcDbEntity
  8
隠れ線2
100
AcDbLine
 10
79.01171345367266
 20
187.8738357239478
 30
0.0
 11
80.26171345367265
 21
187.8738357239478
 31
0.0
  0
LINE
  5
505
330
18
100
AcDbEntity
  8
隠れ線2
100
AcDbLine
 10
91.51171345367265
 20
188.8738357239478
 30
0.0
 11
91.51171345367265
 21
187.8738357239478
 31
0.0
  0
LINE
  5
506
330
18
100
AcDbEntity
  8
隠れ線2
100
AcDbLine
 10
91.51171345367265
 20
187.8738357239478
 30
0.0
 11
90.26171345367265
 21
187.8738357239478
 31
0.0
  0
LINE
  5
509
330
18
100
AcDbEntity
  8
隠れ線2
100
AcDbLine
 10
227.2961374364383
 20
175.9456324936723
 30
0.0
 11
227.2961374364383
 21
170.8738357239478
 31
0.0
  0
LINE
  5
50A
330
18
100
AcDbEntity
  8
隠れ線2
100
AcDbLine
 10
219.2961374364383
 20
175.9456324936723
 30
0.0
 11
219.2961374364383
 21
170.8738357239478
 31
0.0
  0
LINE
  5
518
330
18
100
AcDbEntity
  8
隠れ線2
100
AcDbLine
 10
228.2961374364383
 20
176.6288377255494
 30
0.0
 11
228.2961374364383
 21
170.8738357239478
 31
0.0
  0
LINE
  5
519
330
18
100
AcDbEntity
  8
隠れ線2
100
AcDbLine
 10
218.2961374364383
 20
176.6288377255494
 30
0.0
 11
218.2961374364383
 21
170.8738357239478
 31
0.0
  0
LINE
  5
535
330
18
100
AcDbEntity
  8
隠れ線2
100
AcDbLine
 10
89.26171345367267
 20
188.8738357239478
 30
0.0
 11
89.26171345367265
 21
170.8738357239478
 31
0.0
  0
LINE
  5
536
330
18
100
AcDbEntity
  8
隠れ線2
100
AcDbLine
 10
81.26171345367266
 20
188.8738357239478
 30
0.0
 11
81.26171345367264
 21
170.8738357239478
 31
0.0
  0
DIMENSION
  5
543
330
18
100
AcDbEntity
  8
外形線
100
AcDbDimension
  2
*D13
 10
89.26171345367267
 20
196.8839320232955
 30
0.0
 11
85.26171345367265
 21
198.7589320232955
 31
0.0
 70
    32
  1
φ8
 71
     5
 42
-1.0
  3
STYLE3
100
AcDbAlignedDimension
 13
81.26171345367266
 23
188.8738357239478
 33
0.0
 14
89.26171345367267
 24
188.8738357239478
 34
0.0
100
AcDbRotatedDimension
1001
ACAD
1000
DSTYLE
1002
{
1070
   271
1070
     2
1002
}
  0
ARC
  5
560
330
18
100
AcDbEntity
  8
外形線
100
AcDbCircle
 10
47.26171345367266
 20
70.24968143000027
 30
0.0
 40
1.0
100
AcDbArc
 50
90.0
 51
180.0000000000001
  0
ARC
  5
561
330
18
100
AcDbEntity
  8
外形線
100
AcDbCircle
 10
123.2617134536727
 20
70.24968143000028
 30
0.0
 40
1.0
100
AcDbArc
 50
0.0
 51
90.0
  0
ARC
  5
562
330
18
100
AcDbEntity
  8
外形線
100
AcDbCircle
 10
123.2617134536727
 20
58.24968143000024
 30
0.0
 40
1.0
100
AcDbArc
 50
270.0
 51
0.0
  0
ARC
  5
563
330
18
100
AcDbEntity
  8
外形線
100
AcDbCircle
 10
47.26171345367268
 20
58.24968143000024
 30
0.0
 40
1.0
100
AcDbArc
 50
180.0000000000001
 51
270.0
  0
LINE
  5
564
330
18
100
AcDbEntity
  8
外形線
100
AcDbLine
 10
66.26171345367267
 20
64.24968143000025
 30
0.0
 11
123.2617134536727
 21
64.24968143000025
 31
0.0
  0
LINE
  5
565
330
18
100
AcDbEntity
  8
外形線
100
AcDbLine
 10
65.26171345367266
 20
70.24968143000027
 30
0.0
 11
47.26171345367266
 21
70.24968143000027
 31
0.0
  0
LINE
  5
566
330
18
100
AcDbEntity
  8
外形線
100
AcDbLine
 10
123.2617134536727
 20
70.24968143000027
 30
0.0
 11
123.2617134536727
 21
64.24968143000025
 31
0.0
  0
LINE
  5
567
330
18
100
AcDbEntity
  8
外形線
100
AcDbLine
 10
47.26171345367266
 20
70.24968143000027
 30
0.0
 11
47.26171345367268
 21
58.24968143000024
 31
0.0
  0
LINE
  5
568
330
18
100
AcDbEntity
  8
外形線
100
AcDbLine
 10
65.26171345367266
 20
70.24968143000027
 30
0.0
 11
65.2617134536727
 21
58.24968143000024
 31
0.0
  0
LINE
  5
569
330
18
100
AcDbEntity
  8
外形線
100
AcDbLine
 10
65.2617134536727
 20
58.24968143000024
 30
0.0
 11
47.26171345367268
 21
58.24968143000024
 31
0.0
  0
LINE
  5
56A
330
18
100
AcDbEntity
  8
外形線
100
AcDbLine
 10
66.26171345367264
 20
70.24968143000027
 30
0.0
 11
66.26171345367267
 21
64.24968143000025
 31
0.0
  0
LINE
  5
56B
330
18
100
AcDbEntity
  8
外形線
100
AcDbLine
 10
123.2617134536727
 20
70.24968143000027
 30
0.0
 11
66.26171345367264
 21
70.24968143000027
 31
0.0
  0
INSERT
  5
5C2
330
18
100
AcDbEntity
  8
外形線
100
AcDbBlockReference
  2
ROGO
 10
48.4970637037602
 20
63.35911516997225
 30
0.0
 41
0.4
 42
0.4
 43
0.4
  0
TEXT
  5
5C7
330
18
100
AcDbEntity
  8
文字
100
AcDbText
 10
68.46061737363948
 20
65.57542388834099
 30
0.0
 40
3.0
  1
DIAL GAUGE STAND
 41
1.35
  7
4
100
AcDbText
  0
TEXT
  5
5C8
330
18
100
AcDbEntity
  8
文字
100
AcDbText
 10
66.99154747641569
 20
58.88821908384136
 30
0.0
 40
2.5
  1
TYPE SIS-6
 41
1.399999999999999
  7
4
100
AcDbText
  0
TEXT
  5
5C9
330
18
100
AcDbEntity
  8
文字
100
AcDbText
 10
95.06707525432375
 20
60.05082165991701
 30
0.0
 40
2.299999999999999
  1
NO.
 41
1.3
  7
4
100
AcDbText
  0
LINE
  5
5CA
102
{ACAD_REACTORS
330
5DF
102
}
330
18
100
AcDbEntity
  8
文字
100
AcDbLine
 10
94.98546274960949
 20
59.47996388461627
 30
0.0
 11
123.2617134536727
 21
59.47996388461627
 31
0.0
  0
LINE
  5
5D6
102
{ACAD_REACTORS
330
5DF
102
}
330
18
100
AcDbEntity
  8
文字
100
AcDbLine
 10
94.98546274960949
 20
59.17996388461627
 30
0.0
 11
123.2617134536727
 21
59.17996388461627
 31
0.0
  0
LINE
  5
5D7
102
{ACAD_REACTORS
330
5DF
102
}
330
18
100
AcDbEntity
  8
文字
100
AcDbLine
 10
123.2617134536727
 20
59.47996388461627
 30
0.0
 11
123.2617134536727
 21
59.17996388461627
 31
0.0
  0
LINE
  5
5D8
102
{ACAD_REACTORS
330
5DF
102
}
330
18
100
AcDbEntity
  8
文字
100
AcDbLine
 10
94.98546274960951
 20
59.47996388461627
 30
0.0
 11
94.98546274960951
 21
59.17996388461627
 31
0.0
  0
HATCH
  5
5DF
330
18
100
AcDbEntity
  8
文字
100
AcDbHatch
 10
0.0
 20
0.0
 30
0.0
210
0.0
220
0.0
230
1.0
  2
SOLID
 70
     1
 71
     1
 91
        1
 92
        7
 72
     0
 73
     1
 93
        4
 10
123.2617134536727
 20
59.17996388461626
 10
123.2617134536727
 20
59.47996388461628
 10
94.98546274960951
 20
59.47996388461627
 10
94.98546274960951
 20
59.17996388461626
 97
        4
330
5CA
330
5D8
330
5D6
330
5D7
 75
     0
 76
     1
 47
0.0312835946974617
 98
        1
 10
113.3249681366039
 20
59.301831817594
450
        0
451
        0
460
0.0
461
0.0
452
        0
462
0.0
453
        0
470

  0
INSERT
  5
631
330
18
100
AcDbEntity
  8
外形線
100
AcDbBlockReference
  2
A$C792C231F
 10
130.4825901544994
 20
268.0695725412003
 30
0.0
  0
LINE
  5
632
330
18
100
AcDbEntity
  8
外形線
100
AcDbLine
 10
130.4825901544994
 20
269.3257285412004
 30
0.0
 11
231.8601061544995
 21
269.3257285412004
 31
0.0
  0
TEXT
  5
633
330
18
100
AcDbEntity
  8
文字
  6
Continuous
100
AcDbText
 10
130.9015051544994
 20
271.8380415412004
 30
0.0
 40
4.0
  1
Model No.SIS-6 Dial Gauge Stand
  7
STYLE3
100
AcDbText
  0
TEXT
  5
634
330
18
100
AcDbEntity
  8
0
  6
Continuous
100
AcDbText
 10
339.4209891544995
 20
6.043994541200368
 30
0.0
 40
3.0
  1
株式会社　尾崎製作所
  7
STYLE3
100
AcDbText
  0
TEXT
  5
635
330
18
100
AcDbEntity
  8
0
  6
Continuous
100
AcDbText
 10
237.7982201544995
 20
15.95013054120037
 30
0.0
 40
3.5
  1
仕様及び外観は予告なく変更される場合がございますのでご了承下さい。
  7
STYLE3
100
AcDbText
  0
TEXT
  5
636
330
18
100
AcDbEntity
  8
0
  6
Continuous
100
AcDbText
 10
237.5067261544995
 20
12.02098254120037
 30
0.0
 40
2.1
  1
Design and specifications are subject to change without notice for future improvement.
  7
STYLE3
100
AcDbText
  0
LINE
  5
637
330
18
100
AcDbEntity
  8
外形線
100
AcDbLine
 10
236.0492591544994
 20
10.12299154120037
 30
0.0
 11
376.8406771544995
 21
10.12299154120037
 31
0.0
  0
LINE
  5
638
330
18
100
AcDbEntity
  8
外形線
100
AcDbLine
 10
236.0492591544994
 20
20.90319754120037
 30
0.0
 11
376.8406771544995
 21
20.90319754120037
 31
0.0
  0
TEXT
  5
639
330
18
100
AcDbEntity
  8
0
  6
Continuous
100
AcDbText
 10
272.9491771544995
 20
2.256355541200368
 30
0.0
 40
2.1
  1
Unit
  7
STYLE3
100
AcDbText
  0
TEXT
  5
63A
330
18
100
AcDbEntity
  8
0
  6
Continuous
100
AcDbText
 10
272.7774561544995
 20
5.758591541200368
 30
0.0
 40
3.0
  1
単位
  7
STYLE3
100
AcDbText
  0
LINE
  5
63B
330
18
100
AcDbEntity
  8
外形線
100
AcDbLine
 10
271.3199861544994
 20
10.12299154120037
 30
0.0
 11
271.3199861544994
 21
0.5082135412003685
 31
0.0
  0
LINE
  5
63C
330
18
100
AcDbEntity
  8
外形線
100
AcDbLine
 10
236.0492591544994
 20
0.5082135412003685
 30
0.0
 11
236.0492591544994
 21
20.90319754120037
 31
0.0
  0
TEXT
  5
63D
330
18
100
AcDbEntity
  8
0
  6
Continuous
100
AcDbText
 10
239.8386771544994
 20
5.752637541200368
 30
0.0
 40
3.0
  1
三　　角　　法
  7
STYLE3
100
AcDbText
  0
TEXT
  5
63E
330
18
100
AcDbEntity
  8
0
  6
Continuous
100
AcDbText
 10
237.2152351544995
 20
2.256354541200368
 30
0.0
 40
2.1
  1
3RD Angle Projection
  7
STYLE3
100
AcDbText
  0
LINE
  5
63F
330
18
100
AcDbEntity
  8
外形線
100
AcDbLine
 10
288.8096041544994
 20
10.12299154120037
 30
0.0
 11
288.8096041544994
 21
0.5082135412003685
 31
0.0
  0
LINE
  5
640
330
18
100
AcDbEntity
  8
外形線
100
AcDbLine
 10
308.3396761544995
 20
10.12299154120037
 30
0.0
 11
308.3396761544995
 21
0.5082135412003685
 31
0.0
  0
LINE
  5
641
330
18
100
AcDbEntity
  8
外形線
100
AcDbLine
 10
338.0720261544995
 20
10.12299154120037
 30
0.0
 11
338.0720261544995
 21
0.5082135412003685
 31
0.0
  0
TEXT
  5
642
330
18
100
AcDbEntity
  8
0
  6
Continuous
100
AcDbText
 10
290.5585671544994
 20
2.547712541200368
 30
0.0
 40
2.1
  1
Scale
  7
STYLE3
100
AcDbText
  0
TEXT
  5
643
330
18
100
AcDbEntity
  8
0
  6
Continuous
100
AcDbText
 10
290.0953521544995
 20
5.467234541200368
 30
0.0
 40
3.0
  1
尺 度
  7
STYLE3
100
AcDbText
  0
TEXT
  5
644
330
18
100
AcDbEntity
  8
0
  6
Continuous
100
AcDbText
 10
280.8195031544995
 20
4.004497541200368
 30
0.0
 40
2.399999999999999
  1
mm
  7
STYLE3
100
AcDbText
  0
TEXT
  5
645
330
18
100
AcDbEntity
  8
0
  6
Continuous
100
AcDbText
 10
300.1778561544995
 20
4.295854541200368
 30
0.0
 40
2.399999999999999
  1
1/1
  7
STYLE3
100
AcDbText
  0
TEXT
  5
646
330
18
100
AcDbEntity
  8
0
  6
Continuous
100
AcDbText
 10
319.0164341544995
 20
4.004496541200367
 30
0.0
 40
2.1
  1
2010.06.15
  7
STYLE3
100
AcDbText
  0
TEXT
  5
647
330
18
100
AcDbEntity
  8
0
  6
Continuous
100
AcDbText
 10
309.8882661544995
 20
5.589439541200368
 30
0.0
 40
3.0
  1
日 付
  7
STYLE3
100
AcDbText
  0
TEXT
  5
648
330
18
100
AcDbEntity
  8
0
  6
Continuous
100
AcDbText
 10
310.2716271544995
 20
2.256356541200368
 30
0.0
 40
2.1
  1
Date
  7
STYLE3
100
AcDbText
  0
TEXT
  5
649
330
18
100
AcDbEntity
  8
0
  6
Continuous
100
AcDbText
 10
340.2954681544995
 20
2.256354541200368
 30
0.0
 40
2.1
  1
OZAKI MFG. CO., LTD.
  7
STYLE3
100
AcDbText
  0
ENDSEC
  0
SECTION
  2
OBJECTS
  0
DICTIONARY
  5
C
330
0
100
AcDbDictionary
281
     1
  3
ACAD_COLOR
350
5EA
  3
ACAD_GROUP
350
D
  3
ACAD_LAYOUT
350
5ED
  3
ACAD_MATERIAL
350
5E9
  3
ACAD_MLINESTYLE
350
1B
  3
ACAD_PLOTSETTINGS
350
5EE
  3
ACAD_PLOTSTYLENAME
350
5E7
  3
ACAD_TABLESTYLE
350
5EB
  3
ACDBVARIABLEDICTIONARY
350
5D9
  0
DICTIONARY
  5
5F9
330
18
100
AcDbDictionary
280
     1
281
     1
  3
ACAD_SORTENTS
360
5FA
  0
DICTIONARY
  5
5EA
102
{ACAD_REACTORS
330
C
102
}
330
C
100
AcDbDictionary
281
     1
  0
DICTIONARY
  5
D
102
{ACAD_REACTORS
330
C
102
}
330
C
100
AcDbDictionary
281
     1
  0
DICTIONARY
  5
5ED
102
{ACAD_REACTORS
330
C
102
}
330
C
100
AcDbDictionary
281
     1
  3
Model
350
5EF
  3
レイアウト1
350
5F0
  0
DICTIONARY
  5
5E9
102
{ACAD_REACTORS
330
C
102
}
330
C
100
AcDbDictionary
281
     1
  0
DICTIONARY
  5
1B
102
{ACAD_REACTORS
330
C
102
}
330
C
100
AcDbDictionary
281
     1
  3
STANDARD
350
1C
  0
DICTIONARY
  5
5EE
102
{ACAD_REACTORS
330
C
102
}
330
C
100
AcDbDictionary
281
     1
  0
ACDBDICTIONARYWDFLT
  5
5E7
102
{ACAD_REACTORS
330
C
102
}
330
C
100
AcDbDictionary
281
     1
  3
Normal
350
5E8
100
AcDbDictionaryWithDefault
340
5E8
  0
DICTIONARY
  5
5EB
102
{ACAD_REACTORS
330
C
102
}
330
C
100
AcDbDictionary
281
     1
  3
Standard
350
5EC
  0
DICTIONARY
  5
5D9
102
{ACAD_REACTORS
330
C
102
}
330
C
100
AcDbDictionary
281
     1
  3
CTABLESTYLE
350
5FC
  3
SORTENTS
350
5DA
  0
SORTENTSTABLE
  5
5FA
102
{ACAD_REACTORS
330
5F9
102
}
330
5F9
100
AcDbSortentsTable
330
18
331
264
  5
264
331
2F3
  5
2F3
331
56B
  5
56B
331
32A
  5
32A
331
33A
  5
33A
331
22D
  5
22D
331
504
  5
504
331
1AE
  5
1AE
331
2FB
  5
2FB
331
303
  5
303
331
34A
  5
34A
331
391
  5
391
331
1B6
  5
1B6
331
352
  5
352
331
1BE
  5
1BE
331
27C
  5
27C
331
4CD
  5
4CD
331
399
  5
399
331
284
  5
284
331
30B
  5
30B
331
187
  5
187
331
5C2
  5
5C2
331
1C6
  5
1C6
331
23D
  5
23D
331
362
  5
362
331
36A
  5
36A
331
245
  5
245
331
18F
  5
18F
331
5CA
  5
5CA
331
313
  5
313
331
372
  5
372
331
197
  5
197
331
294
  5
294
331
418
  5
418
331
25D
  5
25D
331
19F
  5
19F
331
4B6
  5
4B6
331
564
  5
564
331
2F4
  5
2F4
331
1A7
  5
1A7
331
265
  5
265
331
505
  5
505
331
1AF
  5
1AF
331
2FC
  5
2FC
331
33B
  5
33B
331
392
  5
392
331
1B7
  5
1B7
331
304
  5
304
331
34B
  5
34B
331
353
  5
353
331
27D
  5
27D
331
1BF
  5
1BF
331
4CE
  5
4CE
331
30C
  5
30C
331
363
  5
363
331
23E
  5
23E
331
285
  5
285
331
39A
  5
39A
331
188
  5
188
331
535
  5
535
331
1C7
  5
1C7
331
314
  5
314
331
246
  5
246
331
190
  5
190
331
3AA
  5
3AA
331
198
  5
198
331
295
  5
295
331
31C
  5
31C
331
373
  5
373
331
25E
  5
25E
331
324
  5
324
331
419
  5
419
331
1A0
  5
1A0
331
565
  5
565
331
266
  5
266
331
4C7
  5
4C7
331
1A8
  5
1A8
331
2F5
  5
2F5
331
32C
  5
32C
331
33C
  5
33C
331
38B
  5
38B
331
26E
  5
26E
331
506
  5
506
331
1B0
  5
1B0
331
2FD
  5
2FD
331
1B8
  5
1B8
331
237
  5
237
331
34C
  5
34C
331
393
  5
393
331
354
  5
354
331
27E
  5
27E
331
4CF
  5
4CF
331
1C0
  5
1C0
331
286
  5
286
331
30D
  5
30D
331
189
  5
189
331
536
  5
536
331
1C8
  5
1C8
331
4A0
  5
4A0
331
23F
  5
23F
331
364
  5
364
331
36C
  5
36C
331
247
  5
247
331
191
  5
191
331
315
  5
315
331
31D
  5
31D
331
374
  5
374
331
199
  5
199
331
296
  5
296
331
41A
  5
41A
331
325
  5
325
331
25F
  5
25F
331
37C
  5
37C
331
4B8
  5
4B8
331
566
  5
566
331
2F6
  5
2F6
331
32D
  5
32D
331
1A9
  5
1A9
331
228
  5
228
331
267
  5
267
331
26F
  5
26F
331
1B1
  5
1B1
331
2FE
  5
2FE
331
33D
  5
33D
331
42A
  5
42A
331
394
  5
394
331
1B9
  5
1B9
331
306
  5
306
331
34D
  5
34D
331
355
  5
355
331
27F
  5
27F
331
4C8
  5
4C8
331
4D0
  5
4D0
331
238
  5
238
331
1C1
  5
1C1
331
30E
  5
30E
331
1C9
  5
1C9
331
240
  5
240
331
4E0
  5
4E0
331
18A
  5
18A
331
287
  5
287
331
316
  5
316
331
36D
  5
36D
331
192
  5
192
331
28F
  5
28F
331
19A
  5
19A
331
297
  5
297
331
37D
  5
37D
331
2EF
  5
2EF
331
326
  5
326
331
41B
  5
41B
331
46A
  5
46A
331
4B9
  5
4B9
331
260
  5
260
331
567
  5
567
331
32E
  5
32E
331
2F7
  5
2F7
331
500
  5
500
331
1AA
  5
1AA
331
229
  5
229
331
33E
  5
33E
331
38D
  5
38D
331
270
  5
270
331
1B2
  5
1B2
331
2FF
  5
2FF
331
3C4
  5
3C4
331
1BA
  5
1BA
331
307
  5
307
331
34E
  5
34E
331
395
  5
395
331
356
  5
356
331
4C9
  5
4C9
331
518
  5
518
331
4D1
  5
4D1
331
280
  5
280
331
1C2
  5
1C2
331
239
  5
239
331
288
  5
288
331
30F
  5
30F
331
18B
  5
18B
331
1CA
  5
1CA
331
241
  5
241
331
366
  5
366
331
249
  5
249
331
36E
  5
36E
331
193
  5
193
331
3FC
  5
3FC
331
31F
  5
31F
331
19B
  5
19B
331
41C
  5
41C
331
327
  5
327
331
37E
  5
37E
331
5D6
  5
5D6
331
560
  5
560
331
568
  5
568
331
261
  5
261
331
2F0
  5
2F0
331
2F8
  5
2F8
331
32F
  5
32F
331
501
  5
501
331
1AB
  5
1AB
331
269
  5
269
331
38E
  5
38E
331
271
  5
271
331
1B3
  5
1B3
331
300
  5
300
331
33F
  5
33F
331
34F
  5
34F
331
396
  5
396
331
1BB
  5
1BB
331
357
  5
357
331
509
  5
509
331
4CA
  5
4CA
331
4D2
  5
4D2
331
519
  5
519
331
23A
  5
23A
331
184
  5
184
331
1C3
  5
1C3
331
308
  5
308
331
310
  5
310
331
242
  5
242
331
367
  5
367
331
18C
  5
18C
331
5C7
  5
5C7
331
24A
  5
24A
331
36F
  5
36F
331
194
  5
194
331
19C
  5
19C
331
320
  5
320
331
415
  5
415
331
37F
  5
37F
331
41D
  5
41D
331
5D7
  5
5D7
331
561
  5
561
331
262
  5
262
331
2F1
  5
2F1
331
5DF
  5
5DF
331
569
  5
569
331
223
  5
223
331
328
  5
328
331
338
  5
338
331
22B
  5
22B
331
26A
  5
26A
331
1AC
  5
1AC
331
2F9
  5
2F9
331
348
  5
348
331
38F
  5
38F
331
272
  5
272
331
1B4
  5
1B4
331
301
  5
301
331
1BC
  5
1BC
331
350
  5
350
331
397
  5
397
331
4CB
  5
4CB
331
50A
  5
50A
331
309
  5
309
331
185
  5
185
331
1C4
  5
1C4
331
5F7
  5
5F7
331
23B
  5
23B
331
360
  5
360
331
18D
  5
18D
331
5C8
  5
5C8
331
311
  5
311
331
370
  5
370
331
195
  5
195
331
292
  5
292
331
321
  5
321
331
416
  5
416
331
19D
  5
19D
331
3B7
  5
3B7
331
562
  5
562
331
5D8
  5
5D8
331
2F2
  5
2F2
331
329
  5
329
331
56A
  5
56A
331
224
  5
224
331
263
  5
263
331
380
  5
380
331
4FB
  5
4FB
331
2FA
  5
2FA
331
503
  5
503
331
1AD
  5
1AD
331
22C
  5
22C
331
339
  5
339
331
390
  5
390
331
1B5
  5
1B5
331
302
  5
302
331
349
  5
349
331
351
  5
351
331
1BD
  5
1BD
331
3EF
  5
3EF
331
446
  5
446
331
361
  5
361
331
398
  5
398
331
23C
  5
23C
331
186
  5
186
331
283
  5
283
331
5F8
  5
5F8
331
30A
  5
30A
331
312
  5
312
331
244
  5
244
331
18E
  5
18E
331
543
  5
543
331
5C9
  5
5C9
331
28B
  5
28B
331
196
  5
196
331
293
  5
293
331
371
  5
371
331
322
  5
322
331
417
  5
417
331
19E
  5
19E
331
25C
  5
25C
331
4EC
  5
4EC
331
563
  5
563
  0
LAYOUT
  5
5EF
102
{ACAD_REACTORS
330
5ED
102
}
330
5ED
100
AcDbPlotSettings
  1

  2
A3 EPSON LP-6100.pc3
  4
A3
  6

 40
5.873749732971191
 41
5.873747825622558
 42
5.873748779296875
 43
5.873748779296875
 44
297.0106506347656
 45
419.9466552734374
 46
32.7260618792227
 47
57.33614101101935
 48
0.0
 49
0.0
140
0.0
141
0.0
142
1.0
143
1.289
 70
 28324
 72
     1
 73
     1
 74
     1
  7
AutoCAD LT 98.ctb
 75
     0
147
0.7539540632503228
 76
     1
 77
     2
 78
   300
148
0.425651250812166
149
0.4181462464117658
100
AcDbLayout
  1
Model
 70
     1
 71
     0
 10
0.0
 20
0.0
 11
12.0
 21
9.0
 12
0.0
 22
0.0
 32
0.0
 14
0.0
 24
0.0
 34
0.0
 15
0.0
 25
0.0
 35
0.0
146
0.0
 13
0.0
 23
0.0
 33
0.0
 16
1.0
 26
0.0
 36
0.0
 17
0.0
 27
1.0
 37
0.0
 76
     0
330
18
1001
ACAD_PSEXT
1000
A3 EPSON LP-6100.pc3
1000
EPSON LP-6100
1000
USB002
1000

1070
     0
  0
LAYOUT
  5
5F0
102
{ACAD_REACTORS
330
5ED
102
}
330
5ED
100
AcDbPlotSettings
  1

  2
C:\Documents and Settings\佐藤\Application Data\Autodesk\AutoCAD LT 2005\R10\jpn\plotters\PEACOCK EPSON LP-6100.pc3
  4

  6

 40
0.0
 41
0.0
 42
0.0
 43
0.0
 44
0.0
 45
0.0
 46
0.0
 47
0.0
 48
0.0
 49
0.0
140
0.0
141
0.0
142
1.0
143
1.0
 70
   688
 72
     0
 73
     0
 74
     5
  7
AutoCAD LT 98.ctb
 75
    16
147
1.0
 76
     0
 77
     2
 78
   300
148
0.0
149
0.0
100
AcDbLayout
  1
レイアウト1
 70
     1
 71
     1
 10
0.0
 20
0.0
 11
420.0
 21
297.0
 12
0.0
 22
0.0
 32
0.0
 14
1.000000000000000E+20
 24
1.000000000000000E+20
 34
1.000000000000000E+20
 15
-1.000000000000000E+20
 25
-1.000000000000000E+20
 35
-1.000000000000000E+20
146
0.0
 13
0.0
 23
0.0
 33
0.0
 16
1.0
 26
0.0
 36
0.0
 17
0.0
 27
1.0
 37
0.0
 76
     0
330
15
  0
MLINESTYLE
  5
1C
102
{ACAD_REACTORS
330
1B
102
}
330
1B
100
AcDbMlineStyle
  2
STANDARD
 70
     0
  3

 62
   256
 51
90.0
 52
90.0
 71
     2
 49
0.5
 62
   256
  6
BYLAYER
 49
-0.5
 62
   256
  6
BYLAYER
  0
ACDBPLACEHOLDER
  5
5E8
102
{ACAD_REACTORS
330
5E7
102
}
330
5E7
  0
ACAD_PROXY_OBJECT
  5
5EC
102
{ACAD_REACTORS
330
5EB
102
}
330
5EB
100
AcDbProxyObject
 90
      499
 91
      503
 95
  2555929
 70
     0
 93
     1849
310
4214DD185B99185C992420000000000000F83F0000000000003E0FC00000000000004901028000000C1008070000C3001FDFF8000000C1003FBFF000000182007F7FE00000030400FEFFC00000060801FDFF8000000C1003FBFF000000182000000000000000C2020B0000001820100E000186003FBFF000000182007F7FE0
310
0000030400FEFFC00000060801FDFF8000000C1003FBFF000000182007F7FE0000003040000000000000012404160000003040201C00030C007F7FE00000030400FEFFC00000060801FDFF8000000C1003FBFF000000182007F7FE00000030400FEFFC000000608000
340
F
340
F
340
F
 94
        0
  0
DICTIONARYVAR
  5
5FC
102
{ACAD_REACTORS
330
5D9
102
}
330
5D9
100
DictionaryVariables
280
     0
  1
STANDARD
  0
DICTIONARYVAR
  5
5DA
102
{ACAD_REACTORS
330
5D9
102
}
330
5D9
100
DictionaryVariables
280
     0
  1
96
  0
ENDSEC
  0
EOF
