  0
SECTION
  2
HEADER
  9
$ACADVER
  1
AC1018
  9
$ACADMAINTVER
 70
     0
  9
$DWGCODEPAGE
  3
ANSI_932
  9
$INSBASE
 10
0.0
 20
0.0
 30
0.0
  9
$EXTMIN
 10
670.7325705221051
 20
269.5814765356427
 30
-0.0000000000000093
  9
$EXTMAX
 10
1049.098225097099
 20
552.9318294178849
 30
0.000000000000006
  9
$LIMMIN
 10
0.0
 20
0.0
  9
$LIMMAX
 10
420.0
 20
297.0
  9
$ORTHOMODE
 70
     0
  9
$REGENMODE
 70
     1
  9
$FILLMODE
 70
     1
  9
$QTEXTMODE
 70
     0
  9
$MIRRTEXT
 70
     1
  9
$LTSCALE
 40
1.0
  9
$ATTMODE
 70
     1
  9
$TEXTSIZE
 40
3.0
  9
$TRACEWID
 40
1.0
  9
$TEXTSTYLE
  7
STYLE3
  9
$CLAYER
  8
寸法線
  9
$CELTYPE
  6
BYLAYER
  9
$CECOLOR
 62
   256
  9
$CELTSCALE
 40
1.0
  9
$DISPSILH
 70
     0
  9
$DIMSCALE
 40
1.0
  9
$DIMASZ
 40
2.5
  9
$DIMEXO
 40
0.0
  9
$DIMDLI
 40
3.75
  9
$DIMRND
 40
0.0
  9
$DIMDLE
 40
0.0
  9
$DIMEXE
 40
1.25
  9
$DIMTP
 40
0.0
  9
$DIMTM
 40
0.0
  9
$DIMTXT
 40
2.5
  9
$DIMCEN
 40
2.5
  9
$DIMTSZ
 40
0.0
  9
$DIMTOL
 70
     0
  9
$DIMLIM
 70
     0
  9
$DIMTIH
 70
     0
  9
$DIMTOH
 70
     0
  9
$DIMSE1
 70
     0
  9
$DIMSE2
 70
     0
  9
$DIMTAD
 70
     1
  9
$DIMZIN
 70
     8
  9
$DIMBLK
  1

  9
$DIMASO
 70
     1
  9
$DIMSHO
 70
     1
  9
$DIMPOST
  1

  9
$DIMAPOST
  1

  9
$DIMALT
 70
     0
  9
$DIMALTD
 70
     4
  9
$DIMALTF
 40
0.0394
  9
$DIMLFAC
 40
1.0
  9
$DIMTOFL
 70
     1
  9
$DIMTVP
 40
0.0
  9
$DIMTIX
 70
     0
  9
$DIMSOXD
 70
     0
  9
$DIMSAH
 70
     1
  9
$DIMBLK1
  1
OPEN
  9
$DIMBLK2
  1
OPEN
  9
$DIMSTYLE
  2
STYLE3
  9
$DIMCLRD
 70
     2
  9
$DIMCLRE
 70
     2
  9
$DIMCLRT
 70
     6
  9
$DIMTFAC
 40
1.0
  9
$DIMGAP
 40
0.625
  9
$DIMJUST
 70
     0
  9
$DIMSD1
 70
     0
  9
$DIMSD2
 70
     0
  9
$DIMTOLJ
 70
     1
  9
$DIMTZIN
 70
     0
  9
$DIMALTZ
 70
     0
  9
$DIMALTTZ
 70
     0
  9
$DIMUPT
 70
     0
  9
$DIMDEC
 70
     2
  9
$DIMTDEC
 70
     4
  9
$DIMALTU
 70
     8
  9
$DIMALTTD
 70
     4
  9
$DIMTXSTY
  7
STYLE3
  9
$DIMAUNIT
 70
     0
  9
$DIMADEC
 70
     0
  9
$DIMALTRND
 40
0.0
  9
$DIMAZIN
 70
     0
  9
$DIMDSEP
 70
    46
  9
$DIMATFIT
 70
     3
  9
$DIMFRAC
 70
     0
  9
$DIMLDRBLK
  1

  9
$DIMLUNIT
 70
     2
  9
$DIMLWD
 70
    -2
  9
$DIMLWE
 70
    -2
  9
$DIMTMOVE
 70
     0
  9
$LUNITS
 70
     2
  9
$LUPREC
 70
     4
  9
$SKETCHINC
 40
1.0
  9
$FILLETRAD
 40
0.0
  9
$AUNITS
 70
     0
  9
$AUPREC
 70
     0
  9
$MENU
  1
.
  9
$ELEVATION
 40
0.0
  9
$PELEVATION
 40
0.0
  9
$THICKNESS
 40
0.0
  9
$LIMCHECK
 70
     0
  9
$CHAMFERA
 40
2.0
  9
$CHAMFERB
 40
2.0
  9
$CHAMFERC
 40
20.0
  9
$CHAMFERD
 40
0.0
  9
$SKPOLY
 70
     0
  9
$TDCREATE
 40
2451401.536131250
  9
$TDUCREATE
 40
2451401.161131250
  9
$TDUPDATE
 40
2455379.467845405
  9
$TDUUPDATE
 40
2455379.092845405
  9
$TDINDWG
 40
0.9906691204
  9
$TDUSRTIMER
 40
0.9906691204
  9
$USRTIMER
 70
     1
  9
$ANGBASE
 50
0.0
  9
$ANGDIR
 70
     0
  9
$PDMODE
 70
     0
  9
$PDSIZE
 40
0.0
  9
$PLINEWID
 40
0.0
  9
$SPLFRAME
 70
     0
  9
$SPLINETYPE
 70
     6
  9
$SPLINESEGS
 70
     8
  9
$HANDSEED
  5
2B2F
  9
$SURFTAB1
 70
     6
  9
$SURFTAB2
 70
     6
  9
$SURFTYPE
 70
     6
  9
$SURFU
 70
     6
  9
$SURFV
 70
     6
  9
$UCSBASE
  2

  9
$UCSNAME
  2

  9
$UCSORG
 10
0.0
 20
0.0
 30
0.0
  9
$UCSXDIR
 10
1.0
 20
0.0
 30
0.0
  9
$UCSYDIR
 10
0.0
 20
1.0
 30
0.0
  9
$UCSORTHOREF
  2

  9
$UCSORTHOVIEW
 70
     0
  9
$UCSORGTOP
 10
0.0
 20
0.0
 30
0.0
  9
$UCSORGBOTTOM
 10
0.0
 20
0.0
 30
0.0
  9
$UCSORGLEFT
 10
0.0
 20
0.0
 30
0.0
  9
$UCSORGRIGHT
 10
0.0
 20
0.0
 30
0.0
  9
$UCSORGFRONT
 10
0.0
 20
0.0
 30
0.0
  9
$UCSORGBACK
 10
0.0
 20
0.0
 30
0.0
  9
$PUCSBASE
  2

  9
$PUCSNAME
  2

  9
$PUCSORG
 10
0.0
 20
0.0
 30
0.0
  9
$PUCSXDIR
 10
1.0
 20
0.0
 30
0.0
  9
$PUCSYDIR
 10
0.0
 20
1.0
 30
0.0
  9
$PUCSORTHOREF
  2

  9
$PUCSORTHOVIEW
 70
     0
  9
$PUCSORGTOP
 10
0.0
 20
0.0
 30
0.0
  9
$PUCSORGBOTTOM
 10
0.0
 20
0.0
 30
0.0
  9
$PUCSORGLEFT
 10
0.0
 20
0.0
 30
0.0
  9
$PUCSORGRIGHT
 10
0.0
 20
0.0
 30
0.0
  9
$PUCSORGFRONT
 10
0.0
 20
0.0
 30
0.0
  9
$PUCSORGBACK
 10
0.0
 20
0.0
 30
0.0
  9
$USERI1
 70
     0
  9
$USERI2
 70
     0
  9
$USERI3
 70
     0
  9
$USERI4
 70
     0
  9
$USERI5
 70
     0
  9
$USERR1
 40
0.0
  9
$USERR2
 40
0.0
  9
$USERR3
 40
0.0
  9
$USERR4
 40
0.0
  9
$USERR5
 40
0.0
  9
$WORLDVIEW
 70
     1
  9
$SHADEDGE
 70
     3
  9
$SHADEDIF
 70
    70
  9
$TILEMODE
 70
     1
  9
$MAXACTVP
 70
    48
  9
$PINSBASE
 10
0.0
 20
0.0
 30
0.0
  9
$PLIMCHECK
 70
     0
  9
$PEXTMIN
 10
-0.2
 20
-0.2
 30
0.0
  9
$PEXTMAX
 10
255.2
 20
195.2
 30
0.0
  9
$PLIMMIN
 10
0.0
 20
0.0
  9
$PLIMMAX
 10
420.0
 20
297.0
  9
$UNITMODE
 70
     0
  9
$VISRETAIN
 70
     1
  9
$PLINEGEN
 70
     0
  9
$PSLTSCALE
 70
     1
  9
$TREEDEPTH
 70
  3020
  9
$CMLSTYLE
  2
STANDARD
  9
$CMLJUST
 70
     0
  9
$CMLSCALE
 40
20.0
  9
$PROXYGRAPHICS
 70
     1
  9
$MEASUREMENT
 70
     1
  9
$CELWEIGHT
370
    -1
  9
$ENDCAPS
280
     0
  9
$JOINSTYLE
280
     0
  9
$LWDISPLAY
290
     0
  9
$INSUNITS
 70
     0
  9
$HYPERLINKBASE
  1

  9
$STYLESHEET
  1
AutoCAD LT 98.ctb
  9
$XEDIT
290
     1
  9
$CEPSNTYPE
380
     0
  9
$PSTYLEMODE
290
     1
  9
$FINGERPRINTGUID
  2
{7902E5EC-8607-4135-8378-023BED74CAFD}
  9
$VERSIONGUID
  2
{FA8C92A3-E535-4DF9-98EB-64A68BD533F1}
  9
$EXTNAMES
290
     1
  9
$PSVPSCALE
 40
0.0
  9
$OLESTARTUP
290
     0
  9
$SORTENTS
280
   127
  9
$INDEXCTL
280
     0
  9
$HIDETEXT
280
     0
  9
$XCLIPFRAME
290
     0
  9
$HALOGAP
280
     0
  9
$OBSCOLOR
 70
   257
  9
$OBSLTYPE
280
     0
  9
$INTERSECTIONDISPLAY
280
     0
  9
$INTERSECTIONCOLOR
 70
   257
  9
$DIMASSOC
280
     1
  9
$PROJECTNAME
  1

  0
ENDSEC
  0
SECTION
  2
CLASSES
  0
CLASS
  1
HATCH
  2
AcDbHatch
  3
ObjectDBX Classes
 90
        0
 91
        8
280
     0
281
     1
  0
CLASS
  1
LWPOLYLINE
  2
AcDbPolyline
  3
ObjectDBX Classes
 90
        0
 91
        4
280
     0
281
     1
  0
CLASS
  1
ACDBDICTIONARYWDFLT
  2
AcDbDictionaryWithDefault
  3
ObjectDBX Classes
 90
        0
 91
        1
280
     0
281
     0
  0
CLASS
  1
TABLESTYLE
  2
AcDbTableStyle
  3
ObjectDBX Classes
 90
     2047
 91
        1
280
     0
281
     0
  0
CLASS
  1
DICTIONARYVAR
  2
AcDbDictionaryVar
  3
ObjectDBX Classes
 90
        0
 91
        1
280
     0
281
     0
  0
CLASS
  1
SORTENTSTABLE
  2
AcDbSortentsTable
  3
ObjectDBX Classes
 90
        0
 91
        1
280
     0
281
     0
  0
ENDSEC
  0
SECTION
  2
TABLES
  0
TABLE
  2
VPORT
  5
8
330
0
100
AcDbSymbolTable
 70
     2
  0
VPORT
  5
2B2E
330
8
100
AcDbSymbolTableRecord
100
AcDbViewportTableRecord
  2
*Active
 70
     0
 10
0.0
 20
0.0
 11
1.0
 21
1.0
 12
859.9153978096021
 22
411.2566529767637
 13
0.0
 23
0.0
 14
10.0
 24
10.0
 15
10.0
 25
10.0
 16
0.0
 26
0.0
 36
1.0
 17
0.0
 27
0.0
 37
0.0
 40
285.5051084174685
 41
1.530456852791878
 42
50.0
 43
0.0
 44
0.0
 50
0.0
 51
0.0
 71
     0
 72
   100
 73
     1
 74
     1
 75
     0
 76
     0
 77
     0
 78
     0
281
     0
 65
     1
110
0.0
120
0.0
130
0.0
111
1.0
121
0.0
131
0.0
112
0.0
122
1.0
132
0.0
 79
     0
146
0.0
  0
ENDTAB
  0
TABLE
  2
LTYPE
  5
5
330
0
100
AcDbSymbolTable
 70
    12
  0
LTYPE
  5
12
330
5
100
AcDbSymbolTableRecord
100
AcDbLinetypeTableRecord
  2
BYBLOCK
 70
     0
  3

 72
    65
 73
     0
 40
0.0
  0
LTYPE
  5
13
330
5
100
AcDbSymbolTableRecord
100
AcDbLinetypeTableRecord
  2
BYLAYER
 70
     0
  3

 72
    65
 73
     0
 40
0.0
  0
LTYPE
  5
14
330
5
100
AcDbSymbolTableRecord
100
AcDbLinetypeTableRecord
  2
CONTINUOUS
 70
     0
  3
Solid line
 72
    65
 73
     0
 40
0.0
  0
LTYPE
  5
22
330
5
100
AcDbSymbolTableRecord
100
AcDbLinetypeTableRecord
  2
CENTER2
 70
     0
  3
Center (.5x) ___ _ ___ _ ___ _ ___ _ ___ _ ___
 72
    65
 73
     4
 40
28.575
 49
19.05
 74
     0
 49
-3.174999999999999
 74
     0
 49
3.174999999999999
 74
     0
 49
-3.174999999999999
 74
     0
  0
LTYPE
  5
23
330
5
100
AcDbSymbolTableRecord
100
AcDbLinetypeTableRecord
  2
HIDDEN2
 70
     0
  3
Hidden (.5x) _ _ _ _ _ _ _ _ _ _ _ _ _ _ _ _ _
 72
    65
 73
     2
 40
4.762499999999999
 49
3.174999999999999
 74
     0
 49
-1.587499999999999
 74
     0
  0
ENDTAB
  0
TABLE
  2
LAYER
  5
2
330
0
100
AcDbSymbolTable
 70
    16
  0
LAYER
  5
E
330
2
100
AcDbSymbolTableRecord
100
AcDbLayerTableRecord
  2
0
 70
     0
 62
     7
  6
CONTINUOUS
370
    -3
390
14EB
  0
LAYER
  5
25
330
2
100
AcDbSymbolTableRecord
100
AcDbLayerTableRecord
  2
外形線
 70
     0
 62
     7
  6
CONTINUOUS
370
    -3
390
14EB
  0
LAYER
  5
26
330
2
100
AcDbSymbolTableRecord
100
AcDbLayerTableRecord
  2
寸法線
 70
     0
 62
     2
  6
CONTINUOUS
370
    -3
390
14EB
  0
LAYER
  5
27
330
2
100
AcDbSymbolTableRecord
100
AcDbLayerTableRecord
  2
中心線
 70
     0
 62
     4
  6
CENTER2
370
    -3
390
14EB
  0
LAYER
  5
2A
330
2
100
AcDbSymbolTableRecord
100
AcDbLayerTableRecord
  2
ﾊｯﾁﾝｸ
 70
     0
 62
     6
  6
CONTINUOUS
370
    -3
390
14EB
  0
LAYER
  5
2B
330
2
100
AcDbSymbolTableRecord
100
AcDbLayerTableRecord
  2
文字
 70
     0
 62
     6
  6
CONTINUOUS
370
    -3
390
14EB
  0
LAYER
  5
53
330
2
100
AcDbSymbolTableRecord
100
AcDbLayerTableRecord
  2
DEFPOINTS
 70
     0
 62
     7
  6
CONTINUOUS
290
     0
370
    -3
390
14EB
  0
LAYER
  5
A5
330
2
100
AcDbSymbolTableRecord
100
AcDbLayerTableRecord
  2
C
 70
     0
 62
     7
  6
CONTINUOUS
370
    -3
390
14EB
  0
LAYER
  5
16A
330
2
100
AcDbSymbolTableRecord
100
AcDbLayerTableRecord
  2
隠れ線2
 70
     0
 62
     1
  6
HIDDEN2
370
    -3
390
14EB
  0
LAYER
  5
2FC
330
2
100
AcDbSymbolTableRecord
100
AcDbLayerTableRecord
  2
ROGO
 70
     0
 62
     6
  6
CONTINUOUS
370
    -3
390
14EB
  0
ENDTAB
  0
TABLE
  2
STYLE
  5
3
330
0
100
AcDbSymbolTable
 70
     8
  0
STYLE
  5
F
330
3
100
AcDbSymbolTableRecord
100
AcDbTextStyleTableRecord
  2
STANDARD
 70
     0
 40
0.0
 41
1.0
 50
0.0
 71
     0
 42
2.5
  3
txt
  4

  0
STYLE
  5
3F
330
3
100
AcDbSymbolTableRecord
100
AcDbTextStyleTableRecord
  2
STYLE3
 70
     0
 40
0.0
 41
1.0
 50
0.0
 71
     0
 42
3.0
  3
romans.shx
  4
bigfont.shx
  0
STYLE
  5
E90
330
3
100
AcDbSymbolTableRecord
100
AcDbTextStyleTableRecord
  2
STYLE4
 70
     0
 40
0.0
 41
1.0
 50
0.0
 71
     0
 42
5.0
  3
romans.shx
  4
bigfont.shx
  0
ENDTAB
  0
TABLE
  2
VIEW
  5
6
330
0
100
AcDbSymbolTable
 70
     0
  0
ENDTAB
  0
TABLE
  2
UCS
  5
7
330
0
100
AcDbSymbolTable
 70
     0
  0
ENDTAB
  0
TABLE
  2
APPID
  5
9
330
0
100
AcDbSymbolTable
 70
     2
  0
APPID
  5
10
330
9
100
AcDbSymbolTableRecord
100
AcDbRegAppTableRecord
  2
ACAD
 70
     0
  0
APPID
  5
15BB
330
9
100
AcDbSymbolTableRecord
100
AcDbRegAppTableRecord
  2
ACAD_PSEXT
 70
     0
  0
ENDTAB
  0
TABLE
  2
DIMSTYLE
  5
A
330
0
100
AcDbSymbolTable
 70
     6
100
AcDbDimStyleTable
 71
     1
340
8F
  0
DIMSTYLE
105
1D
330
A
100
AcDbSymbolTableRecord
100
AcDbDimStyleTableRecord
  2
STANDARD
 70
     0
 41
2.5
 42
0.625
 43
3.75
 44
1.25
 73
     0
 74
     0
 77
     1
 78
     8
140
2.5
141
2.5
143
0.0394
147
0.625
171
     4
172
     1
273
     8
274
     4
277
     6
340
F
  0
DIMSTYLE
105
8F
102
{ACAD_REACTORS
330
21B8
330
21B9
330
21BA
330
21BB
330
21BC
330
21BD
330
1DBD
330
2390
330
2A60
330
2AAF
102
}
330
A
100
AcDbSymbolTableRecord
100
AcDbDimStyleTableRecord
  2
STYLE3
 70
     0
 41
2.5
 42
0.0
 43
3.75
 44
1.25
 73
     0
 74
     0
 77
     1
 78
     8
140
2.5
141
2.5
143
0.0394
147
0.625
171
     4
172
     1
173
     1
176
     2
177
     2
178
     6
271
     1
273
     8
274
     4
340
3F
341
45
343
45
344
45
  0
ENDTAB
  0
TABLE
  2
BLOCK_RECORD
  5
1
330
0
100
AcDbSymbolTable
 70
    15
  0
BLOCK_RECORD
  5
18
102
{ACAD_XDICTIONARY
360
22B4
102
}
330
1
100
AcDbSymbolTableRecord
100
AcDbBlockTableRecord
  2
*MODEL_SPACE
340
14F2
  0
BLOCK_RECORD
  5
15
330
1
100
AcDbSymbolTableRecord
100
AcDbBlockTableRecord
  2
*PAPER_SPACE
340
14F3
  0
BLOCK_RECORD
  5
45
330
1
100
AcDbSymbolTableRecord
100
AcDbBlockTableRecord
  2
_OPEN
340
0
102
{BLKREFS
331
23CB
331
23CC
331
23DC
331
23DD
331
23E5
331
23E6
331
23ED
331
23EE
331
23FF
331
2400
331
240F
331
2410
331
2443
331
2444
331
2A5A
331
2A5B
331
2A97
331
2A98
331
2ACE
331
2ACF
102
}
  0
BLOCK_RECORD
  5
1E2D
330
1
100
AcDbSymbolTableRecord
100
AcDbBlockTableRecord
  2
*D3
340
0
  0
BLOCK_RECORD
  5
2217
330
1
100
AcDbSymbolTableRecord
100
AcDbBlockTableRecord
  2
*D4
340
0
  0
BLOCK_RECORD
  5
2223
330
1
100
AcDbSymbolTableRecord
100
AcDbBlockTableRecord
  2
*D5
340
0
  0
BLOCK_RECORD
  5
222E
330
1
100
AcDbSymbolTableRecord
100
AcDbBlockTableRecord
  2
*D6
340
0
  0
BLOCK_RECORD
  5
223A
330
1
100
AcDbSymbolTableRecord
100
AcDbBlockTableRecord
  2
*D7
340
0
  0
BLOCK_RECORD
  5
2245
330
1
100
AcDbSymbolTableRecord
100
AcDbBlockTableRecord
  2
*D8
340
0
  0
BLOCK_RECORD
  5
2251
330
1
100
AcDbSymbolTableRecord
100
AcDbBlockTableRecord
  2
*D9
340
0
  0
BLOCK_RECORD
  5
2391
330
1
100
AcDbSymbolTableRecord
100
AcDbBlockTableRecord
  2
*D10
340
0
  0
BLOCK_RECORD
  5
2A61
330
1
100
AcDbSymbolTableRecord
100
AcDbBlockTableRecord
  2
*D11
340
0
  0
BLOCK_RECORD
  5
2AB0
330
1
100
AcDbSymbolTableRecord
100
AcDbBlockTableRecord
  2
*D12
340
0
  0
ENDTAB
  0
ENDSEC
  0
SECTION
  2
BLOCKS
  0
BLOCK
  5
19
330
18
100
AcDbEntity
  8
0
100
AcDbBlockBegin
  2
*MODEL_SPACE
 70
     0
 10
0.0
 20
0.0
 30
0.0
  3
*MODEL_SPACE
  1

  0
ENDBLK
  5
1A
330
18
100
AcDbEntity
  8
0
100
AcDbBlockEnd
  0
BLOCK
  5
16
330
15
100
AcDbEntity
 67
     1
  8
0
100
AcDbBlockBegin
  2
*PAPER_SPACE
 70
     0
 10
0.0
 20
0.0
 30
0.0
  3
*PAPER_SPACE
  1

  0
ENDBLK
  5
17
330
15
100
AcDbEntity
 67
     1
  8
0
100
AcDbBlockEnd
  0
BLOCK
  5
46
330
45
100
AcDbEntity
  8
0
100
AcDbBlockBegin
  2
_OPEN
 70
     0
 10
0.0
 20
0.0
 30
0.0
  3
_OPEN
  1

  0
LINE
  5
47
330
45
100
AcDbEntity
  8
0
  6
ByBlock
 62
     0
100
AcDbLine
 10
-1.0
 20
0.1666666666666666
 30
0.0
 11
0.0
 21
0.0
 31
0.0
  0
LINE
  5
48
330
45
100
AcDbEntity
  8
0
  6
ByBlock
 62
     0
100
AcDbLine
 10
0.0
 20
0.0
 30
0.0
 11
-1.0
 21
-0.1666666666666666
 31
0.0
  0
LINE
  5
49
330
45
100
AcDbEntity
  8
0
  6
ByBlock
 62
     0
100
AcDbLine
 10
0.0
 20
0.0
 30
0.0
 11
-1.0
 21
0.0
 31
0.0
  0
ENDBLK
  5
4A
330
45
100
AcDbEntity
  8
0
100
AcDbBlockEnd
  0
BLOCK
  5
1E35
330
1E2D
100
AcDbEntity
  8
0
100
AcDbBlockBegin
  2
*D3
 70
     1
 10
0.0
 20
0.0
 30
0.0
  3
*D3
  1

  0
LINE
  5
23CA
330
1E2D
100
AcDbEntity
  8
寸法線
 62
     2
370
    -2
100
AcDbLine
 10
908.0599249329722
 20
477.3273780213521
 30
0.0
 11
915.0599249329722
 21
477.3273780213521
 31
0.0
  0
INSERT
  5
23CB
330
1E2D
100
AcDbEntity
  8
寸法線
 62
     2
370
    -2
100
AcDbBlockReference
  2
_OPEN
 10
905.5599249329722
 20
477.3273780213521
 30
0.0
 41
2.5
 42
2.5
 43
2.5
 50
180.0
  0
INSERT
  5
23CC
330
1E2D
100
AcDbEntity
  8
寸法線
 62
     2
370
    -2
100
AcDbBlockReference
  2
_OPEN
 10
917.5599249329721
 20
477.3273780213521
 30
0.0
 41
2.5
 42
2.5
 43
2.5
  0
MTEXT
  5
23CD
330
1E2D
100
AcDbEntity
  8
寸法線
 62
     6
100
AcDbMText
 10
910.896322327183
 20
479.202378021352
 30
0.0
 40
2.5
 41
0.0
 71
     5
 72
     1
  1
\A1;%%C12
  7
STYLE3
 73
     1
 44
1.0
  0
POINT
  5
23CE
330
1E2D
100
AcDbEntity
  8
DEFPOINTS
 62
     0
100
AcDbPoint
 10
905.5599249329722
 20
477.3273780213519
 30
0.0
  0
POINT
  5
23CF
330
1E2D
100
AcDbEntity
  8
DEFPOINTS
 62
     0
100
AcDbPoint
 10
917.5599249329721
 20
477.3273780213521
 30
0.0
  0
POINT
  5
23D0
330
1E2D
100
AcDbEntity
  8
DEFPOINTS
 62
     0
100
AcDbPoint
 10
917.5599249329721
 20
477.3273780213521
 30
0.0
  0
ENDBLK
  5
1E36
330
1E2D
100
AcDbEntity
  8
0
100
AcDbBlockEnd
  0
BLOCK
  5
2221
330
2217
100
AcDbEntity
  8
0
100
AcDbBlockBegin
  2
*D4
 70
     1
 10
0.0
 20
0.0
 30
0.0
  3
*D4
  1

  0
LINE
  5
2440
330
2217
100
AcDbEntity
  8
文字
 62
     2
370
    -2
100
AcDbLine
 10
911.559924932972
 20
503.1204716956064
 30
0.0
 11
840.8681532968696
 21
503.1204716956064
 31
0.0
  0
LINE
  5
2441
330
2217
100
AcDbEntity
  8
文字
 62
     2
370
    -2
100
AcDbLine
 10
876.6645144148949
 20
439.1204716956064
 30
0.0
 11
840.8681532968696
 21
439.1204716956064
 31
0.0
  0
LINE
  5
2442
330
2217
100
AcDbEntity
  8
文字
 62
     2
370
    -2
100
AcDbLine
 10
842.1181532968697
 20
500.6204716956065
 30
0.0
 11
842.1181532968697
 21
441.6204716956064
 31
0.0
  0
INSERT
  5
2443
330
2217
100
AcDbEntity
  8
文字
 62
     2
370
    -2
100
AcDbBlockReference
  2
_OPEN
 10
842.1181532968697
 20
503.1204716956064
 30
0.0
 41
2.5
 42
2.5
 43
2.5
 50
90.0
  0
INSERT
  5
2444
330
2217
100
AcDbEntity
  8
文字
 62
     2
370
    -2
100
AcDbBlockReference
  2
_OPEN
 10
842.1181532968697
 20
439.1204716956064
 30
0.0
 41
2.5
 42
2.5
 43
2.5
 50
270.0
  0
MTEXT
  5
2445
330
2217
100
AcDbEntity
  8
文字
 62
     6
100
AcDbMText
 10
840.2431532968694
 20
471.1204716956065
 30
0.0
 40
2.5
 41
0.0
 71
     5
 72
     1
  1
\A1;64
  7
STYLE3
 11
0.0000000000000001
 21
1.0
 31
0.0
 73
     1
 44
1.0
  0
POINT
  5
2446
330
2217
100
AcDbEntity
  8
DEFPOINTS
 62
     0
100
AcDbPoint
 10
911.559924932972
 20
503.1204716956064
 30
0.0
  0
POINT
  5
2447
330
2217
100
AcDbEntity
  8
DEFPOINTS
 62
     0
100
AcDbPoint
 10
876.6645144148949
 20
439.1204716956064
 30
0.0
  0
POINT
  5
2448
330
2217
100
AcDbEntity
  8
DEFPOINTS
 62
     0
100
AcDbPoint
 10
842.1181532968697
 20
439.1204716956064
 30
0.0
  0
ENDBLK
  5
2222
330
2217
100
AcDbEntity
  8
0
100
AcDbBlockEnd
  0
BLOCK
  5
222C
330
2223
100
AcDbEntity
  8
0
100
AcDbBlockBegin
  2
*D5
 70
     1
 10
0.0
 20
0.0
 30
0.0
  3
*D5
  1

  0
LINE
  5
23DA
330
2223
100
AcDbEntity
  8
文字
 62
     2
370
    -2
100
AcDbLine
 10
851.5599249329721
 20
356.7204716956065
 30
0.0
 11
840.8681532968694
 21
356.7204716956065
 31
0.0
  0
LINE
  5
23DB
330
2223
100
AcDbEntity
  8
文字
 62
     2
370
    -2
100
AcDbLine
 10
842.1181532968693
 20
436.6204716956064
 30
0.0
 11
842.1181532968693
 21
359.2204716956065
 31
0.0
  0
INSERT
  5
23DC
330
2223
100
AcDbEntity
  8
文字
 62
     2
370
    -2
100
AcDbBlockReference
  2
_OPEN
 10
842.1181532968693
 20
439.1204716956064
 30
0.0
 41
2.5
 42
2.5
 43
2.5
 50
90.0
  0
INSERT
  5
23DD
330
2223
100
AcDbEntity
  8
文字
 62
     2
370
    -2
100
AcDbBlockReference
  2
_OPEN
 10
842.1181532968693
 20
356.7204716956065
 30
0.0
 41
2.5
 42
2.5
 43
2.5
 50
270.0
  0
MTEXT
  5
23DE
330
2223
100
AcDbEntity
  8
文字
 62
     6
100
AcDbMText
 10
840.2431532968693
 20
397.9204716956066
 30
0.0
 40
2.5
 41
0.0
 71
     5
 72
     1
  1
\A1;82.4
  7
STYLE3
 11
0.0000000000000001
 21
1.0
 31
0.0
 73
     1
 44
1.0
  0
POINT
  5
23DF
330
2223
100
AcDbEntity
  8
DEFPOINTS
 62
     0
100
AcDbPoint
 10
874.1993930648387
 20
439.1204716956064
 30
0.0
  0
POINT
  5
23E0
330
2223
100
AcDbEntity
  8
DEFPOINTS
 62
     0
100
AcDbPoint
 10
851.5599249329721
 20
356.7204716956065
 30
0.0
  0
POINT
  5
23E1
330
2223
100
AcDbEntity
  8
DEFPOINTS
 62
     0
100
AcDbPoint
 10
842.1181532968693
 20
356.7204716956065
 30
0.0
  0
ENDBLK
  5
222D
330
2223
100
AcDbEntity
  8
0
100
AcDbBlockEnd
  0
BLOCK
  5
2238
330
222E
100
AcDbEntity
  8
0
100
AcDbBlockBegin
  2
*D6
 70
     1
 10
0.0
 20
0.0
 30
0.0
  3
*D6
  1

  0
LINE
  5
23E2
330
222E
100
AcDbEntity
  8
文字
 62
     2
370
    -2
100
AcDbLine
 10
845.4078008739589
 20
503.1204716956064
 30
0.0
 11
828.9996769974477
 21
503.1204716956064
 31
0.0
  0
LINE
  5
23E3
330
222E
100
AcDbEntity
  8
文字
 62
     2
370
    -2
100
AcDbLine
 10
845.4078008739589
 20
356.7204716956065
 30
0.0
 11
828.9996769974477
 21
356.7204716956065
 31
0.0
  0
LINE
  5
23E4
330
222E
100
AcDbEntity
  8
文字
 62
     2
370
    -2
100
AcDbLine
 10
830.2496769974478
 20
500.6204716956065
 30
0.0
 11
830.2496769974478
 21
359.2204716956065
 31
0.0
  0
INSERT
  5
23E5
330
222E
100
AcDbEntity
  8
文字
 62
     2
370
    -2
100
AcDbBlockReference
  2
_OPEN
 10
830.2496769974478
 20
503.1204716956064
 30
0.0
 41
2.5
 42
2.5
 43
2.5
 50
90.0
  0
INSERT
  5
23E6
330
222E
100
AcDbEntity
  8
文字
 62
     2
370
    -2
100
AcDbBlockReference
  2
_OPEN
 10
830.2496769974478
 20
356.7204716956065
 30
0.0
 41
2.5
 42
2.5
 43
2.5
 50
270.0
  0
MTEXT
  5
23E7
330
222E
100
AcDbEntity
  8
文字
 62
     6
100
AcDbMText
 10
828.3746769974476
 20
429.9204716956066
 30
0.0
 40
2.5
 41
0.0
 71
     5
 72
     1
  1
\A1;146.4
  7
STYLE3
 11
0.0000000000000001
 21
1.0
 31
0.0
 73
     1
 44
1.0
  0
POINT
  5
23E8
330
222E
100
AcDbEntity
  8
DEFPOINTS
 62
     0
100
AcDbPoint
 10
845.4078008739589
 20
503.1204716956064
 30
0.0
  0
POINT
  5
23E9
330
222E
100
AcDbEntity
  8
DEFPOINTS
 62
     0
100
AcDbPoint
 10
845.4078008739589
 20
356.7204716956065
 30
0.0
  0
POINT
  5
23EA
330
222E
100
AcDbEntity
  8
DEFPOINTS
 62
     0
100
AcDbPoint
 10
830.2496769974478
 20
356.7204716956065
 30
0.0
  0
ENDBLK
  5
2239
330
222E
100
AcDbEntity
  8
0
100
AcDbBlockEnd
  0
BLOCK
  5
2243
330
223A
100
AcDbEntity
  8
0
100
AcDbBlockBegin
  2
*D7
 70
     1
 10
0.0
 20
0.0
 30
0.0
  3
*D7
  1

  0
LINE
  5
23EB
330
223A
100
AcDbEntity
  8
文字
 62
     2
370
    -2
100
AcDbLine
 10
911.099924932972
 20
336.6204716956065
 30
0.0
 11
828.9996769974477
 21
336.6204716956066
 31
0.0
  0
LINE
  5
23EC
330
223A
100
AcDbEntity
  8
文字
 62
     2
370
    -2
100
AcDbLine
 10
830.2496769974478
 20
354.2204716956065
 30
0.0
 11
830.2496769974478
 21
339.1204716956066
 31
0.0
  0
INSERT
  5
23ED
330
223A
100
AcDbEntity
  8
文字
 62
     2
370
    -2
100
AcDbBlockReference
  2
_OPEN
 10
830.2496769974478
 20
356.7204716956065
 30
0.0
 41
2.5
 42
2.5
 43
2.5
 50
90.0
  0
INSERT
  5
23EE
330
223A
100
AcDbEntity
  8
文字
 62
     2
370
    -2
100
AcDbBlockReference
  2
_OPEN
 10
830.2496769974478
 20
336.6204716956066
 30
0.0
 41
2.5
 42
2.5
 43
2.5
 50
270.0
  0
MTEXT
  5
23EF
330
223A
100
AcDbEntity
  8
文字
 62
     6
100
AcDbMText
 10
828.3746769974476
 20
346.6704716956066
 30
0.0
 40
2.5
 41
0.0
 71
     5
 72
     1
  1
\A1;20～160
  7
STYLE3
 11
0.0000000000000001
 21
1.0
 31
0.0
 73
     1
 44
1.0
  0
POINT
  5
23F0
330
223A
100
AcDbEntity
  8
DEFPOINTS
 62
     0
100
AcDbPoint
 10
845.4078008739589
 20
356.7204716956065
 30
0.0
  0
POINT
  5
23F1
330
223A
100
AcDbEntity
  8
DEFPOINTS
 62
     0
100
AcDbPoint
 10
911.099924932972
 20
336.6204716956065
 30
0.0
  0
POINT
  5
23F2
330
223A
100
AcDbEntity
  8
DEFPOINTS
 62
     0
100
AcDbPoint
 10
830.2496769974478
 20
336.6204716956066
 30
0.0
  0
ENDBLK
  5
2244
330
223A
100
AcDbEntity
  8
0
100
AcDbBlockEnd
  0
BLOCK
  5
224F
330
2245
100
AcDbEntity
  8
0
100
AcDbBlockBegin
  2
*D8
 70
     1
 10
0.0
 20
0.0
 30
0.0
  3
*D8
  1

  0
LINE
  5
2A57
330
2245
100
AcDbEntity
  8
文字
 62
     2
370
    -2
100
AcDbLine
 10
851.5599249329721
 20
356.7204716956065
 30
0.0
 11
851.5599249329721
 21
319.5715340719744
 31
0.0
  0
LINE
  5
2A58
330
2245
100
AcDbEntity
  8
文字
 62
     2
370
    -2
100
AcDbLine
 10
971.5599249329722
 20
356.7204716956065
 30
0.0
 11
971.5599249329722
 21
319.5715340719744
 31
0.0
  0
LINE
  5
2A59
330
2245
100
AcDbEntity
  8
文字
 62
     2
370
    -2
100
AcDbLine
 10
854.0599249329721
 20
320.8215340719744
 30
0.0
 11
969.0599249329721
 21
320.8215340719744
 31
0.0
  0
INSERT
  5
2A5A
330
2245
100
AcDbEntity
  8
文字
 62
     2
370
    -2
100
AcDbBlockReference
  2
_OPEN
 10
851.5599249329721
 20
320.8215340719744
 30
0.0
 41
2.5
 42
2.5
 43
2.5
 50
180.0
  0
INSERT
  5
2A5B
330
2245
100
AcDbEntity
  8
文字
 62
     2
370
    -2
100
AcDbBlockReference
  2
_OPEN
 10
971.5599249329722
 20
320.8215340719744
 30
0.0
 41
2.5
 42
2.5
 43
2.5
  0
MTEXT
  5
2A5C
330
2245
100
AcDbEntity
  8
文字
 62
     6
100
AcDbMText
 10
911.5599249329722
 20
322.6965340719744
 30
0.0
 40
2.5
 41
0.0
 71
     5
 72
     1
  1
\A1;120
  7
STYLE3
 73
     1
 44
1.0
  0
POINT
  5
2A5D
330
2245
100
AcDbEntity
  8
DEFPOINTS
 62
     0
100
AcDbPoint
 10
851.5599249329721
 20
356.7204716956065
 30
0.0
  0
POINT
  5
2A5E
330
2245
100
AcDbEntity
  8
DEFPOINTS
 62
     0
100
AcDbPoint
 10
971.5599249329722
 20
356.7204716956065
 30
0.0
  0
POINT
  5
2A5F
330
2245
100
AcDbEntity
  8
DEFPOINTS
 62
     0
100
AcDbPoint
 10
971.5599249329722
 20
320.8215340719744
 30
0.0
  0
ENDBLK
  5
2250
330
2245
100
AcDbEntity
  8
0
100
AcDbBlockEnd
  0
BLOCK
  5
225B
330
2251
100
AcDbEntity
  8
0
100
AcDbBlockBegin
  2
*D9
 70
     1
 10
0.0
 20
0.0
 30
0.0
  3
*D9
  1

  0
LINE
  5
240C
330
2251
100
AcDbEntity
  8
文字
 62
     2
370
    -2
100
AcDbLine
 10
732.3280217779885
 20
356.7204716956065
 30
0.0
 11
732.3280217779885
 21
323.717077097149
 31
0.0
  0
LINE
  5
240D
330
2251
100
AcDbEntity
  8
文字
 62
     2
370
    -2
100
AcDbLine
 10
746.3280217779884
 20
356.7204716956065
 30
0.0
 11
746.3280217779884
 21
323.717077097149
 31
0.0
  0
LINE
  5
240E
330
2251
100
AcDbEntity
  8
文字
 62
     2
370
    -2
100
AcDbLine
 10
734.8280217779885
 20
324.9670770971491
 30
0.0
 11
743.8280217779885
 21
324.9670770971491
 31
0.0
  0
INSERT
  5
240F
330
2251
100
AcDbEntity
  8
文字
 62
     2
370
    -2
100
AcDbBlockReference
  2
_OPEN
 10
732.3280217779885
 20
324.9670770971491
 30
0.0
 41
2.5
 42
2.5
 43
2.5
 50
180.0
  0
INSERT
  5
2410
330
2251
100
AcDbEntity
  8
文字
 62
     2
370
    -2
100
AcDbBlockReference
  2
_OPEN
 10
746.3280217779884
 20
324.9670770971491
 30
0.0
 41
2.5
 42
2.5
 43
2.5
  0
MTEXT
  5
2411
330
2251
100
AcDbEntity
  8
文字
 62
     6
100
AcDbMText
 10
739.3280217779885
 20
326.842077097149
 30
0.0
 40
2.5
 41
0.0
 71
     5
 72
     1
  1
\A1;14
  7
STYLE3
 73
     1
 44
1.0
  0
POINT
  5
2412
330
2251
100
AcDbEntity
  8
DEFPOINTS
 62
     0
100
AcDbPoint
 10
732.3280217779885
 20
356.7204716956065
 30
0.0
  0
POINT
  5
2413
330
2251
100
AcDbEntity
  8
DEFPOINTS
 62
     0
100
AcDbPoint
 10
746.3280217779884
 20
356.7204716956065
 30
0.0
  0
POINT
  5
2414
330
2251
100
AcDbEntity
  8
DEFPOINTS
 62
     0
100
AcDbPoint
 10
746.3280217779884
 20
324.9670770971491
 30
0.0
  0
ENDBLK
  5
225C
330
2251
100
AcDbEntity
  8
0
100
AcDbBlockEnd
  0
BLOCK
  5
239B
330
2391
100
AcDbEntity
  8
0
100
AcDbBlockBegin
  2
*D10
 70
     1
 10
0.0
 20
0.0
 30
0.0
  3
*D10
  1

  0
LINE
  5
23FC
330
2391
100
AcDbEntity
  8
外形線
 62
     2
370
    -2
100
AcDbLine
 10
906.5599249329721
 20
500.1204716956065
 30
0.0
 11
906.5599249329721
 21
511.0885656046471
 31
0.0
  0
LINE
  5
23FD
330
2391
100
AcDbEntity
  8
外形線
 62
     2
370
    -2
100
AcDbLine
 10
916.5599249329723
 20
500.1085280541162
 30
0.0
 11
916.5599249329723
 21
511.0885656046471
 31
0.0
  0
LINE
  5
23FE
330
2391
100
AcDbEntity
  8
外形線
 62
     2
370
    -2
100
AcDbLine
 10
909.0599249329722
 20
509.838565604647
 30
0.0
 11
914.0599249329723
 21
509.838565604647
 31
0.0
  0
INSERT
  5
23FF
330
2391
100
AcDbEntity
  8
外形線
 62
     2
370
    -2
100
AcDbBlockReference
  2
_OPEN
 10
906.5599249329721
 20
509.838565604647
 30
0.0
 41
2.5
 42
2.5
 43
2.5
 50
180.0
  0
INSERT
  5
2400
330
2391
100
AcDbEntity
  8
外形線
 62
     2
370
    -2
100
AcDbBlockReference
  2
_OPEN
 10
916.5599249329723
 20
509.838565604647
 30
0.0
 41
2.5
 42
2.5
 43
2.5
  0
MTEXT
  5
2401
330
2391
100
AcDbEntity
  8
外形線
 62
     6
100
AcDbMText
 10
911.5599249329722
 20
511.713565604647
 30
0.0
 40
2.5
 41
0.0
 71
     5
 72
     1
  1
\A1;%%C10
  7
STYLE3
 73
     1
 44
1.0
  0
POINT
  5
2402
330
2391
100
AcDbEntity
  8
DEFPOINTS
 62
     0
100
AcDbPoint
 10
906.5599249329721
 20
500.1204716956065
 30
0.0
  0
POINT
  5
2403
330
2391
100
AcDbEntity
  8
DEFPOINTS
 62
     0
100
AcDbPoint
 10
916.5599249329723
 20
500.1085280541162
 30
0.0
  0
POINT
  5
2404
330
2391
100
AcDbEntity
  8
DEFPOINTS
 62
     0
100
AcDbPoint
 10
916.5599249329723
 20
509.838565604647
 30
0.0
  0
ENDBLK
  5
239C
330
2391
100
AcDbEntity
  8
0
100
AcDbBlockEnd
  0
BLOCK
  5
2A6D
330
2A61
100
AcDbEntity
  8
0
100
AcDbBlockBegin
  2
*D11
 70
     1
 10
0.0
 20
0.0
 30
0.0
  3
*D11
  1

  0
LINE
  5
2A92
330
2A61
100
AcDbEntity
  8
寸法線
 62
     2
370
    -2
100
AcDbLine
 10
911.099924932972
 20
336.6204716956065
 30
0.0
 11
912.8930193510663
 21
329.9285522245108
 31
0.0
  0
LINE
  5
2A93
330
2A61
100
AcDbEntity
  8
寸法線
 62
     2
370
    -2
100
AcDbLine
 10
912.0201156278097
 20
336.6209484327005
 30
0.0
 11
913.8133377872232
 21
329.9285522245108
 31
0.0
  0
LINE
  5
2A94
330
2A61
100
AcDbEntity
  8
寸法線
 62
     2
370
    -2
100
AcDbLine
 10
910.0580828605274
 20
331.1785522245108
 30
0.0
 11
907.5580828605273
 21
331.1785522245108
 31
0.0
  0
LINE
  5
2A95
330
2A61
100
AcDbEntity
  8
寸法線
 62
     2
370
    -2
100
AcDbLine
 10
915.9784012966843
 20
331.1785522245108
 30
0.0
 11
922.9426870109701
 21
331.1785522245108
 31
0.0
  0
LINE
  5
2A96
330
2A61
100
AcDbEntity
  8
寸法線
 62
     2
370
    -2
100
AcDbLine
 10
912.5580828605274
 20
331.1785522245108
 30
0.0
 11
913.4784012966845
 21
331.1785522245108
 31
0.0
  0
INSERT
  5
2A97
330
2A61
100
AcDbEntity
  8
寸法線
 62
     2
370
    -2
100
AcDbBlockReference
  2
_OPEN
 10
912.5580828605274
 20
331.1785522245108
 30
0.0
 41
2.5
 42
2.5
 43
2.5
  0
INSERT
  5
2A98
330
2A61
100
AcDbEntity
  8
寸法線
 62
     2
370
    -2
100
AcDbBlockReference
  2
_OPEN
 10
913.4784012966845
 20
331.1785522245108
 30
0.0
 41
2.5
 42
2.5
 43
2.5
 50
180.0
  0
MTEXT
  5
2A99
330
2A61
100
AcDbEntity
  8
寸法線
 62
     6
100
AcDbMText
 10
920.7105441538272
 20
333.0535522245108
 30
0.0
 40
2.5
 41
0.0
 71
     5
 72
     1
  1
\A1;%%C1
  7
STYLE3
 73
     1
 44
1.0
  0
POINT
  5
2A9A
330
2A61
100
AcDbEntity
  8
DEFPOINTS
 62
     0
100
AcDbPoint
 10
911.099924932972
 20
336.6204716956065
 30
0.0
  0
POINT
  5
2A9B
330
2A61
100
AcDbEntity
  8
DEFPOINTS
 62
     0
100
AcDbPoint
 10
912.0201156278097
 20
336.6209484327005
 30
0.0
  0
POINT
  5
2A9C
330
2A61
100
AcDbEntity
  8
DEFPOINTS
 62
     0
100
AcDbPoint
 10
913.4784012966845
 20
331.1785522245108
 30
0.0
  0
ENDBLK
  5
2A6E
330
2A61
100
AcDbEntity
  8
0
100
AcDbBlockEnd
  0
BLOCK
  5
2ABC
330
2AB0
100
AcDbEntity
  8
0
100
AcDbBlockBegin
  2
*D12
 70
     1
 10
0.0
 20
0.0
 30
0.0
  3
*D12
  1

  0
LINE
  5
2AC9
330
2AB0
100
AcDbEntity
  8
寸法線
 62
     2
370
    -2
100
AcDbLine
 10
909.059924932972
 20
345.8997515948505
 30
0.0
 11
909.059924932972
 21
347.4193120481271
 31
0.0
  0
LINE
  5
2ACA
330
2AB0
100
AcDbEntity
  8
寸法線
 62
     2
370
    -2
100
AcDbLine
 10
914.0599249329723
 20
345.8997515948505
 30
0.0
 11
914.0599249329723
 21
347.4193120481271
 31
0.0
  0
LINE
  5
2ACB
330
2AB0
100
AcDbEntity
  8
寸法線
 62
     2
370
    -2
100
AcDbLine
 10
916.5599249329721
 20
346.1693120481271
 30
0.0
 11
919.0599249329721
 21
346.1693120481271
 31
0.0
  0
LINE
  5
2ACC
330
2AB0
100
AcDbEntity
  8
寸法線
 62
     2
370
    -2
100
AcDbLine
 10
906.559924932972
 20
346.1693120481271
 30
0.0
 11
898.8813535044005
 21
346.1693120481271
 31
0.0
  0
LINE
  5
2ACD
330
2AB0
100
AcDbEntity
  8
寸法線
 62
     2
370
    -2
100
AcDbLine
 10
914.0599249329723
 20
346.1693120481271
 30
0.0
 11
909.059924932972
 21
346.1693120481271
 31
0.0
  0
INSERT
  5
2ACE
330
2AB0
100
AcDbEntity
  8
寸法線
 62
     2
370
    -2
100
AcDbBlockReference
  2
_OPEN
 10
914.0599249329723
 20
346.1693120481271
 30
0.0
 41
2.5
 42
2.5
 43
2.5
 50
180.0
  0
INSERT
  5
2ACF
330
2AB0
100
AcDbEntity
  8
寸法線
 62
     2
370
    -2
100
AcDbBlockReference
  2
_OPEN
 10
909.059924932972
 20
346.1693120481271
 30
0.0
 41
2.5
 42
2.5
 43
2.5
  0
MTEXT
  5
2AD0
330
2AB0
100
AcDbEntity
  8
寸法線
 62
     6
100
AcDbMText
 10
901.4706392186864
 20
348.0443120481271
 30
0.0
 40
2.5
 41
0.0
 71
     5
 72
     1
  1
\A1;%%C5
  7
STYLE3
 73
     1
 44
1.0
  0
POINT
  5
2AD1
330
2AB0
100
AcDbEntity
  8
DEFPOINTS
 62
     0
100
AcDbPoint
 10
909.059924932972
 20
345.8997515948505
 30
0.0
  0
POINT
  5
2AD2
330
2AB0
100
AcDbEntity
  8
DEFPOINTS
 62
     0
100
AcDbPoint
 10
914.0599249329723
 20
345.8997515948505
 30
0.0
  0
POINT
  5
2AD3
330
2AB0
100
AcDbEntity
  8
DEFPOINTS
 62
     0
100
AcDbPoint
 10
914.0599249329723
 20
346.1693120481271
 30
0.0
  0
ENDBLK
  5
2ABD
330
2AB0
100
AcDbEntity
  8
0
100
AcDbBlockEnd
  0
ENDSEC
  0
SECTION
  2
ENTITIES
  0
LINE
  5
1CE4
330
18
100
AcDbEntity
  8
中心線
100
AcDbLine
 10
875.640962980918
 20
439.1204716956064
 30
0.0
 11
945.9208424703337
 21
439.1204716956064
 31
0.0
  0
LINE
  5
1CE5
330
18
100
AcDbEntity
  8
中心線
100
AcDbLine
 10
911.5599249329722
 20
505.2912106802743
 30
0.0
 11
911.5599249329722
 21
345.3931768473403
 31
0.0
  0
CIRCLE
  5
1CE6
330
18
100
AcDbEntity
  8
外形線
100
AcDbCircle
 10
911.5599249329722
 20
439.1204716956064
 30
0.0
 40
30.0
  0
LINE
  5
1CF9
330
18
100
AcDbEntity
  8
外形線
100
AcDbLine
 10
915.5599249329721
 20
404.0204716956065
 30
0.0
 11
915.5599249329721
 21
399.7204716956066
 31
0.0
  0
LINE
  5
1CFA
330
18
100
AcDbEntity
  8
外形線
100
AcDbLine
 10
907.5599249329721
 20
404.0204716956065
 30
0.0
 11
907.5599249329721
 21
400.7348499732679
 31
0.0
  0
LINE
  5
1CFB
330
18
100
AcDbEntity
  8
外形線
100
AcDbLine
 10
933.5599249329721
 20
449.1204716956064
 30
0.0
 11
933.5599249329721
 21
429.1204716956064
 31
0.0
  0
LINE
  5
1CFC
330
18
100
AcDbEntity
  8
外形線
100
AcDbLine
 10
889.5599249329722
 20
449.1204716956064
 30
0.0
 11
889.559924932972
 21
429.1204716956064
 31
0.0
  0
ARC
  5
1CFD
330
18
100
AcDbEntity
  8
外形線
100
AcDbCircle
 10
932.0599249329722
 20
429.1204716956064
 30
0.0
 40
1.5
100
AcDbArc
 50
270.0
 51
0.0
  0
LINE
  5
1CFE
330
18
100
AcDbEntity
  8
隠れ線2
100
AcDbLine
 10
915.3099249329722
 20
385.0204716956065
 30
0.0
 11
915.309924932972
 21
387.8204716956065
 31
0.0
  0
LINE
  5
1CFF
330
18
100
AcDbEntity
  8
隠れ線2
100
AcDbLine
 10
907.8099249329723
 20
385.0204716956064
 30
0.0
 11
907.8099249329723
 21
387.8204716956065
 31
0.0
  0
LINE
  5
1D00
330
18
100
AcDbEntity
  8
隠れ線2
100
AcDbLine
 10
907.8099249329723
 20
383.5204716956066
 30
0.0
 11
915.3099249329722
 21
383.5204716956066
 31
0.0
  0
LINE
  5
1D01
330
18
100
AcDbEntity
  8
隠れ線2
100
AcDbLine
 10
907.8099249329723
 20
385.0204716956064
 30
0.0
 11
915.3099249329722
 21
385.0204716956065
 31
0.0
  0
LINE
  5
1D02
330
18
100
AcDbEntity
  8
隠れ線2
100
AcDbLine
 10
907.8099249329723
 20
383.0204716956065
 30
0.0
 11
915.3099249329722
 21
383.0204716956065
 31
0.0
  0
LINE
  5
1D03
330
18
100
AcDbEntity
  8
隠れ線2
100
AcDbLine
 10
907.8099249329723
 20
383.5204716956066
 30
0.0
 11
907.8099249329723
 21
383.0204716956065
 31
0.0
  0
LINE
  5
1D04
330
18
100
AcDbEntity
  8
隠れ線2
100
AcDbLine
 10
908.5599249329721
 20
385.0204716956065
 30
0.0
 11
908.5599249329721
 21
383.5204716956066
 31
0.0
  0
LINE
  5
1D05
330
18
100
AcDbEntity
  8
隠れ線2
100
AcDbLine
 10
915.3099249329722
 20
383.5204716956066
 30
0.0
 11
915.3099249329722
 21
383.0204716956065
 31
0.0
  0
LINE
  5
1D06
330
18
100
AcDbEntity
  8
隠れ線2
100
AcDbLine
 10
914.5599249329722
 20
385.0204716956065
 30
0.0
 11
914.5599249329722
 21
383.5204716956066
 31
0.0
  0
TEXT
  5
1D07
330
18
100
AcDbEntity
  8
寸法線
100
AcDbText
 10
901.6185927926398
 20
424.2309642927593
 30
0.0
 40
1.199999999999999
  1
MODE
  7
STYLE4
100
AcDbText
  0
LINE
  5
1D08
330
18
100
AcDbEntity
  8
外形線
100
AcDbLine
 10
891.059924932972
 20
427.6204716956065
 30
0.0
 11
932.0599249329722
 21
427.6204716956065
 31
0.0
  0
LINE
  5
1D09
330
18
100
AcDbEntity
  8
隠れ線2
100
AcDbLine
 10
907.5599249329721
 20
387.8204716956065
 30
0.0
 11
915.5599249329721
 21
387.8204716956065
 31
0.0
  0
LINE
  5
1D0A
330
18
100
AcDbEntity
  8
外形線
100
AcDbLine
 10
906.5599249329721
 20
404.0204716956064
 30
0.0
 11
916.5599249329721
 21
404.0204716956065
 31
0.0
  0
POINT
  5
1D0B
330
18
100
AcDbEntity
  8
DEFPOINTS
  6
ByBlock
 62
     0
100
AcDbPoint
 10
905.5599249329722
 20
408.1204716956064
 30
0.0
  0
LINE
  5
1D0C
330
18
100
AcDbEntity
  8
外形線
100
AcDbLine
 10
905.5599249329722
 20
409.7265947822083
 30
0.0
 11
905.5599249329722
 21
406.0204716956063
 31
0.0
  0
ARC
  5
1D0D
330
18
100
AcDbEntity
  8
外形線
100
AcDbCircle
 10
891.059924932972
 20
429.1204716956064
 30
0.0
 40
1.5
100
AcDbArc
 50
180.0
 51
270.0
  0
LINE
  5
1D0E
330
18
100
AcDbEntity
  8
外形線
100
AcDbLine
 10
917.5599249329721
 20
409.7265947822083
 30
0.0
 11
917.5599249329721
 21
406.0204716956065
 31
0.0
  0
TEXT
  5
1D0F
330
18
100
AcDbEntity
  8
寸法線
100
AcDbText
 10
915.8242803528269
 20
424.2309642927593
 30
0.0
 40
1.199999999999999
  1
ON/OFF
  7
STYLE4
100
AcDbText
  0
LINE
  5
1D10
330
18
100
AcDbEntity
  8
外形線
100
AcDbLine
 10
882.5599249329721
 20
439.1204716956064
 30
0.0
 11
889.5599249329722
 21
439.1204716956064
 31
0.0
  0
ARC
  5
1D11
330
18
100
AcDbEntity
  8
外形線
100
AcDbCircle
 10
911.5599249329722
 20
439.1204716956064
 30
0.0
 40
29.0
100
AcDbArc
 50
0.0
 51
180.0
  0
ARC
  5
1D12
330
18
100
AcDbEntity
  8
外形線
100
AcDbCircle
 10
932.0599249329722
 20
449.1204716956064
 30
0.0
 40
1.5
100
AcDbArc
 50
0.0
 51
90.0
  0
LINE
  5
1D13
330
18
100
AcDbEntity
  8
外形線
100
AcDbLine
 10
917.5599249329721
 20
485.1204716956065
 30
0.0
 11
917.5599249329721
 21
469.5342843470974
 31
0.0
  0
LINE
  5
1D14
330
18
100
AcDbEntity
  8
外形線
100
AcDbLine
 10
905.5599249329722
 20
485.1204716956063
 30
0.0
 11
905.5599249329722
 21
469.5342843470974
 31
0.0
  0
LINE
  5
1D15
102
{ACAD_REACTORS
330
1D19
102
}
330
18
100
AcDbEntity
  8
ROGO
 62
     4
100
AcDbLine
 10
906.7715233239681
 20
455.8766312415484
 30
0.0
 11
907.9716918668198
 21
455.8766312415484
 31
0.0
  0
LINE
  5
1D16
102
{ACAD_REACTORS
330
1D19
102
}
330
18
100
AcDbEntity
  8
ROGO
 62
     4
100
AcDbLine
 10
906.6219049504413
 20
455.5742440431687
 30
0.0
 11
907.8220734932928
 21
455.5742440431687
 31
0.0
  0
LINE
  5
1D17
102
{ACAD_REACTORS
330
1D19
102
}
330
18
100
AcDbEntity
  8
ROGO
 62
     4
100
AcDbLine
 10
906.4684853246392
 20
455.2641742988643
 30
0.0
 11
907.6686538674909
 21
455.2641742988645
 31
0.0
  0
LINE
  5
1D18
102
{ACAD_REACTORS
330
1D19
102
}
330
18
100
AcDbEntity
  8
ROGO
 62
     4
100
AcDbLine
 10
905.8795146418564
 20
456.2633770952954
 30
0.0
 11
908.1630501184786
 21
456.2633770952955
 31
0.0
  0
HATCH
  5
1D19
330
18
100
AcDbEntity
  8
ROGO
 62
     4
100
AcDbHatch
 10
0.0
 20
0.0
 30
0.0
210
0.0
220
0.0
230
1.0
  2
SOLID
 70
     1
 71
     1
 91
        1
 92
        1
 93
       12
 72
     1
 10
905.8795146418564
 20
456.2633770952954
 11
908.1630501184786
 21
456.2633770952955
 72
     1
 10
908.1630501184786
 20
456.2633770952954
 11
907.9716918668198
 21
455.8766312415484
 72
     1
 10
907.9716918668198
 20
455.8766312415484
 11
906.7715233239681
 21
455.8766312415484
 72
     1
 10
906.7715233239681
 20
455.8766312415484
 11
906.6219049504413
 21
455.5742440431687
 72
     1
 10
906.6219049504413
 20
455.5742440431687
 11
907.8220734932928
 21
455.5742440431687
 72
     1
 10
907.8220734932928
 20
455.5742440431687
 11
907.6686538674909
 21
455.2641742988643
 72
     1
 10
907.6686538674909
 20
455.2641742988645
 11
906.4684853246392
 21
455.2641742988643
 72
     1
 10
906.4684853246392
 20
455.2641742988643
 11
906.3188606169896
 21
454.9617742988643
 72
     1
 10
906.3188606169896
 20
454.9617742988643
 11
907.5190291598412
 21
454.9617742988643
 72
     1
 10
907.5190291598412
 20
454.9617742988643
 11
907.3276805337156
 21
454.5750478988644
 72
     1
 10
907.3276805337156
 20
454.5750478988644
 11
905.0441450570934
 21
454.5750478988644
 72
     1
 10
905.0441450570934
 20
454.5750478988644
 11
905.8795146418564
 21
456.2633770952954
 97
       12
330
1D18
330
1D41
330
1D15
330
1D25
330
1D16
330
1D4A
330
1D17
330
1D28
330
1D26
330
1D27
330
1D2F
330
1D23
 75
     0
 76
     1
 98
        1
 10
812.472205954945
 20
339.5229678905809
450
        0
451
        0
460
0.0
461
0.0
452
        0
462
0.0
453
        0
470

  0
TEXT
  5
1D1A
330
18
100
AcDbEntity
  8
文字
100
AcDbText
 10
906.6729189952067
 20
458.4636912664181
 30
0.0
 40
2.0
  1
T1-205
 51
10.0
  7
STYLE3
100
AcDbText
  0
LINE
  5
1D1B
102
{ACAD_REACTORS
330
1D40
102
}
330
18
100
AcDbEntity
  8
ROGO
 62
     4
100
AcDbLine
 10
901.2761781252063
 20
453.6252472289876
 30
0.0
 11
919.1336917542368
 21
453.6252472289876
 31
0.0
  0
LINE
  5
1D1C
330
18
100
AcDbEntity
  8
ROGO
 62
     4
100
AcDbLine
 10
902.60379196806
 20
453.8896803513622
 30
0.0
 11
918.2934389805136
 21
453.8896803513622
 31
0.0
  0
HATCH
  5
1D1D
330
18
100
AcDbEntity
  8
ROGO
 62
     4
100
AcDbHatch
 10
0.0
 20
0.0
 30
0.0
210
0.0
220
0.0
230
1.0
  2
SOLID
 70
     1
 71
     0
 91
        1
 92
        7
 72
     0
 73
     1
 93
        4
 10
902.6221306855243
 20
453.8896803513622
 10
902.5024936399818
 20
453.6252472289876
 10
918.1615840853028
 20
453.6252472289876
 10
918.2934389805136
 20
453.8896803513622
 97
        0
 75
     0
 76
     1
 47
0.0514683685270805
 98
        1
 10
912.5172903066665
 20
453.8197420402418
450
        0
451
        0
460
0.0
461
0.0
452
        0
462
0.0
453
        0
470

  0
ARC
  5
1D1E
330
18
100
AcDbEntity
  8
外形線
100
AcDbCircle
 10
911.5599249329722
 20
439.1204716956064
 30
0.0
 40
31.0
100
AcDbArc
 50
69.21644040415319
 51
110.7835595958468
  0
LINE
  5
1D1F
330
18
100
AcDbEntity
  8
外形線
100
AcDbLine
 10
891.0599249329722
 20
450.6204716956064
 30
0.0
 11
932.0599249329722
 21
450.6204716956064
 31
0.0
  0
LINE
  5
1D20
330
18
100
AcDbEntity
  8
ROGO
 62
     4
100
AcDbLine
 10
902.5815002481827
 20
456.2633770952954
 30
0.0
 11
901.2761781252063
 21
453.6252472289876
 31
0.0
  0
SPLINE
  5
1D21
330
18
100
AcDbEntity
  8
ROGO
 62
     4
100
AcDbSpline
210
0.0
220
0.0
230
1.0
 70
     8
 71
     3
 72
    18
 73
    14
 74
     0
 42
0.0000000001
 43
0.0000000001
 40
0.1087402787915014
 40
0.1087402787915014
 40
0.1087402787915014
 40
0.1087402787915014
 40
0.5992371417938475
 40
1.083176791562496
 40
1.448211145705696
 40
1.714037220764907
 40
2.164002567013297
 40
2.740236056362883
 40
3.395137510199602
 40
4.071816045172726
 40
4.784906178399433
 40
5.506895915094292
 40
6.060470601257719
 40
6.060470601257719
 40
6.060470601257719
 40
6.060470601257719
 10
904.6547123648778
 20
456.2633770952955
 30
0.0
 10
904.7211317704098
 20
456.2390354962055
 30
0.0
 10
904.8517448462176
 20
456.1875736359431
 30
0.0
 10
905.0111544347783
 20
456.0701206662113
 30
0.0
 10
905.098089541253
 20
455.9345308098463
 30
0.0
 10
905.1817113808082
 20
455.8009312840284
 30
0.0
 10
905.193414104608
 20
455.6092601686843
 30
0.0
 10
905.1742442524046
 20
455.3669414229493
 30
0.0
 10
905.0504854184211
 20
455.1141068175655
 30
0.0
 10
904.8518452110307
 20
454.8929677779631
 30
0.0
 10
904.6052195313396
 20
454.7159709746667
 30
0.0
 10
904.3451442452019
 20
454.5770330420297
 30
0.0
 10
904.1592423575615
 20
454.5756486869615
 30
0.0
 10
904.0785638929826
 20
454.5750478988644
 30
0.0
  0
HATCH
  5
1D22
330
18
100
AcDbEntity
  8
ROGO
 62
     4
100
AcDbHatch
 10
0.0
 20
0.0
 30
0.0
210
0.0
220
0.0
230
1.0
  2
SOLID
 70
     1
 71
     0
 91
        2
 92
        5
 93
        6
 72
     1
 10
901.2761781252063
 20
453.6252472289876
 11
902.5024936399818
 21
453.6252472289877
 72
     1
 10
902.5024936399818
 20
453.6252472289877
 11
902.9322104053326
 21
454.5750478988644
 72
     1
 10
902.9322104053326
 20
454.5750478988644
 11
904.078563892982
 21
454.5750478988644
 72
     4
 94
        3
 73
     0
 74
     0
 95
       18
 96
       14
 40
0.108740278791501
 40
0.108740278791501
 40
0.108740278791501
 40
0.108740278791501
 40
0.6623149649549278
 40
1.384304701649787
 40
2.097394834876493
 40
2.774073369849618
 40
3.428974823686337
 40
4.005208313035923
 40
4.455173659284313
 40
4.720999734343524
 40
5.086034088486724
 40
5.569973738255373
 40
6.060470601257719
 40
6.060470601257719
 40
6.060470601257719
 40
6.060470601257719
 10
904.0785638929826
 20
454.5750478988644
 10
904.1592423575615
 20
454.5756486869615
 10
904.3451442452019
 20
454.5770330420297
 10
904.6052195313396
 20
454.7159709746667
 10
904.8518452110307
 20
454.8929677779631
 10
905.0504854184211
 20
455.1141068175655
 10
905.1742442524046
 20
455.3669414229493
 10
905.193414104608
 20
455.6092601686843
 10
905.1817113808082
 20
455.8009312840284
 10
905.098089541253
 20
455.9345308098463
 10
905.0111544347783
 20
456.0701206662113
 10
904.8517448462176
 20
456.1875736359431
 10
904.7211317704098
 20
456.2390354962055
 10
904.6547123648778
 20
456.2633770952955
 72
     1
 10
904.654712364878
 20
456.2633770952954
 11
902.5815002481827
 21
456.2633770952955
 72
     1
 10
902.5815002481827
 20
456.2633770952955
 11
901.2761781252063
 21
453.6252472289876
 97
        0
 92
       20
 93
        4
 72
     1
 10
903.19753618116
 20
455.1614960431685
 11
903.4006762050481
 21
455.6104953523067
 72
     1
 10
903.4006762050481
 20
455.6104953523067
 11
903.9226594896023
 21
455.6104953523067
 72
     4
 94
        3
 73
     0
 74
     0
 95
       15
 96
       11
 40
0.0
 40
0.0
 40
0.0
 40
0.0
 40
0.1979620751796092
 40
0.2882218927611821
 40
0.390672794493828
 40
0.4604671121752228
 40
0.570847549457819
 40
0.6369624161317818
 40
0.7503938621545029
 40
0.7882043682941406
 40
0.7882043682941406
 40
0.7882043682941406
 40
0.7882043682941406
 10
903.9226594896019
 20
455.6104953523067
 10
903.9970102061065
 20
455.6108359182756
 10
904.1052607597526
 20
455.6113317635937
 10
904.1644560179358
 20
455.4774255156845
 10
904.1379218807783
 20
455.3912107811505
 10
904.1045663078048
 20
455.302695119975
 10
904.0456194558217
 20
455.2425473932001
 10
903.966504146342
 20
455.1846149928095
 10
903.8917363981276
 20
455.1776020163331
 10
903.8431083708772
 20
455.1647172390349
 10
903.8309513582452
 20
455.1614960431685
 72
     1
 10
903.8309513582445
 20
455.1614960431683
 11
903.19753618116
 21
455.1614960431685
 97
        0
 75
     0
 76
     1
 47
0.0514683685270805
 98
        2
 10
902.5925812452914
 20
455.4428486935811
 10
902.5925812452914
 20
455.4428486935811
450
        0
451
        0
460
0.0
461
0.0
452
        0
462
0.0
453
        0
470

  0
LINE
  5
1D23
102
{ACAD_REACTORS
330
1D19
102
}
330
18
100
AcDbEntity
  8
ROGO
 62
     4
100
AcDbLine
 10
905.8795146418564
 20
456.2633770952954
 30
0.0
 11
905.0441450570934
 21
454.5750478988644
 31
0.0
  0
ARC
  5
1D24
330
18
100
AcDbEntity
  8
外形線
100
AcDbCircle
 10
891.0599249329722
 20
449.1204716956064
 30
0.0
 40
1.5
100
AcDbArc
 50
90.0
 51
180.0
  0
LINE
  5
1D25
102
{ACAD_REACTORS
330
1D19
102
}
330
18
100
AcDbEntity
  8
ROGO
 62
     4
100
AcDbLine
 10
906.7715233239681
 20
455.8766312415484
 30
0.0
 11
906.6219049504413
 21
455.5742440431687
 31
0.0
  0
LINE
  5
1D26
102
{ACAD_REACTORS
330
1D19
102
}
330
18
100
AcDbEntity
  8
ROGO
 62
     4
100
AcDbLine
 10
906.3188606169896
 20
454.9617742988643
 30
0.0
 11
907.5190291598412
 21
454.9617742988643
 31
0.0
  0
LINE
  5
1D27
102
{ACAD_REACTORS
330
1D19
102
}
330
18
100
AcDbEntity
  8
ROGO
 62
     4
100
AcDbLine
 10
907.5190291598412
 20
454.9617742988643
 30
0.0
 11
907.3276805337156
 21
454.5750478988644
 31
0.0
  0
LINE
  5
1D28
102
{ACAD_REACTORS
330
1D19
102
}
330
18
100
AcDbEntity
  8
ROGO
 62
     4
100
AcDbLine
 10
906.4684853246392
 20
455.2641742988643
 30
0.0
 11
906.3188606169896
 21
454.9617742988643
 31
0.0
  0
LINE
  5
1D29
330
18
100
AcDbEntity
  8
ROGO
 62
     4
100
AcDbLine
 10
904.0785638933799
 20
454.5750478988644
 30
0.0
 11
902.9322104053328
 21
454.5750478988644
 31
0.0
  0
LINE
  5
1D2A
330
18
100
AcDbEntity
  8
ROGO
 62
     4
100
AcDbLine
 10
903.4006762050481
 20
455.6104953523067
 30
0.0
 11
903.19753618116
 21
455.1614960431685
 31
0.0
  0
SPLINE
  5
1D2B
330
18
100
AcDbEntity
  8
ROGO
 62
     4
100
AcDbSpline
210
0.0
220
0.0
230
1.0
 70
     8
 71
     3
 72
    15
 73
    11
 74
     9
 42
0.0000000001
 43
0.0000000001
 44
0.0000000001
 40
0.0
 40
0.0
 40
0.0
 40
0.0
 40
0.1979620751796092
 40
0.2882218927611821
 40
0.390672794493828
 40
0.4604671121752228
 40
0.570847549457819
 40
0.6369624161317818
 40
0.7503938621545029
 40
0.7882043682941406
 40
0.7882043682941406
 40
0.7882043682941406
 40
0.7882043682941406
 10
903.9226594896019
 20
455.6104953523067
 30
0.0
 10
903.9970102061067
 20
455.6108359182756
 30
0.0
 10
904.1052607597526
 20
455.6113317635936
 30
0.0
 10
904.164456017936
 20
455.4774255156846
 30
0.0
 10
904.1379218807783
 20
455.3912107811505
 30
0.0
 10
904.1045663078048
 20
455.302695119975
 30
0.0
 10
904.045619455822
 20
455.2425473932001
 30
0.0
 10
903.9665041463418
 20
455.1846149928095
 30
0.0
 10
903.8917363981276
 20
455.1776020163333
 30
0.0
 10
903.8431083708772
 20
455.1647172390349
 30
0.0
 10
903.8309513582452
 20
455.1614960431685
 30
0.0
 11
903.9226594896019
 21
455.6104953523067
 31
0.0
 11
904.1152467236532
 21
455.5646789743412
 31
0.0
 11
904.151930081664
 21
455.4822097927343
 31
0.0
 11
904.1335886663286
 21
455.381414059941
 31
0.0
 11
904.1060762796556
 21
455.3172711307892
 31
0.0
 11
904.0327095636341
 21
455.2348019491823
 31
0.0
 11
903.9776847902881
 21
455.1981488468098
 31
0.0
 11
903.8676347162558
 21
455.1706593187615
 31
0.0
 11
903.8309513582452
 21
455.1614960431685
 31
0.0
  0
LINE
  5
1D2C
330
18
100
AcDbEntity
  8
ROGO
 62
     4
100
AcDbLine
 10
903.9226594896019
 20
455.6104953523067
 30
0.0
 11
903.4006762050481
 21
455.6104953523067
 31
0.0
  0
LINE
  5
1D2D
330
18
100
AcDbEntity
  8
ROGO
 62
     4
100
AcDbLine
 10
903.8309513582452
 20
455.1614960431684
 30
0.0
 11
903.19753618116
 21
455.1614960431685
 31
0.0
  0
LINE
  5
1D2E
330
18
100
AcDbEntity
  8
ROGO
 62
     4
100
AcDbLine
 10
902.9322104053328
 20
454.5750478988644
 30
0.0
 11
902.5024936399818
 21
453.6252472289876
 31
0.0
  0
LINE
  5
1D2F
102
{ACAD_REACTORS
330
1D19
102
}
330
18
100
AcDbEntity
  8
ROGO
 62
     4
100
AcDbLine
 10
905.0441450570934
 20
454.5750478988644
 30
0.0
 11
907.3276805337156
 21
454.5750478988644
 31
0.0
  0
LINE
  5
1D30
330
18
100
AcDbEntity
  8
外形線
100
AcDbLine
 10
900.5599249329721
 20
468.1032251879853
 30
0.0
 11
900.5599249329721
 21
467.0310431695122
 31
0.0
  0
LINE
  5
1D31
330
18
100
AcDbEntity
  8
ROGO
 62
     4
100
AcDbLine
 10
902.5815002481827
 20
456.2633770952954
 30
0.0
 11
904.6547123648778
 21
456.2633770952954
 31
0.0
  0
LINE
  5
1D32
102
{ACAD_REACTORS
330
1D40
102
}
330
18
100
AcDbEntity
  8
ROGO
 62
     4
100
AcDbLine
 10
920.4491485092409
 20
456.2633770952954
 30
0.0
 11
920.2119805615531
 21
455.7877401397313
 31
0.0
  0
LINE
  5
1D33
102
{ACAD_REACTORS
330
1D40
102
}
330
18
100
AcDbEntity
  8
ROGO
 62
     4
100
AcDbLine
 10
920.1347479488751
 20
454.9443121621415
 30
0.0
 11
921.7327734785866
 21
456.2633770952954
 31
0.0
  0
LINE
  5
1D34
102
{ACAD_REACTORS
330
1D40
102
}
330
18
100
AcDbEntity
  8
ROGO
 62
     4
100
AcDbLine
 10
920.2119805615531
 20
455.7877401397313
 30
0.0
 11
920.7606870785868
 21
456.2633770952954
 31
0.0
  0
SPLINE
  5
1D35
330
18
100
AcDbEntity
  8
ROGO
 62
     4
100
AcDbSpline
210
0.0
220
0.0
230
1.0
 70
     8
 71
     3
 72
    26
 73
    22
 74
    20
 42
0.0000000001
 43
0.0000000001
 44
0.0000000001
 40
0.0
 40
0.0
 40
0.0
 40
0.0
 40
0.306282258847545
 40
0.5113145150563467
 40
0.6591594689727181
 40
0.7695505122602936
 40
0.9127334891893321
 40
1.017243103820775
 40
1.205963108812882
 40
1.359578479722684
 40
1.464061546148625
 40
1.566512542290257
 40
1.74977745669044
 40
1.879367624743214
 40
1.949161942424609
 40
2.048302708997821
 40
2.119894481049017
 40
2.223607322578586
 40
2.282299819925649
 40
2.41002127769804
 40
2.468340004822995
 40
2.468340004822995
 40
2.468340004822995
 40
2.468340004822995
 10
917.4326735201562
 20
456.2633770952954
 30
0.0
 10
917.3287165891807
 20
456.2571748465258
 30
0.0
 10
917.1551685425244
 20
456.2468206724587
 30
0.0
 10
916.9646138430382
 20
456.1310607389266
 30
0.0
 10
916.8250023145105
 20
456.0637630006292
 30
0.0
 10
916.7254315416794
 20
455.9722774588041
 30
0.0
 10
916.6524457615643
 20
455.8777795769909
 30
0.0
 10
916.5604334840953
 20
455.7651860436867
 30
0.0
 10
916.4854001010739
 20
455.6340754303752
 30
0.0
 10
916.447190160674
 20
455.4895686775794
 30
0.0
 10
916.4133441581194
 20
455.3743959571467
 30
0.0
 10
916.3882433960115
 20
455.2460509905706
 30
0.0
 10
916.394629740485
 20
455.1073932772705
 30
0.0
 10
916.4037752780506
 20
454.9786150916941
 30
0.0
 10
916.4446078793817
 20
454.8866867479314
 30
0.0
 10
916.4911089795973
 20
454.8212401018793
 30
0.0
 10
916.5480489399824
 20
454.7491578769812
 30
0.0
 10
916.6103537083904
 20
454.701418052842
 30
0.0
 10
916.6618848375327
 20
454.6149341533757
 30
0.0
 10
916.7520883407274
 20
454.6038981840776
 30
0.0
 10
916.8094252759672
 20
454.5819333113787
 30
0.0
 10
916.8273989039892
 20
454.5750478988644
 30
0.0
 11
917.4326735201562
 21
456.2633770952954
 31
0.0
 11
917.1300362120726
 21
456.2162657183177
 31
0.0
 11
916.9466194220191
 21
456.1246332611177
 31
0.0
 11
916.8182279326515
 21
456.0513273551038
 31
0.0
 11
916.7356907726324
 21
455.9780211503589
 31
0.0
 11
916.6439826412757
 21
455.8680621419725
 31
0.0
 11
916.5797868965919
 21
455.7855929603657
 31
0.0
 11
916.4880782378951
 21
455.6206542984205
 31
0.0
 11
916.4422244358867
 21
455.4740421876618
 31
0.0
 11
916.4147120492138
 21
455.3732464548685
 31
0.0
 11
916.3963701065384
 21
455.2724507220754
 31
0.0
 11
916.3963701065384
 21
455.0891858076752
 31
0.0
 11
916.4147120492138
 21
454.9609002481027
 31
0.0
 11
916.4422244358867
 21
454.8967573189509
 31
0.0
 11
916.4972492092328
 21
454.8142881373439
 31
0.0
 11
916.5431035385813
 21
454.7593084837852
 31
0.0
 11
916.6164697272625
 21
454.6860025777713
 31
0.0
 11
916.6531530852735
 21
454.6401861998058
 31
0.0
 11
916.7723741306431
 21
454.5943701205712
 31
0.0
 11
916.8273989039892
 21
454.5750478988644
 31
0.0
  0
LINE
  5
1D36
330
18
100
AcDbEntity
  8
ROGO
 62
     4
100
AcDbLine
 10
919.1234345314356
 20
456.2633770952954
 30
0.0
 11
918.8102097164549
 21
455.6352091710166
 31
0.0
  0
LINE
  5
1D37
102
{ACAD_REACTORS
330
1D40
102
}
330
18
100
AcDbEntity
  8
ROGO
 62
     4
100
AcDbLine
 10
919.4770408403071
 20
456.2633770952954
 30
0.0
 11
918.1615840853028
 21
453.6252472289876
 31
0.0
  0
HATCH
  5
1D38
330
18
100
AcDbEntity
  8
ROGO
 62
     4
100
AcDbHatch
 10
0.0
 20
0.0
 30
0.0
210
0.0
220
0.0
230
1.0
  2
SOLID
 70
     1
 71
     0
 91
        1
 92
        5
 93
        8
 72
     4
 94
        3
 73
     0
 74
     0
 95
       26
 96
       22
 40
0.0
 40
0.0
 40
0.0
 40
0.0
 40
0.306282258847545
 40
0.5113145150563467
 40
0.6591594689727181
 40
0.7695505122602936
 40
0.9127334891893321
 40
1.017243103820775
 40
1.205963108812882
 40
1.359578479722684
 40
1.464061546148625
 40
1.566512542290257
 40
1.74977745669044
 40
1.879367624743214
 40
1.949161942424609
 40
2.048302708997821
 40
2.119894481049017
 40
2.223607322578586
 40
2.282299819925649
 40
2.41002127769804
 40
2.468340004822995
 40
2.468340004822995
 40
2.468340004822995
 40
2.468340004822995
 10
917.4326735201562
 20
456.2633770952954
 10
917.3287165891807
 20
456.2571748465259
 10
917.1551685425246
 20
456.2468206724587
 10
916.9646138430378
 20
456.1310607389266
 10
916.8250023145105
 20
456.0637630006293
 10
916.7254315416792
 20
455.9722774588041
 10
916.652445761564
 20
455.8777795769907
 10
916.5604334840956
 20
455.7651860436869
 10
916.4854001010738
 20
455.6340754303751
 10
916.447190160674
 20
455.4895686775794
 10
916.4133441581192
 20
455.3743959571466
 10
916.3882433960113
 20
455.2460509905706
 10
916.394629740485
 20
455.1073932772705
 10
916.4037752780506
 20
454.9786150916943
 10
916.4446078793815
 20
454.8866867479313
 10
916.4911089795973
 20
454.8212401018794
 10
916.548048939982
 20
454.7491578769809
 10
916.6103537083904
 20
454.7014180528422
 10
916.6618848375325
 20
454.6149341533757
 10
916.7520883407272
 20
454.6038981840776
 10
916.8094252759674
 20
454.5819333113787
 10
916.8273989039892
 20
454.5750478988644
 72
     1
 10
916.8273989039892
 20
454.5750478988644
 11
918.2815790661381
 21
454.5750478988644
 72
     1
 10
918.2815790661381
 20
454.5750478988644
 11
918.5948005641536
 21
455.2032091710166
 72
     1
 10
918.5948005641536
 20
455.2032091710166
 11
917.5152106801752
 21
455.2032091710166
 72
     4
 94
        3
 73
     0
 74
     0
 95
       16
 96
       12
 40
0.0
 40
0.0
 40
0.0
 40
0.0
 40
0.0924964283868937
 40
0.185946890240525
 40
0.2416858907028844
 40
0.2951281203562444
 40
0.3538203845089212
 40
0.3948066843497379
 40
0.4336991257335823
 40
0.5125674130988856
 40
0.6740411735369252
 40
0.6740411735369252
 40
0.6740411735369252
 40
0.6740411735369252
 10
917.5152106801753
 20
455.2032091710166
 10
917.4826464447402
 20
455.212790046559
 10
917.4171820974372
 20
455.2320506174153
 10
917.4117032602042
 20
455.3254187891631
 10
917.4191673832838
 20
455.391951251825
 10
917.4504271474116
 20
455.4403907698885
 10
917.4883506632326
 20
455.4756368926486
 10
917.5024712701272
 20
455.5215394565973
 10
917.5439775075728
 20
455.5562016352898
 10
917.6175791879325
 20
455.6144639156873
 10
917.6989699052043
 20
455.6268724796257
 10
917.7536522435747
 20
455.6352091710166
 72
     1
 10
917.7536522435747
 20
455.6352091710166
 11
918.8102097164549
 21
455.6352091710166
 72
     1
 10
918.8102097164549
 20
455.6352091710166
 11
919.1234345314356
 21
456.2633770952954
 72
     1
 10
919.1234345314356
 20
456.2633770952954
 11
917.4326735201562
 21
456.2633770952954
 97
        0
 75
     0
 76
     1
 47
0.0514683685270805
 98
        1
 10
917.7244245011795
 20
455.9542382769223
450
        0
451
        0
460
0.0
461
0.0
452
        0
462
0.0
453
        0
470

  0
SPLINE
  5
1D39
102
{ACAD_REACTORS
330
1D3F
102
}
330
18
100
AcDbEntity
  8
ROGO
 62
     4
100
AcDbSpline
210
0.0
220
0.0
230
1.0
 70
     8
 71
     3
 72
    25
 73
    21
 74
     0
 42
0.0000000001
 43
0.0000000001
 40
0.0
 40
0.0
 40
0.0
 40
0.0
 40
0.4087168505087288
 40
0.6887487002771746
 40
0.9415836120477687
 40
1.17452070575514
 40
1.41154617586699
 40
1.599156012919487
 40
1.80099909059943
 40
2.178735911501585
 40
2.521686161369157
 40
2.762704659361267
 40
3.06256558063785
 40
3.222432137207705
 40
3.399493810628493
 40
3.567459719866414
 40
3.743172740007509
 40
3.995988754699505
 40
4.17170091132118
 40
4.337226830236035
 40
4.337226830236035
 40
4.337226830236035
 40
4.337226830236035
 10
915.5859322958217
 20
456.2704192342312
 30
0.0
 10
915.6492152177973
 20
456.2683860192162
 30
0.0
 10
915.7558563562927
 20
456.2649597494228
 30
0.0
 10
915.8703487745198
 20
456.1754705773686
 30
0.0
 10
915.9579550583533
 20
456.1012771972492
 30
0.0
 10
916.0201390860311
 20
456.0115808748196
 30
0.0
 10
916.0746451285714
 20
455.9291098843776
 30
0.0
 10
916.1105604781319
 20
455.8420394940926
 30
0.0
 10
916.159412449428
 20
455.7375629998309
 30
0.0
 10
916.1796347521173
 20
455.5977889724196
 30
0.0
 10
916.1659721821131
 20
455.4533196185039
 30
0.0
 10
916.1303192536163
 20
455.3252608251709
 30
0.0
 10
916.0929221981447
 20
455.2270171271285
 30
0.0
 10
916.0488453166795
 20
455.1414898931405
 30
0.0
 10
915.9963000415743
 20
455.0861110024989
 30
0.0
 10
915.9598462415956
 20
455.0156972829092
 30
0.0
 10
915.8898231549592
 20
454.9581026406434
 30
0.0
 10
915.8330586637791
 20
454.8870389357739
 30
0.0
 10
915.7686427880996
 20
454.8260442021957
 30
0.0
 10
915.7323248318517
 20
454.7884111866249
 30
0.0
 10
915.7131771294883
 20
454.7725882301234
 30
0.0
  0
LINE
  5
1D3A
330
18
100
AcDbEntity
  8
ROGO
 62
     4
100
AcDbLine
 10
913.6834876830999
 20
456.2633770952954
 30
0.0
 11
913.370262868119
 21
455.6352091710166
 31
0.0
  0
SPLINE
  5
1D3B
330
18
100
AcDbEntity
  8
ROGO
 62
     4
100
AcDbSpline
210
0.0
220
0.0
230
1.0
 70
     8
 71
     3
 72
    26
 73
    22
 74
    20
 42
0.0000000001
 43
0.0000000001
 44
0.0000000001
 40
0.0
 40
0.0
 40
0.0
 40
0.0
 40
0.306282258847545
 40
0.5113145150563467
 40
0.6591594689727181
 40
0.7695505122602936
 40
0.9127334891892449
 40
1.017243103820777
 40
1.205963108812785
 40
1.359578479722587
 40
1.464061546148638
 40
1.566512542290269
 40
1.749777456690453
 40
1.879367624743226
 40
1.949161942424621
 40
2.048302708997833
 40
2.119894481049029
 40
2.223607322578598
 40
2.282299819925661
 40
2.410021277698012
 40
2.468340004823004
 40
2.468340004823004
 40
2.468340004823004
 40
2.468340004823004
 10
911.9927266718203
 20
456.2633770952954
 30
0.0
 10
911.888769740845
 20
456.2571748465258
 30
0.0
 10
911.7152216941887
 20
456.2468206724587
 30
0.0
 10
911.5246669947019
 20
456.1310607389266
 30
0.0
 10
911.385055466175
 20
456.0637630006293
 30
0.0
 10
911.285484693343
 20
455.9722774588039
 30
0.0
 10
911.2124989132285
 20
455.8777795769909
 30
0.0
 10
911.1204866357594
 20
455.7651860436867
 30
0.0
 10
911.0454532527381
 20
455.6340754303752
 30
0.0
 10
911.0072433123383
 20
455.4895686775795
 30
0.0
 10
910.9733973097837
 20
455.3743959571467
 30
0.0
 10
910.9482965476754
 20
455.2460509905706
 30
0.0
 10
910.9546828921491
 20
455.1073932772705
 30
0.0
 10
910.9638284297149
 20
454.9786150916942
 30
0.0
 10
911.0046610310458
 20
454.8866867479314
 30
0.0
 10
911.0511621312616
 20
454.8212401018793
 30
0.0
 10
911.1081020916463
 20
454.7491578769811
 30
0.0
 10
911.170406860055
 20
454.7014180528422
 30
0.0
 10
911.2219379891964
 20
454.6149341533755
 30
0.0
 10
911.3121414923913
 20
454.6038981840777
 30
0.0
 10
911.3694784276317
 20
454.5819333113787
 30
0.0
 10
911.3874520556535
 20
454.5750478988644
 30
0.0
 11
911.9927266718203
 21
456.2633770952954
 31
0.0
 11
911.6900893637369
 21
456.2162657183177
 31
0.0
 11
911.5066725736832
 21
456.1246332611177
 31
0.0
 11
911.3782810843158
 21
456.0513273551038
 31
0.0
 11
911.2957439242967
 21
455.9780211503589
 31
0.0
 11
911.20403579294
 21
455.8680621419726
 31
0.0
 11
911.1398400482562
 21
455.7855929603657
 31
0.0
 11
911.0481313895594
 21
455.6206542984206
 31
0.0
 11
911.0022775875508
 21
455.4740421876619
 31
0.0
 11
910.9747652008779
 21
455.3732464548685
 31
0.0
 11
910.9564232582025
 21
455.2724507220754
 31
0.0
 11
910.9564232582025
 21
455.0891858076752
 31
0.0
 11
910.9747652008779
 21
454.9609002481027
 31
0.0
 11
911.0022775875508
 21
454.8967573189509
 31
0.0
 11
911.0573023608969
 21
454.8142881373439
 31
0.0
 11
911.1031566902454
 21
454.7593084837852
 31
0.0
 11
911.1765228789268
 21
454.6860025777713
 31
0.0
 11
911.2132062369376
 21
454.6401861998058
 31
0.0
 11
911.3324272823074
 21
454.5943701205713
 31
0.0
 11
911.3874520556535
 21
454.5750478988644
 31
0.0
  0
HATCH
  5
1D3C
330
18
100
AcDbEntity
  8
ROGO
 62
     4
100
AcDbHatch
 10
0.0
 20
0.0
 30
0.0
210
0.0
220
0.0
230
1.0
  2
SOLID
 70
     1
 71
     0
 91
        1
 92
        5
 93
        8
 72
     1
 10
913.3702628681191
 20
455.6352091710166
 11
913.6834876831002
 21
456.2633770952955
 72
     1
 10
913.6834876831002
 20
456.2633770952955
 11
911.9927266718216
 21
456.2633770952955
 72
     4
 94
        3
 73
     0
 74
     0
 95
       26
 96
       22
 40
0.0
 40
0.0
 40
0.0
 40
0.0
 40
0.306282258847545
 40
0.5113145150563467
 40
0.6591594689727181
 40
0.7695505122602936
 40
0.9127334891892449
 40
1.017243103820777
 40
1.205963108812785
 40
1.359578479722587
 40
1.464061546148638
 40
1.566512542290269
 40
1.749777456690453
 40
1.879367624743226
 40
1.949161942424621
 40
2.048302708997833
 40
2.119894481049029
 40
2.223607322578598
 40
2.282299819925661
 40
2.410021277698012
 40
2.468340004823004
 40
2.468340004823004
 40
2.468340004823004
 40
2.468340004823004
 10
911.9927266718203
 20
456.2633770952954
 10
911.888769740845
 20
456.2571748465259
 10
911.7152216941887
 20
456.2468206724587
 10
911.5246669947023
 20
456.1310607389266
 10
911.3850554661748
 20
456.0637630006293
 10
911.2854846933435
 20
455.972277458804
 10
911.2124989132283
 20
455.8777795769909
 10
911.1204866357597
 20
455.7651860436868
 10
911.0454532527381
 20
455.6340754303752
 10
911.0072433123383
 20
455.4895686775796
 10
910.9733973097835
 20
455.3743959571466
 10
910.9482965476754
 20
455.2460509905706
 10
910.9546828921493
 20
455.1073932772705
 10
910.9638284297149
 20
454.9786150916943
 10
911.0046610310458
 20
454.8866867479313
 10
911.0511621312616
 20
454.8212401018793
 10
911.1081020916463
 20
454.7491578769809
 10
911.1704068600547
 20
454.7014180528421
 10
911.2219379891966
 20
454.6149341533755
 10
911.3121414923913
 20
454.6038981840777
 10
911.3694784276315
 20
454.5819333113787
 10
911.3874520556535
 20
454.5750478988644
 72
     1
 10
911.3874520556533
 20
454.5750478988643
 11
912.8416322178024
 21
454.5750478988643
 72
     1
 10
912.8416322178024
 20
454.5750478988643
 11
913.1548537158177
 21
455.2032091710166
 72
     1
 10
913.1548537158177
 20
455.2032091710166
 11
912.0752638318393
 21
455.2032091710166
 72
     4
 94
        3
 73
     0
 74
     0
 95
       16
 96
       12
 40
0.0
 40
0.0
 40
0.0
 40
0.0
 40
0.092496428386945
 40
0.1859468902404647
 40
0.2416858907028242
 40
0.2951281203562815
 40
0.3538203845089407
 40
0.3948066843496557
 40
0.4336991257336609
 40
0.512567413098898
 40
0.6740411735369377
 40
0.6740411735369377
 40
0.6740411735369377
 40
0.6740411735369377
 10
912.0752638318395
 20
455.2032091710166
 10
912.0426995964043
 20
455.212790046559
 10
911.9772352491015
 20
455.2320506174154
 10
911.9717564118685
 20
455.3254187891631
 10
911.9792205349481
 20
455.3919512518251
 10
912.0104802990759
 20
455.4403907698886
 10
912.0484038148971
 20
455.4756368926486
 10
912.0625244217915
 20
455.5215394565974
 10
912.1040306592369
 20
455.5562016352898
 10
912.1776323395966
 20
455.6144639156873
 10
912.2590230568684
 20
455.6268724796257
 10
912.313705395239
 20
455.6352091710166
 72
     1
 10
912.3137053952389
 20
455.6352091710165
 11
913.3702628681191
 21
455.6352091710166
 97
        0
 75
     0
 76
     1
 47
0.0514683685270805
 98
        1
 10
912.5840483968007
 20
455.8875352228493
450
        0
451
        0
460
0.0
461
0.0
452
        0
462
0.0
453
        0
470

  0
LINE
  5
1D3D
102
{ACAD_REACTORS
330
1D43
102
}
330
18
100
AcDbEntity
  8
ROGO
 62
     4
100
AcDbLine
 10
910.1750615087246
 20
456.2633770952954
 30
0.0
 11
910.9250842363604
 21
454.5750478988644
 31
0.0
  0
SPLINE
  5
1D3E
102
{ACAD_REACTORS
330
1D3F
102
}
330
18
100
AcDbEntity
  8
ROGO
 62
     4
100
AcDbSpline
210
0.0
220
0.0
230
1.0
 70
     8
 71
     3
 72
    38
 73
    34
 74
    32
 42
0.0000000001
 43
0.0000000001
 44
0.0000000001
 40
0.0
 40
0.0
 40
0.0
 40
0.0
 40
0.2324160190625641
 40
0.3054076598660179
 40
0.3991969555208118
 40
0.4773548548861183
 40
0.5433001127836845
 40
0.6308904647837286
 40
0.6756456824938584
 40
0.7260518053353911
 40
0.8003409450195571
 40
0.884494420029689
 40
0.9390839551137702
 40
0.9983865037096219
 40
1.064308042580248
 40
1.164347318186099
 40
1.259395062462607
 40
1.303582284428296
 40
1.353971899974848
 40
1.413666953858189
 40
1.456162161198055
 40
1.491785383230425
 40
1.542647296663551
 40
1.598535826931799
 40
1.654424046021893
 40
1.703326315520178
 40
1.815321205179844
 40
1.859508427145426
 40
1.947882923564461
 40
2.026002047025105
 40
2.175555252260891
 40
2.360088422381767
 40
2.626581173122162
 40
2.626581173122162
 40
2.626581173122162
 40
2.626581173122162
 10
914.6210630945834
 20
456.2704192342312
 30
0.0
 10
914.5435918690649
 20
456.2649464382444
 30
0.0
 10
914.4417903418379
 20
456.2577548779467
 30
0.0
 10
914.3125262057536
 20
456.2223403585402
 30
0.0
 10
914.2420629500438
 20
456.1801502620944
 30
0.0
 10
914.1687318483505
 20
456.1491385189079
 30
0.0
 10
914.1062102544267
 20
456.1032162770161
 30
0.0
 10
914.0429709821034
 20
456.0795529881962
 30
0.0
 10
913.9986889077633
 20
456.0368838488597
 30
0.0
 10
913.947436018735
 20
456.0108196969206
 30
0.0
 10
913.9066224332324
 20
455.9524805474734
 30
0.0
 10
913.861004420549
 20
455.8979355567698
 30
0.0
 10
913.8080817868827
 20
455.8581201461702
 30
0.0
 10
913.7646474711631
 20
455.8163023160757
 30
0.0
 10
913.7248025259751
 20
455.7517648394106
 30
0.0
 10
913.7012205040976
 20
455.6660136433863
 30
0.0
 10
913.6347467427144
 20
455.6118734307339
 30
0.0
 10
913.6247378755216
 20
455.5467807408647
 30
0.0
 10
913.5879692109845
 20
455.5083771491909
 30
0.0
 10
913.5719809096841
 20
455.4588036294959
 30
0.0
 10
913.5658917949532
 20
455.4133855289407
 30
0.0
 10
913.5585834053275
 20
455.3709681671044
 30
0.0
 10
913.5394660421711
 20
455.3263469761557
 30
0.0
 10
913.5457060154648
 20
455.2712280460965
 30
0.0
 10
913.5439284344101
 20
455.2178545566336
 30
0.0
 10
913.5449745429477
 20
455.1457986838478
 30
0.0
 10
913.5411989923595
 20
455.0756434306655
 30
0.0
 10
913.5713075287361
 20
454.9992978755916
 30
0.0
 10
913.5891247613683
 20
454.9312463753063
 30
0.0
 10
913.637920151296
 20
454.837020820983
 30
0.0
 10
913.7220911763472
 20
454.7283049047857
 30
0.0
 10
913.8821494212272
 20
454.5963443805521
 30
0.0
 10
914.0360501033748
 20
454.5829575996299
 30
0.0
 10
914.1269837154565
 20
454.5750478988644
 30
0.0
 11
914.6210630945834
 21
456.2704192342312
 31
0.0
 11
914.390333132794
 21
456.2424748135081
 31
0.0
 11
914.3204149792007
 21
456.221516964733
 31
0.0
 11
914.2365135244761
 21
456.1796006448262
 31
0.0
 11
914.1665953708827
 21
456.1446705856895
 31
0.0
 11
914.1106610677331
 21
456.1097402153746
 31
0.0
 11
914.033751263574
 21
456.0678242066462
 31
0.0
 11
913.9987919121212
 21
456.039880097101
 31
0.0
 11
913.9568409101027
 21
456.0119356763778
 31
0.0
 11
913.9078982575185
 21
455.9560474572879
 31
0.0
 11
913.8519639543689
 21
455.8931732886059
 31
0.0
 11
913.8100129523504
 21
455.858242918291
 31
0.0
 11
913.7680624996443
 21
455.8163269095626
 31
0.0
 11
913.7331031481913
 21
455.7604386904725
 31
0.0
 11
913.6911526954854
 21
455.6696201010675
 31
0.0
 11
913.6352178430231
 21
455.5927737220242
 31
0.0
 11
913.621234541892
 21
455.5508574021175
 31
0.0
 11
913.5932673903171
 21
455.5089413933891
 31
0.0
 11
913.572291889308
 21
455.4530528631208
 31
0.0
 11
913.5652996894298
 21
455.4111368543924
 31
0.0
 11
913.5583080388641
 21
455.3762064840775
 31
0.0
 11
913.5443247377331
 21
455.3273045257572
 31
0.0
 11
913.5443247377331
 21
455.271415995489
 31
0.0
 11
913.5443247377331
 21
455.2155277763989
 31
0.0
 11
913.5443247377331
 21
455.1666255069006
 31
0.0
 11
913.5513163882986
 21
455.0548490687204
 31
0.0
 11
913.5652996894298
 21
455.0129327488138
 31
0.0
 11
913.5932673903171
 21
454.9291004201787
 31
0.0
 11
913.6282261924575
 21
454.8592399907271
 31
0.0
 11
913.7191198470603
 21
454.7404776029551
 31
0.0
 11
913.8659478048126
 21
454.6287008535968
 31
0.0
 11
914.1269837154565
 21
454.5750478988644
 31
0.0
  0
HATCH
  5
1D3F
330
18
100
AcDbEntity
  8
ROGO
 62
     4
100
AcDbHatch
 10
0.0
 20
0.0
 30
0.0
210
0.0
220
0.0
230
1.0
  2
SOLID
 70
     1
 71
     1
 91
        1
 92
        5
 93
        6
 72
     4
 94
        3
 73
     0
 74
     0
 95
       38
 96
       34
 40
0.0
 40
0.0
 40
0.0
 40
0.0
 40
0.2324160190625641
 40
0.3054076598660179
 40
0.3991969555208118
 40
0.4773548548861183
 40
0.5433001127836845
 40
0.6308904647837286
 40
0.6756456824938584
 40
0.7260518053353911
 40
0.8003409450195571
 40
0.884494420029689
 40
0.9390839551137702
 40
0.9983865037096219
 40
1.064308042580248
 40
1.164347318186099
 40
1.259395062462607
 40
1.303582284428296
 40
1.353971899974848
 40
1.413666953858189
 40
1.456162161198055
 40
1.491785383230425
 40
1.542647296663551
 40
1.598535826931799
 40
1.654424046021893
 40
1.703326315520178
 40
1.815321205179844
 40
1.859508427145426
 40
1.947882923564461
 40
2.026002047025105
 40
2.175555252260891
 40
2.360088422381767
 40
2.626581173122162
 40
2.626581173122162
 40
2.626581173122162
 40
2.626581173122162
 10
914.6210630945834
 20
456.2704192342312
 10
914.5435918690647
 20
456.2649464382444
 10
914.4417903418377
 20
456.2577548779466
 10
914.3125262057536
 20
456.2223403585403
 10
914.2420629500438
 20
456.1801502620943
 10
914.1687318483505
 20
456.149138518908
 10
914.1062102544267
 20
456.1032162770161
 10
914.0429709821034
 20
456.0795529881962
 10
913.9986889077631
 20
456.0368838488597
 10
913.9474360187351
 20
456.0108196969206
 10
913.9066224332324
 20
455.9524805474735
 10
913.861004420549
 20
455.8979355567697
 10
913.8080817868827
 20
455.8581201461701
 10
913.7646474711633
 20
455.8163023160757
 10
913.7248025259751
 20
455.7517648394107
 10
913.7012205040978
 20
455.6660136433863
 10
913.6347467427142
 20
455.6118734307339
 10
913.6247378755218
 20
455.5467807408646
 10
913.5879692109845
 20
455.5083771491909
 10
913.5719809096841
 20
455.4588036294959
 10
913.5658917949534
 20
455.4133855289407
 10
913.5585834053275
 20
455.3709681671044
 10
913.5394660421713
 20
455.3263469761557
 10
913.5457060154646
 20
455.2712280460965
 10
913.5439284344101
 20
455.2178545566337
 10
913.5449745429475
 20
455.1457986838476
 10
913.5411989923595
 20
455.0756434306655
 10
913.5713075287361
 20
454.9992978755917
 10
913.5891247613683
 20
454.9312463753062
 10
913.6379201512959
 20
454.837020820983
 10
913.7220911763476
 20
454.7283049047857
 10
913.8821494212271
 20
454.5963443805521
 10
914.0360501033748
 20
454.5829575996299
 10
914.1269837154565
 20
454.5750478988644
 72
     1
 10
914.1269837154565
 20
454.5750478988644
 11
915.0918529166949
 21
454.5750478988643
 72
     4
 94
        3
 73
     0
 74
     0
 95
       11
 96
        7
 40
0.1647869275458135
 40
0.1647869275458135
 40
0.1647869275458135
 40
0.1647869275458135
 40
0.2545010798212315
 40
0.5111620267764023
 40
0.7602998271033902
 40
0.8850764140209603
 40
0.8850764140209603
 40
0.8850764140209603
 40
0.8850764140209603
 10
915.0918529166949
 20
454.5750478988644
 10
915.1053167885347
 20
454.574788421609
 10
915.1572991104572
 20
454.5737866124432
 10
915.2461375217241
 20
454.5865492946234
 10
915.3396073651872
 20
454.5987795159606
 10
915.3953315227454
 20
454.6076864171114
 10
915.4133039349179
 20
454.6126890448896
 72
     4
 94
        3
 73
     0
 74
     0
 95
        9
 96
        5
 40
0.0
 40
0.0
 40
0.0
 40
0.0
 40
0.146030572742497
 40
0.3423777932799819
 40
0.3423777932799819
 40
0.3423777932799819
 40
0.3423777932799819
 10
915.4133039349179
 20
454.6126890448896
 10
915.4602131798982
 20
454.6270406245338
 10
915.5701948329122
 20
454.6606887988603
 10
915.6610648722166
 20
454.7318046359989
 10
915.7131771294883
 20
454.7725882301234
 72
     4
 94
        3
 73
     0
 74
     0
 95
       25
 96
       21
 40
0.0
 40
0.0
 40
0.0
 40
0.0
 40
0.165525918914855
 40
0.3412380755365305
 40
0.5940540902285263
 40
0.7697671103696209
 40
0.9377330196075423
 40
1.11479469302833
 40
1.274661249598185
 40
1.574522170874768
 40
1.815540668866877
 40
2.15849091873445
 40
2.536227739636605
 40
2.738070817316548
 40
2.925680654369045
 40
3.162706124480894
 40
3.395643218188267
 40
3.648478129958861
 40
3.928509979727306
 40
4.337226830236035
 40
4.337226830236035
 40
4.337226830236035
 40
4.337226830236035
 10
915.7131771294883
 20
454.7725882301234
 10
915.7323248318517
 20
454.7884111866249
 10
915.7686427880996
 20
454.8260442021957
 10
915.8330586637791
 20
454.8870389357739
 10
915.8898231549592
 20
454.9581026406434
 10
915.9598462415956
 20
455.0156972829092
 10
915.9963000415743
 20
455.0861110024989
 10
916.0488453166795
 20
455.1414898931405
 10
916.0929221981447
 20
455.2270171271285
 10
916.1303192536163
 20
455.3252608251709
 10
916.1659721821131
 20
455.4533196185039
 10
916.1796347521173
 20
455.5977889724196
 10
916.159412449428
 20
455.7375629998309
 10
916.1105604781319
 20
455.8420394940926
 10
916.0746451285714
 20
455.9291098843776
 10
916.0201390860311
 20
456.0115808748196
 10
915.9579550583533
 20
456.1012771972492
 10
915.8703487745198
 20
456.1754705773686
 10
915.7558563562927
 20
456.2649597494228
 10
915.6492152177973
 20
456.2683860192162
 10
915.5859322958217
 20
456.2704192342312
 72
     1
 10
915.5859322958219
 20
456.2704192342312
 11
914.6210630945834
 21
456.2704192342311
 97
        6
330
1D39
330
1D63
330
1D3E
330
1D5B
330
1D59
330
1D5A
 75
     0
 76
     1
 47
0.088756267210375
 98
        1
 10
914.9102069565255
 20
455.8021508775091
450
        0
451
        0
460
0.0
461
0.0
452
        0
462
0.0
453
        0
470

  0
HATCH
  5
1D40
330
18
100
AcDbEntity
  8
ROGO
 62
     4
100
AcDbHatch
 10
0.0
 20
0.0
 30
0.0
210
0.0
220
0.0
230
1.0
  2
SOLID
 70
     1
 71
     1
 91
        1
 92
        7
 72
     0
 73
     1
 93
       11
 10
920.2119805615522
 20
455.78774013973
 10
920.4491485092409
 20
456.2633770952954
 10
919.4770408403069
 20
456.2633770952954
 10
918.1615840853028
 20
453.6252472289876
 10
919.133691754237
 20
453.6252472289876
 10
919.4770408403071
 20
454.3138289517129
 10
919.8203899263772
 20
453.6252472289877
 10
920.7924763263772
 20
453.6252472289876
 10
920.1347479488754
 20
454.9443121621417
 10
921.7327734785866
 20
456.2633770952954
 10
920.7606870785866
 20
456.2633770952954
 97
       11
330
1D65
330
1D34
330
1D32
330
1D5F
330
1D37
330
1D1B
330
1D58
330
1D5D
330
1D44
330
1D5E
330
1D33
 75
     0
 76
     1
 47
0.015942268611278
 98
        1
 10
920.0017917220968
 20
455.4075170195016
450
        0
451
        0
460
0.0
461
0.0
452
        0
462
0.0
453
        0
470

  0
LINE
  5
1D41
102
{ACAD_REACTORS
330
1D19
102
}
330
18
100
AcDbEntity
  8
ROGO
 62
     4
100
AcDbLine
 10
908.1630501184786
 20
456.2633770952954
 30
0.0
 11
907.9716918668198
 21
455.8766312415484
 31
0.0
  0
LINE
  5
1D42
102
{ACAD_REACTORS
330
1D43
102
}
330
18
100
AcDbEntity
  8
ROGO
 62
     4
100
AcDbLine
 10
908.8245427451614
 20
456.2633770952954
 30
0.0
 11
907.6070557493196
 21
454.5750478988644
 31
0.0
  0
HATCH
  5
1D43
330
18
100
AcDbEntity
  8
ROGO
 62
     4
100
AcDbHatch
 10
0.0
 20
0.0
 30
0.0
210
0.0
220
0.0
230
1.0
  2
SOLID
 70
     1
 71
     1
 91
        2
 92
        7
 72
     0
 73
     1
 93
        8
 10
910.1750615087246
 20
456.2633770952954
 10
908.8245427451614
 20
456.2633770952953
 10
907.6070557493197
 20
454.5750478988645
 10
908.5420879300656
 20
454.5750478988643
 10
908.7738899212414
 20
454.8964953318382
 10
909.8408746211067
 20
454.8964953318382
 10
909.9836743079098
 20
454.5750478988645
 10
910.9250842363602
 20
454.5750478988644
 97
        8
330
1D61
330
1D42
330
1D4F
330
1D4E
330
1D4C
330
1D51
330
1D52
330
1D3D
 92
       22
 72
     0
 73
     1
 93
        3
 10
909.434135703688
 20
455.8120798392145
 10
909.6902594853347
 20
455.2355356325903
 10
909.018378471285
 20
455.2355356325903
 97
        3
330
1D4D
330
1D4B
330
1D50
 75
     0
 76
     1
 47
0.0128389261915577
 98
        2
 10
910.0693052183729
 20
455.8583232022552
 10
910.0693052183729
 20
455.8583232022552
450
        0
451
        0
460
0.0
461
0.0
452
        0
462
0.0
453
        0
470

  0
LINE
  5
1D44
102
{ACAD_REACTORS
330
1D40
102
}
330
18
100
AcDbEntity
  8
ROGO
 62
     4
100
AcDbLine
 10
919.8203899263772
 20
453.6252472289876
 30
0.0
 11
920.7924763263772
 21
453.6252472289876
 31
0.0
  0
LINE
  5
1D45
330
18
100
AcDbEntity
  8
ROGO
 62
     4
100
AcDbLine
 10
911.3874520556533
 20
454.5750478988644
 30
0.0
 11
912.8416322178022
 21
454.5750478988644
 31
0.0
  0
LINE
  5
1D46
330
18
100
AcDbEntity
  8
ROGO
 62
     4
100
AcDbLine
 10
912.313705395239
 20
455.6352091710166
 30
0.0
 11
913.370262868119
 21
455.6352091710166
 31
0.0
  0
LINE
  5
1D47
330
18
100
AcDbEntity
  8
ROGO
 62
     4
100
AcDbLine
 10
912.0752638318393
 20
455.2032091710166
 30
0.0
 11
913.1548537158179
 21
455.2032091710166
 31
0.0
  0
SPLINE
  5
1D48
330
18
100
AcDbEntity
  8
ROGO
 62
     4
100
AcDbSpline
210
0.0
220
0.0
230
1.0
 70
     8
 71
     3
 72
    16
 73
    12
 74
    10
 42
0.0000000001
 43
0.0000000001
 44
0.0000000001
 40
0.0
 40
0.0
 40
0.0
 40
0.0
 40
0.1614737604380397
 40
0.2403420478032769
 40
0.279234489187282
 40
0.320220789027997
 40
0.3789130531806562
 40
0.4323552828341136
 40
0.488094283296473
 40
0.5815447451499928
 40
0.6740411735369377
 40
0.6740411735369377
 40
0.6740411735369377
 40
0.6740411735369377
 10
912.313705395239
 20
455.6352091710166
 30
0.0
 10
912.2590230568686
 20
455.6268724796257
 30
0.0
 10
912.177632339597
 20
455.6144639156873
 30
0.0
 10
912.1040306592368
 20
455.5562016352897
 30
0.0
 10
912.0625244217913
 20
455.5215394565973
 30
0.0
 10
912.0484038148971
 20
455.4756368926487
 30
0.0
 10
912.0104802990759
 20
455.4403907698887
 30
0.0
 10
911.9792205349483
 20
455.3919512518251
 30
0.0
 10
911.9717564118682
 20
455.3254187891631
 30
0.0
 10
911.9772352491015
 20
455.2320506174154
 30
0.0
 10
912.0426995964045
 20
455.212790046559
 30
0.0
 10
912.0752638318395
 20
455.2032091710166
 30
0.0
 11
912.313705395239
 21
455.6352091710166
 31
0.0
 11
912.1578015191985
 21
455.5931644716413
 31
0.0
 11
912.0936057745147
 21
455.5473483924068
 31
0.0
 11
912.0660933878417
 21
455.5198585656274
 31
0.0
 11
912.0477514451664
 21
455.4832054632549
 31
0.0
 11
912.0110680871556
 21
455.4373893840205
 31
0.0
 11
911.9835557004826
 21
455.3915730060548
 31
0.0
 11
911.9743847291449
 21
455.3365936512272
 31
0.0
 11
911.9927266718203
 21
455.2449608952962
 31
0.0
 11
912.0752638318395
 21
455.2032091710166
 31
0.0
  0
LINE
  5
1D49
330
18
100
AcDbEntity
  8
ROGO
 62
     4
100
AcDbLine
 10
913.1548537158179
 20
455.2032091710166
 30
0.0
 11
912.8416322178022
 21
454.5750478988644
 31
0.0
  0
LINE
  5
1D4A
102
{ACAD_REACTORS
330
1D19
102
}
330
18
100
AcDbEntity
  8
ROGO
 62
     4
100
AcDbLine
 10
907.8220734932928
 20
455.5742440431687
 30
0.0
 11
907.6686538674909
 21
455.2641742988643
 31
0.0
  0
LINE
  5
1D4B
102
{ACAD_REACTORS
330
1D43
102
}
330
18
100
AcDbEntity
  8
ROGO
 62
     4
100
AcDbLine
 10
909.4341357036878
 20
455.8120798392145
 30
0.0
 11
909.018378471285
 21
455.2355356325903
 31
0.0
  0
LINE
  5
1D4C
102
{ACAD_REACTORS
330
1D43
102
}
330
18
100
AcDbEntity
  8
ROGO
 62
     4
100
AcDbLine
 10
908.7738899212412
 20
454.8964953318382
 30
0.0
 11
909.8408746211068
 21
454.8964953318382
 31
0.0
  0
LINE
  5
1D4D
102
{ACAD_REACTORS
330
1D43
102
}
330
18
100
AcDbEntity
  8
ROGO
 62
     4
100
AcDbLine
 10
909.018378471285
 20
455.2355356325903
 30
0.0
 11
909.6902594853347
 21
455.2355356325903
 31
0.0
  0
LINE
  5
1D4E
102
{ACAD_REACTORS
330
1D43
102
}
330
18
100
AcDbEntity
  8
ROGO
 62
     4
100
AcDbLine
 10
908.7738899212412
 20
454.8964953318382
 30
0.0
 11
908.5420879300659
 21
454.5750478988645
 31
0.0
  0
LINE
  5
1D4F
102
{ACAD_REACTORS
330
1D43
102
}
330
18
100
AcDbEntity
  8
ROGO
 62
     4
100
AcDbLine
 10
907.6070557493196
 20
454.5750478988644
 30
0.0
 11
908.5420879300659
 21
454.5750478988644
 31
0.0
  0
LINE
  5
1D50
102
{ACAD_REACTORS
330
1D43
102
}
330
18
100
AcDbEntity
  8
ROGO
 62
     4
100
AcDbLine
 10
909.4341357036878
 20
455.8120798392145
 30
0.0
 11
909.6902594853347
 21
455.2355356325903
 31
0.0
  0
LINE
  5
1D51
102
{ACAD_REACTORS
330
1D43
102
}
330
18
100
AcDbEntity
  8
ROGO
 62
     4
100
AcDbLine
 10
909.8408746211068
 20
454.8964953318382
 30
0.0
 11
909.9836743079098
 21
454.5750478988644
 31
0.0
  0
LINE
  5
1D52
102
{ACAD_REACTORS
330
1D43
102
}
330
18
100
AcDbEntity
  8
ROGO
 62
     4
100
AcDbLine
 10
910.9250842363604
 20
454.5750478988645
 30
0.0
 11
909.9836743079098
 21
454.5750478988644
 31
0.0
  0
LINE
  5
1D53
330
18
100
AcDbEntity
  8
ROGO
 62
     4
100
AcDbLine
 10
916.8273989039892
 20
454.5750478988644
 30
0.0
 11
918.2815790661381
 21
454.5750478988644
 31
0.0
  0
SPLINE
  5
1D54
330
18
100
AcDbEntity
  8
ROGO
 62
     4
100
AcDbSpline
210
0.0
220
0.0
230
1.0
 70
     8
 71
     3
 72
    16
 73
    12
 74
    10
 42
0.0000000001
 43
0.0000000001
 44
0.0000000001
 40
0.0
 40
0.0
 40
0.0
 40
0.0
 40
0.1614737604380397
 40
0.2403420478033429
 40
0.2792344891871872
 40
0.320220789028004
 40
0.3789130531806808
 40
0.4323552828340408
 40
0.4880942832964002
 40
0.5815447451500316
 40
0.6740411735369252
 40
0.6740411735369252
 40
0.6740411735369252
 40
0.6740411735369252
 10
917.7536522435747
 20
455.6352091710166
 30
0.0
 10
917.6989699052043
 20
455.6268724796258
 30
0.0
 10
917.6175791879327
 20
455.6144639156874
 30
0.0
 10
917.5439775075727
 20
455.5562016352896
 30
0.0
 10
917.5024712701278
 20
455.5215394565973
 30
0.0
 10
917.4883506632321
 20
455.4756368926486
 30
0.0
 10
917.4504271474116
 20
455.4403907698886
 30
0.0
 10
917.4191673832838
 20
455.3919512518249
 30
0.0
 10
917.4117032602042
 20
455.3254187891631
 30
0.0
 10
917.4171820974372
 20
455.2320506174153
 30
0.0
 10
917.4826464447402
 20
455.212790046559
 30
0.0
 10
917.5152106801753
 20
455.2032091710166
 30
0.0
 11
917.7536522435747
 21
455.6352091710166
 31
0.0
 11
917.5977483675342
 21
455.5931644716413
 31
0.0
 11
917.5335526228506
 21
455.5473483924067
 31
0.0
 11
917.5060402361777
 21
455.5198585656274
 31
0.0
 11
917.4876982935021
 21
455.4832054632549
 31
0.0
 11
917.4510149354913
 21
455.4373893840203
 31
0.0
 11
917.4235025488185
 21
455.3915730060548
 31
0.0
 11
917.4143315774806
 21
455.3365936512272
 31
0.0
 11
917.4326735201562
 21
455.2449608952961
 31
0.0
 11
917.5152106801753
 21
455.2032091710166
 31
0.0
  0
LINE
  5
1D55
330
18
100
AcDbEntity
  8
ROGO
 62
     4
100
AcDbLine
 10
918.5948005641536
 20
455.2032091710166
 30
0.0
 11
918.2815790661381
 21
454.5750478988644
 31
0.0
  0
LINE
  5
1D56
330
18
100
AcDbEntity
  8
ROGO
 62
     4
100
AcDbLine
 10
917.5152106801752
 20
455.2032091710166
 30
0.0
 11
918.5948005641536
 21
455.2032091710166
 31
0.0
  0
LINE
  5
1D57
330
18
100
AcDbEntity
  8
ROGO
 62
     4
100
AcDbLine
 10
917.7536522435747
 20
455.6352091710166
 30
0.0
 11
918.8102097164549
 21
455.6352091710166
 31
0.0
  0
LINE
  5
1D58
102
{ACAD_REACTORS
330
1D40
102
}
330
18
100
AcDbEntity
  8
ROGO
 62
     4
100
AcDbLine
 10
919.4770408403071
 20
454.3138289517129
 30
0.0
 11
919.1336917542368
 21
453.6252472289876
 31
0.0
  0
SPLINE
  5
1D59
102
{ACAD_REACTORS
330
1D3F
102
}
330
18
100
AcDbEntity
  8
ROGO
 62
     4
100
AcDbSpline
210
0.0
220
0.0
230
1.0
 70
     8
 71
     3
 72
    11
 73
     7
 74
     0
 42
0.0000000001
 43
0.0000000001
 40
0.1647869275458134
 40
0.1647869275458134
 40
0.1647869275458134
 40
0.1647869275458134
 40
0.2895635144633836
 40
0.5387013147903714
 40
0.7953622617455423
 40
0.8850764140209602
 40
0.8850764140209602
 40
0.8850764140209602
 40
0.8850764140209602
 10
915.4133039349179
 20
454.6126890448896
 30
0.0
 10
915.3953315227454
 20
454.6076864171114
 30
0.0
 10
915.3396073651872
 20
454.5987795159606
 30
0.0
 10
915.2461375217241
 20
454.5865492946234
 30
0.0
 10
915.1572991104572
 20
454.5737866124432
 30
0.0
 10
915.1053167885347
 20
454.574788421609
 30
0.0
 10
915.0918529166949
 20
454.5750478988644
 30
0.0
  0
SPLINE
  5
1D5A
102
{ACAD_REACTORS
330
1D3F
102
}
330
18
100
AcDbEntity
  8
ROGO
 62
     4
100
AcDbSpline
210
0.0
220
0.0
230
1.0
 70
     8
 71
     3
 72
     9
 73
     5
 74
     3
 42
0.0000000001
 43
0.0000000001
 44
0.0000000001
 40
0.0
 40
0.0
 40
0.0
 40
0.0
 40
0.146030572742497
 40
0.3423777932799819
 40
0.3423777932799819
 40
0.3423777932799819
 40
0.3423777932799819
 10
915.4133039349179
 20
454.6126890448896
 30
0.0
 10
915.4602131798981
 20
454.6270406245338
 30
0.0
 10
915.570194832912
 20
454.6606887988603
 30
0.0
 10
915.6610648722164
 20
454.731804635999
 30
0.0
 10
915.7131771294883
 20
454.7725882301234
 30
0.0
 11
915.4133039349179
 21
454.6126890448896
 31
0.0
 11
915.5505549174925
 21
454.6625598375221
 31
0.0
 11
915.7131771294883
 21
454.7725882301234
 31
0.0
  0
LINE
  5
1D5B
102
{ACAD_REACTORS
330
1D3F
102
}
330
18
100
AcDbEntity
  8
ROGO
 62
     4
100
AcDbLine
 10
914.1269837154565
 20
454.5750478988644
 30
0.0
 11
915.0918529166949
 21
454.5750478988644
 31
0.0
  0
ELLIPSE
  5
1D5C
330
18
100
AcDbEntity
  8
ROGO
 62
     4
100
AcDbEllipse
 10
914.8427953162514
 20
455.399095815664
 30
0.0
 11
0.2292231973722778
 21
0.2015731185223643
 31
0.0
210
0.0
220
0.0
230
1.0
 40
0.6788083417438792
 41
0.0
 42
6.283185307179586
  0
LINE
  5
1D5D
102
{ACAD_REACTORS
330
1D40
102
}
330
18
100
AcDbEntity
  8
ROGO
 62
     4
100
AcDbLine
 10
919.4770408403071
 20
454.3138289517129
 30
0.0
 11
919.8203899263772
 21
453.6252472289876
 31
0.0
  0
LINE
  5
1D5E
102
{ACAD_REACTORS
330
1D40
102
}
330
18
100
AcDbEntity
  8
ROGO
 62
     4
100
AcDbLine
 10
920.1347479488751
 20
454.9443121621415
 30
0.0
 11
920.7924763263772
 21
453.6252472289876
 31
0.0
  0
LINE
  5
1D5F
102
{ACAD_REACTORS
330
1D40
102
}
330
18
100
AcDbEntity
  8
ROGO
 62
     4
100
AcDbLine
 10
919.4770408403071
 20
456.2633770952954
 30
0.0
 11
920.4491485092409
 21
456.2633770952954
 31
0.0
  0
LINE
  5
1D60
330
18
100
AcDbEntity
  8
ROGO
 62
     4
100
AcDbLine
 10
911.9927266718208
 20
456.2633770952955
 30
0.0
 11
913.6834876830999
 21
456.2633770952955
 31
0.0
  0
LINE
  5
1D61
102
{ACAD_REACTORS
330
1D43
102
}
330
18
100
AcDbEntity
  8
ROGO
 62
     4
100
AcDbLine
 10
908.8245427451614
 20
456.2633770952954
 30
0.0
 11
910.1750615087246
 21
456.2633770952954
 31
0.0
  0
LINE
  5
1D62
330
18
100
AcDbEntity
  8
ROGO
 62
     4
100
AcDbLine
 10
917.4326735201566
 20
456.2633770952954
 30
0.0
 11
919.1234345314356
 21
456.2633770952954
 31
0.0
  0
LINE
  5
1D63
102
{ACAD_REACTORS
330
1D3F
102
}
330
18
100
AcDbEntity
  8
ROGO
 62
     4
100
AcDbLine
 10
914.6210630945834
 20
456.2704192342312
 30
0.0
 11
915.5859322958217
 21
456.2704192342312
 31
0.0
  0
LINE
  5
1D64
330
18
100
AcDbEntity
  8
外形線
100
AcDbLine
 10
922.5599249329722
 20
468.1032251879853
 30
0.0
 11
922.5599249329722
 21
467.0310431695122
 31
0.0
  0
LINE
  5
1D65
102
{ACAD_REACTORS
330
1D40
102
}
330
18
100
AcDbEntity
  8
ROGO
 62
     4
100
AcDbLine
 10
920.7606870785868
 20
456.2633770952954
 30
0.0
 11
921.7327734785866
 21
456.2633770952954
 31
0.0
  0
LINE
  5
1D66
330
18
100
AcDbEntity
  8
外形線
100
AcDbLine
 10
895.5599249329722
 20
425.6204716956064
 30
0.0
 11
895.5599249329722
 21
415.4772908605327
 31
0.0
  0
LINE
  5
1D67
330
18
100
AcDbEntity
  8
外形線
100
AcDbLine
 10
927.5599249329722
 20
425.6204716956064
 30
0.0
 11
927.5599249329722
 21
415.4772908605327
 31
0.0
  0
LINE
  5
1D68
330
18
100
AcDbEntity
  8
外形線
100
AcDbLine
 10
896.5599249329722
 20
426.6204716956064
 30
0.0
 11
926.5599249329723
 21
426.6204716956064
 31
0.0
  0
ARC
  5
1D69
330
18
100
AcDbEntity
  8
外形線
100
AcDbCircle
 10
911.5599249329722
 20
439.1204716956064
 30
0.0
 40
29.0
100
AcDbArc
 50
56.51462337700685
 51
123.4853766229931
  0
ARC
  5
1D6A
330
18
100
AcDbEntity
  8
外形線
100
AcDbCircle
 10
911.5599249329722
 20
439.1204716956064
 30
0.0
 40
29.0
100
AcDbArc
 50
237.6076345141536
 51
302.3923654858464
  0
ARC
  5
1D6B
330
18
100
AcDbEntity
  8
外形線
100
AcDbCircle
 10
896.5599249329722
 20
425.6204716956064
 30
0.0
 40
1.0
100
AcDbArc
 50
90.0
 51
180.0
  0
ARC
  5
1D6C
330
18
100
AcDbEntity
  8
外形線
100
AcDbCircle
 10
926.5599249329723
 20
425.6204716956064
 30
0.0
 40
1.0
100
AcDbArc
 50
0.0
 51
90.0
  0
ARC
  5
1D6D
330
18
100
AcDbEntity
  8
外形線
100
AcDbCircle
 10
926.5599249329723
 20
415.4772908605327
 30
0.0
 40
1.0
100
AcDbArc
 50
302.3923654858419
 51
0.0
  0
ARC
  5
1D6E
330
18
100
AcDbEntity
  8
外形線
100
AcDbCircle
 10
896.5599249329722
 20
415.4772908605327
 30
0.0
 40
1.0
100
AcDbArc
 50
180.0
 51
237.6076345141571
  0
ELLIPSE
  5
1D6F
330
18
100
AcDbEntity
  8
外形線
100
AcDbEllipse
 10
919.4087068205808
 20
419.2121882224271
 30
0.0
 11
-4.089143464216689
 21
0.0
 31
0.0
210
0.0
220
0.0
230
1.0
 40
0.6358299782710266
 41
0.0
 42
6.283185307179586
  0
ELLIPSE
  5
1D70
330
18
100
AcDbEntity
  8
外形線
100
AcDbEllipse
 10
904.2325111235719
 20
419.2121882224271
 30
0.0
 11
-4.089143464216689
 21
0.0
 31
0.0
210
0.0
220
0.0
230
1.0
 40
0.6358299782710266
 41
0.0
 42
6.283185307179586
  0
TEXT
  5
1D71
330
18
100
AcDbEntity
  8
寸法線
100
AcDbText
 10
917.7144212416701
 20
413.077740530168
 30
0.0
 40
1.199999999999999
  1
SET
  7
STYLE4
100
AcDbText
  0
ELLIPSE
  5
1D72
330
18
100
AcDbEntity
  8
外形線
100
AcDbEllipse
 10
919.4087068205808
 20
419.2121882224271
 30
0.0
 11
-5.473687379191062
 21
0.0
 31
0.0
210
0.0
220
0.0
230
1.0
 40
0.7307688077339824
 41
0.0
 42
6.283185307179586
  0
ELLIPSE
  5
1D73
330
18
100
AcDbEntity
  8
外形線
100
AcDbEllipse
 10
904.2325111235719
 20
419.2121882224271
 30
0.0
 11
-5.473687379191062
 21
0.0
 31
0.0
210
0.0
220
0.0
230
1.0
 40
0.7307688077339824
 41
0.0
 42
6.283185307179586
  0
LINE
  5
1D74
330
18
100
AcDbEntity
  8
外形線
100
AcDbLine
 10
905.5599249329722
 20
406.0204716956063
 30
0.0
 11
917.5599249329721
 21
406.0204716956065
 31
0.0
  0
LINE
  5
1D75
330
18
100
AcDbEntity
  8
外形線
100
AcDbLine
 10
905.5599249329722
 20
406.0204716956063
 30
0.0
 11
906.5599249329721
 21
404.0204716956064
 31
0.0
  0
LINE
  5
1D76
330
18
100
AcDbEntity
  8
外形線
100
AcDbLine
 10
917.5599249329721
 20
406.0204716956065
 30
0.0
 11
916.5599249329721
 21
404.0204716956065
 31
0.0
  0
LINE
  5
1D77
330
18
100
AcDbEntity
  8
外形線
100
AcDbLine
 10
905.5599249329722
 20
406.5204716956064
 30
0.0
 11
917.5599249329721
 21
406.5204716956065
 31
0.0
  0
LINE
  5
1D78
330
18
100
AcDbEntity
  8
中心線
 48
0.3
100
AcDbLine
 10
897.2629230260057
 20
419.2121882224271
 30
0.0
 11
911.2020992211379
 21
419.2121882224271
 31
0.0
  0
LINE
  5
1D79
330
18
100
AcDbEntity
  8
中心線
 48
0.3
100
AcDbLine
 10
904.2325111235719
 20
424.5297982062176
 30
0.0
 11
904.2325111235719
 21
413.9309494659774
 31
0.0
  0
LINE
  5
1D7A
330
18
100
AcDbEntity
  8
中心線
 48
0.3
100
AcDbLine
 10
919.4087068205808
 20
424.5297982062176
 30
0.0
 11
919.4087068205808
 21
413.9309494659774
 31
0.0
  0
LINE
  5
1D7B
330
18
100
AcDbEntity
  8
中心線
 48
0.3
100
AcDbLine
 10
912.4391187230147
 20
419.2121882224271
 30
0.0
 11
926.378294918147
 21
419.2121882224271
 31
0.0
  0
LINE
  5
1D7C
330
18
100
AcDbEntity
  8
外形線
100
AcDbLine
 10
916.5599249329723
 20
494.0204716956064
 30
0.0
 11
916.5599249329723
 21
486.7204716956065
 31
0.0
  0
LINE
  5
1D7D
330
18
100
AcDbEntity
  8
外形線
100
AcDbLine
 10
906.5599249329723
 20
494.0204716956065
 30
0.0
 11
906.5599249329721
 21
486.7204716956065
 31
0.0
  0
LINE
  5
1D7E
330
18
100
AcDbEntity
  8
外形線
100
AcDbLine
 10
906.5599249329723
 20
486.7204716956065
 30
0.0
 11
916.5599249329723
 21
486.7204716956065
 31
0.0
  0
LINE
  5
1D7F
330
18
100
AcDbEntity
  8
外形線
100
AcDbLine
 10
906.5599249329723
 20
486.1204716956065
 30
0.0
 11
916.5599249329723
 21
486.1204716956065
 31
0.0
  0
LINE
  5
1D80
330
18
100
AcDbEntity
  8
外形線
100
AcDbLine
 10
905.5599249329722
 20
485.1204716956064
 30
0.0
 11
917.5599249329723
 21
485.1204716956064
 31
0.0
  0
LINE
  5
1D81
330
18
100
AcDbEntity
  8
外形線
100
AcDbLine
 10
905.5599249329723
 20
485.1204716956064
 30
0.0
 11
906.5599249329723
 21
486.1204716956065
 31
0.0
  0
LINE
  5
1D82
330
18
100
AcDbEntity
  8
外形線
100
AcDbLine
 10
907.5599249329721
 20
486.7204716956065
 30
0.0
 11
907.5599249329721
 21
486.1204716956065
 31
0.0
  0
POINT
  5
1D83
330
18
100
AcDbEntity
  8
DEFPOINTS
  6
ByBlock
 62
     0
100
AcDbPoint
 10
906.5599249329723
 20
486.1204716956065
 30
0.0
  0
LINE
  5
1D84
330
18
100
AcDbEntity
  8
外形線
100
AcDbLine
 10
916.5599249329723
 20
486.1204716956065
 30
0.0
 11
917.5599249329723
 21
485.1204716956064
 31
0.0
  0
LINE
  5
1D85
330
18
100
AcDbEntity
  8
外形線
100
AcDbLine
 10
915.5599249329723
 20
486.7204716956066
 30
0.0
 11
915.5599249329723
 21
486.1204716956065
 31
0.0
  0
LINE
  5
1D86
330
18
100
AcDbEntity
  8
外形線
100
AcDbLine
 10
908.0599249329722
 20
503.1204716956064
 30
0.0
 11
915.0599249329722
 21
503.1204716956064
 31
0.0
  0
LINE
  5
1D87
330
18
100
AcDbEntity
  8
外形線
100
AcDbLine
 10
906.5599249329723
 20
494.0204716956065
 30
0.0
 11
916.5599249329723
 21
494.0204716956064
 31
0.0
  0
LINE
  5
1D88
330
18
100
AcDbEntity
  8
外形線
100
AcDbLine
 10
906.5599249329723
 20
495.5204716956065
 30
0.0
 11
916.5599249329723
 21
495.5204716956064
 31
0.0
  0
LINE
  5
1D89
330
18
100
AcDbEntity
  8
外形線
100
AcDbLine
 10
906.5599249329723
 20
496.8204716956066
 30
0.0
 11
916.5599249329723
 21
496.8204716956065
 31
0.0
  0
LINE
  5
1D8A
330
18
100
AcDbEntity
  8
外形線
100
AcDbLine
 10
906.5599249329723
 20
497.8204716956065
 30
0.0
 11
916.5599249329723
 21
497.8204716956065
 31
0.0
  0
LINE
  5
1D8B
330
18
100
AcDbEntity
  8
外形線
100
AcDbLine
 10
906.5599249329723
 20
499.1204716956065
 30
0.0
 11
916.5599249329723
 21
499.1204716956065
 31
0.0
  0
LINE
  5
1D8C
330
18
100
AcDbEntity
  8
外形線
100
AcDbLine
 10
906.5599249329723
 20
500.1204716956065
 30
0.0
 11
916.5599249329723
 21
500.1204716956065
 31
0.0
  0
LINE
  5
1D8D
330
18
100
AcDbEntity
  8
外形線
100
AcDbLine
 10
906.5599249329723
 20
501.6204716956064
 30
0.0
 11
906.5599249329723
 21
500.1204716956065
 31
0.0
  0
LINE
  5
1D8E
330
18
100
AcDbEntity
  8
外形線
100
AcDbLine
 10
907.5599249329721
 20
500.1204716956065
 30
0.0
 11
907.5599249329721
 21
499.1204716956065
 31
0.0
  0
LINE
  5
1D8F
330
18
100
AcDbEntity
  8
外形線
100
AcDbLine
 10
907.5599249329721
 20
497.8204716956064
 30
0.0
 11
907.5599249329721
 21
496.8204716956065
 31
0.0
  0
LINE
  5
1D90
330
18
100
AcDbEntity
  8
外形線
100
AcDbLine
 10
906.5599249329723
 20
499.1204716956065
 30
0.0
 11
906.5599249329723
 21
497.8204716956065
 31
0.0
  0
ARC
  5
1D91
330
18
100
AcDbEntity
  8
外形線
100
AcDbCircle
 10
908.0599249329722
 20
501.6204716956064
 30
0.0
 40
1.5
100
AcDbArc
 50
90.0
 51
180.0
  0
LINE
  5
1D92
330
18
100
AcDbEntity
  8
外形線
100
AcDbLine
 10
907.5599249329721
 20
495.5204716956065
 30
0.0
 11
907.5599249329721
 21
494.0204716956064
 31
0.0
  0
LINE
  5
1D93
330
18
100
AcDbEntity
  8
外形線
100
AcDbLine
 10
906.5599249329723
 20
496.8204716956066
 30
0.0
 11
906.5599249329723
 21
495.5204716956065
 31
0.0
  0
LINE
  5
1D94
330
18
100
AcDbEntity
  8
外形線
100
AcDbLine
 10
916.5599249329723
 20
501.6204716956064
 30
0.0
 11
916.5599249329723
 21
500.1204716956063
 31
0.0
  0
LINE
  5
1D95
330
18
100
AcDbEntity
  8
外形線
100
AcDbLine
 10
915.5599249329723
 20
500.1204716956064
 30
0.0
 11
915.5599249329723
 21
499.1204716956065
 31
0.0
  0
LINE
  5
1D96
330
18
100
AcDbEntity
  8
外形線
100
AcDbLine
 10
915.5599249329723
 20
497.8204716956065
 30
0.0
 11
915.5599249329723
 21
496.8204716956064
 31
0.0
  0
LINE
  5
1D97
330
18
100
AcDbEntity
  8
外形線
100
AcDbLine
 10
916.5599249329723
 20
499.1204716956064
 30
0.0
 11
916.5599249329723
 21
497.8204716956064
 31
0.0
  0
ARC
  5
1D98
330
18
100
AcDbEntity
  8
外形線
100
AcDbCircle
 10
915.0599249329722
 20
501.6204716956064
 30
0.0
 40
1.5
100
AcDbArc
 50
0.0
 51
90.0
  0
LINE
  5
1D99
330
18
100
AcDbEntity
  8
外形線
100
AcDbLine
 10
915.5599249329723
 20
495.5204716956064
 30
0.0
 11
915.5599249329723
 21
494.0204716956064
 31
0.0
  0
LINE
  5
1D9A
330
18
100
AcDbEntity
  8
外形線
100
AcDbLine
 10
916.5599249329723
 20
496.8204716956065
 30
0.0
 11
916.5599249329723
 21
495.5204716956064
 31
0.0
  0
LINE
  5
1D9B
330
18
100
AcDbEntity
  8
隠れ線2
100
AcDbLine
 10
907.8099249329723
 20
383.0204716956065
 30
0.0
 11
915.3099249329722
 21
383.0204716956065
 31
0.0
  0
LINE
  5
1D9C
330
18
100
AcDbEntity
  8
隠れ線2
100
AcDbLine
 10
913.5599249329722
 20
383.0204716956065
 30
0.0
 11
913.5599249329724
 21
356.7204716956065
 31
0.0
  0
LINE
  5
1D9D
330
18
100
AcDbEntity
  8
隠れ線2
100
AcDbLine
 10
909.5599249329721
 20
383.0204716956065
 30
0.0
 11
909.5599249329721
 21
356.7204716956065
 31
0.0
  0
DIMENSION
  5
1DBD
330
18
100
AcDbEntity
  8
寸法線
100
AcDbDimension
  2
*D3
 10
917.5599249329721
 20
477.3273780213521
 30
0.0
 11
910.896322327183
 21
477.3273780213521
 31
0.0
 70
   160
  1
%%C<>
 71
     5
 42
12.0
  3
STYLE3
100
AcDbAlignedDimension
 13
905.5599249329722
 23
477.3273780213519
 33
0.0
 14
917.5599249329721
 24
477.3273780213521
 34
0.0
100
AcDbRotatedDimension
1001
ACAD
1000
DSTYLE
1002
{
1070
    76
1070
     1
1070
    75
1070
     1
1070
   271
1070
     2
1070
   341
1005
0
1002
}
  0
LINE
  5
2098
330
18
100
AcDbEntity
  8
外形線
100
AcDbLine
 10
911.099924932972
 20
336.6204716956065
 30
0.0
 11
912.0199249329722
 21
336.6204716956065
 31
0.0
  0
LINE
  5
2099
330
18
100
AcDbEntity
  8
外形線
100
AcDbLine
 10
909.0599249329722
 20
341.7204716956065
 30
0.0
 11
914.0599249329723
 21
341.7204716956065
 31
0.0
  0
LINE
  5
209A
330
18
100
AcDbEntity
  8
外形線
100
AcDbLine
 10
914.0599249329723
 20
356.6204716956065
 30
0.0
 11
914.0599249329723
 21
341.7204716956065
 31
0.0
  0
LINE
  5
209B
330
18
100
AcDbEntity
  8
外形線
100
AcDbLine
 10
909.0599249329722
 20
356.6204716956065
 30
0.0
 11
909.0599249329722
 21
341.7204716956065
 31
0.0
  0
LINE
  5
209C
330
18
100
AcDbEntity
  8
外形線
100
AcDbLine
 10
912.0199249329722
 20
336.6204716956065
 30
0.0
 11
914.0599249329723
 21
341.7204716956065
 31
0.0
  0
LINE
  5
209D
330
18
100
AcDbEntity
  8
外形線
100
AcDbLine
 10
909.0599249329722
 20
341.7204716956065
 30
0.0
 11
911.099924932972
 21
336.6204716956065
 31
0.0
  0
LINE
  5
209E
330
18
100
AcDbEntity
  8
外形線
100
AcDbLine
 10
909.0599249329722
 20
354.6204716956065
 30
0.0
 11
914.0599249329723
 21
354.6204716956065
 31
0.0
  0
LINE
  5
209F
330
18
100
AcDbEntity
  8
外形線
100
AcDbLine
 10
909.0599249329722
 20
348.6204716956065
 30
0.0
 11
914.0599249329723
 21
348.6204716956065
 31
0.0
  0
LINE
  5
20A0
330
18
100
AcDbEntity
  8
ﾊｯﾁﾝｸ
 62
     4
100
AcDbLine
 10
911.396213276658
 20
348.6204716956065
 30
0.0
 11
911.5599249329722
 21
348.9040286021339
 31
0.0
  0
LINE
  5
20A1
330
18
100
AcDbEntity
  8
ﾊｯﾁﾝｸ
 62
     4
100
AcDbLine
 10
910.2415127382787
 20
348.6204716956065
 30
0.0
 11
911.5599249329722
 21
350.904028602134
 31
0.0
  0
LINE
  5
20A2
330
18
100
AcDbEntity
  8
ﾊｯﾁﾝｸ
 62
     4
100
AcDbLine
 10
909.0599249329722
 20
348.5739015832117
 30
0.0
 11
911.5599249329722
 21
352.9040286021339
 31
0.0
  0
LINE
  5
20A3
330
18
100
AcDbEntity
  8
ﾊｯﾁﾝｸ
 62
     4
100
AcDbLine
 10
909.0599249329722
 20
350.5739015832117
 30
0.0
 11
911.3962132766582
 21
354.6204716956065
 31
0.0
  0
LINE
  5
20A4
330
18
100
AcDbEntity
  8
ﾊｯﾁﾝｸ
 62
     4
100
AcDbLine
 10
909.0599249329722
 20
352.5739015832118
 30
0.0
 11
910.2415127382787
 21
354.6204716956065
 31
0.0
  0
LINE
  5
20A5
330
18
100
AcDbEntity
  8
ﾊｯﾁﾝｸ
 62
     4
100
AcDbLine
 10
909.0599249329722
 20
354.5739015832117
 30
0.0
 11
909.0868121998996
 21
354.6204716956065
 31
0.0
  0
LINE
  5
20A6
330
18
100
AcDbEntity
  8
ﾊｯﾁﾝｸ
 62
     4
100
AcDbLine
 10
909.6635554863425
 20
348.6204716956065
 30
0.0
 11
909.0599249329722
 21
349.6659904830451
 31
0.0
  0
LINE
  5
20A7
330
18
100
AcDbEntity
  8
ﾊｯﾁﾝｸ
 62
     4
100
AcDbLine
 10
910.8182560247218
 20
348.6204716956065
 30
0.0
 11
909.0599249329722
 21
351.665990483045
 31
0.0
  0
LINE
  5
20A8
330
18
100
AcDbEntity
  8
ﾊｯﾁﾝｸ
 62
     4
100
AcDbLine
 10
911.5599249329722
 20
349.3358634641229
 30
0.0
 11
909.0599249329722
 21
353.6659904830449
 31
0.0
  0
LINE
  5
20A9
330
18
100
AcDbEntity
  8
ﾊｯﾁﾝｸ
 62
     4
100
AcDbLine
 10
911.5599249329722
 20
351.3358634641229
 30
0.0
 11
909.6635554863425
 21
354.6204716956065
 31
0.0
  0
LINE
  5
20AA
330
18
100
AcDbEntity
  8
ﾊｯﾁﾝｸ
 62
     4
100
AcDbLine
 10
911.5599249329722
 20
353.3358634641229
 30
0.0
 11
910.8182560247218
 21
354.6204716956065
 31
0.0
  0
LINE
  5
20AB
330
18
100
AcDbEntity
  8
外形線
100
AcDbLine
 10
909.0599249329722
 20
356.6204716956065
 30
0.0
 11
914.0599249329723
 21
356.6204716956065
 31
0.0
  0
LWPOLYLINE
  5
20D3
330
18
100
AcDbEntity
  8
C
100
AcDbPolyline
 90
        5
 70
     0
 43
0.8
 10
671.1681740922914
 20
552.5077120651927
 10
1048.668174092291
 20
552.5077120651927
 10
1048.668174092291
 20
270.0077120651927
 10
671.1681740922914
 20
270.0077120651927
 10
671.1681740922914
 20
552.5077120651927
  0
LINE
  5
2133
330
18
100
AcDbEntity
  8
外形線
100
AcDbLine
 10
911.5599249329722
 20
356.7204716956065
 30
0.0
 11
971.5599249329722
 21
356.7204716956065
 31
0.0
  0
LINE
  5
2134
330
18
100
AcDbEntity
  8
外形線
100
AcDbLine
 10
911.5599249329722
 20
372.7204716956066
 30
0.0
 11
921.5599249329722
 21
372.7204716956065
 31
0.0
  0
LINE
  5
2135
330
18
100
AcDbEntity
  8
中心線
100
AcDbLine
 10
911.5599249329722
 20
491.1970235783759
 30
0.0
 11
911.5599249329722
 21
334.3059867277871
 31
0.0
  0
LINE
  5
2136
330
18
100
AcDbEntity
  8
外形線
100
AcDbLine
 10
971.5599249329722
 20
365.9104965713823
 30
0.0
 11
971.5599249329722
 21
356.7204716956065
 31
0.0
  0
LINE
  5
2137
330
18
100
AcDbEntity
  8
外形線
100
AcDbLine
 10
921.5599249329722
 20
372.7204716956065
 30
0.0
 11
969.7589323710142
 21
367.9005709518023
 31
0.0
  0
ARC
  5
2138
330
18
100
AcDbEntity
  8
外形線
100
AcDbCircle
 10
969.5599249329722
 20
365.9104965713823
 30
0.0
 40
2.0
100
AcDbArc
 50
0.0
 51
84.28940686250035
  0
LINE
  5
2139
330
18
100
AcDbEntity
  8
外形線
100
AcDbLine
 10
911.5599249329722
 20
372.7204716956066
 30
0.0
 11
901.5599249329723
 21
372.7204716956065
 31
0.0
  0
LINE
  5
213A
330
18
100
AcDbEntity
  8
外形線
100
AcDbLine
 10
911.5599249329722
 20
356.7204716956065
 30
0.0
 11
851.5599249329721
 21
356.7204716956065
 31
0.0
  0
LINE
  5
213B
330
18
100
AcDbEntity
  8
外形線
100
AcDbLine
 10
851.5599249329721
 20
365.9104965713823
 30
0.0
 11
851.5599249329721
 21
356.7204716956065
 31
0.0
  0
LINE
  5
213C
330
18
100
AcDbEntity
  8
外形線
100
AcDbLine
 10
901.5599249329723
 20
372.7204716956065
 30
0.0
 11
853.3609174949301
 21
367.9005709518023
 31
0.0
  0
ARC
  5
213D
330
18
100
AcDbEntity
  8
外形線
100
AcDbCircle
 10
853.5599249329722
 20
365.9104965713823
 30
0.0
 40
2.0
100
AcDbArc
 50
95.71059313749966
 51
180.0
  0
LINE
  5
213E
330
18
100
AcDbEntity
  8
外形線
100
AcDbLine
 10
911.5599249329722
 20
376.7204716956066
 30
0.0
 11
918.0599249329722
 21
376.7204716956065
 31
0.0
  0
LINE
  5
213F
330
18
100
AcDbEntity
  8
外形線
100
AcDbLine
 10
918.0599249329722
 20
376.7204716956065
 30
0.0
 11
918.0599249329722
 21
372.7204716956065
 31
0.0
  0
LINE
  5
2140
330
18
100
AcDbEntity
  8
外形線
100
AcDbLine
 10
917.0599249329722
 20
377.7204716956064
 30
0.0
 11
918.0599249329722
 21
376.7204716956065
 31
0.0
  0
LINE
  5
2141
330
18
100
AcDbEntity
  8
外形線
100
AcDbLine
 10
917.0599249329722
 20
388.5204716956065
 30
0.0
 11
917.0599249329722
 21
377.7204716956065
 31
0.0
  0
LINE
  5
2142
330
18
100
AcDbEntity
  8
外形線
100
AcDbLine
 10
917.0599249329722
 20
377.7204716956065
 30
0.0
 11
911.5599249329722
 21
377.7204716956065
 31
0.0
  0
LINE
  5
2143
330
18
100
AcDbEntity
  8
外形線
100
AcDbLine
 10
917.5599249329721
 20
399.7204716956066
 30
0.0
 11
917.5599249329721
 21
388.5204716956065
 31
0.0
  0
LINE
  5
2144
330
18
100
AcDbEntity
  8
外形線
100
AcDbLine
 10
906.0599249329722
 20
377.7204716956064
 30
0.0
 11
905.0599249329721
 21
376.7204716956065
 31
0.0
  0
LINE
  5
2145
330
18
100
AcDbEntity
  8
外形線
100
AcDbLine
 10
911.5599249329722
 20
376.7204716956066
 30
0.0
 11
905.0599249329721
 21
376.7204716956065
 31
0.0
  0
LINE
  5
2146
330
18
100
AcDbEntity
  8
外形線
100
AcDbLine
 10
905.0599249329721
 20
376.7204716956065
 30
0.0
 11
905.0599249329721
 21
372.7204716956065
 31
0.0
  0
LINE
  5
2147
330
18
100
AcDbEntity
  8
外形線
100
AcDbLine
 10
906.0599249329722
 20
377.7204716956065
 30
0.0
 11
911.5599249329722
 21
377.7204716956065
 31
0.0
  0
LINE
  5
2148
330
18
100
AcDbEntity
  8
隠れ線2
100
AcDbLine
 10
906.0599249329722
 20
388.5204716956065
 30
0.0
 11
906.0599249329722
 21
386.704273208511
 31
0.0
  0
LINE
  5
2149
330
18
100
AcDbEntity
  8
中心線
 48
0.5
100
AcDbLine
 10
903.0599249329721
 20
404.2483882284479
 30
0.0
 11
903.0599249329721
 21
384.0850435704755
 31
0.0
  0
LINE
  5
214A
330
18
100
AcDbEntity
  8
中心線
 48
0.5
100
AcDbLine
 10
892.0423770024978
 20
394.1204716956065
 30
0.0
 11
913.8502846670602
 21
394.1204716956065
 31
0.0
  0
CIRCLE
  5
214B
330
18
100
AcDbEntity
  8
外形線
100
AcDbCircle
 10
903.0599249329721
 20
394.1204716956065
 30
0.0
 40
8.0
  0
LINE
  5
214C
330
18
100
AcDbEntity
  8
隠れ線2
100
AcDbLine
 10
897.4962354064278
 20
399.7204716956065
 30
0.0
 11
908.7730676758065
 21
399.7204716956066
 31
0.0
  0
LINE
  5
214D
330
18
100
AcDbEntity
  8
隠れ線2
100
AcDbLine
 10
897.4962354064274
 20
388.5204716956067
 30
0.0
 11
908.7730676758065
 21
388.5204716956065
 31
0.0
  0
LINE
  5
214E
330
18
100
AcDbEntity
  8
外形線
100
AcDbLine
 10
746.3280217779884
 20
356.7204716956065
 30
0.0
 11
732.3280217779885
 21
356.7204716956065
 31
0.0
  0
LINE
  5
214F
330
18
100
AcDbEntity
  8
外形線
100
AcDbLine
 10
746.3280217779884
 20
372.7204716956065
 30
0.0
 11
732.3280217779885
 21
372.7204716956065
 31
0.0
  0
LINE
  5
2150
330
18
100
AcDbEntity
  8
中心線
 48
0.8
100
AcDbLine
 10
739.3280217779885
 20
506.8331560117385
 30
0.0
 11
739.3280217779885
 21
334.0783502350999
 31
0.0
  0
LINE
  5
2151
330
18
100
AcDbEntity
  8
外形線
100
AcDbLine
 10
746.3280217779884
 20
372.7204716956065
 30
0.0
 11
746.3280217779884
 21
356.7204716956065
 31
0.0
  0
LINE
  5
2152
330
18
100
AcDbEntity
  8
外形線
100
AcDbLine
 10
732.3280217779885
 20
372.7204716956065
 30
0.0
 11
732.3280217779885
 21
356.7204716956065
 31
0.0
  0
LINE
  5
2153
330
18
100
AcDbEntity
  8
外形線
100
AcDbLine
 10
746.3280217779884
 20
367.9005709518023
 30
0.0
 11
732.3280217779885
 21
367.9005709518023
 31
0.0
  0
LINE
  5
2154
330
18
100
AcDbEntity
  8
外形線
100
AcDbLine
 10
744.8280217779885
 20
377.7204716956065
 30
0.0
 11
739.3280217779885
 21
377.7204716956065
 31
0.0
  0
LINE
  5
2155
330
18
100
AcDbEntity
  8
外形線
100
AcDbLine
 10
739.3280217779885
 20
376.7204716956065
 30
0.0
 11
745.8280217779885
 21
376.7204716956065
 31
0.0
  0
LINE
  5
2156
330
18
100
AcDbEntity
  8
外形線
100
AcDbLine
 10
732.8280217779885
 20
376.7204716956065
 30
0.0
 11
732.8280217779885
 21
372.7204716956065
 31
0.0
  0
LINE
  5
2157
330
18
100
AcDbEntity
  8
外形線
100
AcDbLine
 10
733.8280217779884
 20
377.7204716956065
 30
0.0
 11
739.3280217779885
 21
377.7204716956065
 31
0.0
  0
LINE
  5
2158
330
18
100
AcDbEntity
  8
外形線
100
AcDbLine
 10
739.3280217779885
 20
376.7204716956065
 30
0.0
 11
732.8280217779885
 21
376.7204716956065
 31
0.0
  0
LINE
  5
2159
330
18
100
AcDbEntity
  8
外形線
100
AcDbLine
 10
733.8280217779884
 20
377.7204716956064
 30
0.0
 11
732.8280217779885
 21
376.7204716956065
 31
0.0
  0
LINE
  5
215A
330
18
100
AcDbEntity
  8
外形線
100
AcDbLine
 10
745.8280217779885
 20
376.7204716956065
 30
0.0
 11
745.8280217779885
 21
372.7204716956065
 31
0.0
  0
LINE
  5
215B
330
18
100
AcDbEntity
  8
外形線
100
AcDbLine
 10
744.8280217779885
 20
377.7204716956064
 30
0.0
 11
745.8280217779885
 21
376.7204716956065
 31
0.0
  0
LINE
  5
215C
330
18
100
AcDbEntity
  8
外形線
100
AcDbLine
 10
744.8280217779885
 20
388.5204716956065
 30
0.0
 11
744.8280217779885
 21
377.7204716956064
 31
0.0
  0
LINE
  5
215D
330
18
100
AcDbEntity
  8
外形線
100
AcDbLine
 10
733.8280217779884
 20
388.5204716956065
 30
0.0
 11
733.8280217779884
 21
377.7204716956064
 31
0.0
  0
LINE
  5
215E
330
18
100
AcDbEntity
  8
外形線
100
AcDbLine
 10
745.3280217779885
 20
388.5204716956065
 30
0.0
 11
739.8280217779885
 21
388.5204716956065
 31
0.0
  0
LINE
  5
215F
330
18
100
AcDbEntity
  8
外形線
100
AcDbLine
 10
745.3280217779885
 20
399.7204716956066
 30
0.0
 11
745.3280217779885
 21
388.5204716956065
 31
0.0
  0
LINE
  5
2160
330
18
100
AcDbEntity
  8
外形線
100
AcDbLine
 10
733.3280217779885
 20
399.7204716956066
 30
0.0
 11
733.3280217779885
 21
388.5204716956065
 31
0.0
  0
LINE
  5
2161
330
18
100
AcDbEntity
  8
外形線
100
AcDbLine
 10
745.3280217779885
 20
399.7204716956066
 30
0.0
 11
739.8280217779885
 21
399.7204716956066
 31
0.0
  0
LINE
  5
2162
330
18
100
AcDbEntity
  8
外形線
100
AcDbLine
 10
739.8280217779885
 20
384.7204716956065
 30
0.0
 11
738.8280217779885
 21
384.7204716956065
 31
0.0
  0
LINE
  5
2163
330
18
100
AcDbEntity
  8
外形線
100
AcDbLine
 10
739.8280217779885
 20
399.7204716956066
 30
0.0
 11
739.8280217779885
 21
384.7204716956065
 31
0.0
  0
LINE
  5
2164
330
18
100
AcDbEntity
  8
外形線
100
AcDbLine
 10
738.8280217779885
 20
399.7204716956066
 30
0.0
 11
738.8280217779885
 21
384.7204716956065
 31
0.0
  0
LINE
  5
2165
330
18
100
AcDbEntity
  8
外形線
100
AcDbLine
 10
738.8280217779885
 20
399.7204716956065
 30
0.0
 11
733.3280217779885
 21
399.7204716956066
 31
0.0
  0
LINE
  5
2166
330
18
100
AcDbEntity
  8
外形線
100
AcDbLine
 10
738.8280217779885
 20
388.5204716956065
 30
0.0
 11
733.3280217779885
 21
388.5204716956065
 31
0.0
  0
LINE
  5
2167
330
18
100
AcDbEntity
  8
外形線
100
AcDbLine
 10
752.3280217779886
 20
401.6204716956065
 30
0.0
 11
752.3280217779881
 21
389.6204716956065
 31
0.0
  0
LINE
  5
2168
330
18
100
AcDbEntity
  8
外形線
100
AcDbLine
 10
752.8280217779885
 20
386.1204716956065
 30
0.0
 11
752.8280217779885
 21
402.1204716956065
 31
0.0
  0
LINE
  5
2169
330
18
100
AcDbEntity
  8
外形線
100
AcDbLine
 10
756.3280217779885
 20
386.1204716956065
 30
0.0
 11
756.3280217779885
 21
402.1204716956065
 31
0.0
  0
LINE
  5
216A
330
18
100
AcDbEntity
  8
外形線
100
AcDbLine
 10
756.8280217779885
 20
386.6204716956065
 30
0.0
 11
756.8280217779885
 21
401.6204716956065
 31
0.0
  0
LINE
  5
216B
330
18
100
AcDbEntity
  8
外形線
100
AcDbLine
 10
756.3280217779885
 20
402.1204716956065
 30
0.0
 11
752.8280217779885
 21
402.1204716956065
 31
0.0
  0
LINE
  5
216C
330
18
100
AcDbEntity
  8
外形線
100
AcDbLine
 10
756.8280217779885
 20
401.6204716956065
 30
0.0
 11
756.3280217779885
 21
402.1204716956065
 31
0.0
  0
ARC
  5
216D
330
18
100
AcDbEntity
  8
外形線
100
AcDbCircle
 10
751.3280217779885
 20
398.6204716956066
 30
0.0
 40
1.0
100
AcDbArc
 50
270.0
 51
359.9999999999996
  0
LINE
  5
216E
330
18
100
AcDbEntity
  8
外形線
100
AcDbLine
 10
752.8280217779885
 20
402.1204716956065
 30
0.0
 11
752.3280217779885
 21
401.6204716956065
 31
0.0
  0
LINE
  5
216F
330
18
100
AcDbEntity
  8
外形線
 62
     4
100
AcDbLine
 10
752.8280217779885
 20
401.5688449674191
 30
0.0
 11
753.7834672980222
 21
402.1204716956066
 31
0.0
  0
LINE
  5
2170
330
18
100
AcDbEntity
  8
外形線
 62
     4
100
AcDbLine
 10
752.8280217779885
 20
400.4141444290398
 30
0.0
 11
755.7834672980221
 21
402.1204716956066
 31
0.0
  0
LINE
  5
2171
330
18
100
AcDbEntity
  8
外形線
 62
     4
100
AcDbLine
 10
756.3280217779885
 20
401.5402832965272
 30
0.0
 11
755.3231059928211
 21
402.1204716956066
 31
0.0
  0
LINE
  5
2172
330
18
100
AcDbEntity
  8
外形線
 62
     4
100
AcDbLine
 10
756.3280217779885
 20
400.3855827581479
 30
0.0
 11
753.3231059928212
 21
402.1204716956065
 31
0.0
  0
LINE
  5
2173
330
18
100
AcDbEntity
  8
外形線
100
AcDbLine
 10
752.8280217779886
 20
386.1204716956065
 30
0.0
 11
752.3280217779886
 21
386.6204716956065
 31
0.0
  0
LINE
  5
2174
330
18
100
AcDbEntity
  8
外形線
100
AcDbLine
 10
756.8280217779885
 20
386.6204716956065
 30
0.0
 11
756.3280217779885
 21
386.1204716956065
 31
0.0
  0
LINE
  5
2175
330
18
100
AcDbEntity
  8
外形線
 62
     4
100
AcDbLine
 10
752.8280217779885
 20
399.2594438906606
 30
0.0
 11
756.3280217779885
 21
401.2801698328242
 31
0.0
  0
LINE
  5
2176
330
18
100
AcDbEntity
  8
外形線
 62
     4
100
AcDbLine
 10
752.8280217779885
 20
394.6406417371436
 30
0.0
 11
756.3280217779885
 21
396.6613676793074
 31
0.0
  0
LINE
  5
2177
330
18
100
AcDbEntity
  8
外形線
 62
     4
100
AcDbLine
 10
752.8280217779885
 20
395.7953422755229
 30
0.0
 11
756.3280217779886
 21
397.8160682176865
 31
0.0
  0
LINE
  5
2178
330
18
100
AcDbEntity
  8
外形線
 62
     4
100
AcDbLine
 10
752.8280217779885
 20
396.9500428139021
 30
0.0
 11
756.3280217779885
 21
398.9707687560659
 31
0.0
  0
LINE
  5
2179
330
18
100
AcDbEntity
  8
外形線
 62
     4
100
AcDbLine
 10
752.8280217779885
 20
398.1047433522813
 30
0.0
 11
756.3280217779885
 21
400.1254692944448
 31
0.0
  0
LINE
  5
217A
330
18
100
AcDbEntity
  8
外形線
 62
     4
100
AcDbLine
 10
756.3280217779886
 20
399.2308822197688
 30
0.0
 11
752.8280217779885
 21
401.2516081619325
 31
0.0
  0
LINE
  5
217B
330
18
100
AcDbEntity
  8
外形線
 62
     4
100
AcDbLine
 10
756.3280217779886
 20
398.0761816813896
 30
0.0
 11
752.8280217779885
 21
400.0969076235532
 31
0.0
  0
LINE
  5
217C
330
18
100
AcDbEntity
  8
外形線
 62
     4
100
AcDbLine
 10
756.3280217779885
 20
396.9214811430103
 30
0.0
 11
752.8280217779885
 21
398.942207085174
 31
0.0
  0
LINE
  5
217D
330
18
100
AcDbEntity
  8
外形線
 62
     4
100
AcDbLine
 10
756.3280217779885
 20
395.7667806046311
 30
0.0
 11
752.8280217779885
 21
397.7875065467948
 31
0.0
  0
LINE
  5
217E
330
18
100
AcDbEntity
  8
外形線
 62
     4
100
AcDbLine
 10
756.3280217779885
 20
394.6120800662519
 30
0.0
 11
752.8280217779885
 21
396.6328060084155
 31
0.0
  0
LINE
  5
217F
330
18
100
AcDbEntity
  8
外形線
 62
     4
100
AcDbLine
 10
755.1795124533724
 20
394.1204716956065
 30
0.0
 11
752.8280217779885
 21
395.4781054700363
 31
0.0
  0
LINE
  5
2180
330
18
100
AcDbEntity
  8
外形線
 62
     4
100
AcDbLine
 10
755.9270608374707
 20
394.1204716956065
 30
0.0
 11
756.3280217779885
 21
394.351966602549
 31
0.0
  0
LINE
  5
2181
330
18
100
AcDbEntity
  8
外形線
 62
     4
100
AcDbLine
 10
753.9270608374708
 20
394.1204716956065
 30
0.0
 11
756.3280217779883
 21
395.5066671409282
 31
0.0
  0
LINE
  5
2182
330
18
100
AcDbEntity
  8
外形線
 62
     4
100
AcDbLine
 10
753.1795124533724
 20
394.1204716956066
 30
0.0
 11
752.8280217779885
 21
394.3234049316572
 31
0.0
  0
ARC
  5
2183
330
18
100
AcDbEntity
  8
外形線
100
AcDbCircle
 10
751.3280217779885
 20
389.6204716956066
 30
0.0
 40
1.0
100
AcDbArc
 50
0.0000000000003997
 51
90.0
  0
LINE
  5
2184
330
18
100
AcDbEntity
  8
外形線
100
AcDbLine
 10
752.3280217779886
 20
386.6204716956065
 30
0.0
 11
752.3280217779885
 21
389.6204716956065
 31
0.0
  0
LINE
  5
2185
330
18
100
AcDbEntity
  8
外形線
100
AcDbLine
 10
756.3280217779885
 20
386.1204716956065
 30
0.0
 11
752.8280217779886
 21
386.1204716956065
 31
0.0
  0
LINE
  5
2186
330
18
100
AcDbEntity
  8
外形線
100
AcDbLine
 10
745.8280217779884
 20
390.1204716956065
 30
0.0
 11
745.8280217779884
 21
398.1204716956065
 31
0.0
  0
LINE
  5
2187
330
18
100
AcDbEntity
  8
外形線
100
AcDbLine
 10
751.3280217779885
 20
397.6204716956065
 30
0.0
 11
746.3280217779884
 21
397.6204716956065
 31
0.0
  0
LINE
  5
2188
330
18
100
AcDbEntity
  8
外形線
100
AcDbLine
 10
745.8280217779884
 20
398.1204716956065
 30
0.0
 11
745.3280217779885
 21
398.1204716956065
 31
0.0
  0
ARC
  5
2189
330
18
100
AcDbEntity
  8
外形線
100
AcDbCircle
 10
746.3280217779884
 20
397.1204716956066
 30
0.0
 40
0.5
100
AcDbArc
 50
90.0
 51
180.0
  0
LINE
  5
218A
330
18
100
AcDbEntity
  8
外形線
100
AcDbLine
 10
751.3280217779885
 20
390.6204716956065
 30
0.0
 11
746.3280217779884
 21
390.6204716956065
 31
0.0
  0
LINE
  5
218B
330
18
100
AcDbEntity
  8
外形線
100
AcDbLine
 10
745.8280217779884
 20
390.1204716956065
 30
0.0
 11
745.3280217779885
 21
390.1204716956065
 31
0.0
  0
ARC
  5
218C
330
18
100
AcDbEntity
  8
外形線
100
AcDbCircle
 10
746.3280217779884
 20
391.1204716956066
 30
0.0
 40
0.5
100
AcDbArc
 50
180.0
 51
270.0
  0
LINE
  5
218D
330
18
100
AcDbEntity
  8
中心線
 48
0.5
100
AcDbLine
 10
758.7871225974473
 20
394.1204716956065
 30
0.0
 11
731.7321028835142
 21
394.1204716956065
 31
0.0
  0
LINE
  5
218E
330
18
100
AcDbEntity
  8
中心線
 48
0.5
100
AcDbLine
 10
739.8280217779885
 20
396.6204716956066
 30
0.0
 11
738.8280217779885
 21
396.6204716956066
 31
0.0
  0
LINE
  5
218F
330
18
100
AcDbEntity
  8
中心線
 48
0.5
100
AcDbLine
 10
739.8280217779885
 20
391.6204716956065
 30
0.0
 11
738.8280217779885
 21
391.6204716956065
 31
0.0
  0
LINE
  5
2190
330
18
100
AcDbEntity
  8
外形線
100
AcDbLine
 10
739.8280217779885
 20
396.1204716956066
 30
0.0
 11
738.8280217779885
 21
396.1204716956066
 31
0.0
  0
LINE
  5
2191
330
18
100
AcDbEntity
  8
外形線
100
AcDbLine
 10
739.8280217779885
 20
392.1204716956065
 30
0.0
 11
738.8280217779885
 21
392.1204716956065
 31
0.0
  0
LINE
  5
219F
330
18
100
AcDbEntity
  8
ﾊｯﾁﾝｸ
 62
     4
100
AcDbLine
 10
909.0599249329722
 20
354.5739015832117
 30
0.0
 11
909.0868121998996
 21
354.6204716956065
 31
0.0
  0
LINE
  5
21A5
330
18
100
AcDbEntity
  8
外形線
100
AcDbLine
 10
736.8280217779885
 20
356.6204716956065
 30
0.0
 11
736.8280217779885
 21
341.7204716956065
 31
0.0
  0
LINE
  5
21A6
330
18
100
AcDbEntity
  8
外形線
100
AcDbLine
 10
741.8280217779884
 20
356.6204716956065
 30
0.0
 11
741.8280217779884
 21
341.7204716956065
 31
0.0
  0
LINE
  5
21A7
330
18
100
AcDbEntity
  8
外形線
100
AcDbLine
 10
736.8280217779885
 20
348.6204716956065
 30
0.0
 11
741.8280217779884
 21
348.6204716956065
 31
0.0
  0
LINE
  5
21A8
330
18
100
AcDbEntity
  8
外形線
100
AcDbLine
 10
736.8280217779885
 20
354.6204716956065
 30
0.0
 11
741.8280217779884
 21
354.6204716956065
 31
0.0
  0
LINE
  5
21A9
330
18
100
AcDbEntity
  8
外形線
100
AcDbLine
 10
736.8280217779885
 20
341.7204716956065
 30
0.0
 11
741.8280217779884
 21
341.7204716956065
 31
0.0
  0
LINE
  5
21AA
330
18
100
AcDbEntity
  8
外形線
100
AcDbLine
 10
739.7880217779884
 20
336.6204716956064
 30
0.0
 11
741.8280217779884
 21
341.7204716956065
 31
0.0
  0
LINE
  5
21AB
330
18
100
AcDbEntity
  8
外形線
100
AcDbLine
 10
736.8280217779885
 20
341.7204716956065
 30
0.0
 11
738.8680217779884
 21
336.6204716956064
 31
0.0
  0
LINE
  5
21AC
330
18
100
AcDbEntity
  8
外形線
100
AcDbLine
 10
738.8680217779884
 20
336.6204716956064
 30
0.0
 11
739.7880217779884
 21
336.6204716956064
 31
0.0
  0
LINE
  5
21AD
330
18
100
AcDbEntity
  8
ﾊｯﾁﾝｸ
 62
     4
100
AcDbLine
 10
739.3280217779885
 20
349.3358634641228
 30
0.0
 11
736.8280217779885
 21
353.6659904830449
 31
0.0
  0
LINE
  5
21AE
330
18
100
AcDbEntity
  8
ﾊｯﾁﾝｸ
 62
     4
100
AcDbLine
 10
738.009609583295
 20
348.6204716956065
 30
0.0
 11
739.3280217779885
 21
350.9040286021339
 31
0.0
  0
LINE
  5
21AF
330
18
100
AcDbEntity
  8
ﾊｯﾁﾝｸ
 62
     4
100
AcDbLine
 10
736.8280217779885
 20
348.5739015832117
 30
0.0
 11
739.3280217779885
 21
352.9040286021338
 31
0.0
  0
LINE
  5
21B0
330
18
100
AcDbEntity
  8
ﾊｯﾁﾝｸ
 62
     4
100
AcDbLine
 10
738.5863528697382
 20
348.6204716956065
 30
0.0
 11
736.8280217779885
 21
351.6659904830449
 31
0.0
  0
LINE
  5
21B1
330
18
100
AcDbEntity
  8
ﾊｯﾁﾝｸ
 62
     4
100
AcDbLine
 10
737.4316523313589
 20
348.6204716956065
 30
0.0
 11
736.8280217779885
 21
349.665990483045
 31
0.0
  0
LINE
  5
21B2
330
18
100
AcDbEntity
  8
ﾊｯﾁﾝｸ
 62
     4
100
AcDbLine
 10
739.1643101216743
 20
348.6204716956065
 30
0.0
 11
739.3280217779885
 21
348.9040286021339
 31
0.0
  0
LINE
  5
21B3
330
18
100
AcDbEntity
  8
ﾊｯﾁﾝｸ
 62
     4
100
AcDbLine
 10
736.8280217779885
 20
350.5739015832117
 30
0.0
 11
739.3280217779885
 21
354.9040286021338
 31
0.0
  0
LINE
  5
21B4
330
18
100
AcDbEntity
  8
ﾊｯﾁﾝｸ
 62
     4
100
AcDbLine
 10
736.8280217779885
 20
352.5739015832118
 30
0.0
 11
738.009609583295
 21
354.6204716956065
 31
0.0
  0
LINE
  5
21B5
330
18
100
AcDbEntity
  8
ﾊｯﾁﾝｸ
 62
     4
100
AcDbLine
 10
736.8280217779885
 20
354.5739015832117
 30
0.0
 11
736.8549090449157
 21
354.6204716956065
 31
0.0
  0
LINE
  5
21B6
330
18
100
AcDbEntity
  8
ﾊｯﾁﾝｸ
 62
     4
100
AcDbLine
 10
739.3280217779885
 20
351.3358634641228
 30
0.0
 11
737.4316523313589
 21
354.6204716956065
 31
0.0
  0
LINE
  5
21B7
330
18
100
AcDbEntity
  8
ﾊｯﾁﾝｸ
 62
     4
100
AcDbLine
 10
739.3280217779885
 20
353.3358634641228
 30
0.0
 11
738.5863528697382
 21
354.6204716956065
 31
0.0
  0
DIMENSION
  5
21B8
330
18
100
AcDbEntity
  8
文字
100
AcDbDimension
  2
*D4
 10
842.1181532968697
 20
439.1204716956064
 30
0.0
 11
842.1181532968695
 21
471.1204716956065
 31
0.0
 70
   160
 71
     5
 42
64.00000000000005
  3
STYLE3
100
AcDbAlignedDimension
 13
911.559924932972
 23
503.1204716956064
 33
0.0
 14
876.6645144148949
 24
439.1204716956064
 34
0.0
 50
90.0
100
AcDbRotatedDimension
1001
ACAD
1000
DSTYLE
1002
{
1070
   271
1070
     2
1002
}
  0
DIMENSION
  5
21B9
330
18
100
AcDbEntity
  8
文字
100
AcDbDimension
  2
*D5
 10
842.1181532968693
 20
356.7204716956065
 30
0.0
 11
840.2431532968693
 21
397.9204716956066
 31
0.0
 70
    32
 71
     5
 42
82.39999999999998
  3
STYLE3
100
AcDbAlignedDimension
 13
874.1993930648387
 23
439.1204716956064
 33
0.0
 14
851.5599249329721
 24
356.7204716956065
 34
0.0
 50
90.0
100
AcDbRotatedDimension
1001
ACAD
1000
DSTYLE
1002
{
1070
    75
1070
     1
1070
   271
1070
     2
1070
   279
1070
     1
1002
}
  0
DIMENSION
  5
21BA
330
18
100
AcDbEntity
  8
文字
100
AcDbDimension
  2
*D6
 10
830.2496769974478
 20
356.7204716956065
 30
0.0
 11
828.3746769974476
 21
429.9204716956066
 31
0.0
 70
    32
 71
     5
 42
146.4
  3
STYLE3
100
AcDbAlignedDimension
 13
845.4078008739589
 23
503.1204716956064
 33
0.0
 14
845.4078008739589
 24
356.7204716956065
 34
0.0
 50
90.0
100
AcDbRotatedDimension
1001
ACAD
1000
DSTYLE
1002
{
1070
   271
1070
     2
1002
}
  0
DIMENSION
  5
21BB
330
18
100
AcDbEntity
  8
文字
100
AcDbDimension
  2
*D7
 10
830.2496769974478
 20
336.6204716956066
 30
0.0
 11
828.3746769974476
 21
346.6704716956066
 31
0.0
 70
    32
  1
20～160
 71
     5
 42
20.09999999999991
  3
STYLE3
100
AcDbAlignedDimension
 13
845.4078008739589
 23
356.7204716956065
 33
0.0
 14
911.099924932972
 24
336.6204716956065
 34
0.0
 50
90.0
100
AcDbRotatedDimension
1001
ACAD
1000
DSTYLE
1002
{
1070
    75
1070
     1
1070
   271
1070
     2
1070
   279
1070
     1
1002
}
  0
DIMENSION
  5
21BC
330
18
100
AcDbEntity
  8
文字
100
AcDbDimension
  2
*D8
 10
971.5599249329722
 20
320.8215340719744
 30
0.0
 11
911.5599249329722
 21
322.6965340719744
 31
0.0
 70
    32
 71
     5
 42
120.0
  3
STYLE3
100
AcDbAlignedDimension
 13
851.5599249329721
 23
356.7204716956065
 33
0.0
 14
971.5599249329722
 24
356.7204716956065
 34
0.0
100
AcDbRotatedDimension
1001
ACAD
1000
DSTYLE
1002
{
1070
   271
1070
     2
1002
}
  0
DIMENSION
  5
21BD
330
18
100
AcDbEntity
  8
文字
100
AcDbDimension
  2
*D9
 10
746.3280217779884
 20
324.9670770971491
 30
0.0
 11
739.3280217779885
 21
326.842077097149
 31
0.0
 70
    32
 71
     5
 42
14.0
  3
STYLE3
100
AcDbAlignedDimension
 13
732.3280217779885
 23
356.7204716956065
 33
0.0
 14
746.3280217779884
 24
356.7204716956065
 34
0.0
100
AcDbRotatedDimension
1001
ACAD
1000
DSTYLE
1002
{
1070
   271
1070
     2
1002
}
  0
LINE
  5
2201
330
18
100
AcDbEntity
  8
外形線
100
AcDbLine
 10
739.8280217779885
 20
389.0204716956065
 30
0.0
 11
738.8280217779885
 21
389.0204716956065
 31
0.0
  0
LINE
  5
2205
330
18
100
AcDbEntity
  8
外形線
100
AcDbLine
 10
741.3280217779885
 20
356.7204716956065
 30
0.0
 11
741.3280217779885
 21
356.6204716956065
 31
0.0
  0
LINE
  5
2206
330
18
100
AcDbEntity
  8
外形線
100
AcDbLine
 10
737.3280217779885
 20
356.7204716956065
 30
0.0
 11
737.3280217779885
 21
356.6204716956065
 31
0.0
  0
LINE
  5
2209
330
18
100
AcDbEntity
  8
外形線
100
AcDbLine
 10
736.8280217779885
 20
356.6204716956065
 30
0.0
 11
741.8280217779884
 21
356.6204716956065
 31
0.0
  0
LINE
  5
22B3
330
18
100
AcDbEntity
  8
外形線
100
AcDbLine
 10
909.5599249329721
 20
356.7204716956065
 30
0.0
 11
909.5599249329721
 21
356.6204716956065
 31
0.0
  0
LINE
  5
22B6
330
18
100
AcDbEntity
  8
外形線
100
AcDbLine
 10
913.5599249329724
 20
356.7204716956065
 30
0.0
 11
913.5599249329722
 21
356.6204716956065
 31
0.0
  0
LINE
  5
22B7
330
18
100
AcDbEntity
  8
隠れ線2
100
AcDbLine
 10
907.5599249329721
 20
400.7348499732679
 30
0.0
 11
907.5599249329723
 21
376.7204716956065
 31
0.0
  0
LINE
  5
22B8
330
18
100
AcDbEntity
  8
隠れ線2
100
AcDbLine
 10
915.5599249329721
 20
399.7204716956066
 30
0.0
 11
915.5599249329721
 21
376.7204716956066
 31
0.0
  0
LINE
  5
22C1
330
18
100
AcDbEntity
  8
隠れ線2
100
AcDbLine
 10
905.5599249329722
 20
399.7204716956066
 30
0.0
 11
905.5599249329722
 21
388.5204716956065
 31
0.0
  0
LINE
  5
22C2
330
18
100
AcDbEntity
  8
外形線
100
AcDbLine
 10
906.0599249329722
 20
386.704273208511
 30
0.0
 11
906.0599249329722
 21
377.7204716956065
 31
0.0
  0
LINE
  5
22C3
330
18
100
AcDbEntity
  8
外形線
100
AcDbLine
 10
908.7730676758065
 20
388.5204716956065
 30
0.0
 11
917.5599249329721
 21
388.5204716956065
 31
0.0
  0
LINE
  5
22C4
330
18
100
AcDbEntity
  8
外形線
100
AcDbLine
 10
908.7730676758065
 20
399.7204716956066
 30
0.0
 11
917.5599249329721
 21
399.7204716956066
 31
0.0
  0
LINE
  5
22C5
330
18
100
AcDbEntity
  8
隠れ線2
100
AcDbLine
 10
896.559924932972
 20
398.7841612221508
 30
0.0
 11
896.5599249329724
 21
389.456782169062
 31
0.0
  0
LINE
  5
22CF
330
18
100
AcDbEntity
  8
隠れ線2
100
AcDbLine
 10
898.2742106472578
 20
389.4567821690622
 30
0.0
 11
898.2742106472578
 21
398.7841612221509
 31
0.0
  0
LINE
  5
22D1
330
18
100
AcDbEntity
  8
隠れ線2
100
AcDbLine
 10
896.559924932972
 20
398.7841612221508
 30
0.0
 11
898.2742106472578
 21
398.7841612221509
 31
0.0
  0
LINE
  5
22D2
330
18
100
AcDbEntity
  8
隠れ線2
100
AcDbLine
 10
896.559924932972
 20
389.4567821690622
 30
0.0
 11
898.2742106472576
 21
389.4567821690622
 31
0.0
  0
LINE
  5
22D3
330
18
100
AcDbEntity
  8
隠れ線2
100
AcDbLine
 10
898.2742106472578
 20
398.7841612221508
 30
0.0
 11
899.2105211207134
 21
399.7204716956066
 31
0.0
  0
LINE
  5
22D4
330
18
100
AcDbEntity
  8
隠れ線2
100
AcDbLine
 10
896.5599249329722
 20
398.7841612221509
 30
0.0
 11
897.4962354064278
 21
399.7204716956066
 31
0.0
  0
LINE
  5
22D5
330
18
100
AcDbEntity
  8
隠れ線2
100
AcDbLine
 10
898.2742106472578
 20
389.4567821690622
 30
0.0
 11
899.2105211207134
 21
388.5204716956065
 31
0.0
  0
LINE
  5
22D6
330
18
100
AcDbEntity
  8
隠れ線2
100
AcDbLine
 10
896.5599249329722
 20
389.4567821690621
 30
0.0
 11
897.4962354064278
 21
388.5204716956065
 31
0.0
  0
CIRCLE
  5
22D9
330
18
100
AcDbEntity
  8
隠れ線2
100
AcDbCircle
 10
903.0599249329721
 20
394.1204716956065
 30
0.0
 40
2.0
  0
CIRCLE
  5
22DA
330
18
100
AcDbEntity
  8
隠れ線2
100
AcDbCircle
 10
903.0599249329721
 20
394.1204716956065
 30
0.0
 40
1.625
  0
LINE
  5
22DD
330
18
100
AcDbEntity
  8
隠れ線2
 48
0.5
100
AcDbLine
 10
908.5599249329721
 20
372.7204716956066
 30
0.0
 11
908.5599249329721
 21
376.7204716956066
 31
0.0
  0
LINE
  5
22DE
330
18
100
AcDbEntity
  8
隠れ線2
 48
0.5
100
AcDbLine
 10
914.5599249329722
 20
372.7204716956066
 30
0.0
 11
914.5599249329722
 21
376.7204716956066
 31
0.0
  0
LINE
  5
22DF
330
18
100
AcDbEntity
  8
外形線
100
AcDbLine
 10
933.5599249329721
 20
439.1204716956064
 30
0.0
 11
940.5599249329721
 21
439.1204716956064
 31
0.0
  0
LINE
  5
22F6
330
18
100
AcDbEntity
  8
外形線
100
AcDbLine
 10
745.8289421049098
 20
468.5204716956065
 30
0.0
 11
729.8289421049098
 21
468.5204716956063
 31
0.0
  0
LINE
  5
22F7
330
18
100
AcDbEntity
  8
外形線
100
AcDbLine
 10
745.8289421049098
 20
409.7204716956064
 30
0.0
 11
729.8289421049098
 21
409.7204716956065
 31
0.0
  0
LINE
  5
22F8
330
18
100
AcDbEntity
  8
外形線
100
AcDbLine
 10
729.8289421049098
 20
468.5204716956063
 30
0.0
 11
729.8289421049098
 21
409.7204716956065
 31
0.0
  0
LINE
  5
22F9
330
18
100
AcDbEntity
  8
外形線
100
AcDbLine
 10
760.8289421049098
 20
469.1204716956065
 30
0.0
 11
760.8289421049098
 21
409.1204716956065
 31
0.0
  0
LINE
  5
22FA
330
18
100
AcDbEntity
  8
外形線
100
AcDbLine
 10
731.3289421049098
 20
468.5204716956063
 30
0.0
 11
731.3289421049098
 21
409.7204716956065
 31
0.0
  0
LINE
  5
22FB
330
18
100
AcDbEntity
  8
外形線
100
AcDbLine
 10
732.3289421049098
 20
468.5204716956063
 30
0.0
 11
732.3289421049098
 21
409.7204716956065
 31
0.0
  0
LINE
  5
22FC
330
18
100
AcDbEntity
  8
外形線
100
AcDbLine
 10
747.8289421049098
 20
470.1204716956064
 30
0.0
 11
747.8289421049097
 21
465.6204716956064
 31
0.0
  0
LINE
  5
22FD
330
18
100
AcDbEntity
  8
外形線
100
AcDbLine
 10
753.3289421049098
 20
470.1204716956064
 30
0.0
 11
753.3289421049098
 21
465.6204716956065
 31
0.0
  0
LINE
  5
22FE
330
18
100
AcDbEntity
  8
外形線
100
AcDbLine
 10
760.8289421049098
 20
469.1204716956064
 30
0.0
 11
753.3289421049098
 21
469.1204716956065
 31
0.0
  0
LINE
  5
22FF
330
18
100
AcDbEntity
  8
外形線
100
AcDbLine
 10
760.8289421049098
 20
409.1204716956065
 30
0.0
 11
747.8289421049096
 21
409.1204716956065
 31
0.0
  0
LINE
  5
2300
330
18
100
AcDbEntity
  8
外形線
100
AcDbLine
 10
753.3289421049098
 20
470.1204716956064
 30
0.0
 11
747.8289421049098
 21
470.1204716956064
 31
0.0
  0
LINE
  5
2301
330
18
100
AcDbEntity
  8
外形線
100
AcDbLine
 10
753.3289421049098
 20
466.6204716956065
 30
0.0
 11
747.8289421049098
 21
466.6204716956065
 31
0.0
  0
LINE
  5
2302
330
18
100
AcDbEntity
  8
外形線
100
AcDbLine
 10
753.3289421049098
 20
465.6204716956065
 30
0.0
 11
747.8289421049097
 21
465.6204716956064
 31
0.0
  0
LINE
  5
2303
330
18
100
AcDbEntity
  8
外形線
100
AcDbLine
 10
747.8289421049097
 20
465.6204716956064
 30
0.0
 11
747.8289421049097
 21
409.1204716956064
 31
0.0
  0
LINE
  5
2304
330
18
100
AcDbEntity
  8
外形線
100
AcDbLine
 10
748.8289421049097
 20
411.6204716956064
 30
0.0
 11
748.8289421049097
 21
409.1204716956064
 31
0.0
  0
LINE
  5
2305
330
18
100
AcDbEntity
  8
外形線
100
AcDbLine
 10
754.3289421049098
 20
411.6204716956064
 30
0.0
 11
754.3289421049097
 21
409.1204716956064
 31
0.0
  0
LINE
  5
2306
330
18
100
AcDbEntity
  8
外形線
100
AcDbLine
 10
754.3289421049098
 20
411.6204716956064
 30
0.0
 11
748.8289421049097
 21
411.6204716956064
 31
0.0
  0
LINE
  5
2307
330
18
100
AcDbEntity
  8
外形線
100
AcDbLine
 10
761.8289421049098
 20
439.1204716956065
 30
0.0
 11
761.8289421049098
 21
427.6204716956065
 31
0.0
  0
LINE
  5
2308
330
18
100
AcDbEntity
  8
外形線
100
AcDbLine
 10
763.4289421049098
 20
427.6204716956065
 30
0.0
 11
761.8289421049098
 21
427.6204716956065
 31
0.0
  0
ARC
  5
2309
330
18
100
AcDbEntity
  8
外形線
100
AcDbCircle
 10
582.2116878645833
 20
443.6312783534081
 30
0.0
 40
181.9206400838717
100
AcDbArc
 50
352.8920187336256
 51
354.9508749822957
  0
LINE
  5
230A
330
18
100
AcDbEntity
  8
外形線
100
AcDbLine
 10
763.4264040404284
 20
421.1204716956065
 30
0.0
 11
762.4264040404284
 21
421.1204716956065
 31
0.0
  0
LINE
  5
230B
330
18
100
AcDbEntity
  8
外形線
100
AcDbLine
 10
763.4264040404284
 20
417.1204716956065
 30
0.0
 11
761.4264040404284
 21
417.1204716956065
 31
0.0
  0
LINE
  5
230C
330
18
100
AcDbEntity
  8
外形線
100
AcDbLine
 10
761.8289421049098
 20
439.1204716956065
 30
0.0
 11
760.8289421049098
 21
439.1204716956065
 31
0.0
  0
LINE
  5
230D
330
18
100
AcDbEntity
  8
外形線
100
AcDbLine
 10
763.4264040404284
 20
421.1204716956065
 30
0.0
 11
763.4264040404284
 21
417.1204716956065
 31
0.0
  0
LINE
  5
230E
330
18
100
AcDbEntity
  8
外形線
100
AcDbLine
 10
762.4264040404284
 20
421.1204716956065
 30
0.0
 11
761.4264040404284
 21
417.1204716956065
 31
0.0
  0
ARC
  5
230F
330
18
100
AcDbEntity
  8
外形線
100
AcDbCircle
 10
582.2116878645833
 20
443.6312783534081
 30
0.0
 40
181.9206400838717
100
AcDbArc
 50
349.0645749835871
 51
351.620601274743
  0
LINE
  5
2310
330
18
100
AcDbEntity
  8
外形線
100
AcDbLine
 10
745.8289421049098
 20
468.5204716956065
 30
0.0
 11
745.8289421049098
 21
409.7204716956064
 31
0.0
  0
LINE
  5
2311
330
18
100
AcDbEntity
  8
外形線
100
AcDbLine
 10
747.8289421049096
 20
409.1204716956065
 30
0.0
 11
745.8289421049098
 21
409.7204716956064
 31
0.0
  0
LINE
  5
2312
330
18
100
AcDbEntity
  8
外形線
100
AcDbLine
 10
745.8289421049098
 20
468.5204716956065
 30
0.0
 11
747.8289421049098
 21
469.1204716956065
 31
0.0
  0
LINE
  5
2313
330
18
100
AcDbEntity
  8
外形線
100
AcDbLine
 10
733.3289421049098
 20
485.1204716956066
 30
0.0
 11
733.3289421049098
 21
468.5204716956063
 31
0.0
  0
LINE
  5
2314
330
18
100
AcDbEntity
  8
外形線
100
AcDbLine
 10
745.3289421049098
 20
485.1204716956064
 30
0.0
 11
745.3289421049099
 21
468.5204716956064
 31
0.0
  0
LINE
  5
2315
330
18
100
AcDbEntity
  8
外形線
100
AcDbLine
 10
734.3289421049099
 20
494.0204716956064
 30
0.0
 11
734.3289421049099
 21
486.7204716956065
 31
0.0
  0
LINE
  5
2316
330
18
100
AcDbEntity
  8
外形線
100
AcDbLine
 10
744.3289421049098
 20
494.0204716956066
 30
0.0
 11
744.3289421049098
 21
486.7204716956065
 31
0.0
  0
LINE
  5
2317
330
18
100
AcDbEntity
  8
外形線
100
AcDbLine
 10
744.3289421049098
 20
486.7204716956065
 30
0.0
 11
734.3289421049099
 21
486.7204716956065
 31
0.0
  0
LINE
  5
2318
330
18
100
AcDbEntity
  8
外形線
100
AcDbLine
 10
744.3289421049098
 20
486.1204716956065
 30
0.0
 11
734.3289421049099
 21
486.1204716956065
 31
0.0
  0
LINE
  5
2319
330
18
100
AcDbEntity
  8
外形線
100
AcDbLine
 10
745.3289421049098
 20
485.1204716956065
 30
0.0
 11
733.3289421049098
 21
485.1204716956065
 31
0.0
  0
LINE
  5
231A
330
18
100
AcDbEntity
  8
外形線
100
AcDbLine
 10
745.3289421049098
 20
485.1204716956065
 30
0.0
 11
744.3289421049098
 21
486.1204716956065
 31
0.0
  0
LINE
  5
231B
330
18
100
AcDbEntity
  8
外形線
100
AcDbLine
 10
743.3289421049098
 20
486.7204716956065
 30
0.0
 11
743.3289421049098
 21
486.1204716956065
 31
0.0
  0
POINT
  5
231C
330
18
100
AcDbEntity
  8
DEFPOINTS
  6
ByBlock
 62
     0
100
AcDbPoint
 10
744.3289421049098
 20
486.1204716956065
 30
0.0
  0
LINE
  5
231D
330
18
100
AcDbEntity
  8
外形線
100
AcDbLine
 10
734.3289421049099
 20
486.1204716956065
 30
0.0
 11
733.3289421049098
 21
485.1204716956065
 31
0.0
  0
LINE
  5
231E
330
18
100
AcDbEntity
  8
外形線
100
AcDbLine
 10
735.3289421049098
 20
486.7204716956066
 30
0.0
 11
735.3289421049098
 21
486.1204716956065
 31
0.0
  0
LINE
  5
231F
330
18
100
AcDbEntity
  8
外形線
100
AcDbLine
 10
742.8289421049099
 20
503.1204716956064
 30
0.0
 11
735.8289421049098
 21
503.1204716956064
 31
0.0
  0
LINE
  5
2320
330
18
100
AcDbEntity
  8
外形線
100
AcDbLine
 10
744.3289421049097
 20
494.0204716956066
 30
0.0
 11
734.3289421049097
 21
494.0204716956064
 31
0.0
  0
LINE
  5
2321
330
18
100
AcDbEntity
  8
外形線
100
AcDbLine
 10
744.3289421049097
 20
495.5204716956066
 30
0.0
 11
734.3289421049097
 21
495.5204716956065
 31
0.0
  0
LINE
  5
2322
330
18
100
AcDbEntity
  8
外形線
100
AcDbLine
 10
744.3289421049097
 20
496.8204716956067
 30
0.0
 11
734.3289421049097
 21
496.8204716956065
 31
0.0
  0
LINE
  5
2323
330
18
100
AcDbEntity
  8
外形線
100
AcDbLine
 10
744.3289421049097
 20
497.8204716956066
 30
0.0
 11
734.3289421049097
 21
497.8204716956065
 31
0.0
  0
LINE
  5
2324
330
18
100
AcDbEntity
  8
外形線
100
AcDbLine
 10
744.3289421049097
 20
499.1204716956066
 30
0.0
 11
734.3289421049097
 21
499.1204716956066
 31
0.0
  0
LINE
  5
2325
330
18
100
AcDbEntity
  8
外形線
100
AcDbLine
 10
744.3289421049097
 20
500.1204716956066
 30
0.0
 11
734.3289421049097
 21
500.1204716956066
 31
0.0
  0
LINE
  5
2326
330
18
100
AcDbEntity
  8
外形線
100
AcDbLine
 10
744.3289421049098
 20
501.6204716956065
 30
0.0
 11
744.3289421049098
 21
500.1204716956066
 31
0.0
  0
LINE
  5
2327
330
18
100
AcDbEntity
  8
外形線
100
AcDbLine
 10
743.3289421049099
 20
500.1204716956066
 30
0.0
 11
743.3289421049099
 21
499.1204716956066
 31
0.0
  0
LINE
  5
2328
330
18
100
AcDbEntity
  8
外形線
100
AcDbLine
 10
743.3289421049099
 20
497.8204716956064
 30
0.0
 11
743.3289421049098
 21
496.8204716956065
 31
0.0
  0
LINE
  5
2329
330
18
100
AcDbEntity
  8
外形線
100
AcDbLine
 10
744.3289421049098
 20
499.1204716956066
 30
0.0
 11
744.3289421049098
 21
497.8204716956066
 31
0.0
  0
ARC
  5
232A
330
18
100
AcDbEntity
  8
外形線
100
AcDbCircle
 10
742.8289421049099
 20
501.6204716956065
 30
0.0
 40
1.5
100
AcDbArc
 50
0.000000000000007
 51
90.0
  0
LINE
  5
232B
330
18
100
AcDbEntity
  8
外形線
100
AcDbLine
 10
743.3289421049098
 20
495.5204716956066
 30
0.0
 11
743.3289421049098
 21
494.0204716956064
 31
0.0
  0
LINE
  5
232C
330
18
100
AcDbEntity
  8
外形線
100
AcDbLine
 10
744.3289421049098
 20
496.8204716956067
 30
0.0
 11
744.3289421049098
 21
495.5204716956066
 31
0.0
  0
LINE
  5
232D
330
18
100
AcDbEntity
  8
外形線
100
AcDbLine
 10
734.3289421049099
 20
501.6204716956065
 30
0.0
 11
734.3289421049099
 21
500.1204716956063
 31
0.0
  0
LINE
  5
232E
330
18
100
AcDbEntity
  8
外形線
100
AcDbLine
 10
735.3289421049098
 20
500.1204716956065
 30
0.0
 11
735.3289421049098
 21
499.1204716956066
 31
0.0
  0
LINE
  5
232F
330
18
100
AcDbEntity
  8
外形線
100
AcDbLine
 10
735.3289421049098
 20
497.8204716956065
 30
0.0
 11
735.3289421049098
 21
496.8204716956064
 31
0.0
  0
LINE
  5
2330
330
18
100
AcDbEntity
  8
外形線
100
AcDbLine
 10
734.3289421049099
 20
499.1204716956064
 30
0.0
 11
734.3289421049099
 21
497.8204716956064
 31
0.0
  0
ARC
  5
2331
330
18
100
AcDbEntity
  8
外形線
100
AcDbCircle
 10
735.8289421049098
 20
501.6204716956065
 30
0.0
 40
1.5
100
AcDbArc
 50
90.0
 51
180.0
  0
LINE
  5
2332
330
18
100
AcDbEntity
  8
外形線
100
AcDbLine
 10
735.3289421049098
 20
495.5204716956065
 30
0.0
 11
735.3289421049098
 21
494.0204716956064
 31
0.0
  0
LINE
  5
2333
330
18
100
AcDbEntity
  8
外形線
100
AcDbLine
 10
734.3289421049099
 20
496.8204716956065
 30
0.0
 11
734.3289421049099
 21
495.5204716956065
 31
0.0
  0
LINE
  5
2334
330
18
100
AcDbEntity
  8
外形線
100
AcDbLine
 10
744.3289421049098
 20
404.0204716956065
 30
0.0
 11
734.3289421049099
 21
404.0204716956066
 31
0.0
  0
POINT
  5
2335
330
18
100
AcDbEntity
  8
DEFPOINTS
  6
ByBlock
 62
     0
100
AcDbPoint
 10
745.3289421049098
 20
408.1204716956064
 30
0.0
  0
LINE
  5
2336
330
18
100
AcDbEntity
  8
外形線
100
AcDbLine
 10
745.3289421049098
 20
409.7265947822084
 30
0.0
 11
745.3289421049098
 21
406.0204716956064
 31
0.0
  0
LINE
  5
2337
330
18
100
AcDbEntity
  8
外形線
100
AcDbLine
 10
733.3289421049098
 20
409.7265947822084
 30
0.0
 11
733.3289421049098
 21
406.0204716956065
 31
0.0
  0
LINE
  5
2338
330
18
100
AcDbEntity
  8
外形線
100
AcDbLine
 10
745.3289421049098
 20
406.0204716956064
 30
0.0
 11
733.3289421049098
 21
406.0204716956065
 31
0.0
  0
LINE
  5
2339
330
18
100
AcDbEntity
  8
外形線
100
AcDbLine
 10
745.3289421049098
 20
406.0204716956064
 30
0.0
 11
744.3289421049098
 21
404.0204716956065
 31
0.0
  0
LINE
  5
233A
330
18
100
AcDbEntity
  8
外形線
100
AcDbLine
 10
733.3289421049098
 20
406.0204716956065
 30
0.0
 11
734.3289421049099
 21
404.0204716956066
 31
0.0
  0
LINE
  5
233B
330
18
100
AcDbEntity
  8
外形線
100
AcDbLine
 10
745.3289421049098
 20
406.5204716956064
 30
0.0
 11
733.3289421049098
 21
406.5204716956065
 31
0.0
  0
LINE
  5
233C
330
18
100
AcDbEntity
  8
外形線
100
AcDbLine
 10
743.3289421049098
 20
404.0204716956065
 30
0.0
 11
743.3289421049098
 21
399.7204716956066
 31
0.0
  0
LINE
  5
233D
330
18
100
AcDbEntity
  8
外形線
100
AcDbLine
 10
735.3289421049098
 20
404.0204716956065
 30
0.0
 11
735.3289421049098
 21
399.7204716956066
 31
0.0
  0
LINE
  5
2340
330
18
100
AcDbEntity
  8
隠れ線2
100
AcDbLine
 10
907.5099249329722
 20
372.7204716956066
 30
0.0
 11
907.5099249329722
 21
356.7204716956065
 31
0.0
  0
LINE
  5
2341
330
18
100
AcDbEntity
  8
隠れ線2
100
AcDbLine
 10
915.5599249329721
 20
372.7204716956066
 30
0.0
 11
915.5599249329721
 21
356.7204716956065
 31
0.0
  0
LINE
  5
2342
330
18
100
AcDbEntity
  8
中心線
 48
0.8
100
AcDbLine
 10
723.5518400228981
 20
439.1204716956064
 30
0.0
 11
767.4356303326425
 21
439.1204716956064
 31
0.0
  0
DIMENSION
  5
2390
330
18
100
AcDbEntity
  8
外形線
100
AcDbDimension
  2
*D10
 10
916.5599249329723
 20
509.838565604647
 30
0.0
 11
911.5599249329722
 21
511.713565604647
 31
0.0
 70
    32
  1
%%C<>
 71
     5
 42
10.00000000000011
  3
STYLE3
100
AcDbAlignedDimension
 13
906.5599249329721
 23
500.1204716956065
 33
0.0
 14
916.5599249329723
 24
500.1085280541162
 34
0.0
100
AcDbRotatedDimension
1001
ACAD
1000
DSTYLE
1002
{
1070
   271
1070
     2
1070
   341
1005
0
1002
}
  0
DIMENSION
  5
2A60
330
18
100
AcDbEntity
  8
寸法線
100
AcDbDimension
  2
*D11
 10
913.4784012966845
 20
331.1785522245108
 30
0.0
 11
920.7105441538272
 21
333.0535522245108
 31
0.0
 70
    32
  1
%%C1
 71
     5
 42
0.920190694837629
  3
STYLE3
100
AcDbAlignedDimension
 13
911.099924932972
 23
336.6204716956065
 33
0.0
 14
912.0201156278097
 24
336.6209484327005
 34
0.0
100
AcDbRotatedDimension
1001
ACAD
1000
DSTYLE
1002
{
1070
   271
1070
     2
1070
   341
1005
0
1002
}
  0
DIMENSION
  5
2AAF
330
18
100
AcDbEntity
  8
寸法線
100
AcDbDimension
  2
*D12
 10
914.0599249329723
 20
346.1693120481271
 30
0.0
 11
901.4706392186864
 21
346.1693120481271
 31
0.0
 70
   160
  1
%%C<>
 71
     5
 42
5.000000000000113
  3
STYLE3
100
AcDbAlignedDimension
 13
909.059924932972
 23
345.8997515948505
 33
0.0
 14
914.0599249329723
 24
345.8997515948505
 34
0.0
100
AcDbRotatedDimension
1001
ACAD
1000
DSTYLE
1002
{
1070
   271
1070
     2
1070
   341
1005
0
1002
}
  0
LINE
  5
2B14
330
18
100
AcDbEntity
  8
外形線
100
AcDbLine
 10
825.8739070072561
 20
534.7536132726949
 30
0.0
 11
924.8739070072561
 21
534.7536132726949
 31
0.0
  0
LINE
  5
2B15
330
18
100
AcDbEntity
  8
外形線
100
AcDbLine
 10
825.8739070072561
 20
533.7536132726949
 30
0.0
 11
924.8739070072561
 21
533.7536132726949
 31
0.0
  0
TEXT
  5
2B16
330
18
100
AcDbEntity
  8
文字
100
AcDbText
 10
826.107768007256
 20
537.0384062726949
 30
0.0
 40
3.5
  1
Model No.T1-205 Digital Depth Gauge
  7
STYLE3
100
AcDbText
  0
LINE
  5
2B18
330
18
100
AcDbEntity
  8
外形線
100
AcDbLine
 10
907.4693633989854
 20
291.2049679644259
 30
0.0
 11
1048.260781398985
 21
291.2049679644259
 31
0.0
  0
LINE
  5
2B19
330
18
100
AcDbEntity
  8
外形線
100
AcDbLine
 10
907.4693633989854
 20
280.4247619644258
 30
0.0
 11
1048.260781398985
 21
280.4247619644258
 31
0.0
  0
TEXT
  5
2B1A
330
18
100
AcDbEntity
  8
0
  6
Continuous
100
AcDbText
 10
908.9268303989854
 20
282.3227519644258
 30
0.0
 40
2.1
  1
Design and specifications are subject to change without notice for future improvement.
  7
STYLE3
100
AcDbText
  0
TEXT
  5
2B1B
330
18
100
AcDbEntity
  8
0
  6
Continuous
100
AcDbText
 10
909.2183243989854
 20
286.2518999644258
 30
0.0
 40
3.5
  1
仕様及び外観は予告なく変更される場合がございますのでご了承下さい。
  7
STYLE3
100
AcDbText
  0
TEXT
  5
2B1C
330
18
100
AcDbEntity
  8
0
  6
Continuous
100
AcDbText
 10
908.6353393989854
 20
272.5581239644258
 30
0.0
 40
2.1
  1
3RD Angle Projection
  7
STYLE3
100
AcDbText
  0
TEXT
  5
2B1D
330
18
100
AcDbEntity
  8
0
  6
Continuous
100
AcDbText
 10
911.2587823989853
 20
276.0544069644258
 30
0.0
 40
3.0
  1
三　　角　　法
  7
STYLE3
100
AcDbText
  0
LINE
  5
2B1E
330
18
100
AcDbEntity
  8
外形線
100
AcDbLine
 10
907.4693633989854
 20
270.8099839644258
 30
0.0
 11
907.4693633989854
 21
291.2049679644259
 31
0.0
  0
LINE
  5
2B1F
330
18
100
AcDbEntity
  8
外形線
100
AcDbLine
 10
1009.492130398985
 20
280.4247619644258
 30
0.0
 11
1009.492130398985
 21
270.8099839644258
 31
0.0
  0
LINE
  5
2B20
330
18
100
AcDbEntity
  8
外形線
100
AcDbLine
 10
979.7597803989855
 20
280.4247619644258
 30
0.0
 11
979.7597803989855
 21
270.8099839644258
 31
0.0
  0
LINE
  5
2B21
330
18
100
AcDbEntity
  8
外形線
100
AcDbLine
 10
960.2297083989855
 20
280.4247619644258
 30
0.0
 11
960.2297083989855
 21
270.8099839644258
 31
0.0
  0
LINE
  5
2B22
330
18
100
AcDbEntity
  8
外形線
100
AcDbLine
 10
942.7400913989854
 20
280.4247619644258
 30
0.0
 11
942.7400913989854
 21
270.8099839644258
 31
0.0
  0
TEXT
  5
2B23
330
18
100
AcDbEntity
  8
0
  6
Continuous
100
AcDbText
 10
944.1975603989854
 20
276.0603619644259
 30
0.0
 40
3.0
  1
単位
  7
STYLE3
100
AcDbText
  0
TEXT
  5
2B24
330
18
100
AcDbEntity
  8
0
  6
Continuous
100
AcDbText
 10
944.3692813989853
 20
272.5581249644258
 30
0.0
 40
2.1
  1
Unit
  7
STYLE3
100
AcDbText
  0
TEXT
  5
2B25
330
18
100
AcDbEntity
  8
0
  6
Continuous
100
AcDbText
 10
961.5154563989856
 20
275.7690039644259
 30
0.0
 40
3.0
  1
尺 度
  7
STYLE3
100
AcDbText
  0
TEXT
  5
2B26
330
18
100
AcDbEntity
  8
0
  6
Continuous
100
AcDbText
 10
952.2396083989855
 20
274.3062679644258
 30
0.0
 40
2.399999999999999
  1
mm
  7
STYLE3
100
AcDbText
  0
TEXT
  5
2B27
330
18
100
AcDbEntity
  8
0
  6
Continuous
100
AcDbText
 10
961.9786713989855
 20
272.8494819644258
 30
0.0
 40
2.1
  1
Scale
  7
STYLE3
100
AcDbText
  0
TEXT
  5
2B28
330
18
100
AcDbEntity
  8
0
  6
Continuous
100
AcDbText
 10
971.5979603989854
 20
274.5976249644258
 30
0.0
 40
2.399999999999999
  1
1/1
  7
STYLE3
100
AcDbText
  0
TEXT
  5
2B29
330
18
100
AcDbEntity
  8
0
  6
Continuous
100
AcDbText
 10
981.6917313989854
 20
272.5581259644258
 30
0.0
 40
2.1
  1
Date
  7
STYLE3
100
AcDbText
  0
TEXT
  5
2B2A
330
18
100
AcDbEntity
  8
0
  6
Continuous
100
AcDbText
 10
981.3083703989855
 20
275.8912089644259
 30
0.0
 40
3.0
  1
日 付
  7
STYLE3
100
AcDbText
  0
TEXT
  5
2B2B
330
18
100
AcDbEntity
  8
0
  6
Continuous
100
AcDbText
 10
990.4365393989854
 20
274.3062669644258
 30
0.0
 40
2.1
  1
2010.07.01
  7
STYLE3
100
AcDbText
  0
TEXT
  5
2B2C
330
18
100
AcDbEntity
  8
0
  6
Continuous
100
AcDbText
 10
1010.841093398985
 20
276.3457639644258
 30
0.0
 40
3.0
  1
株式会社　尾崎製作所
  7
STYLE3
100
AcDbText
  0
TEXT
  5
2B2D
330
18
100
AcDbEntity
  8
0
  6
Continuous
100
AcDbText
 10
1011.715572398985
 20
272.5581249644258
 30
0.0
 40
2.1
  1
OZAKI MFG. CO., LTD.
  7
STYLE3
100
AcDbText
  0
VIEWPORT
  5
177
330
15
100
AcDbEntity
 67
     1
  8
0
100
AcDbViewport
 10
127.5041203589828
 20
97.49391214526822
 30
0.0
 40
418.3086347473814
 41
243.0346063651093
 68
     1
 69
     1
 12
127.5041203589828
 22
97.49391214526822
 13
0.0
 23
0.0
 14
10.0
 24
10.0
 15
10.0
 25
10.0
 16
0.0
 26
0.0
 36
1.0
 17
0.0
 27
0.0
 37
0.0
 42
50.0
 43
0.0
 44
0.0
 45
243.0346063651093
 50
0.0
 51
0.0
 72
   100
 90
    32800
  1

281
     0
 71
     1
 74
     0
110
0.0
120
0.0
130
0.0
111
1.0
121
0.0
131
0.0
112
0.0
122
1.0
132
0.0
 79
     0
146
0.0
170
     0
  0
ENDSEC
  0
SECTION
  2
OBJECTS
  0
DICTIONARY
  5
C
330
0
100
AcDbDictionary
281
     1
  3
ACAD_COLOR
350
14ED
  3
ACAD_GROUP
350
D
  3
ACAD_LAYOUT
350
14F0
  3
ACAD_MATERIAL
350
14EC
  3
ACAD_MLINESTYLE
350
1B
  3
ACAD_PLOTSETTINGS
350
14F1
  3
ACAD_PLOTSTYLENAME
350
14EA
  3
ACAD_TABLESTYLE
350
14EE
  3
AcDbVariableDictionary
350
1A90
  0
DICTIONARY
  5
22B4
330
18
100
AcDbDictionary
280
     1
281
     1
  3
ACAD_SORTENTS
360
22B5
  0
DICTIONARY
  5
14ED
102
{ACAD_REACTORS
330
C
102
}
330
C
100
AcDbDictionary
281
     1
  0
DICTIONARY
  5
D
102
{ACAD_REACTORS
330
C
102
}
330
C
100
AcDbDictionary
281
     1
  0
DICTIONARY
  5
14F0
102
{ACAD_REACTORS
330
C
102
}
330
C
100
AcDbDictionary
281
     1
  3
Model
350
14F2
  3
レイアウト1
350
14F3
  0
DICTIONARY
  5
14EC
102
{ACAD_REACTORS
330
C
102
}
330
C
100
AcDbDictionary
281
     1
  0
DICTIONARY
  5
1B
102
{ACAD_REACTORS
330
C
102
}
330
C
100
AcDbDictionary
281
     1
  3
STANDARD
350
1C
  0
DICTIONARY
  5
14F1
102
{ACAD_REACTORS
330
C
102
}
330
C
100
AcDbDictionary
281
     1
  0
ACDBDICTIONARYWDFLT
  5
14EA
102
{ACAD_REACTORS
330
C
102
}
330
C
100
AcDbDictionary
281
     1
  3
Normal
350
14EB
100
AcDbDictionaryWithDefault
340
14EB
  0
DICTIONARY
  5
14EE
102
{ACAD_REACTORS
330
C
102
}
330
C
100
AcDbDictionary
281
     1
  3
Standard
350
14EF
  0
DICTIONARY
  5
1A90
102
{ACAD_REACTORS
330
C
102
}
330
C
100
AcDbDictionary
281
     1
  3
CTABLESTYLE
350
1A91
  0
SORTENTSTABLE
  5
22B5
102
{ACAD_REACTORS
330
22B4
102
}
330
22B4
100
AcDbSortentsTable
330
18
331
1D6B
  5
1D6D
331
2205
  5
22B7
331
2186
  5
218D
331
1CE5
  5
1CE5
331
1D2C
  5
1D2E
331
20C1
  5
20C5
331
20C9
  5
20CD
331
1D73
  5
1D75
331
218E
  5
21A7
331
1CFD
  5
1CFF
331
1D34
  5
1D36
331
213F
  5
2143
331
2108
  5
210C
331
1D7B
  5
1D7D
331
1D05
  5
1D07
331
1D3C
  5
1D3E
331
20D1
  5
20D5
331
2147
  5
214B
331
214F
  5
2156
331
2110
  5
2114
331
1D44
  5
1D46
331
209A
  5
209E
331
2157
  5
215E
331
215F
  5
2166
331
2118
  5
211C
331
20D9
  5
20E0
331
20A2
  5
20A6
331
1D83
  5
1D85
331
1D4C
  5
1D4E
331
21A6
  5
21AD
331
2167
  5
216E
331
1D0D
  5
1D0F
331
20AA
  5
20B9
331
1D8B
  5
1D8D
331
1D54
  5
1D56
331
22C4
  5
2152
331
21AE
  5
21B5
331
216F
  5
2176
331
1D15
  5
1D17
331
20E1
  5
20E5
331
2120
  5
2124
331
20E9
  5
20ED
331
1D93
  5
1D95
331
1D5C
  5
1D5E
331
1D1D
  5
1D1F
331
2128
  5
212C
331
2130
  5
2134
331
20BA
  5
20BE
331
1D64
  5
1D66
331
1D25
  5
1D27
331
1D9B
  5
1D9D
331
20F1
  5
20F5
331
21B6
  5
21BD
331
2177
  5
217E
331
217F
  5
2186
331
21BE
  5
21C7
331
2138
  5
213C
331
1D6C
  5
1D6E
331
2206
  5
22B8
331
2187
  5
218E
331
1CE6
  5
1CE6
331
1D2D
  5
1D2F
331
20C2
  5
20C6
331
20CA
  5
20CE
331
1D74
  5
1D76
331
218F
  5
21A8
331
1CFE
  5
1D00
331
1D35
  5
1D37
331
2140
  5
2144
331
2148
  5
214C
331
20D2
  5
20D6
331
1D06
  5
1D08
331
1D3D
  5
1D3F
331
1D7C
  5
1D7E
331
2109
  5
210D
331
2111
  5
2115
331
1D45
  5
1D47
331
209B
  5
209F
331
2150
  5
2157
331
2158
  5
215F
331
219F
  5
21AB
331
2160
  5
2167
331
2119
  5
211D
331
20DA
  5
20E1
331
20A3
  5
20A7
331
1D84
  5
1D86
331
1D4D
  5
1D4F
331
21A7
  5
21AE
331
2168
  5
216F
331
1D0E
  5
1D10
331
20AB
  5
20BA
331
1D8C
  5
1D8E
331
1D55
  5
1D57
331
21AF
  5
21B6
331
1D16
  5
1D18
331
20E2
  5
20E6
331
2121
  5
2125
331
2129
  5
212D
331
1D94
  5
1D96
331
1D5D
  5
1D5F
331
1D1E
  5
1D20
331
20EA
  5
20EE
331
2131
  5
2135
331
20BB
  5
20BF
331
1D9C
  5
1DBD
331
1D26
  5
1D28
331
1D65
  5
1D67
331
20F2
  5
20F6
331
2170
  5
2177
331
21B7
  5
21BE
331
2178
  5
217F
331
2180
  5
2187
331
2139
  5
213D
331
1D6D
  5
1D6F
331
2188
  5
218F
331
1D2E
  5
1D30
331
20C3
  5
20C7
331
20FA
  5
2107
331
2141
  5
2145
331
1D75
  5
1D77
331
1CFF
  5
1D01
331
1D36
  5
1D38
331
20CB
  5
20CF
331
2149
  5
214E
331
20D3
  5
20D7
331
1D07
  5
1D09
331
1D3E
  5
1D40
331
1D7D
  5
1D7F
331
210A
  5
210E
331
2112
  5
2116
331
209C
  5
20A0
331
1D46
  5
1D48
331
2190
  5
21A9
331
2151
  5
2158
331
2159
  5
2160
331
22B6
  5
1F77
331
2161
  5
2168
331
211A
  5
211E
331
20DB
  5
20E2
331
20A4
  5
20A8
331
1D85
  5
1D87
331
1D4E
  5
1D50
331
21A8
  5
21AF
331
2169
  5
2170
331
1D0F
  5
1D11
331
1D8D
  5
1D8F
331
1D56
  5
1D58
331
1D17
  5
1D19
331
20E3
  5
20E7
331
2122
  5
2126
331
212A
  5
212E
331
1D95
  5
1D97
331
1D5E
  5
1D60
331
1D1F
  5
1D21
331
20EB
  5
20EF
331
2132
  5
2136
331
20BC
  5
20C0
331
1D9D
  5
1F78
331
1D66
  5
1D68
331
1D27
  5
1D29
331
20F3
  5
20FA
331
21B0
  5
21B7
331
2171
  5
2178
331
2179
  5
2180
331
21B8
  5
21C1
331
2181
  5
2188
331
213A
  5
213E
331
20C4
  5
20C8
331
1D6E
  5
1D70
331
2189
  5
2190
331
1D2F
  5
1D31
331
1DBD
  5
1F7A
331
20FB
  5
2108
331
2142
  5
2146
331
1D76
  5
1D78
331
1D00
  5
1D02
331
1D37
  5
1D39
331
20CC
  5
20D0
331
214A
  5
214F
331
20D4
  5
20D8
331
1D3F
  5
1D41
331
1D7E
  5
1D80
331
210B
  5
210F
331
2113
  5
2117
331
209D
  5
20A1
331
1D47
  5
1D49
331
2191
  5
21AA
331
2152
  5
2159
331
215A
  5
2161
331
22B7
  5
1CFC
331
2162
  5
2169
331
1D08
  5
1D0A
331
211B
  5
211F
331
20DC
  5
20E3
331
20A5
  5
20A9
331
1D86
  5
1D88
331
21A9
  5
21B0
331
216A
  5
2171
331
1D10
  5
1D12
331
1D4F
  5
1D51
331
1D8E
  5
1D90
331
1D57
  5
1D59
331
1D18
  5
1D1A
331
20E4
  5
20E8
331
2123
  5
2127
331
212B
  5
2130
331
1D96
  5
1D98
331
1D5F
  5
1D61
331
1D20
  5
1D22
331
20EC
  5
20F0
331
2133
  5
2137
331
20BD
  5
20C1
331
1D67
  5
1D69
331
20F4
  5
20FB
331
21B1
  5
21B8
331
2172
  5
2179
331
217A
  5
2181
331
21B9
  5
21C2
331
2201
  5
2209
331
2182
  5
2189
331
1D28
  5
1D2A
331
213B
  5
213F
331
1D6F
  5
1D71
331
218A
  5
2191
331
1CF9
  5
1CF9
331
1D30
  5
1D32
331
20C5
  5
20C9
331
20FC
  5
2109
331
2143
  5
2147
331
1D77
  5
1D79
331
1D01
  5
1D03
331
1D38
  5
1D3A
331
20CD
  5
20D1
331
214B
  5
2150
331
20D5
  5
20D9
331
1D40
  5
1D42
331
1D7F
  5
1D81
331
210C
  5
2110
331
2114
  5
2118
331
209E
  5
20A2
331
2209
  5
22C2
331
2153
  5
215A
331
215B
  5
2162
331
1D48
  5
1D4A
331
22B8
  5
1CFA
331
2163
  5
216A
331
1D09
  5
1D0B
331
211C
  5
2120
331
20A6
  5
20AA
331
1D50
  5
1D52
331
21AA
  5
21B1
331
216B
  5
2172
331
1D11
  5
1D13
331
1D87
  5
1D89
331
1D8F
  5
1D91
331
1D58
  5
1D5A
331
1D19
  5
1D1B
331
20E5
  5
20E9
331
2124
  5
2128
331
212C
  5
2131
331
1D97
  5
1D99
331
1D60
  5
1D62
331
1D21
  5
1D23
331
20ED
  5
20F1
331
2134
  5
2138
331
20BE
  5
20C2
331
20F5
  5
20FC
331
21B2
  5
21B9
331
2173
  5
217A
331
217B
  5
2182
331
21BA
  5
21C3
331
1D68
  5
1D6A
331
2183
  5
218A
331
1D29
  5
1D2B
331
213C
  5
2140
331
1D70
  5
1D72
331
218B
  5
219F
331
1CFA
  5
1CFB
331
1D31
  5
1D33
331
20C6
  5
20CA
331
20FD
  5
210A
331
2144
  5
2148
331
1D78
  5
1D7A
331
1D02
  5
1D04
331
1D39
  5
1D3B
331
20CE
  5
20D2
331
214C
  5
2151
331
1D41
  5
1D43
331
20D6
  5
20DA
331
210D
  5
2111
331
2115
  5
2119
331
209F
  5
20A3
331
2154
  5
215B
331
215C
  5
2163
331
1D80
  5
1D82
331
1D49
  5
1D4B
331
2164
  5
216B
331
1D0A
  5
1D0C
331
211D
  5
2121
331
1D88
  5
1D8A
331
1D51
  5
1D53
331
22C1
  5
22C4
331
21AB
  5
21B2
331
216C
  5
2173
331
1D12
  5
1D14
331
20A7
  5
20AB
331
1D90
  5
1D92
331
1D59
  5
1D5B
331
1D1A
  5
1D1C
331
20E6
  5
20EA
331
2125
  5
2129
331
212D
  5
2132
331
1D98
  5
1D9A
331
1D61
  5
1D63
331
1D22
  5
1D24
331
20B7
  5
20BB
331
20EE
  5
20F2
331
2135
  5
2139
331
20BF
  5
20C3
331
20F6
  5
20FD
331
21B3
  5
21BA
331
2174
  5
217B
331
217C
  5
2183
331
21BB
  5
21C4
331
1D69
  5
1D6B
331
2184
  5
218B
331
1D2A
  5
1D2C
331
213D
  5
2141
331
1D71
  5
1D73
331
218C
  5
21A5
331
1CFB
  5
1CFD
331
1D32
  5
1D34
331
20C7
  5
20CB
331
2145
  5
2149
331
1D79
  5
1D7B
331
1D03
  5
1D05
331
1D3A
  5
1D3C
331
20CF
  5
20D3
331
214D
  5
2153
331
20D7
  5
20DB
331
1D42
  5
1D44
331
2098
  5
209C
331
210E
  5
2112
331
2116
  5
211A
331
2155
  5
215C
331
215D
  5
2164
331
20A0
  5
20A4
331
1D81
  5
1D83
331
1D4A
  5
1D4C
331
2165
  5
216C
331
1D0B
  5
1D0D
331
20A8
  5
20B7
331
1D89
  5
1D8B
331
1D52
  5
1D54
331
22C2
  5
214D
331
21AC
  5
21B3
331
216D
  5
2174
331
1D13
  5
1D15
331
211E
  5
2122
331
1D91
  5
1D93
331
1D5A
  5
1D5C
331
1D1B
  5
1D1D
331
20E7
  5
20EB
331
2126
  5
212A
331
212E
  5
2133
331
1D99
  5
1D9B
331
1D62
  5
1D64
331
1D23
  5
1D25
331
20B8
  5
20BC
331
20EF
  5
20F3
331
2136
  5
213A
331
21B4
  5
21BB
331
2175
  5
217C
331
217D
  5
2184
331
21BC
  5
21C5
331
1D6A
  5
1D6C
331
2185
  5
218C
331
1CE4
  5
1CE4
331
1D2B
  5
1D2D
331
20C0
  5
20C4
331
20C8
  5
20CC
331
1D72
  5
1D74
331
218D
  5
21A6
331
1CFC
  5
1CFE
331
1D33
  5
1D35
331
213E
  5
2142
331
2107
  5
210B
331
1D7A
  5
1D7C
331
1D04
  5
1D06
331
1D3B
  5
1D3D
331
20D0
  5
20D4
331
2146
  5
214A
331
214E
  5
2155
331
210F
  5
2113
331
1D43
  5
1D45
331
2099
  5
209D
331
2117
  5
211B
331
2156
  5
215D
331
215E
  5
2165
331
22B3
  5
1F79
331
20D8
  5
20DC
331
20A1
  5
20A5
331
1D82
  5
1D84
331
1D4B
  5
1D4D
331
21A5
  5
21AC
331
2166
  5
216D
331
1D0C
  5
1D0E
331
211F
  5
2123
331
20A9
  5
20B8
331
1D8A
  5
1D8C
331
1D53
  5
1D55
331
22C3
  5
2154
331
21AD
  5
21B4
331
216E
  5
2175
331
1D14
  5
1D16
331
20E0
  5
20E4
331
20E8
  5
20EC
331
1D92
  5
1D94
331
1D5B
  5
1D5D
331
1D1C
  5
1D1E
331
2127
  5
212B
331
1D9A
  5
1D9C
331
1D63
  5
1D65
331
1D24
  5
1D26
331
20B9
  5
20BD
331
20F0
  5
20F4
331
2137
  5
213B
331
21B5
  5
21BC
331
2176
  5
217D
331
217E
  5
2185
331
21BD
  5
21C6
  0
LAYOUT
  5
14F2
102
{ACAD_REACTORS
330
14F0
102
}
330
14F0
100
AcDbPlotSettings
  1

  2
A3 EPSON LP-6100.pc3
  4
A3
  6

 40
5.873749732971191
 41
5.873747825622558
 42
5.873748779296875
 43
5.873748779296875
 44
297.0106506347656
 45
419.9466552734374
 46
0.9729266366594515
 47
5.149116684880254
 48
0.0
 49
0.0
140
0.0
141
0.0
142
1.0
143
1.0
 70
 28336
 72
     1
 73
     1
 74
     1
  7
AutoCAD LT 98.ctb
 75
    16
147
1.0
 76
     1
 77
     2
 78
   300
148
-670.6905717510958
149
-269.592392314915
100
AcDbLayout
  1
Model
 70
     1
 71
     0
 10
0.0
 20
0.0
 11
12.0
 21
9.0
 12
0.0
 22
0.0
 32
0.0
 14
0.0
 24
0.0
 34
0.0
 15
0.0
 25
0.0
 35
0.0
146
0.0
 13
0.0
 23
0.0
 33
0.0
 16
1.0
 26
0.0
 36
0.0
 17
0.0
 27
1.0
 37
0.0
 76
     0
330
18
1001
ACAD_PSEXT
1000
A3 EPSON LP-6100.pc3
1000
EPSON LP-6100
1000
\\SATO-MATE2
1000

1070
     0
  0
LAYOUT
  5
14F3
102
{ACAD_REACTORS
330
14F0
102
}
330
14F0
100
AcDbPlotSettings
  1

  2
WIDR Printer
  4

  6

 40
0.0
 41
0.0
 42
0.0
 43
0.0
 44
0.0
 45
0.0
 46
0.0
 47
0.0
 48
0.0
 49
0.0
140
0.0
141
0.0
142
1.0
143
1.0
 70
   688
 72
     0
 73
     0
 74
     5
  7
AutoCad LT 98.ctb
 75
    16
147
1.0
 76
     0
 77
     2
 78
   300
148
0.0
149
0.0
100
AcDbLayout
  1
レイアウト1
 70
     1
 71
     1
 10
0.0
 20
0.0
 11
420.0
 21
297.0
 12
0.0
 22
0.0
 32
0.0
 14
-0.2
 24
-0.2
 34
0.0
 15
255.2
 25
195.2
 35
0.0
146
0.0
 13
0.0
 23
0.0
 33
0.0
 16
1.0
 26
0.0
 36
0.0
 17
0.0
 27
1.0
 37
0.0
 76
     0
330
15
331
177
  0
MLINESTYLE
  5
1C
102
{ACAD_REACTORS
330
1B
102
}
330
1B
100
AcDbMlineStyle
  2
STANDARD
 70
     0
  3

 62
   256
 51
90.0
 52
90.0
 71
     2
 49
0.5
 62
   256
  6
BYLAYER
 49
-0.5
 62
   256
  6
BYLAYER
  0
ACDBPLACEHOLDER
  5
14EB
102
{ACAD_REACTORS
330
14EA
102
}
330
14EA
  0
ACAD_PROXY_OBJECT
  5
14EF
102
{ACAD_REACTORS
330
14EE
102
}
330
14EE
100
AcDbProxyObject
 90
      499
 91
      503
 95
  2555929
 70
     0
 93
     1849
310
4214DD185B99185C992420000000000000F83F0000000000003E0FC00000000000004901028000000C1008070000C3001FDFF8000000C1003FBFF000000182007F7FE00000030400FEFFC00000060801FDFF8000000C1003FBFF000000182000000000000000C2020B0000001820100E000186003FBFF000000182007F7FE0
310
0000030400FEFFC00000060801FDFF8000000C1003FBFF000000182007F7FE0000003040000000000000012404160000003040201C00030C007F7FE00000030400FEFFC00000060801FDFF8000000C1003FBFF000000182007F7FE00000030400FEFFC000000608000
340
F
340
F
340
F
 94
        0
  0
DICTIONARYVAR
  5
1A91
102
{ACAD_REACTORS
330
1A90
102
}
330
1A90
100
DictionaryVariables
280
     0
  1
STANDARD
  0
ENDSEC
  0
EOF
