  0
SECTION
  2
HEADER
  9
$ACADVER
  1
AC1018
  9
$ACADMAINTVER
 70
     0
  9
$DWGCODEPAGE
  3
ANSI_932
  9
$INSBASE
 10
0.0
 20
0.0
 30
0.0
  9
$EXTMIN
 10
-0.2128225079886761
 20
-0.2090691322566727
 30
-0.0000457728747811
  9
$EXTMAX
 10
255.2310249564599
 20
195.2002935422122
 30
0.000030519906467
  9
$LIMMIN
 10
0.0
 20
0.0
  9
$LIMMAX
 10
420.0
 20
297.0
  9
$ORTHOMODE
 70
     1
  9
$REGENMODE
 70
     1
  9
$FILLMODE
 70
     1
  9
$QTEXTMODE
 70
     0
  9
$MIRRTEXT
 70
     1
  9
$LTSCALE
 40
1.0
  9
$ATTMODE
 70
     1
  9
$TEXTSIZE
 40
3.0
  9
$TRACEWID
 40
1.0
  9
$TEXTSTYLE
  7
STYLE3
  9
$CLAYER
  8
寸法線
  9
$CELTYPE
  6
BYLAYER
  9
$CECOLOR
 62
   256
  9
$CELTSCALE
 40
1.0
  9
$DISPSILH
 70
     0
  9
$DIMSCALE
 40
1.0
  9
$DIMASZ
 40
2.5
  9
$DIMEXO
 40
0.0
  9
$DIMDLI
 40
3.75
  9
$DIMRND
 40
0.0
  9
$DIMDLE
 40
0.0
  9
$DIMEXE
 40
1.25
  9
$DIMTP
 40
0.0
  9
$DIMTM
 40
0.0
  9
$DIMTXT
 40
2.5
  9
$DIMCEN
 40
2.5
  9
$DIMTSZ
 40
0.0
  9
$DIMTOL
 70
     0
  9
$DIMLIM
 70
     0
  9
$DIMTIH
 70
     0
  9
$DIMTOH
 70
     0
  9
$DIMSE1
 70
     0
  9
$DIMSE2
 70
     0
  9
$DIMTAD
 70
     1
  9
$DIMZIN
 70
     8
  9
$DIMBLK
  1

  9
$DIMASO
 70
     1
  9
$DIMSHO
 70
     1
  9
$DIMPOST
  1

  9
$DIMAPOST
  1

  9
$DIMALT
 70
     0
  9
$DIMALTD
 70
     4
  9
$DIMALTF
 40
0.0394
  9
$DIMLFAC
 40
1.0
  9
$DIMTOFL
 70
     1
  9
$DIMTVP
 40
0.0
  9
$DIMTIX
 70
     0
  9
$DIMSOXD
 70
     0
  9
$DIMSAH
 70
     1
  9
$DIMBLK1
  1
OPEN
  9
$DIMBLK2
  1
OPEN
  9
$DIMSTYLE
  2
STYLE3
  9
$DIMCLRD
 70
     2
  9
$DIMCLRE
 70
     2
  9
$DIMCLRT
 70
     6
  9
$DIMTFAC
 40
1.0
  9
$DIMGAP
 40
0.625
  9
$DIMJUST
 70
     0
  9
$DIMSD1
 70
     0
  9
$DIMSD2
 70
     0
  9
$DIMTOLJ
 70
     1
  9
$DIMTZIN
 70
     0
  9
$DIMALTZ
 70
     0
  9
$DIMALTTZ
 70
     0
  9
$DIMUPT
 70
     0
  9
$DIMDEC
 70
     2
  9
$DIMTDEC
 70
     4
  9
$DIMALTU
 70
     8
  9
$DIMALTTD
 70
     4
  9
$DIMTXSTY
  7
STYLE3
  9
$DIMAUNIT
 70
     0
  9
$DIMADEC
 70
     0
  9
$DIMALTRND
 40
0.0
  9
$DIMAZIN
 70
     0
  9
$DIMDSEP
 70
    46
  9
$DIMATFIT
 70
     3
  9
$DIMFRAC
 70
     0
  9
$DIMLDRBLK
  1

  9
$DIMLUNIT
 70
     2
  9
$DIMLWD
 70
    -2
  9
$DIMLWE
 70
    -2
  9
$DIMTMOVE
 70
     0
  9
$LUNITS
 70
     2
  9
$LUPREC
 70
     4
  9
$SKETCHINC
 40
1.0
  9
$FILLETRAD
 40
0.0
  9
$AUNITS
 70
     0
  9
$AUPREC
 70
     0
  9
$MENU
  1
.
  9
$ELEVATION
 40
0.0
  9
$PELEVATION
 40
0.0
  9
$THICKNESS
 40
0.0
  9
$LIMCHECK
 70
     0
  9
$CHAMFERA
 40
2.0
  9
$CHAMFERB
 40
2.0
  9
$CHAMFERC
 40
20.0
  9
$CHAMFERD
 40
0.0
  9
$SKPOLY
 70
     0
  9
$TDCREATE
 40
2451401.536131250
  9
$TDUCREATE
 40
2451401.161131250
  9
$TDUPDATE
 40
2455370.479300845
  9
$TDUUPDATE
 40
2455370.104300845
  9
$TDINDWG
 40
1.0599442014
  9
$TDUSRTIMER
 40
1.0599442014
  9
$USRTIMER
 70
     1
  9
$ANGBASE
 50
0.0
  9
$ANGDIR
 70
     0
  9
$PDMODE
 70
     0
  9
$PDSIZE
 40
0.0
  9
$PLINEWID
 40
0.0
  9
$SPLFRAME
 70
     0
  9
$SPLINETYPE
 70
     6
  9
$SPLINESEGS
 70
     8
  9
$HANDSEED
  5
E8F
  9
$SURFTAB1
 70
     6
  9
$SURFTAB2
 70
     6
  9
$SURFTYPE
 70
     6
  9
$SURFU
 70
     6
  9
$SURFV
 70
     6
  9
$UCSBASE
  2

  9
$UCSNAME
  2

  9
$UCSORG
 10
0.0
 20
0.0
 30
0.0
  9
$UCSXDIR
 10
1.0
 20
0.0
 30
0.0
  9
$UCSYDIR
 10
0.0
 20
1.0
 30
0.0
  9
$UCSORTHOREF
  2

  9
$UCSORTHOVIEW
 70
     0
  9
$UCSORGTOP
 10
0.0
 20
0.0
 30
0.0
  9
$UCSORGBOTTOM
 10
0.0
 20
0.0
 30
0.0
  9
$UCSORGLEFT
 10
0.0
 20
0.0
 30
0.0
  9
$UCSORGRIGHT
 10
0.0
 20
0.0
 30
0.0
  9
$UCSORGFRONT
 10
0.0
 20
0.0
 30
0.0
  9
$UCSORGBACK
 10
0.0
 20
0.0
 30
0.0
  9
$PUCSBASE
  2

  9
$PUCSNAME
  2

  9
$PUCSORG
 10
0.0
 20
0.0
 30
0.0
  9
$PUCSXDIR
 10
1.0
 20
0.0
 30
0.0
  9
$PUCSYDIR
 10
0.0
 20
1.0
 30
0.0
  9
$PUCSORTHOREF
  2

  9
$PUCSORTHOVIEW
 70
     0
  9
$PUCSORGTOP
 10
0.0
 20
0.0
 30
0.0
  9
$PUCSORGBOTTOM
 10
0.0
 20
0.0
 30
0.0
  9
$PUCSORGLEFT
 10
0.0
 20
0.0
 30
0.0
  9
$PUCSORGRIGHT
 10
0.0
 20
0.0
 30
0.0
  9
$PUCSORGFRONT
 10
0.0
 20
0.0
 30
0.0
  9
$PUCSORGBACK
 10
0.0
 20
0.0
 30
0.0
  9
$USERI1
 70
     0
  9
$USERI2
 70
     0
  9
$USERI3
 70
     0
  9
$USERI4
 70
     0
  9
$USERI5
 70
     0
  9
$USERR1
 40
0.0
  9
$USERR2
 40
0.0
  9
$USERR3
 40
0.0
  9
$USERR4
 40
0.0
  9
$USERR5
 40
0.0
  9
$WORLDVIEW
 70
     1
  9
$SHADEDGE
 70
     3
  9
$SHADEDIF
 70
    70
  9
$TILEMODE
 70
     1
  9
$MAXACTVP
 70
    48
  9
$PINSBASE
 10
0.0
 20
0.0
 30
0.0
  9
$PLIMCHECK
 70
     0
  9
$PEXTMIN
 10
-0.2
 20
-0.2
 30
0.0
  9
$PEXTMAX
 10
255.2
 20
195.2
 30
0.0
  9
$PLIMMIN
 10
0.0
 20
0.0
  9
$PLIMMAX
 10
420.0
 20
297.0
  9
$UNITMODE
 70
     0
  9
$VISRETAIN
 70
     1
  9
$PLINEGEN
 70
     0
  9
$PSLTSCALE
 70
     1
  9
$TREEDEPTH
 70
  3020
  9
$CMLSTYLE
  2
STANDARD
  9
$CMLJUST
 70
     0
  9
$CMLSCALE
 40
20.0
  9
$PROXYGRAPHICS
 70
     1
  9
$MEASUREMENT
 70
     1
  9
$CELWEIGHT
370
    -1
  9
$ENDCAPS
280
     0
  9
$JOINSTYLE
280
     0
  9
$LWDISPLAY
290
     0
  9
$INSUNITS
 70
     0
  9
$HYPERLINKBASE
  1

  9
$STYLESHEET
  1
AutoCAD LT 98.ctb
  9
$XEDIT
290
     1
  9
$CEPSNTYPE
380
     0
  9
$PSTYLEMODE
290
     1
  9
$FINGERPRINTGUID
  2
{11341888-D8E7-4EDE-A578-B92D88CDC113}
  9
$VERSIONGUID
  2
{8133F079-0DE0-47FF-AC7F-11C7A74B9EA0}
  9
$EXTNAMES
290
     1
  9
$PSVPSCALE
 40
0.0
  9
$OLESTARTUP
290
     0
  9
$SORTENTS
280
   127
  9
$INDEXCTL
280
     0
  9
$HIDETEXT
280
     0
  9
$XCLIPFRAME
290
     0
  9
$HALOGAP
280
     0
  9
$OBSCOLOR
 70
   257
  9
$OBSLTYPE
280
     0
  9
$INTERSECTIONDISPLAY
280
     0
  9
$INTERSECTIONCOLOR
 70
   257
  9
$DIMASSOC
280
     1
  9
$PROJECTNAME
  1

  0
ENDSEC
  0
SECTION
  2
CLASSES
  0
CLASS
  1
HATCH
  2
AcDbHatch
  3
ObjectDBX Classes
 90
        0
 91
       14
280
     0
281
     1
  0
CLASS
  1
LWPOLYLINE
  2
AcDbPolyline
  3
ObjectDBX Classes
 90
        0
 91
        4
280
     0
281
     1
  0
CLASS
  1
ACDBDICTIONARYWDFLT
  2
AcDbDictionaryWithDefault
  3
ObjectDBX Classes
 90
        0
 91
        1
280
     0
281
     0
  0
CLASS
  1
TABLESTYLE
  2
AcDbTableStyle
  3
ObjectDBX Classes
 90
     2047
 91
        1
280
     0
281
     0
  0
CLASS
  1
DICTIONARYVAR
  2
AcDbDictionaryVar
  3
ObjectDBX Classes
 90
        0
 91
        1
280
     0
281
     0
  0
ENDSEC
  0
SECTION
  2
TABLES
  0
TABLE
  2
VPORT
  5
8
330
0
100
AcDbSymbolTable
 70
     2
  0
VPORT
  5
E8E
330
8
100
AcDbSymbolTableRecord
100
AcDbViewportTableRecord
  2
*Active
 70
     0
 10
0.0
 20
0.0
 11
1.0
 21
1.0
 12
127.5091012242356
 22
97.49561220497778
 13
0.0
 23
0.0
 14
10.0
 24
10.0
 15
10.0
 25
10.0
 16
0.0
 26
0.0
 36
1.0
 17
0.0
 27
0.0
 37
0.0
 40
196.8953654324496
 41
1.530456852791878
 42
50.0
 43
0.0
 44
0.0
 50
0.0
 51
0.0
 71
     0
 72
   100
 73
     1
 74
     1
 75
     0
 76
     0
 77
     0
 78
     0
281
     0
 65
     1
110
0.0
120
0.0
130
0.0
111
1.0
121
0.0
131
0.0
112
0.0
122
1.0
132
0.0
 79
     0
146
0.0
  0
ENDTAB
  0
TABLE
  2
LTYPE
  5
5
330
0
100
AcDbSymbolTable
 70
    12
  0
LTYPE
  5
12
330
5
100
AcDbSymbolTableRecord
100
AcDbLinetypeTableRecord
  2
BYBLOCK
 70
     0
  3

 72
    65
 73
     0
 40
0.0
  0
LTYPE
  5
13
330
5
100
AcDbSymbolTableRecord
100
AcDbLinetypeTableRecord
  2
BYLAYER
 70
     0
  3

 72
    65
 73
     0
 40
0.0
  0
LTYPE
  5
14
330
5
100
AcDbSymbolTableRecord
100
AcDbLinetypeTableRecord
  2
CONTINUOUS
 70
     0
  3
Solid line
 72
    65
 73
     0
 40
0.0
  0
LTYPE
  5
22
330
5
100
AcDbSymbolTableRecord
100
AcDbLinetypeTableRecord
  2
CENTER2
 70
     0
  3
Center (.5x) ___ _ ___ _ ___ _ ___ _ ___ _ ___
 72
    65
 73
     4
 40
28.575
 49
19.05
 74
     0
 49
-3.174999999999999
 74
     0
 49
3.174999999999999
 74
     0
 49
-3.174999999999999
 74
     0
  0
ENDTAB
  0
TABLE
  2
LAYER
  5
2
330
0
100
AcDbSymbolTable
 70
    16
  0
LAYER
  5
E
330
2
100
AcDbSymbolTableRecord
100
AcDbLayerTableRecord
  2
0
 70
     0
 62
     7
  6
CONTINUOUS
370
    -3
390
DDB
  0
LAYER
  5
25
330
2
100
AcDbSymbolTableRecord
100
AcDbLayerTableRecord
  2
外形線
 70
     0
 62
     7
  6
CONTINUOUS
370
    -3
390
DDB
  0
LAYER
  5
26
330
2
100
AcDbSymbolTableRecord
100
AcDbLayerTableRecord
  2
寸法線
 70
     0
 62
     2
  6
CONTINUOUS
370
    -3
390
DDB
  0
LAYER
  5
27
330
2
100
AcDbSymbolTableRecord
100
AcDbLayerTableRecord
  2
中心線
 70
     0
 62
     4
  6
CENTER2
370
    -3
390
DDB
  0
LAYER
  5
2A
330
2
100
AcDbSymbolTableRecord
100
AcDbLayerTableRecord
  2
ﾊｯﾁﾝｸ
 70
     0
 62
     6
  6
CONTINUOUS
370
    -3
390
DDB
  0
LAYER
  5
2B
330
2
100
AcDbSymbolTableRecord
100
AcDbLayerTableRecord
  2
文字
 70
     0
 62
     6
  6
CONTINUOUS
370
    -3
390
DDB
  0
LAYER
  5
2C
330
2
100
AcDbSymbolTableRecord
100
AcDbLayerTableRecord
  2
目盛
 70
     0
 62
    70
  6
CONTINUOUS
370
    -3
390
DDB
  0
LAYER
  5
2D
330
2
100
AcDbSymbolTableRecord
100
AcDbLayerTableRecord
  2
針
 70
     0
 62
     5
  6
CONTINUOUS
370
    -3
390
DDB
  0
LAYER
  5
53
330
2
100
AcDbSymbolTableRecord
100
AcDbLayerTableRecord
  2
DEFPOINTS
 70
     0
 62
     7
  6
CONTINUOUS
290
     0
370
    -3
390
DDB
  0
LAYER
  5
A5
330
2
100
AcDbSymbolTableRecord
100
AcDbLayerTableRecord
  2
C
 70
     0
 62
     7
  6
CONTINUOUS
370
    -3
390
DDB
  0
LAYER
  5
2FC
330
2
100
AcDbSymbolTableRecord
100
AcDbLayerTableRecord
  2
ROGO
 70
     0
 62
     6
  6
CONTINUOUS
370
    -3
390
DDB
  0
ENDTAB
  0
TABLE
  2
STYLE
  5
3
330
0
100
AcDbSymbolTable
 70
     6
  0
STYLE
  5
F
330
3
100
AcDbSymbolTableRecord
100
AcDbTextStyleTableRecord
  2
STANDARD
 70
     0
 40
0.0
 41
1.0
 50
0.0
 71
     0
 42
2.5
  3
txt
  4

  0
STYLE
  5
3F
330
3
100
AcDbSymbolTableRecord
100
AcDbTextStyleTableRecord
  2
STYLE3
 70
     0
 40
0.0
 41
1.0
 50
0.0
 71
     0
 42
3.0
  3
romans.shx
  4
bigfont.shx
  0
ENDTAB
  0
TABLE
  2
VIEW
  5
6
330
0
100
AcDbSymbolTable
 70
     0
  0
ENDTAB
  0
TABLE
  2
UCS
  5
7
330
0
100
AcDbSymbolTable
 70
     0
  0
ENDTAB
  0
TABLE
  2
APPID
  5
9
330
0
100
AcDbSymbolTable
 70
     2
  0
APPID
  5
10
330
9
100
AcDbSymbolTableRecord
100
AcDbRegAppTableRecord
  2
ACAD
 70
     0
  0
APPID
  5
DF8
330
9
100
AcDbSymbolTableRecord
100
AcDbRegAppTableRecord
  2
ACAD_PSEXT
 70
     0
  0
ENDTAB
  0
TABLE
  2
DIMSTYLE
  5
A
330
0
100
AcDbSymbolTable
 70
     4
100
AcDbDimStyleTable
 71
     1
340
8F
  0
DIMSTYLE
105
1D
330
A
100
AcDbSymbolTableRecord
100
AcDbDimStyleTableRecord
  2
STANDARD
 70
     0
 41
2.5
 42
0.625
 43
3.75
 44
1.25
 73
     0
 74
     0
 77
     1
 78
     8
140
2.5
141
2.5
143
0.0394
147
0.625
171
     4
172
     1
273
     8
274
     4
277
     6
340
F
  0
DIMSTYLE
105
8F
102
{ACAD_REACTORS
330
C24
330
C3C
330
C5E
330
C6B
330
C8C
102
}
330
A
100
AcDbSymbolTableRecord
100
AcDbDimStyleTableRecord
  2
STYLE3
 70
     0
 41
2.5
 42
0.0
 43
3.75
 44
1.25
 73
     0
 74
     0
 77
     1
 78
     8
140
2.5
141
2.5
143
0.0394
147
0.625
171
     4
172
     1
173
     1
176
     2
177
     2
178
     6
271
     1
273
     8
274
     4
340
3F
341
45
343
45
344
45
  0
ENDTAB
  0
TABLE
  2
BLOCK_RECORD
  5
1
330
0
100
AcDbSymbolTable
 70
     9
  0
BLOCK_RECORD
  5
18
330
1
100
AcDbSymbolTableRecord
100
AcDbBlockTableRecord
  2
*MODEL_SPACE
340
DE2
  0
BLOCK_RECORD
  5
15
330
1
100
AcDbSymbolTableRecord
100
AcDbBlockTableRecord
  2
*PAPER_SPACE
340
DE3
  0
BLOCK_RECORD
  5
45
330
1
100
AcDbSymbolTableRecord
100
AcDbBlockTableRecord
  2
_OPEN
340
0
102
{BLKREFS
331
DB5
331
DB6
331
DBF
331
DC1
331
DC9
331
DCA
331
E5A
331
E5B
331
E63
331
E64
331
E6B
331
E6C
331
E74
331
E75
331
E88
331
E89
102
}
  0
BLOCK_RECORD
  5
C18
330
1
100
AcDbSymbolTableRecord
100
AcDbBlockTableRecord
  2
*D2
340
0
  0
BLOCK_RECORD
  5
C30
330
1
100
AcDbSymbolTableRecord
100
AcDbBlockTableRecord
  2
*D3
340
0
  0
BLOCK_RECORD
  5
C53
330
1
100
AcDbSymbolTableRecord
100
AcDbBlockTableRecord
  2
*D4
340
0
  0
BLOCK_RECORD
  5
C5F
330
1
100
AcDbSymbolTableRecord
100
AcDbBlockTableRecord
  2
*D5
340
0
  0
BLOCK_RECORD
  5
C81
330
1
100
AcDbSymbolTableRecord
100
AcDbBlockTableRecord
  2
*D6
340
0
  0
ENDTAB
  0
ENDSEC
  0
SECTION
  2
BLOCKS
  0
BLOCK
  5
19
330
18
100
AcDbEntity
  8
0
100
AcDbBlockBegin
  2
*MODEL_SPACE
 70
     0
 10
0.0
 20
0.0
 30
0.0
  3
*MODEL_SPACE
  1

  0
ENDBLK
  5
1A
330
18
100
AcDbEntity
  8
0
100
AcDbBlockEnd
  0
BLOCK
  5
16
330
15
100
AcDbEntity
 67
     1
  8
0
100
AcDbBlockBegin
  2
*PAPER_SPACE
 70
     0
 10
0.0
 20
0.0
 30
0.0
  3
*PAPER_SPACE
  1

  0
ENDBLK
  5
17
330
15
100
AcDbEntity
 67
     1
  8
0
100
AcDbBlockEnd
  0
BLOCK
  5
46
330
45
100
AcDbEntity
  8
0
100
AcDbBlockBegin
  2
_OPEN
 70
     0
 10
0.0
 20
0.0
 30
0.0
  3
_OPEN
  1

  0
LINE
  5
47
330
45
100
AcDbEntity
  8
0
  6
ByBlock
 62
     0
100
AcDbLine
 10
-1.0
 20
0.1666666666666666
 30
0.0
 11
0.0
 21
0.0
 31
0.0
  0
LINE
  5
48
330
45
100
AcDbEntity
  8
0
  6
ByBlock
 62
     0
100
AcDbLine
 10
0.0
 20
0.0
 30
0.0
 11
-1.0
 21
-0.1666666666666666
 31
0.0
  0
LINE
  5
49
330
45
100
AcDbEntity
  8
0
  6
ByBlock
 62
     0
100
AcDbLine
 10
0.0
 20
0.0
 30
0.0
 11
-1.0
 21
0.0
 31
0.0
  0
ENDBLK
  5
4A
330
45
100
AcDbEntity
  8
0
100
AcDbBlockEnd
  0
BLOCK
  5
C25
330
C18
100
AcDbEntity
  8
0
100
AcDbBlockBegin
  2
*D2
 70
     1
 10
0.0
 20
0.0
 30
0.0
  3
*D2
  1

  0
LINE
  5
E85
330
C18
100
AcDbEntity
  8
文字
 62
     2
370
    -2
100
AcDbLine
 10
52.21056968042595
 20
170.8238998512969
 30
0.0
 11
70.2321207903558
 21
170.8238998512969
 31
0.0
  0
LINE
  5
E86
330
C18
100
AcDbEntity
  8
文字
 62
     2
370
    -2
100
AcDbLine
 10
52.21056968042595
 20
104.3238998512969
 30
0.0
 11
70.23212079035579
 21
104.3238998512969
 31
0.0
  0
LINE
  5
E87
330
C18
100
AcDbEntity
  8
文字
 62
     2
370
    -2
100
AcDbLine
 10
68.9821207903558
 20
168.3238998512969
 30
0.0
 11
68.98212079035579
 21
106.8238998512969
 31
0.0
  0
INSERT
  5
E88
330
C18
100
AcDbEntity
  8
文字
 62
     2
370
    -2
100
AcDbBlockReference
  2
_OPEN
 10
68.9821207903558
 20
170.8238998512969
 30
0.0
 41
2.5
 42
2.5
 43
2.5
 50
90.0
  0
INSERT
  5
E89
330
C18
100
AcDbEntity
  8
文字
 62
     2
370
    -2
100
AcDbBlockReference
  2
_OPEN
 10
68.98212079035579
 20
104.3238998512969
 30
0.0
 41
2.5
 42
2.5
 43
2.5
 50
270.0
  0
MTEXT
  5
E8A
330
C18
100
AcDbEntity
  8
文字
 62
     6
100
AcDbMText
 10
67.10712079035578
 20
137.5738998512969
 30
0.0
 40
2.5
 41
0.0
 71
     5
 72
     1
  1
\A1;φ66.5
  7
STYLE3
 11
0.0000000000000001
 21
1.0
 31
0.0
 73
     1
 44
1.0
  0
POINT
  5
E8B
330
C18
100
AcDbEntity
  8
DEFPOINTS
 62
     0
100
AcDbPoint
 10
52.21056968042595
 20
170.8238998512969
 30
0.0
  0
POINT
  5
E8C
330
C18
100
AcDbEntity
  8
DEFPOINTS
 62
     0
100
AcDbPoint
 10
52.21056968042595
 20
104.3238998512969
 30
0.0
  0
POINT
  5
E8D
330
C18
100
AcDbEntity
  8
DEFPOINTS
 62
     0
100
AcDbPoint
 10
68.98212079035579
 20
104.3238998512969
 30
0.0
  0
ENDBLK
  5
C2F
330
C18
100
AcDbEntity
  8
0
100
AcDbBlockEnd
  0
BLOCK
  5
C6C
330
C30
100
AcDbEntity
  8
0
100
AcDbBlockBegin
  2
*D3
 70
     1
 10
0.0
 20
0.0
 30
0.0
  3
*D3
  1

  0
LINE
  5
E71
330
C30
100
AcDbEntity
  8
文字
 62
     2
370
    -2
100
AcDbLine
 10
163.2009660220973
 20
178.5738998512969
 30
0.0
 11
97.04884196308402
 21
178.5738998512969
 31
0.0
  0
LINE
  5
E72
330
C30
100
AcDbEntity
  8
文字
 62
     2
370
    -2
100
AcDbLine
 10
125.3511201238967
 20
137.5738998512969
 30
0.0
 11
97.048841963084
 21
137.5738998512969
 31
0.0
  0
LINE
  5
E73
330
C30
100
AcDbEntity
  8
文字
 62
     2
370
    -2
100
AcDbLine
 10
98.29884196308402
 20
176.0738998512969
 30
0.0
 11
98.298841963084
 21
140.0738998512969
 31
0.0
  0
INSERT
  5
E74
330
C30
100
AcDbEntity
  8
文字
 62
     2
370
    -2
100
AcDbBlockReference
  2
_OPEN
 10
98.29884196308402
 20
178.5738998512969
 30
0.0
 41
2.5
 42
2.5
 43
2.5
 50
90.0
  0
INSERT
  5
E75
330
C30
100
AcDbEntity
  8
文字
 62
     2
370
    -2
100
AcDbBlockReference
  2
_OPEN
 10
98.298841963084
 20
137.5738998512969
 30
0.0
 41
2.5
 42
2.5
 43
2.5
 50
270.0
  0
MTEXT
  5
E76
330
C30
100
AcDbEntity
  8
文字
 62
     6
100
AcDbMText
 10
96.42384196308398
 20
157.5129123951215
 30
0.0
 40
2.5
 41
0.0
 71
     5
 72
     1
  1
\A1;41
  7
STYLE3
 11
0.0000000000000001
 21
1.0
 31
0.0
 73
     1
 44
1.0
  0
POINT
  5
E77
330
C30
100
AcDbEntity
  8
DEFPOINTS
 62
     0
100
AcDbPoint
 10
163.2009660220973
 20
178.5738998512969
 30
0.0
  0
POINT
  5
E78
330
C30
100
AcDbEntity
  8
DEFPOINTS
 62
     0
100
AcDbPoint
 10
125.3511201238967
 20
137.5738998512969
 30
0.0
  0
POINT
  5
E79
330
C30
100
AcDbEntity
  8
DEFPOINTS
 62
     0
100
AcDbPoint
 10
98.298841963084
 20
137.5738998512969
 30
0.0
  0
ENDBLK
  5
C76
330
C30
100
AcDbEntity
  8
0
100
AcDbBlockEnd
  0
BLOCK
  5
C77
330
C53
100
AcDbEntity
  8
0
100
AcDbBlockBegin
  2
*D4
 70
     1
 10
0.0
 20
0.0
 30
0.0
  3
*D4
  1

  0
LINE
  5
E69
330
C53
100
AcDbEntity
  8
文字
 62
     2
370
    -2
100
AcDbLine
 10
103.2009660220973
 20
56.57389985129691
 30
0.0
 11
97.04884196308398
 21
56.57389985129691
 31
0.0
  0
LINE
  5
E6A
330
C53
100
AcDbEntity
  8
文字
 62
     2
370
    -2
100
AcDbLine
 10
98.29884196308398
 20
135.0738998512969
 30
0.0
 11
98.29884196308398
 21
59.07389985129691
 31
0.0
  0
INSERT
  5
E6B
330
C53
100
AcDbEntity
  8
文字
 62
     2
370
    -2
100
AcDbBlockReference
  2
_OPEN
 10
98.29884196308398
 20
137.5738998512969
 30
0.0
 41
2.5
 42
2.5
 43
2.5
 50
90.0
  0
INSERT
  5
E6C
330
C53
100
AcDbEntity
  8
文字
 62
     2
370
    -2
100
AcDbBlockReference
  2
_OPEN
 10
98.29884196308398
 20
56.57389985129691
 30
0.0
 41
2.5
 42
2.5
 43
2.5
 50
270.0
  0
MTEXT
  5
E6D
330
C53
100
AcDbEntity
  8
文字
 62
     6
100
AcDbMText
 10
96.42384196308396
 20
97.07389985129694
 30
0.0
 40
2.5
 41
0.0
 71
     5
 72
     1
  1
\A1;81
  7
STYLE3
 11
0.0000000000000001
 21
1.0
 31
0.0
 73
     1
 44
1.0
  0
POINT
  5
E6E
330
C53
100
AcDbEntity
  8
DEFPOINTS
 62
     0
100
AcDbPoint
 10
125.3511201238967
 20
137.5738998512969
 30
0.0
  0
POINT
  5
E6F
330
C53
100
AcDbEntity
  8
DEFPOINTS
 62
     0
100
AcDbPoint
 10
103.2009660220973
 20
56.57389985129691
 30
0.0
  0
POINT
  5
E70
330
C53
100
AcDbEntity
  8
DEFPOINTS
 62
     0
100
AcDbPoint
 10
98.29884196308398
 20
56.57389985129691
 30
0.0
  0
ENDBLK
  5
C80
330
C53
100
AcDbEntity
  8
0
100
AcDbBlockEnd
  0
BLOCK
  5
C60
330
C5F
100
AcDbEntity
  8
0
100
AcDbBlockBegin
  2
*D5
 70
     1
 10
0.0
 20
0.0
 30
0.0
  3
*D5
  1

  0
LINE
  5
E60
330
C5F
100
AcDbEntity
  8
文字
 62
     2
370
    -2
100
AcDbLine
 10
97.04884196308398
 20
178.5738998512969
 30
0.0
 11
90.09197008807737
 21
178.5738998512969
 31
0.0
  0
LINE
  5
E61
330
C5F
100
AcDbEntity
  8
文字
 62
     2
370
    -2
100
AcDbLine
 10
97.04884196308398
 20
56.57389985129691
 30
0.0
 11
90.09197008807735
 21
56.57389985129691
 31
0.0
  0
LINE
  5
E62
330
C5F
100
AcDbEntity
  8
文字
 62
     2
370
    -2
100
AcDbLine
 10
91.34197008807737
 20
176.0738998512969
 30
0.0
 11
91.34197008807735
 21
59.07389985129691
 31
0.0
  0
INSERT
  5
E63
330
C5F
100
AcDbEntity
  8
文字
 62
     2
370
    -2
100
AcDbBlockReference
  2
_OPEN
 10
91.34197008807737
 20
178.5738998512969
 30
0.0
 41
2.5
 42
2.5
 43
2.5
 50
90.0
  0
INSERT
  5
E64
330
C5F
100
AcDbEntity
  8
文字
 62
     2
370
    -2
100
AcDbBlockReference
  2
_OPEN
 10
91.34197008807735
 20
56.57389985129691
 30
0.0
 41
2.5
 42
2.5
 43
2.5
 50
270.0
  0
MTEXT
  5
E65
330
C5F
100
AcDbEntity
  8
文字
 62
     6
100
AcDbMText
 10
89.46697008807735
 20
117.5738998512969
 30
0.0
 40
2.5
 41
0.0
 71
     5
 72
     1
  1
\A1;122
  7
STYLE3
 11
0.0000000000000001
 21
1.0
 31
0.0
 73
     1
 44
1.0
  0
POINT
  5
E66
330
C5F
100
AcDbEntity
  8
DEFPOINTS
 62
     0
100
AcDbPoint
 10
97.04884196308398
 20
178.5738998512969
 30
0.0
  0
POINT
  5
E67
330
C5F
100
AcDbEntity
  8
DEFPOINTS
 62
     0
100
AcDbPoint
 10
97.04884196308398
 20
56.57389985129691
 30
0.0
  0
POINT
  5
E68
330
C5F
100
AcDbEntity
  8
DEFPOINTS
 62
     0
100
AcDbPoint
 10
91.34197008807735
 20
56.57389985129691
 30
0.0
  0
ENDBLK
  5
C6A
330
C5F
100
AcDbEntity
  8
0
100
AcDbBlockEnd
  0
BLOCK
  5
C8D
330
C81
100
AcDbEntity
  8
0
100
AcDbBlockBegin
  2
*D6
 70
     1
 10
0.0
 20
0.0
 30
0.0
  3
*D6
  1

  0
LINE
  5
E58
330
C81
100
AcDbEntity
  8
文字
 62
     2
370
    -2
100
AcDbLine
 10
162.7409660220973
 20
36.57389985129692
 30
0.0
 11
90.09197008807735
 21
36.57389985129694
 31
0.0
  0
LINE
  5
E59
330
C81
100
AcDbEntity
  8
文字
 62
     2
370
    -2
100
AcDbLine
 10
91.34197008807735
 20
54.07389985129691
 30
0.0
 11
91.34197008807735
 21
39.07389985129693
 31
0.0
  0
INSERT
  5
E5A
330
C81
100
AcDbEntity
  8
文字
 62
     2
370
    -2
100
AcDbBlockReference
  2
_OPEN
 10
91.34197008807735
 20
56.57389985129691
 30
0.0
 41
2.5
 42
2.5
 43
2.5
 50
90.0
  0
INSERT
  5
E5B
330
C81
100
AcDbEntity
  8
文字
 62
     2
370
    -2
100
AcDbBlockReference
  2
_OPEN
 10
91.34197008807735
 20
36.57389985129694
 30
0.0
 41
2.5
 42
2.5
 43
2.5
 50
270.0
  0
MTEXT
  5
E5C
330
C81
100
AcDbEntity
  8
文字
 62
     6
100
AcDbMText
 10
89.46697008807733
 20
46.57389985129693
 30
0.0
 40
2.5
 41
0.0
 71
     5
 72
     1
  1
\A1;20～160
  7
STYLE3
 11
0.0000000000000001
 21
1.0
 31
0.0
 73
     1
 44
1.0
  0
POINT
  5
E5D
330
C81
100
AcDbEntity
  8
DEFPOINTS
 62
     0
100
AcDbPoint
 10
97.04884196308398
 20
56.57389985129691
 30
0.0
  0
POINT
  5
E5E
330
C81
100
AcDbEntity
  8
DEFPOINTS
 62
     0
100
AcDbPoint
 10
162.7409660220973
 20
36.57389985129692
 30
0.0
  0
POINT
  5
E5F
330
C81
100
AcDbEntity
  8
DEFPOINTS
 62
     0
100
AcDbPoint
 10
91.34197008807735
 20
36.57389985129694
 30
0.0
  0
ENDBLK
  5
C96
330
C81
100
AcDbEntity
  8
0
100
AcDbBlockEnd
  0
ENDSEC
  0
SECTION
  2
ENTITIES
  0
LWPOLYLINE
  5
26C
330
18
100
AcDbEntity
  8
C
100
AcDbPolyline
 90
        5
 70
     0
 43
0.4
 10
0.0
 20
195.0
 10
255.0
 20
195.0
 10
255.0
 20
0.0
 10
0.0
 20
0.0
 10
0.0
 20
195.0
  0
LINE
  5
2CD
330
18
100
AcDbEntity
  8
外形線
100
AcDbLine
 10
163.2009660220973
 20
56.57389985129691
 30
0.0
 11
223.2009660220973
 21
56.57389985129691
 31
0.0
  0
LINE
  5
2CE
330
18
100
AcDbEntity
  8
外形線
100
AcDbLine
 10
163.2009660220973
 20
72.57389985129695
 30
0.0
 11
173.2009660220973
 21
72.57389985129693
 31
0.0
  0
LINE
  5
2D0
330
18
100
AcDbEntity
  8
中心線
100
AcDbLine
 10
163.2009660220973
 20
181.1216289364658
 30
0.0
 11
163.2009660220973
 21
34.1594148834775
 31
0.0
  0
LINE
  5
2D1
330
18
100
AcDbEntity
  8
外形線
100
AcDbLine
 10
223.2009660220973
 20
65.76392472707275
 30
0.0
 11
223.2009660220973
 21
56.57389985129691
 31
0.0
  0
LINE
  5
2D4
330
18
100
AcDbEntity
  8
外形線
100
AcDbLine
 10
173.2009660220973
 20
72.57389985129693
 30
0.0
 11
221.3999734601393
 21
67.75399910749273
 31
0.0
  0
ARC
  5
2D5
330
18
100
AcDbEntity
  8
外形線
100
AcDbCircle
 10
221.2009660220973
 20
65.76392472707275
 30
0.0
 40
2.0
100
AcDbArc
 50
0.0
 51
84.28940686250035
  0
LINE
  5
2D6
330
18
100
AcDbEntity
  8
外形線
100
AcDbLine
 10
163.2009660220973
 20
72.57389985129695
 30
0.0
 11
153.2009660220972
 21
72.57389985129693
 31
0.0
  0
LINE
  5
2D7
330
18
100
AcDbEntity
  8
外形線
100
AcDbLine
 10
163.2009660220973
 20
56.57389985129691
 30
0.0
 11
103.2009660220973
 21
56.57389985129691
 31
0.0
  0
LINE
  5
2D8
330
18
100
AcDbEntity
  8
外形線
100
AcDbLine
 10
103.2009660220973
 20
65.76392472707275
 30
0.0
 11
103.2009660220973
 21
56.57389985129691
 31
0.0
  0
LINE
  5
2D9
330
18
100
AcDbEntity
  8
外形線
100
AcDbLine
 10
153.2009660220972
 20
72.57389985129693
 30
0.0
 11
105.0019585840553
 21
67.75399910749273
 31
0.0
  0
ARC
  5
2DA
330
18
100
AcDbEntity
  8
外形線
100
AcDbCircle
 10
105.2009660220973
 20
65.76392472707275
 30
0.0
 40
2.0
100
AcDbArc
 50
95.71059313749966
 51
180.0
  0
LINE
  5
2DB
330
18
100
AcDbEntity
  8
外形線
100
AcDbLine
 10
163.2009660220973
 20
76.57389985129694
 30
0.0
 11
169.7009660220972
 21
76.57389985129691
 31
0.0
  0
LINE
  5
2DE
330
18
100
AcDbEntity
  8
外形線
100
AcDbLine
 10
169.7009660220973
 20
76.57389985129691
 30
0.0
 11
169.7009660220973
 21
72.57389985129693
 31
0.0
  0
LINE
  5
2E0
330
18
100
AcDbEntity
  8
外形線
100
AcDbLine
 10
168.7009660220973
 20
77.57389985129688
 30
0.0
 11
169.7009660220973
 21
76.57389985129691
 31
0.0
  0
LINE
  5
2E2
330
18
100
AcDbEntity
  8
外形線
100
AcDbLine
 10
168.7009660220973
 20
88.37389985129695
 30
0.0
 11
168.7009660220973
 21
77.5738998512969
 31
0.0
  0
LINE
  5
2E3
330
18
100
AcDbEntity
  8
外形線
100
AcDbLine
 10
168.7009660220973
 20
77.57389985129691
 30
0.0
 11
163.2009660220973
 21
77.57389985129691
 31
0.0
  0
LINE
  5
2E4
330
18
100
AcDbEntity
  8
外形線
100
AcDbLine
 10
169.2009660220973
 20
99.57389985129694
 30
0.0
 11
169.2009660220973
 21
88.37389985129693
 31
0.0
  0
LINE
  5
2E7
330
18
100
AcDbEntity
  8
外形線
100
AcDbLine
 10
157.7009660220973
 20
77.57389985129688
 30
0.0
 11
156.7009660220973
 21
76.57389985129691
 31
0.0
  0
LINE
  5
2E8
330
18
100
AcDbEntity
  8
外形線
100
AcDbLine
 10
163.2009660220973
 20
76.57389985129694
 30
0.0
 11
156.7009660220973
 21
76.57389985129691
 31
0.0
  0
LINE
  5
2E9
330
18
100
AcDbEntity
  8
外形線
100
AcDbLine
 10
156.7009660220973
 20
76.57389985129691
 30
0.0
 11
156.7009660220973
 21
72.57389985129693
 31
0.0
  0
LINE
  5
2EA
330
18
100
AcDbEntity
  8
外形線
100
AcDbLine
 10
157.7009660220973
 20
77.57389985129691
 30
0.0
 11
163.2009660220973
 21
77.57389985129691
 31
0.0
  0
LINE
  5
2EB
330
18
100
AcDbEntity
  8
外形線
100
AcDbLine
 10
157.7009660220973
 20
86.55770136420127
 30
0.0
 11
157.7009660220973
 21
77.5738998512969
 31
0.0
  0
LINE
  5
2EC
330
18
100
AcDbEntity
  8
中心線
 48
0.5
100
AcDbLine
 10
154.7009660220973
 20
104.1018163841384
 30
0.0
 11
154.7009660220973
 21
83.93847172616592
 31
0.0
  0
LINE
  5
2ED
330
18
100
AcDbEntity
  8
中心線
 48
0.5
100
AcDbLine
 10
143.6834180916229
 20
93.97389985129692
 30
0.0
 11
165.4913257561853
 21
93.97389985129695
 31
0.0
  0
LINE
  5
92C
330
18
100
AcDbEntity
  8
ﾊｯﾁﾝｸ
 62
     4
100
AcDbLine
 10
41.77268381547984
 20
173.0738998512969
 30
0.0
 11
44.51056968042613
 21
177.8160572747085
 31
0.0
  0
LINE
  5
92D
330
18
100
AcDbEntity
  8
ﾊｯﾁﾝｸ
 62
     4
100
AcDbLine
 10
42.9209907087492
 20
173.062825733121
 30
0.0
 11
44.51056968042613
 21
175.8160572747087
 31
0.0
  0
LINE
  5
92E
330
18
100
AcDbEntity
  8
ﾊｯﾁﾝｸ
 62
     4
100
AcDbLine
 10
44.08208489223821
 20
173.0738998512969
 30
0.0
 11
44.51056968042613
 21
173.8160572747086
 31
0.0
  0
LINE
  5
92F
330
18
100
AcDbEntity
  8
ﾊｯﾁﾝｸ
 62
     4
100
AcDbLine
 10
44.51056968042613
 20
176.0628257331208
 30
0.0
 11
43.34947549693689
 21
178.0738998512969
 31
0.0
  0
LINE
  5
930
330
18
100
AcDbEntity
  8
ﾊｯﾁﾝｸ
 62
     4
100
AcDbLine
 10
44.51056968042613
 20
174.062825733121
 30
0.0
 11
42.19477495855758
 21
178.0738998512969
 31
0.0
  0
LINE
  5
931
330
18
100
AcDbEntity
  8
外形線
100
AcDbLine
 10
44.51056968042613
 20
173.0738998512969
 30
0.0
 11
44.01056968042612
 21
172.5738998512969
 31
0.0
  0
LINE
  5
932
330
18
100
AcDbEntity
  8
外形線
100
AcDbLine
 10
44.51056968042613
 20
173.0738998512969
 30
0.0
 11
37.51056968042613
 21
173.0738998512969
 31
0.0
  0
ARC
  5
933
330
18
100
AcDbEntity
  8
外形線
100
AcDbCircle
 10
41.01056968042612
 20
166.073899851297
 30
0.0
 40
12.49999999999989
100
AcDbArc
 50
73.73979529168789
 51
106.2602047083121
  0
LINE
  5
934
330
18
100
AcDbEntity
  8
外形線
100
AcDbLine
 10
44.51056968042613
 20
178.0738998512969
 30
0.0
 11
37.51056968042613
 21
178.0738998512969
 31
0.0
  0
LINE
  5
935
330
18
100
AcDbEntity
  8
外形線
100
AcDbLine
 10
44.51056968042613
 20
172.5738998512969
 30
0.0
 11
37.51056968042613
 21
172.5738998512969
 31
0.0
  0
LINE
  5
939
330
18
100
AcDbEntity
  8
外形線
100
AcDbLine
 10
47.96056968042594
 20
106.3238998512969
 30
0.0
 11
33.51056968042613
 21
106.3238998512969
 31
0.0
  0
LINE
  5
93A
330
18
100
AcDbEntity
  8
外形線
100
AcDbLine
 10
47.96056968042594
 20
168.823899851297
 30
0.0
 11
33.51056968042602
 21
168.823899851297
 31
0.0
  0
LINE
  5
93B
330
18
100
AcDbEntity
  8
中心線
100
AcDbLine
 10
58.72498345968384
 20
137.5738998512969
 30
0.0
 11
28.51533104349815
 21
137.5738998512969
 31
0.0
  0
LINE
  5
941
330
18
100
AcDbEntity
  8
針
100
AcDbLine
 10
160.8493955032215
 20
139.7897780281679
 30
0.0
 11
147.2498625107629
 21
159.3585801741912
 31
0.0
  0
LINE
  5
942
330
18
100
AcDbEntity
  8
針
100
AcDbLine
 10
161.8202158964715
 20
140.4951203309189
 30
0.0
 11
147.4116659096379
 21
159.4761372246497
 31
0.0
  0
HATCH
  5
943
330
18
100
AcDbEntity
  8
針
100
AcDbHatch
 10
0.0
 20
0.0
 30
0.0
210
0.0
220
0.0
230
1.0
  2
SOLID
 70
     1
 71
     0
 91
        1
 92
        7
 72
     1
 73
     1
 93
        7
 10
160.8493955032233
 20
139.7897780281653
 42
-0.1415000153293357
 10
161.4158027455405
 20
138.2244319996439
 42
-0.3055181981730911
 10
163.1339189735423
 20
139.4727165073435
 42
-0.1415000153293216
 10
161.8202158964734
 20
140.4951203309163
 42
0.0
 10
147.4116659096379
 20
159.4761372246497
 42
0.0
 10
147.3307642102005
 20
159.4173586994204
 42
0.0
 10
147.249862510763
 20
159.3585801741912
 42
0.0
 97
        0
 75
     0
 76
     1
 47
0.070338108143851
 98
        1
 10
158.1156965510416
 20
144.2321241720481
450
        0
451
        0
460
0.0
461
0.0
452
        0
462
0.0
453
        0
470

  0
TEXT
  5
945
330
18
100
AcDbEntity
  8
文字
100
AcDbText
 10
160.5478433885282
 20
140.8758930728651
 30
0.0
 40
1.0
  1
NO.207
  7
STYLE3
100
AcDbText
  0
TEXT
  5
946
330
18
100
AcDbEntity
  8
文字
100
AcDbText
 10
179.0866850287875
 20
140.161593785875
 30
0.0
 40
1.5
  1
20
  7
STYLE3
100
AcDbText
  0
TEXT
  5
947
330
18
100
AcDbEntity
  8
文字
100
AcDbText
 10
143.8796469762809
 20
140.8605494462058
 30
0.0
 40
1.5
  1
80
  7
STYLE3
100
AcDbText
  0
LINE
  5
948
330
18
100
AcDbEntity
  8
目盛
100
AcDbLine
 10
191.9722923602171
 20
141.2085636246617
 30
0.0
 11
189.2439769316023
 21
140.8638972323599
 31
0.0
  0
LINE
  5
949
330
18
100
AcDbEntity
  8
目盛
100
AcDbLine
 10
134.4296396839773
 20
141.2085636246618
 30
0.0
 11
137.1579551125923
 21
140.8638972323599
 31
0.0
  0
CIRCLE
  5
94A
330
18
100
AcDbEntity
  8
外形線
100
AcDbCircle
 10
163.2009660220973
 20
137.5738998512969
 30
0.0
 40
29.0
  0
CIRCLE
  5
94B
330
18
100
AcDbEntity
  8
外形線
100
AcDbCircle
 10
163.2009660220973
 20
137.5738998512969
 30
0.0
 40
15.5
  0
ARC
  5
94C
330
18
100
AcDbEntity
  8
外形線
100
AcDbCircle
 10
-192.3200046439034
 20
137.5738998512969
 30
0.0
 40
247.8305743243293
100
AcDbArc
 50
352.9948638173551
 51
7.005136182644887
  0
LINE
  5
94D
330
18
100
AcDbEntity
  8
外形線
100
AcDbLine
 10
48.66056968042599
 20
169.4738998512969
 30
0.0
 11
48.66056968042599
 21
105.6738998512969
 31
0.0
  0
LINE
  5
94E
330
18
100
AcDbEntity
  8
外形線
100
AcDbLine
 10
52.46056968042594
 20
170.5738998512969
 30
0.0
 11
52.46056968042606
 21
104.573899851297
 31
0.0
  0
LINE
  5
94F
330
18
100
AcDbEntity
  8
外形線
100
AcDbLine
 10
53.66056968042599
 20
168.5238998512968
 30
0.0
 11
53.66056968042599
 21
106.6238998512969
 31
0.0
  0
LINE
  5
950
330
18
100
AcDbEntity
  8
外形線
100
AcDbLine
 10
47.96056968042594
 20
169.4738998512969
 30
0.0
 11
47.96056968042594
 21
105.673899851297
 31
0.0
  0
CIRCLE
  5
951
330
18
100
AcDbEntity
  8
外形線
100
AcDbCircle
 10
163.2009660220973
 20
137.5738998512969
 30
0.0
 40
33.25
  0
HATCH
  5
952
330
18
100
AcDbEntity
  8
外形線
100
AcDbHatch
 10
0.0
 20
0.0
 30
0.0
210
0.0
220
0.0
230
1.0
  2
SOLID
 70
     1
 71
     1
 91
        2
 92
        1
 93
        7
 72
     1
 10
171.7064216262315
 20
139.0238998512968
 11
170.5397549595648
 21
138.5992679113196
 72
     1
 10
170.5397549595648
 20
138.5992679113196
 11
170.5397549595648
 21
138.9343165179635
 72
     1
 10
170.5397549595648
 20
138.9343165179635
 11
169.5397549595648
 21
138.9343165179634
 72
     1
 10
169.5397549595648
 20
138.9343165179634
 11
169.5397549595648
 21
139.1134831846301
 72
     1
 10
169.5397549595648
 20
139.1134831846301
 11
170.5397549595648
 21
139.1134831846301
 72
     1
 10
170.5397549595648
 20
139.1134831846301
 11
170.5397549595648
 21
139.448531791274
 72
     1
 10
170.5397549595648
 20
139.448531791274
 11
171.7064216262315
 21
139.0238998512968
 97
        7
330
A01
330
A04
330
953
330
9CC
330
954
330
A07
330
A00
 92
        1
 93
        4
 72
     1
 10
171.7064216262315
 20
139.7738998512968
 11
171.7064216262315
 21
138.2738998512968
 72
     1
 10
171.7064216262315
 20
138.2738998512968
 11
171.873088292898
 21
138.2738998512968
 72
     1
 10
171.873088292898
 20
138.2738998512968
 11
171.873088292898
 21
139.7738998512968
 72
     1
 10
171.873088292898
 20
139.7738998512968
 11
171.7064216262315
 21
139.7738998512968
 97
        4
330
9FF
330
9F4
330
9FE
330
A08
 75
     0
 76
     1
 98
        1
 10
264.0359783327119
 20
70.36174904411581
450
        0
451
        0
460
0.0
461
0.0
452
        0
462
0.0
453
        0
470

  0
LINE
  5
953
102
{ACAD_REACTORS
330
952
102
}
330
18
100
AcDbEntity
  8
外形線
100
AcDbLine
 10
169.5397549595648
 20
138.9343165179634
 30
0.0
 11
170.5397549595648
 21
138.9343165179635
 31
0.0
  0
LINE
  5
954
102
{ACAD_REACTORS
330
952
102
}
330
18
100
AcDbEntity
  8
外形線
100
AcDbLine
 10
169.5397549595648
 20
139.1134831846301
 30
0.0
 11
170.5397549595648
 21
139.1134831846301
 31
0.0
  0
TEXT
  5
955
330
18
100
AcDbEntity
  8
文字
100
AcDbText
 10
169.269501342351
 20
136.5376096168843
 30
0.0
 40
1.0
  1
0.01mm
  7
STYLE3
100
AcDbText
  0
TEXT
  5
956
330
18
100
AcDbEntity
  8
文字
100
AcDbText
 10
169.0717922484483
 20
123.8749161695203
 30
0.0
 40
1.0
  1
O
 50
17.77370423906014
  7
STYLE3
100
AcDbText
  0
LINE
  5
95B
330
18
100
AcDbEntity
  8
中心線
100
AcDbLine
 10
125.3511201238967
 20
137.5738998512969
 30
0.0
 11
201.0508119202978
 21
137.5738998512969
 31
0.0
  0
LINE
  5
973
330
18
100
AcDbEntity
  8
目盛
100
AcDbLine
 10
163.2009660220972
 20
108.5738998512969
 30
0.0
 11
163.2009660220972
 21
113.323899851297
 31
0.0
  0
LINE
  5
974
330
18
100
AcDbEntity
  8
目盛
100
AcDbLine
 10
154.2394731852238
 20
109.9932608787375
 30
0.0
 11
155.7073039085048
 21
114.5107793311394
 31
0.0
  0
LINE
  5
975
330
18
100
AcDbEntity
  8
目盛
100
AcDbLine
 10
149.2301094731474
 20
112.1610061300248
 30
0.0
 11
150.5549320769272
 21
114.5708495001455
 31
0.0
  0
LINE
  5
976
330
18
100
AcDbEntity
  8
目盛
100
AcDbLine
 10
150.85336656671
 20
111.3339153297822
 30
0.0
 11
152.024259618514
 21
113.8221897240639
 31
0.0
  0
LINE
  5
977
330
18
100
AcDbEntity
  8
目盛
100
AcDbLine
 10
152.5253539942416
 20
110.6103817605376
 30
0.0
 11
153.5376965141244
 21
113.1672670967303
 31
0.0
  0
LINE
  5
978
330
18
100
AcDbEntity
  8
外形線
100
AcDbLine
 10
167.2009660220973
 20
104.5653782242988
 30
0.0
 11
167.2009660220973
 21
99.57389985129694
 31
0.0
  0
LINE
  5
979
330
18
100
AcDbEntity
  8
外形線
100
AcDbLine
 10
159.2009660220973
 20
104.5653782242988
 30
0.0
 11
159.2009660220973
 21
100.5882781289584
 31
0.0
  0
LINE
  5
983
330
18
100
AcDbEntity
  8
目盛
100
AcDbLine
 10
155.9889592943164
 20
109.4849881785667
 30
0.0
 11
156.6728564840198
 21
112.1485918716704
 31
0.0
  0
LINE
  5
984
330
18
100
AcDbEntity
  8
目盛
100
AcDbLine
 10
157.7669078991112
 20
109.087569580165
 30
0.0
 11
158.2822065142219
 21
111.7888595196689
 31
0.0
  0
LINE
  5
985
330
18
100
AcDbEntity
  8
目盛
100
AcDbLine
 10
159.5663022487324
 20
108.802573513177
 30
0.0
 11
159.9109686410342
 21
111.5308889417919
 31
0.0
  0
LINE
  5
986
330
18
100
AcDbEntity
  8
目盛
100
AcDbLine
 10
165.0218910884474
 20
108.6311247268771
 30
0.0
 11
164.8492171597418
 21
111.3756982300548
 31
0.0
  0
LINE
  5
987
330
18
100
AcDbEntity
  8
目盛
100
AcDbLine
 10
161.3800409557472
 20
108.6311247268771
 30
0.0
 11
161.5527148844527
 21
111.3756982300548
 31
0.0
  0
LINE
  5
988
330
18
100
AcDbEntity
  8
目盛
100
AcDbLine
 10
166.8356297954622
 20
108.8025735131771
 30
0.0
 11
166.4909634031603
 21
111.5308889417919
 31
0.0
  0
LINE
  5
989
330
18
100
AcDbEntity
  8
目盛
100
AcDbLine
 10
168.6350241450833
 20
109.0875695801648
 30
0.0
 11
168.1197255299726
 21
111.7888595196689
 31
0.0
  0
TEXT
  5
98A
330
18
100
AcDbEntity
  8
文字
100
AcDbText
 10
148.0362816843099
 20
118.9800850509845
 30
0.0
 40
3.0
  1
40
  7
STYLE3
100
AcDbText
  0
LINE
  5
98B
330
18
100
AcDbEntity
  8
目盛
100
AcDbLine
 10
140.8560819815993
 20
119.0886041485849
 30
0.0
 11
142.9749933992327
 21
120.8415201203938
 31
0.0
  0
LINE
  5
98C
330
18
100
AcDbEntity
  8
目盛
100
AcDbLine
 10
139.7394731852238
 20
120.5281275348152
 30
0.0
 11
143.5823039085048
 21
123.3201074832044
 31
0.0
  0
LINE
  5
98D
330
18
100
AcDbEntity
  8
目盛
100
AcDbLine
 10
138.7154561825389
 20
122.034922796906
 30
0.0
 11
141.0373579776694
 21
123.5084464830983
 31
0.0
  0
LINE
  5
98E
330
18
100
AcDbEntity
  8
目盛
100
AcDbLine
 10
136.9609815005827
 20
125.2263003959098
 30
0.0
 11
139.4492558948642
 21
126.3971934477138
 31
0.0
  0
LINE
  5
98F
330
18
100
AcDbEntity
  8
目盛
100
AcDbLine
 10
137.7880723008252
 20
123.6030433023471
 30
0.0
 11
140.1979156709459
 21
124.9278659061269
 31
0.0
  0
LINE
  5
990
330
18
100
AcDbEntity
  8
目盛
100
AcDbLine
 10
144.7156703193852
 20
115.229015810799
 30
0.0
 11
146.4685862911941
 21
117.3479272284325
 31
0.0
  0
LINE
  5
991
330
18
100
AcDbEntity
  8
目盛
100
AcDbLine
 10
142.0608758268763
 20
117.7220337793649
 30
0.0
 11
144.0655395522852
 21
119.6045383206688
 31
0.0
  0
LINE
  5
992
330
18
100
AcDbEntity
  8
目盛
100
AcDbLine
 10
143.3490999501652
 20
116.4338096560759
 30
0.0
 11
145.2316044914691
 21
118.4384733814848
 31
0.0
  0
LINE
  5
993
330
18
100
AcDbEntity
  8
目盛
100
AcDbLine
 10
147.6619889677063
 20
113.0883900117385
 30
0.0
 11
149.1355126538985
 21
115.410291806869
 31
0.0
  0
LINE
  5
994
330
18
100
AcDbEntity
  8
目盛
100
AcDbLine
 10
146.1551937056155
 20
114.1124070144234
 30
0.0
 11
148.9471736540048
 21
117.9552377377044
 31
0.0
  0
TEXT
  5
995
330
18
100
AcDbEntity
  8
文字
100
AcDbText
 10
140.4575060410067
 20
128.8831810513421
 30
0.0
 40
3.0
  1
30
  7
STYLE3
100
AcDbText
  0
LINE
  5
996
330
18
100
AcDbEntity
  8
目盛
100
AcDbLine
 10
134.4296396839774
 20
133.9392360779321
 30
0.0
 11
137.1579551125923
 21
134.2839024702339
 31
0.0
  0
LINE
  5
997
330
18
100
AcDbEntity
  8
目盛
100
AcDbLine
 10
135.6203270495379
 20
128.6124070144234
 30
0.0
 11
140.1378455019398
 21
130.0802377377044
 31
0.0
  0
LINE
  5
998
330
18
100
AcDbEntity
  8
目盛
100
AcDbLine
 10
134.7146357509652
 20
132.1398417283109
 30
0.0
 11
137.4159256904693
 21
132.6551403434217
 31
0.0
  0
LINE
  5
999
330
18
100
AcDbEntity
  8
目盛
100
AcDbLine
 10
135.112054349367
 20
130.3618931235161
 30
0.0
 11
137.7756580424708
 21
131.0457903132195
 31
0.0
  0
LINE
  5
99A
330
18
100
AcDbEntity
  8
目盛
100
AcDbLine
 10
136.237447931338
 20
126.8982878234413
 30
0.0
 11
138.7943332675307
 21
127.9106303433241
 31
0.0
  0
LINE
  5
99B
330
18
100
AcDbEntity
  8
目盛
100
AcDbLine
 10
134.2581908976774
 20
135.7529747849469
 30
0.0
 11
137.0027644008552
 21
135.9256487136524
 31
0.0
  0
LINE
  5
99C
330
18
100
AcDbEntity
  8
目盛
100
AcDbLine
 10
134.2009660220973
 20
137.5738998512969
 30
0.0
 11
138.9509660220973
 21
137.5738998512969
 31
0.0
  0
LINE
  5
99D
330
18
100
AcDbEntity
  8
目盛
100
AcDbLine
 10
134.2581908976774
 20
139.394824917647
 30
0.0
 11
137.0027644008552
 21
139.2221509889414
 31
0.0
  0
POINT
  5
99E
330
18
100
AcDbEntity
  8
DEFPOINTS
  6
ByBlock
 62
     0
100
AcDbPoint
 10
134.2009660220973
 20
137.5738998512969
 30
0.0
  0
TEXT
  5
99F
330
18
100
AcDbEntity
  8
文字
100
AcDbText
 10
144.7599493032435
 20
132.740031780942
 30
0.0
 40
1.5
  1
70
  7
STYLE3
100
AcDbText
  0
CIRCLE
  5
9A0
330
18
100
AcDbEntity
  8
針
100
AcDbCircle
 10
160.0009660220972
 20
127.499928439783
 30
0.0
 40
0.75
  0
CIRCLE
  5
9A1
330
18
100
AcDbEntity
  8
針
100
AcDbCircle
 10
160.0009660220972
 20
127.499928439783
 30
0.0
 40
1.1
  0
HATCH
  5
9A2
330
18
100
AcDbEntity
  8
針
100
AcDbHatch
 10
0.0
 20
0.0
 30
0.0
210
0.0
220
0.0
230
1.0
  2
SOLID
 70
     1
 71
     0
 91
        4
 92
        7
 72
     1
 73
     1
 93
        4
 10
158.913048572399
 20
127.6625187920256
 42
0.0
 10
159.2592041245757
 20
127.6107854981302
 42
-0.4142135623730951
 10
160.1118230804443
 20
128.2416903373044
 42
0.0
 10
160.1635563743397
 20
128.5878458894811
 42
0.4142135623730996
 97
        0
 92
        7
 72
     1
 73
     1
 93
        5
 10
159.2592041245757
 20
127.6107854981302
 42
0.0
 10
158.913048572399
 20
127.6625187920256
 42
0.3173569687788799
 10
159.4833406537276
 20
126.529328636558
 42
0.0
 10
159.8857186639368
 20
126.7287903602787
 42
0.0
 10
159.8901089637499
 20
126.7581665422615
 42
-0.4142135623730839
 97
        0
 92
        7
 72
     1
 73
     1
 93
        4
 10
160.1635563743397
 20
128.5878458894811
 42
0.0
 10
160.1118230804443
 20
128.2416903373044
 42
-0.4142135623730951
 10
160.7427279196187
 20
127.3890713814358
 42
0.0
 10
161.0888834717953
 20
127.3373380875404
 42
0.4142135623730996
 97
        0
 92
        7
 72
     1
 73
     1
 93
        4
 10
160.7427279196187
 20
127.3890713814358
 42
-0.1036385141593389
 10
160.6358360895099
 20
127.1006290564835
 42
0.0
 10
161.086837727388
 20
127.3241938682017
 42
0.003023315109616
 10
161.0888834717953
 20
127.3373380875404
 42
0.0
 97
        0
 75
     0
 76
     1
 47
0.0223982890607777
 98
        4
 10
159.4969105210982
 20
128.3516836278516
 10
159.1695555338356
 20
127.2220444267486
 10
160.4283458712894
 20
128.3711320986583
 10
160.8142173280187
 20
127.3162176519451
450
        0
451
        0
460
0.0
461
0.0
452
        0
462
0.0
453
        0
470

  0
HATCH
  5
9A3
330
18
100
AcDbEntity
  8
針
100
AcDbHatch
 10
0.0
 20
0.0
 30
0.0
210
0.0
220
0.0
230
1.0
  2
SOLID
 70
     1
 71
     0
 91
        2
 92
        7
 72
     1
 73
     1
 93
        5
 10
160.3536403117414
 20
126.4579971342623
 42
0.31735696877887
 10
161.1008388618735
 20
127.4832031199818
 42
0.0
 10
160.7395081845909
 20
127.749911170074
 42
0.0
 10
160.7113737304067
 20
127.7403881827222
 42
-0.4142135623731173
 10
160.2414257650364
 20
126.7895207314734
 42
0.0
 97
        0
 92
        7
 72
     1
 73
     1
 93
        4
 10
160.3536403117414
 20
126.4579971342623
 42
0.0
 10
160.2414257650364
 20
126.7895207314734
 42
-0.4142135623730728
 10
159.2905583137877
 20
127.2594686968437
 42
0.0
 10
158.9590347165766
 20
127.1472541501387
 42
0.4142135623730844
 97
        0
 75
     0
 76
     1
 47
0.0161501285364394
 98
        2
 10
160.6625130339233
 20
126.8035986373793
 10
159.9837179630061
 20
126.5908890954287
450
        0
451
        0
460
0.0
461
0.0
452
        0
462
0.0
453
        0
470

  0
LINE
  5
9A4
330
18
100
AcDbEntity
  8
中心線
 48
0.2
100
AcDbLine
 10
160.0009660220972
 20
135.3631358585047
 30
0.0
 11
160.0009660220972
 21
119.6735418364692
 31
0.0
  0
CIRCLE
  5
9A5
330
18
100
AcDbEntity
  8
外形線
100
AcDbCircle
 10
160.0009660220972
 20
127.499928439783
 30
0.0
 40
4.75
  0
TEXT
  5
9A6
330
18
100
AcDbEntity
  8
文字
100
AcDbText
 10
159.4830143992452
 20
123.577035729414
 30
0.0
 40
1.0
  1
5
  7
STYLE3
100
AcDbText
  0
TEXT
  5
9A7
330
18
100
AcDbEntity
  8
文字
100
AcDbText
 10
150.5250444995245
 20
123.1151667682618
 30
0.0
 40
1.5
  1
60
  7
STYLE3
100
AcDbText
  0
LINE
  5
9A8
330
18
100
AcDbEntity
  8
目盛
100
AcDbLine
 10
155.4834475696951
 20
126.032097716502
 30
0.0
 11
155.9589758278427
 21
126.1866062136894
 31
0.0
  0
TEXT
  5
9A9
330
18
100
AcDbEntity
  8
文字
100
AcDbText
 10
156.1849504572909
 20
125.7869685437726
 30
0.0
 40
1.0
  1
7
  7
STYLE3
100
AcDbText
  0
LINE
  5
9AA
330
18
100
AcDbEntity
  8
目盛
100
AcDbLine
 10
157.2089860737079
 20
123.657097716502
 30
0.0
 11
157.5028786998541
 21
124.0616062136894
 31
0.0
  0
LINE
  5
9AB
330
18
100
AcDbEntity
  8
目盛
100
AcDbLine
 10
160.0009660220972
 20
122.749928439783
 30
0.0
 11
160.0009660220972
 21
123.249928439783
 31
0.0
  0
TEXT
  5
9AC
330
18
100
AcDbEntity
  8
文字
100
AcDbText
 10
157.3795228298729
 20
124.0517737149454
 30
0.0
 40
1.0
  1
6
  7
STYLE3
100
AcDbText
  0
TEXT
  5
9AD
330
18
100
AcDbEntity
  8
文字
100
AcDbText
 10
161.6871255705985
 20
118.8696156241331
 30
0.0
 40
1.5
  1
50
  7
STYLE3
100
AcDbText
  0
TEXT
  5
9AE
330
18
100
AcDbEntity
  8
文字
100
AcDbText
 10
160.2834447161198
 20
114.5086828264328
 30
0.0
 40
3.0
  1
50
  7
STYLE3
100
AcDbText
  0
LINE
  5
9AF
330
18
100
AcDbEntity
  8
目盛
100
AcDbLine
 10
162.7929459704866
 20
123.657097716502
 30
0.0
 11
162.4990533443402
 21
124.0616062136895
 31
0.0
  0
LINE
  5
9B0
330
18
100
AcDbEntity
  8
目盛
100
AcDbLine
 10
164.5184844744991
 20
126.032097716502
 30
0.0
 11
164.0429562163516
 21
126.1866062136894
 31
0.0
  0
TEXT
  5
9B1
330
18
100
AcDbEntity
  8
文字
100
AcDbText
 10
163.0352999066299
 20
125.7784372253261
 30
0.0
 40
1.0
  1
3
  7
STYLE3
100
AcDbText
  0
TEXT
  5
9B2
330
18
100
AcDbEntity
  8
文字
100
AcDbText
 10
161.5954033849302
 20
124.1743174860369
 30
0.0
 40
1.0
  1
4
  7
STYLE3
100
AcDbText
  0
TEXT
  5
9B3
330
18
100
AcDbEntity
  8
文字
100
AcDbText
 10
167.3583595715971
 20
123.1938454665439
 30
0.0
 40
1.0
  1
S
 50
16.01277409471935
  7
STYLE3
100
AcDbText
  0
TEXT
  5
9B4
330
18
100
AcDbEntity
  8
文字
100
AcDbText
 10
168.1880796628068
 20
123.5035798845164
 30
0.0
 40
1.0
  1
H
 50
17.60259570805961
  7
STYLE3
100
AcDbText
  0
ARC
  5
9B5
330
18
100
AcDbEntity
  8
針
100
AcDbCircle
 10
160.6458264354427
 20
128.9642218008611
 30
0.0
 40
0.5
100
AcDbArc
 50
180.7934591207347
 51
246.2317787024804
  0
CIRCLE
  5
9B6
330
18
100
AcDbEntity
  8
針
 62
     4
100
AcDbCircle
 10
160.0009660220972
 20
127.499928439783
 30
0.0
 40
0.4
  0
LINE
  5
9B7
330
18
100
AcDbEntity
  8
針
100
AcDbLine
 10
160.1458743797356
 20
128.9572977851126
 30
0.0
 11
160.1009660220972
 21
132.199928439783
 31
0.0
  0
HATCH
  5
9B8
330
18
100
AcDbEntity
  8
針
100
AcDbHatch
 10
0.0
 20
0.0
 30
0.0
210
0.0
220
0.0
230
1.0
  2
SOLID
 70
     1
 71
     0
 91
        1
 92
        7
 72
     1
 73
     1
 93
        7
 10
160.1009660220973
 20
132.1999284397831
 42
0.0
 10
160.0009660220972
 20
132.199928439783
 42
0.0
 10
159.9009660220971
 20
132.199928439783
 42
0.0
 10
159.8560576644589
 20
128.9572977851126
 42
-0.2935495917910092
 10
159.557624487922
 20
128.5066301255244
 42
-0.2104432563350663
 10
160.4443068766551
 20
128.5066304248212
 42
-0.2935491884945053
 10
160.1458743797356
 20
128.9572977851125
 42
0.0
 97
        0
 75
     0
 76
     1
 47
0.0140573597042523
 98
        1
 10
160.0595677379946
 20
130.3944884850832
450
        0
451
        0
460
0.0
461
0.0
452
        0
462
0.0
453
        0
470

  0
LINE
  5
9B9
330
18
100
AcDbEntity
  8
中心線
 48
0.2
100
AcDbLine
 10
153.0416908351675
 20
127.499928439783
 30
0.0
 11
167.5696782831477
 21
127.499928439783
 31
0.0
  0
TEXT
  5
9BA
330
18
100
AcDbEntity
  8
文字
100
AcDbText
 10
159.5145895829669
 20
130.5277023682578
 30
0.0
 40
1.0
  1
0
  7
STYLE3
100
AcDbText
  0
LINE
  5
9BB
330
18
100
AcDbEntity
  8
文字
100
AcDbLine
 10
160.1009660220972
 20
132.199928439783
 30
0.0
 11
159.9009660220971
 21
132.199928439783
 31
0.0
  0
ARC
  5
9BC
330
18
100
AcDbEntity
  8
針
100
AcDbCircle
 10
159.3561056087516
 20
128.9642218008611
 30
0.0
 40
0.5
100
AcDbArc
 50
293.7682212975196
 51
359.2065408792653
  0
LINE
  5
9BD
330
18
100
AcDbEntity
  8
針
100
AcDbLine
 10
159.8560576644589
 20
128.9572977851126
 30
0.0
 11
159.9009660220971
 21
132.199928439783
 31
0.0
  0
LINE
  5
9BE
330
18
100
AcDbEntity
  8
目盛
100
AcDbLine
 10
155.4834475696951
 20
128.967759163064
 30
0.0
 11
155.9589758278429
 21
128.8132506658765
 31
0.0
  0
LINE
  5
9BF
330
18
100
AcDbEntity
  8
目盛
100
AcDbLine
 10
157.2089860737079
 20
131.342759163064
 30
0.0
 11
157.5028786998542
 21
130.9382506658765
 31
0.0
  0
TEXT
  5
9C0
330
18
100
AcDbEntity
  8
文字
100
AcDbText
 10
156.2141934613245
 20
128.0498102934119
 30
0.0
 40
1.0
  1
8
  7
STYLE3
100
AcDbText
  0
LINE
  5
9C1
330
18
100
AcDbEntity
  8
目盛
100
AcDbLine
 10
160.0009660220972
 20
132.249928439783
 30
0.0
 11
160.0009660220972
 21
131.749928439783
 31
0.0
  0
TEXT
  5
9C2
330
18
100
AcDbEntity
  8
文字
100
AcDbText
 10
157.5744758082699
 20
129.8519782995733
 30
0.0
 40
1.0
  1
9
  7
STYLE3
100
AcDbText
  0
LINE
  5
9C3
330
18
100
AcDbEntity
  8
目盛
100
AcDbLine
 10
162.7929459704865
 20
131.342759163064
 30
0.0
 11
162.4990533443402
 21
130.9382506658765
 31
0.0
  0
TEXT
  5
9C4
330
18
100
AcDbEntity
  8
文字
100
AcDbText
 10
161.5980893207287
 20
129.8013723877995
 30
0.0
 40
1.0
  1
1
  7
STYLE3
100
AcDbText
  0
LINE
  5
9C5
330
18
100
AcDbEntity
  8
目盛
100
AcDbLine
 10
164.5184844744991
 20
128.967759163064
 30
0.0
 11
164.0429562163516
 21
128.8132506658764
 31
0.0
  0
TEXT
  5
9C6
330
18
100
AcDbEntity
  8
文字
100
AcDbText
 10
163.0954868385759
 20
128.0820646104007
 30
0.0
 40
1.0
  1
2
  7
STYLE3
100
AcDbText
  0
CIRCLE
  5
9C7
330
18
100
AcDbEntity
  8
針
100
AcDbCircle
 10
163.2009660220973
 20
137.5738998512969
 30
0.0
 40
1.9
  0
ARC
  5
9C8
330
18
100
AcDbEntity
  8
針
100
AcDbCircle
 10
164.2472668795964
 20
142.2584760877964
 30
0.0
 40
3.0
100
AcDbArc
 50
216.0
 51
248.2155415681863
  0
CIRCLE
  5
9C9
330
18
100
AcDbEntity
  8
針
100
AcDbCircle
 10
163.2009660220973
 20
137.5738998512969
 30
0.0
 40
0.475
  0
ARC
  5
9CA
330
18
100
AcDbEntity
  8
針
100
AcDbCircle
 10
158.4223445200966
 20
138.0264222712904
 30
0.0
 40
3.0
100
AcDbArc
 50
3.784458431813719
 51
36.00000000000001
  0
CIRCLE
  5
9CB
330
18
100
AcDbEntity
  8
針
100
AcDbCircle
 10
163.2009660220973
 20
137.5738998512969
 30
0.0
 40
1.7
  0
LINE
  5
9CC
102
{ACAD_REACTORS
330
952
102
}
330
18
100
AcDbEntity
  8
外形線
100
AcDbLine
 10
169.5397549595648
 20
139.1134831846301
 30
0.0
 11
169.5397549595648
 21
138.9343165179634
 31
0.0
  0
LINE
  5
9D2
330
18
100
AcDbEntity
  8
目盛
100
AcDbLine
 10
173.8765780499529
 20
110.6103817605376
 30
0.0
 11
172.8642355300701
 21
113.1672670967302
 31
0.0
  0
LINE
  5
9D3
330
18
100
AcDbEntity
  8
目盛
100
AcDbLine
 10
175.5485654774844
 20
111.3339153297822
 30
0.0
 11
174.3776724256804
 21
113.8221897240638
 31
0.0
  0
LINE
  5
9D4
330
18
100
AcDbEntity
  8
目盛
100
AcDbLine
 10
177.171822571047
 20
112.1610061300247
 30
0.0
 11
175.8469999672672
 21
114.5708495001454
 31
0.0
  0
LINE
  5
9D5
330
18
100
AcDbEntity
  8
目盛
100
AcDbLine
 10
172.1624588589708
 20
109.9932608787375
 30
0.0
 11
170.6946281356898
 21
114.5107793311394
 31
0.0
  0
LINE
  5
9D8
330
18
100
AcDbEntity
  8
目盛
100
AcDbLine
 10
170.4129727498781
 20
109.4849881785666
 30
0.0
 11
169.7290755601747
 21
112.1485918716704
 31
0.0
  0
LINE
  5
9D9
330
18
100
AcDbEntity
  8
目盛
100
AcDbLine
 10
191.2898776948275
 20
130.361893123516
 30
0.0
 11
188.6262740017238
 21
131.0457903132194
 31
0.0
  0
LINE
  5
9DA
330
18
100
AcDbEntity
  8
目盛
100
AcDbLine
 10
192.2009660220973
 20
137.5738998512968
 30
0.0
 11
187.4509660220973
 21
137.5738998512968
 31
0.0
  0
LINE
  5
9DB
330
18
100
AcDbEntity
  8
目盛
100
AcDbLine
 10
190.7816049946567
 20
128.6124070144235
 30
0.0
 11
186.2640865422548
 21
130.0802377377045
 31
0.0
  0
LINE
  5
9DC
330
18
100
AcDbEntity
  8
目盛
100
AcDbLine
 10
189.4409505436119
 20
125.2263003959098
 30
0.0
 11
186.9526761493302
 21
126.3971934477138
 31
0.0
  0
LINE
  5
9DD
330
18
100
AcDbEntity
  8
目盛
100
AcDbLine
 10
190.1644841128566
 20
126.8982878234413
 30
0.0
 11
187.6075987766638
 21
127.9106303433241
 31
0.0
  0
TEXT
  5
9DE
330
18
100
AcDbEntity
  8
文字
100
AcDbText
 10
172.3077812155937
 20
125.7406799533202
 30
0.0
 40
1.0
  1
P
 50
39.25330689557677
  7
STYLE3
100
AcDbText
  0
TEXT
  5
9DF
330
18
100
AcDbEntity
  8
文字
100
AcDbText
 10
173.0319857924842
 20
126.4290246942425
 30
0.0
 40
1.0
  1
R
 50
42.07476081649244
  7
STYLE3
100
AcDbText
  0
LINE
  5
9E0
330
18
100
AcDbEntity
  8
目盛
100
AcDbLine
 10
180.246738338579
 20
114.1124070144234
 30
0.0
 11
177.4547583901898
 21
117.9552377377044
 31
0.0
  0
TEXT
  5
9E1
330
18
100
AcDbEntity
  8
文字
100
AcDbText
 10
172.9730789331343
 20
119.4740293248429
 30
0.0
 40
3.0
  1
60
  7
STYLE3
100
AcDbText
  0
LINE
  5
9E2
330
18
100
AcDbEntity
  8
目盛
100
AcDbLine
 10
178.7399430764882
 20
113.0883900117384
 30
0.0
 11
177.2664193902959
 21
115.4102918068689
 31
0.0
  0
TEXT
  5
9E3
330
18
100
AcDbEntity
  8
文字
100
AcDbText
 10
172.7573703695837
 20
123.1264313930807
 30
0.0
 40
1.5
  1
40
  7
STYLE3
100
AcDbText
  0
TEXT
  5
9E4
330
18
100
AcDbEntity
  8
文字
100
AcDbText
 10
170.0041885408045
 20
124.3318398368658
 30
0.0
 40
1.0
  1
C
 50
21.69998187340413
  7
STYLE3
100
AcDbText
  0
TEXT
  5
9E5
330
18
100
AcDbEntity
  8
文字
100
AcDbText
 10
170.9434877359496
 20
124.7811309836129
 30
0.0
 40
1.0
  1
K
 50
27.15816066943189
  7
STYLE3
100
AcDbText
  0
LINE
  5
9E6
330
18
100
AcDbEntity
  8
目盛
100
AcDbLine
 10
185.5458500625951
 20
119.0886041485848
 30
0.0
 11
183.4269386449617
 21
120.8415201203937
 31
0.0
  0
LINE
  5
9E7
330
18
100
AcDbEntity
  8
目盛
100
AcDbLine
 10
184.3410562173183
 20
117.7220337793648
 30
0.0
 11
182.3363924919093
 21
119.6045383206687
 31
0.0
  0
LINE
  5
9E8
330
18
100
AcDbEntity
  8
目盛
100
AcDbLine
 10
181.6862617248092
 20
115.2290158107989
 30
0.0
 11
179.9333457530003
 21
117.3479272284323
 31
0.0
  0
LINE
  5
9E9
330
18
100
AcDbEntity
  8
目盛
100
AcDbLine
 10
183.0528320940292
 20
116.4338096560759
 30
0.0
 11
181.1703275527253
 21
118.4384733814848
 31
0.0
  0
LINE
  5
9EA
330
18
100
AcDbEntity
  8
目盛
100
AcDbLine
 10
186.6624588589708
 20
120.5281275348151
 30
0.0
 11
182.8196281356897
 21
123.3201074832044
 31
0.0
  0
LINE
  5
9EB
330
18
100
AcDbEntity
  8
目盛
100
AcDbLine
 10
187.6864758616557
 20
122.0349227969061
 30
0.0
 11
185.3645740665252
 21
123.5084464830983
 31
0.0
  0
LINE
  5
9EC
330
18
100
AcDbEntity
  8
目盛
100
AcDbLine
 10
188.6138597433693
 20
123.6030433023472
 30
0.0
 11
186.2040163732487
 21
124.9278659061269
 31
0.0
  0
TEXT
  5
9ED
330
18
100
AcDbEntity
  8
文字
100
AcDbText
 10
178.8076765791383
 20
133.4001253598726
 30
0.0
 40
1.5
  1
30
  7
STYLE3
100
AcDbText
  0
TEXT
  5
9EE
330
18
100
AcDbEntity
  8
文字
100
AcDbText
 10
174.5442796164597
 20
127.9608032188957
 30
0.0
 40
1.0
  1
O
 50
43.66233186356055
  7
STYLE3
100
AcDbText
  0
TEXT
  5
9EF
330
18
100
AcDbEntity
  8
文字
100
AcDbText
 10
173.7879726805348
 20
127.1455225971846
 30
0.0
 40
1.0
  1
O
 50
43.75055153410818
  7
STYLE3
100
AcDbText
  0
TEXT
  5
9F0
330
18
100
AcDbEntity
  8
文字
100
AcDbText
 10
175.3396436038118
 20
128.7617859160719
 30
0.0
 40
1.0
  1
F
 50
51.30432335945623
  7
STYLE3
100
AcDbText
  0
HATCH
  5
9F1
330
18
100
AcDbEntity
  8
外形線
100
AcDbHatch
 10
0.0
 20
0.0
 30
0.0
210
0.0
220
0.0
230
1.0
  2
SOLID
 70
     1
 71
     1
 91
        2
 92
        1
 93
        7
 72
     1
 10
172.873088292898
 20
139.0238998512968
 11
174.0397549595648
 21
138.5992679113196
 72
     1
 10
174.0397549595648
 20
138.5992679113196
 11
174.0397549595648
 21
138.9343165179635
 72
     1
 10
174.0397549595648
 20
138.9343165179635
 11
175.0397549595648
 21
138.9343165179634
 72
     1
 10
175.0397549595648
 20
138.9343165179634
 11
175.0397549595648
 21
139.1134831846301
 72
     1
 10
175.0397549595648
 20
139.1134831846301
 11
174.0397549595648
 21
139.1134831846301
 72
     1
 10
174.0397549595648
 20
139.1134831846301
 11
174.0397549595648
 21
139.448531791274
 72
     1
 10
174.0397549595648
 20
139.448531791274
 11
172.873088292898
 21
139.0238998512968
 97
        7
330
A0F
330
A0C
330
9F2
330
A14
330
9F3
330
A10
330
A09
 92
        1
 93
        4
 72
     1
 10
172.873088292898
 20
139.7738998512968
 11
172.873088292898
 21
138.2738998512968
 72
     1
 10
172.873088292898
 20
138.2738998512968
 11
172.7064216262314
 21
138.2738998512968
 72
     1
 10
172.7064216262314
 20
138.2738998512968
 11
172.7064216262314
 21
139.7738998512968
 72
     1
 10
172.7064216262314
 20
139.7738998512968
 11
172.873088292898
 21
139.7738998512968
 97
        4
330
A0A
330
9FD
330
A0B
330
A13
 75
     0
 76
     1
 98
        1
 10
80.54353158641777
 20
70.36174904411581
450
        0
451
        0
460
0.0
461
0.0
452
        0
462
0.0
453
        0
470

  0
LINE
  5
9F2
102
{ACAD_REACTORS
330
9F1
102
}
330
18
100
AcDbEntity
  8
外形線
100
AcDbLine
 10
175.0397549595648
 20
138.9343165179634
 30
0.0
 11
174.0397549595648
 21
138.9343165179635
 31
0.0
  0
LINE
  5
9F3
102
{ACAD_REACTORS
330
9F1
102
}
330
18
100
AcDbEntity
  8
外形線
100
AcDbLine
 10
175.0397549595648
 20
139.1134831846301
 30
0.0
 11
174.0397549595648
 21
139.1134831846301
 31
0.0
  0
LINE
  5
9F4
102
{ACAD_REACTORS
330
952
102
}
330
18
100
AcDbEntity
  8
外形線
100
AcDbLine
 10
171.873088292898
 20
138.2738998512968
 30
0.0
 11
171.7064216262315
 21
138.2738998512968
 31
0.0
  0
POINT
  5
9F5
330
18
100
AcDbEntity
  8
DEFPOINTS
  6
ByBlock
 62
     0
100
AcDbPoint
 10
171.7064216262315
 20
138.2738998512968
 30
0.0
  0
POINT
  5
9F6
330
18
100
AcDbEntity
  8
DEFPOINTS
  6
ByBlock
 62
     0
100
AcDbPoint
 10
171.873088292898
 20
138.2738998512968
 30
0.0
  0
POINT
  5
9F7
330
18
100
AcDbEntity
  8
DEFPOINTS
  6
ByBlock
 62
     0
100
AcDbPoint
 10
171.7064216262315
 20
138.2738998512968
 30
0.0
  0
POINT
  5
9F8
330
18
100
AcDbEntity
  8
DEFPOINTS
  6
ByBlock
 62
     0
100
AcDbPoint
 10
171.873088292898
 20
138.2738998512968
 30
0.0
  0
POINT
  5
9F9
330
18
100
AcDbEntity
  8
DEFPOINTS
  6
ByBlock
 62
     0
100
AcDbPoint
 10
172.7064216262314
 20
138.2738998512968
 30
0.0
  0
POINT
  5
9FA
330
18
100
AcDbEntity
  8
DEFPOINTS
  6
ByBlock
 62
     0
100
AcDbPoint
 10
172.873088292898
 20
138.2738998512968
 30
0.0
  0
POINT
  5
9FB
330
18
100
AcDbEntity
  8
DEFPOINTS
  6
ByBlock
 62
     0
100
AcDbPoint
 10
172.7064216262314
 20
138.2738998512968
 30
0.0
  0
POINT
  5
9FC
330
18
100
AcDbEntity
  8
DEFPOINTS
  6
ByBlock
 62
     0
100
AcDbPoint
 10
172.873088292898
 20
138.2738998512968
 30
0.0
  0
LINE
  5
9FD
102
{ACAD_REACTORS
330
9F1
102
}
330
18
100
AcDbEntity
  8
外形線
100
AcDbLine
 10
172.7064216262314
 20
138.2738998512968
 30
0.0
 11
172.873088292898
 21
138.2738998512968
 31
0.0
  0
LINE
  5
9FE
102
{ACAD_REACTORS
330
952
102
}
330
18
100
AcDbEntity
  8
外形線
100
AcDbLine
 10
171.873088292898
 20
139.7738998512968
 30
0.0
 11
171.873088292898
 21
138.2738998512968
 31
0.0
  0
LINE
  5
9FF
102
{ACAD_REACTORS
330
952
102
}
330
18
100
AcDbEntity
  8
外形線
100
AcDbLine
 10
171.7064216262315
 20
139.7738998512968
 30
0.0
 11
171.7064216262315
 21
138.2738998512968
 31
0.0
  0
LINE
  5
A00
102
{ACAD_REACTORS
330
952
102
}
330
18
100
AcDbEntity
  8
外形線
100
AcDbLine
 10
171.7064216262315
 20
139.0238998512968
 30
0.0
 11
170.5397549595648
 21
139.448531791274
 31
0.0
  0
LINE
  5
A01
102
{ACAD_REACTORS
330
952
102
}
330
18
100
AcDbEntity
  8
外形線
100
AcDbLine
 10
171.7064216262315
 20
139.0238998512968
 30
0.0
 11
170.5397549595648
 21
138.5992679113196
 31
0.0
  0
POINT
  5
A02
330
18
100
AcDbEntity
  8
DEFPOINTS
  6
ByBlock
 62
     0
100
AcDbPoint
 10
170.5397549595648
 20
138.5992679113196
 30
0.0
  0
POINT
  5
A03
330
18
100
AcDbEntity
  8
DEFPOINTS
  6
ByBlock
 62
     0
100
AcDbPoint
 10
170.5397549595648
 20
138.5992679113196
 30
0.0
  0
LINE
  5
A04
102
{ACAD_REACTORS
330
952
102
}
330
18
100
AcDbEntity
  8
外形線
100
AcDbLine
 10
170.5397549595648
 20
138.9343165179635
 30
0.0
 11
170.5397549595648
 21
138.5992679113196
 31
0.0
  0
POINT
  5
A05
330
18
100
AcDbEntity
  8
DEFPOINTS
  6
ByBlock
 62
     0
100
AcDbPoint
 10
170.5397549595648
 20
139.448531791274
 30
0.0
  0
POINT
  5
A06
330
18
100
AcDbEntity
  8
DEFPOINTS
  6
ByBlock
 62
     0
100
AcDbPoint
 10
170.5397549595648
 20
139.448531791274
 30
0.0
  0
LINE
  5
A07
102
{ACAD_REACTORS
330
952
102
}
330
18
100
AcDbEntity
  8
外形線
100
AcDbLine
 10
170.5397549595648
 20
139.448531791274
 30
0.0
 11
170.5397549595648
 21
139.1134831846301
 31
0.0
  0
LINE
  5
A08
102
{ACAD_REACTORS
330
952
102
}
330
18
100
AcDbEntity
  8
外形線
100
AcDbLine
 10
171.873088292898
 20
139.7738998512968
 30
0.0
 11
171.7064216262315
 21
139.7738998512968
 31
0.0
  0
LINE
  5
A09
102
{ACAD_REACTORS
330
9F1
102
}
330
18
100
AcDbEntity
  8
外形線
100
AcDbLine
 10
172.873088292898
 20
139.0238998512968
 30
0.0
 11
174.0397549595648
 21
139.448531791274
 31
0.0
  0
LINE
  5
A0A
102
{ACAD_REACTORS
330
9F1
102
}
330
18
100
AcDbEntity
  8
外形線
100
AcDbLine
 10
172.873088292898
 20
139.7738998512968
 30
0.0
 11
172.873088292898
 21
138.2738998512968
 31
0.0
  0
LINE
  5
A0B
102
{ACAD_REACTORS
330
9F1
102
}
330
18
100
AcDbEntity
  8
外形線
100
AcDbLine
 10
172.7064216262314
 20
139.7738998512968
 30
0.0
 11
172.7064216262314
 21
138.2738998512968
 31
0.0
  0
LINE
  5
A0C
102
{ACAD_REACTORS
330
9F1
102
}
330
18
100
AcDbEntity
  8
外形線
100
AcDbLine
 10
174.0397549595648
 20
138.9343165179635
 30
0.0
 11
174.0397549595648
 21
138.5992679113196
 31
0.0
  0
POINT
  5
A0D
330
18
100
AcDbEntity
  8
DEFPOINTS
  6
ByBlock
 62
     0
100
AcDbPoint
 10
174.0397549595648
 20
138.5992679113196
 30
0.0
  0
POINT
  5
A0E
330
18
100
AcDbEntity
  8
DEFPOINTS
  6
ByBlock
 62
     0
100
AcDbPoint
 10
174.0397549595648
 20
138.5992679113196
 30
0.0
  0
LINE
  5
A0F
102
{ACAD_REACTORS
330
9F1
102
}
330
18
100
AcDbEntity
  8
外形線
100
AcDbLine
 10
172.873088292898
 20
139.0238998512968
 30
0.0
 11
174.0397549595648
 21
138.5992679113196
 31
0.0
  0
LINE
  5
A10
102
{ACAD_REACTORS
330
9F1
102
}
330
18
100
AcDbEntity
  8
外形線
100
AcDbLine
 10
174.0397549595648
 20
139.448531791274
 30
0.0
 11
174.0397549595648
 21
139.1134831846301
 31
0.0
  0
POINT
  5
A11
330
18
100
AcDbEntity
  8
DEFPOINTS
  6
ByBlock
 62
     0
100
AcDbPoint
 10
174.0397549595648
 20
139.448531791274
 30
0.0
  0
POINT
  5
A12
330
18
100
AcDbEntity
  8
DEFPOINTS
  6
ByBlock
 62
     0
100
AcDbPoint
 10
174.0397549595648
 20
139.448531791274
 30
0.0
  0
LINE
  5
A13
102
{ACAD_REACTORS
330
9F1
102
}
330
18
100
AcDbEntity
  8
外形線
100
AcDbLine
 10
172.7064216262314
 20
139.7738998512968
 30
0.0
 11
172.873088292898
 21
139.7738998512968
 31
0.0
  0
LINE
  5
A14
102
{ACAD_REACTORS
330
9F1
102
}
330
18
100
AcDbEntity
  8
外形線
100
AcDbLine
 10
175.0397549595648
 20
139.1134831846301
 30
0.0
 11
175.0397549595648
 21
138.9343165179634
 31
0.0
  0
TEXT
  5
A15
330
18
100
AcDbEntity
  8
文字
100
AcDbText
 10
179.733029855326
 20
129.1459709172036
 30
0.0
 40
3.0
  1
70
  7
STYLE3
100
AcDbText
  0
LINE
  5
A16
330
18
100
AcDbEntity
  8
目盛
100
AcDbLine
 10
191.9722923602172
 20
133.939236077932
 30
0.0
 11
189.2439769316023
 21
134.2839024702338
 31
0.0
  0
LINE
  5
A17
330
18
100
AcDbEntity
  8
目盛
100
AcDbLine
 10
191.6872962932293
 20
132.1398417283108
 30
0.0
 11
188.9860063537254
 21
132.6551403434216
 31
0.0
  0
POINT
  5
A18
330
18
100
AcDbEntity
  8
DEFPOINTS
  6
ByBlock
 62
     0
100
AcDbPoint
 10
192.2009660220973
 20
137.5738998512969
 30
0.0
  0
LINE
  5
A19
330
18
100
AcDbEntity
  8
目盛
100
AcDbLine
 10
192.143741146517
 20
139.3948249176469
 30
0.0
 11
189.3991676433394
 21
139.2221509889414
 31
0.0
  0
LINE
  5
A1A
330
18
100
AcDbEntity
  8
目盛
100
AcDbLine
 10
192.1437411465172
 20
135.7529747849468
 30
0.0
 11
189.3991676433394
 21
135.9256487136523
 31
0.0
  0
LINE
  5
A20
330
18
100
AcDbEntity
  8
外形線
100
AcDbLine
 10
37.0105696804261
 20
106.3238998512969
 30
0.0
 11
37.0105696804261
 21
99.57389985129694
 31
0.0
  0
LINE
  5
A21
330
18
100
AcDbEntity
  8
外形線
100
AcDbLine
 10
48.66056968042599
 20
104.5738998512969
 30
0.0
 11
48.66056968042599
 21
105.6738998512969
 31
0.0
  0
LINE
  5
A22
330
18
100
AcDbEntity
  8
外形線
100
AcDbLine
 10
52.21056968042595
 20
104.3238998512969
 30
0.0
 11
48.91056968042599
 21
104.3238998512969
 31
0.0
  0
POINT
  5
A23
330
18
100
AcDbEntity
  8
DEFPOINTS
  6
ByBlock
 62
     0
100
AcDbPoint
 10
52.21056968042595
 20
104.3238998512969
 30
0.0
  0
POINT
  5
A24
330
18
100
AcDbEntity
  8
DEFPOINTS
  6
ByBlock
 62
     0
100
AcDbPoint
 10
52.21056968042595
 20
104.3238998512969
 30
0.0
  0
LINE
  5
A25
330
18
100
AcDbEntity
  8
外形線
100
AcDbLine
 10
52.46056968042594
 20
104.5738998512969
 30
0.0
 11
52.21056968042595
 21
104.3238998512969
 31
0.0
  0
LINE
  5
A26
330
18
100
AcDbEntity
  8
外形線
100
AcDbLine
 10
48.91056968042599
 20
104.3238998512969
 30
0.0
 11
48.66056968042599
 21
104.5738998512969
 31
0.0
  0
LINE
  5
A27
330
18
100
AcDbEntity
  8
外形線
 62
     4
100
AcDbLine
 10
52.46056968042594
 20
105.3238998512969
 30
0.0
 11
48.66056968042599
 21
105.3238998512969
 31
0.0
  0
LINE
  5
A28
330
18
100
AcDbEntity
  8
外形線
 62
     4
100
AcDbLine
 10
52.46056968042594
 20
106.5238998512969
 30
0.0
 11
48.66056968042599
 21
106.5238998512969
 31
0.0
  0
LINE
  5
A29
330
18
100
AcDbEntity
  8
外形線
 62
     4
100
AcDbLine
 10
52.46056968042594
 20
107.7238998512969
 30
0.0
 11
48.66056968042599
 21
107.7238998512969
 31
0.0
  0
LINE
  5
A2A
330
18
100
AcDbEntity
  8
外形線
 62
     4
100
AcDbLine
 10
52.46056968042594
 20
109.1238998512968
 30
0.0
 11
48.66056968042599
 21
109.1238998512968
 31
0.0
  0
LINE
  5
A2B
330
18
100
AcDbEntity
  8
外形線
 62
     4
100
AcDbLine
 10
52.46056968042594
 20
110.5238998512968
 30
0.0
 11
48.66056968042599
 21
110.5238998512968
 31
0.0
  0
LINE
  5
A2C
330
18
100
AcDbEntity
  8
外形線
100
AcDbLine
 10
53.66056968042599
 20
106.6238998512969
 30
0.0
 11
52.46056968042594
 21
105.5738998512969
 31
0.0
  0
LINE
  5
A2D
330
18
100
AcDbEntity
  8
外形線
100
AcDbLine
 10
48.66056968042599
 20
105.6738998512969
 30
0.0
 11
47.96056968042594
 21
105.6738998512969
 31
0.0
  0
POINT
  5
A2E
330
18
100
AcDbEntity
  8
DEFPOINTS
  6
ByBlock
 62
     0
100
AcDbPoint
 10
55.51056968042601
 20
137.5738998512969
 30
0.0
  0
LINE
  5
A2F
330
18
100
AcDbEntity
  8
外形線
 62
     4
100
AcDbLine
 10
52.46056968042594
 20
137.5738998512969
 30
0.0
 11
48.66056968042599
 21
137.5738998512969
 31
0.0
  0
LINE
  5
A30
330
18
100
AcDbEntity
  8
外形線
 62
     4
100
AcDbLine
 10
52.46056968042594
 20
134.7738998512969
 30
0.0
 11
48.66056968042599
 21
134.7738998512969
 31
0.0
  0
LINE
  5
A31
330
18
100
AcDbEntity
  8
外形線
 62
     4
100
AcDbLine
 10
52.46056968042594
 20
136.173899851297
 30
0.0
 11
48.66056968042599
 21
136.173899851297
 31
0.0
  0
LINE
  5
A32
330
18
100
AcDbEntity
  8
外形線
 62
     4
100
AcDbLine
 10
52.46056968042594
 20
140.3738998512969
 30
0.0
 11
48.66056968042599
 21
140.3738998512969
 31
0.0
  0
LINE
  5
A33
330
18
100
AcDbEntity
  8
外形線
 62
     4
100
AcDbLine
 10
52.46056968042594
 20
138.9738998512969
 30
0.0
 11
48.66056968042599
 21
138.9738998512969
 31
0.0
  0
LINE
  5
A35
102
{ACAD_REACTORS
330
A37
102
}
330
18
100
AcDbEntity
  8
ROGO
 62
     4
100
AcDbLine
 10
169.6745659233522
 20
146.9388664924034
 30
0.0
 11
170.4306496658564
 21
146.9388664924034
 31
0.0
  0
LINE
  5
A36
102
{ACAD_REACTORS
330
A37
102
}
330
18
100
AcDbEntity
  8
ROGO
 62
     4
100
AcDbLine
 10
169.6745659233522
 20
145.422551269617
 30
0.0
 11
169.9416152125179
 21
144.8869877074974
 31
0.0
  0
HATCH
  5
A37
330
18
100
AcDbEntity
  8
ROGO
 62
     4
100
AcDbHatch
 10
0.0
 20
0.0
 30
0.0
210
0.0
220
0.0
230
1.0
  2
SOLID
 70
     1
 71
     1
 91
        1
 92
        7
 72
     0
 73
     1
 93
       11
 10
168.6514328916823
 20
144.8869877074974
 10
169.4075166341866
 20
144.8869877074974
 10
169.6745659233522
 20
145.4225512696169
 10
169.9416152125179
 20
144.8869877074974
 10
170.6976824125179
 20
144.8869877074974
 10
170.186115896683
 20
145.9129270999504
 10
171.4290246420143
 20
146.9388664924034
 10
170.6729574420142
 20
146.9388664924033
 10
170.3189443589354
 20
146.7148430835818
 10
170.4306496658564
 20
146.9388664924034
 10
169.6745659233522
 20
146.9388664924034
 97
       11
330
AC7
330
AC4
330
AC3
330
A35
330
A94
330
A59
330
A95
330
A36
330
AC8
330
AC5
330
AC6
 75
     0
 76
     1
 47
0.0514683685270805
 98
        1
 10
169.6094946769483
 20
146.0585705089619
450
        0
451
        0
460
0.0
461
0.0
452
        0
462
0.0
453
        0
470

  0
TEXT
  5
A3E
330
18
100
AcDbEntity
  8
文字
100
AcDbText
 10
148.3970234816155
 20
153.314065645736
 30
0.0
 40
3.0
  1
10
  7
STYLE3
100
AcDbText
  0
LINE
  5
A3F
330
18
100
AcDbEntity
  8
目盛
100
AcDbLine
 10
149.2301094731475
 20
162.986793572569
 30
0.0
 11
150.5549320769273
 21
160.5769502024483
 31
0.0
  0
LINE
  5
A40
330
18
100
AcDbEntity
  8
目盛
100
AcDbLine
 10
140.8560819815994
 20
156.0591955540089
 30
0.0
 11
142.9749933992329
 21
154.3062795822
 31
0.0
  0
LINE
  5
A41
330
18
100
AcDbEntity
  8
目盛
100
AcDbLine
 10
138.7154561825389
 20
153.1128769056878
 30
0.0
 11
141.0373579776694
 21
151.6393532194956
 31
0.0
  0
LINE
  5
A42
330
18
100
AcDbEntity
  8
目盛
100
AcDbLine
 10
139.7394731852238
 20
154.6196721677786
 30
0.0
 11
143.5823039085048
 21
151.8276922193894
 31
0.0
  0
LINE
  5
A43
330
18
100
AcDbEntity
  8
目盛
100
AcDbLine
 10
135.112054349367
 20
144.7859065790777
 30
0.0
 11
137.7756580424707
 21
144.1020093893743
 31
0.0
  0
LINE
  5
A44
330
18
100
AcDbEntity
  8
目盛
100
AcDbLine
 10
134.7146357509653
 20
143.0079579742829
 30
0.0
 11
137.4159256904692
 21
142.4926593591722
 31
0.0
  0
LINE
  5
A45
330
18
100
AcDbEntity
  8
目盛
100
AcDbLine
 10
135.6203270495379
 20
146.5353926881704
 30
0.0
 11
140.1378455019398
 21
145.0675619648894
 31
0.0
  0
LINE
  5
A46
330
18
100
AcDbEntity
  8
目盛
100
AcDbLine
 10
136.237447931338
 20
148.2495118791526
 30
0.0
 11
138.7943332675307
 21
147.2371693592698
 31
0.0
  0
LINE
  5
A47
330
18
100
AcDbEntity
  8
目盛
100
AcDbLine
 10
137.7880723008252
 20
151.5447564002467
 30
0.0
 11
140.1979156709459
 21
150.219933796467
 31
0.0
  0
LINE
  5
A48
330
18
100
AcDbEntity
  8
目盛
100
AcDbLine
 10
136.9609815005826
 20
149.9214993066841
 30
0.0
 11
139.4492558948642
 21
148.7506062548801
 31
0.0
  0
TEXT
  5
A49
330
18
100
AcDbEntity
  8
文字
100
AcDbText
 10
140.6299851436284
 20
143.2794953419802
 30
0.0
 40
3.0
  1
20
  7
STYLE3
100
AcDbText
  0
LINE
  5
A4A
330
18
100
AcDbEntity
  8
目盛
100
AcDbLine
 10
144.7156703193853
 20
159.9187838917948
 30
0.0
 11
146.4685862911942
 21
157.7998724741613
 31
0.0
  0
LINE
  5
A4B
330
18
100
AcDbEntity
  8
目盛
100
AcDbLine
 10
143.3490999501653
 20
158.7139900465178
 30
0.0
 11
145.2316044914693
 21
156.709326321109
 31
0.0
  0
LINE
  5
A4C
330
18
100
AcDbEntity
  8
目盛
100
AcDbLine
 10
142.0608758268764
 20
157.4257659232289
 30
0.0
 11
144.0655395522853
 21
155.543261381925
 31
0.0
  0
LINE
  5
A4D
330
18
100
AcDbEntity
  8
針
100
AcDbLine
 10
147.3307642102005
 20
159.4173586994204
 30
0.0
 11
147.4116659096379
 21
159.4761372246497
 31
0.0
  0
LINE
  5
A4E
330
18
100
AcDbEntity
  8
針
100
AcDbLine
 10
147.3307642102005
 20
159.4173586994204
 30
0.0
 11
147.2498625107629
 21
159.3585801741912
 31
0.0
  0
LINE
  5
A4F
330
18
100
AcDbEntity
  8
目盛
100
AcDbLine
 10
146.1551937056156
 20
161.0353926881704
 30
0.0
 11
148.9471736540048
 21
157.1925619648895
 31
0.0
  0
LINE
  5
A50
330
18
100
AcDbEntity
  8
目盛
100
AcDbLine
 10
147.6619889677064
 20
162.0594096908554
 30
0.0
 11
149.1355126538987
 21
159.7375078957249
 31
0.0
  0
TEXT
  5
A51
330
18
100
AcDbEntity
  8
文字
100
AcDbText
 10
162.4510530103168
 20
154.790666918247
 30
0.0
 40
1.5
  1
0
  7
STYLE3
100
AcDbText
  0
LINE
  5
A52
102
{ACAD_REACTORS
330
A58
102
}
330
18
100
AcDbEntity
  8
ROGO
 62
     4
100
AcDbLine
 10
158.4489803141861
 20
145.6257215618459
 30
0.0
 11
160.22506346267
 21
145.6257215618459
 31
0.0
  0
LINE
  5
A53
102
{ACAD_REACTORS
330
A58
102
}
330
18
100
AcDbEntity
  8
ROGO
 62
     4
100
AcDbLine
 10
159.7924967439776
 20
146.6380641617113
 30
0.0
 11
160.7259611661956
 21
146.6380641617113
 31
0.0
  0
LINE
  5
A54
102
{ACAD_REACTORS
330
A58
102
}
330
18
100
AcDbEntity
  8
ROGO
 62
     4
100
AcDbLine
 10
159.6761268979011
 20
146.4028741185271
 30
0.0
 11
160.6095913201191
 21
146.4028741185271
 31
0.0
  0
LINE
  5
A55
102
{ACAD_REACTORS
330
A58
102
}
330
18
100
AcDbEntity
  8
ROGO
 62
     4
100
AcDbLine
 10
159.4404257496609
 20
145.926508761846
 30
0.0
 11
160.3738901718789
 21
145.926508761846
 31
0.0
  0
LINE
  5
A56
102
{ACAD_REACTORS
330
A58
102
}
330
18
100
AcDbEntity
  8
ROGO
 62
     4
100
AcDbLine
 10
159.5568005222773
 20
146.1617087618459
 30
0.0
 11
160.4902649444952
 21
146.1617087618459
 31
0.0
  0
LINE
  5
A57
102
{ACAD_REACTORS
330
A58
102
}
330
18
100
AcDbEntity
  8
ROGO
 62
     4
100
AcDbLine
 10
159.0987122134462
 20
146.9388664924034
 30
0.0
 11
160.8747953619301
 21
146.9388664924034
 31
0.0
  0
HATCH
  5
A58
330
18
100
AcDbEntity
  8
ROGO
 62
     4
100
AcDbHatch
 10
0.0
 20
0.0
 30
0.0
210
0.0
220
0.0
230
1.0
  2
SOLID
 70
     1
 71
     1
 91
        1
 92
        1
 93
       12
 72
     1
 10
159.0987122134462
 20
146.9388664924034
 11
160.8747953619301
 21
146.9388664924034
 72
     1
 10
160.8747953619301
 20
146.9388664924034
 11
160.7259611661956
 21
146.6380641617113
 72
     1
 10
160.7259611661956
 20
146.6380641617113
 11
159.7924967439776
 21
146.6380641617113
 72
     1
 10
159.7924967439776
 20
146.6380641617113
 11
159.6761268979011
 21
146.4028741185271
 72
     1
 10
159.6761268979011
 20
146.4028741185271
 11
160.6095913201191
 21
146.4028741185271
 72
     1
 10
160.6095913201191
 20
146.4028741185271
 11
160.4902649444952
 21
146.1617087618459
 72
     1
 10
160.4902649444952
 20
146.1617087618459
 11
159.5568005222773
 21
146.1617087618459
 72
     1
 10
159.5568005222773
 20
146.1617087618459
 11
159.4404257496609
 21
145.926508761846
 72
     1
 10
159.4404257496609
 20
145.926508761846
 11
160.3738901718789
 21
145.926508761846
 72
     1
 10
160.3738901718789
 20
145.926508761846
 11
160.22506346267
 21
145.6257215618459
 72
     1
 10
160.22506346267
 20
145.6257215618459
 11
158.4489803141861
 21
145.6257215618459
 72
     1
 10
158.4489803141861
 20
145.6257215618459
 11
159.0987122134462
 21
146.9388664924034
 97
       12
330
A57
330
A6E
330
A53
330
A67
330
A54
330
A6F
330
A56
330
A68
330
A55
330
A70
330
A52
330
A66
 75
     0
 76
     1
 98
        1
 10
86.44858323473727
 20
56.14077044429212
450
        0
451
        0
460
0.0
461
0.0
452
        0
462
0.0
453
        0
470

  0
LINE
  5
A59
102
{ACAD_REACTORS
330
A37
330
A69
102
}
330
18
100
AcDbEntity
  8
ROGO
 62
     4
100
AcDbLine
 10
155.5183393671628
 20
144.8869877074974
 30
0.0
 11
169.4075166341866
 21
144.8869877074974
 31
0.0
  0
LINE
  5
A5A
330
18
100
AcDbEntity
  8
ROGO
 62
     4
100
AcDbLine
 10
156.5509279116046
 20
145.0926579137887
 30
0.0
 11
168.7539866990685
 21
145.0926579137887
 31
0.0
  0
HATCH
  5
A5B
330
18
100
AcDbEntity
  8
ROGO
 62
     4
100
AcDbHatch
 10
0.0
 20
0.0
 30
0.0
210
0.0
220
0.0
230
1.0
  2
SOLID
 70
     1
 71
     0
 91
        1
 92
        7
 72
     0
 73
     1
 93
        4
 10
156.5651913585213
 20
145.0926579137887
 10
156.4721403230993
 20
144.8869877074974
 10
168.6514328916824
 20
144.8869877074974
 10
168.7539866990685
 20
145.0926579137887
 97
        0
 75
     0
 76
     1
 47
0.0514683685270805
 98
        1
 10
164.2614266194096
 20
145.0382614495839
450
        0
451
        0
460
0.0
461
0.0
452
        0
462
0.0
453
        0
470

  0
TEXT
  5
A5C
330
18
100
AcDbEntity
  8
文字
100
AcDbText
 10
156.9228095207134
 20
142.9705751871521
 30
0.0
 40
1.0
  1
MADE  IN  JAPAN
  7
STYLE3
100
AcDbText
  0
LINE
  5
A5D
102
{ACAD_REACTORS
330
A69
102
}
330
18
100
AcDbEntity
  8
ROGO
 62
     4
100
AcDbLine
 10
156.5335899072555
 20
146.9388664924034
 30
0.0
 11
158.1460882202406
 21
146.9388664924034
 31
0.0
  0
LINE
  5
A5E
102
{ACAD_REACTORS
330
A69
102
}
330
18
100
AcDbEntity
  8
ROGO
 62
     4
100
AcDbLine
 10
156.5335899072555
 20
146.9388664924034
 30
0.0
 11
155.5183393671628
 21
144.8869877074974
 31
0.0
  0
SPLINE
  5
A5F
102
{ACAD_REACTORS
330
A69
102
}
330
18
100
AcDbEntity
  8
ROGO
 62
     4
100
AcDbSpline
210
0.0
220
0.0
230
1.0
 70
     8
 71
     3
 72
    18
 73
    14
 74
     0
 42
0.0000000001
 43
0.0000000001
 40
0.1087402787915014
 40
0.1087402787915014
 40
0.1087402787915014
 40
0.1087402787915014
 40
0.5992371417938475
 40
1.083176791562496
 40
1.448211145705696
 40
1.714037220764907
 40
2.164002567013297
 40
2.740236056362883
 40
3.395137510199602
 40
4.071816045172726
 40
4.784906178399433
 40
5.506895915094292
 40
6.060470601257719
 40
6.060470601257719
 40
6.060470601257719
 40
6.060470601257719
 10
158.1460882202406
 20
146.9388664924034
 30
0.0
 10
158.1977477578767
 20
146.9199341375557
 30
0.0
 10
158.2993357057272
 20
146.8799082462404
 30
0.0
 10
158.4233209412744
 20
146.7885559364491
 30
0.0
 10
158.4909371351991
 20
146.6830971592763
 30
0.0
 10
158.5559763437421
 20
146.5791864169734
 30
0.0
 10
158.565078462253
 20
146.430108882817
 30
0.0
 10
158.5501685772059
 20
146.2416387472453
 30
0.0
 10
158.4539117063298
 20
146.0449896097246
 30
0.0
 10
158.2994137672484
 20
145.8729925789228
 30
0.0
 10
158.1075937941554
 20
145.735328398581
 30
0.0
 10
157.9053130160481
 20
145.6272655620856
 30
0.0
 10
157.7607226589946
 20
145.626188841477
 30
0.0
 10
157.6979727420999
 20
145.6257215618459
 30
0.0
  0
LINE
  5
A60
102
{ACAD_REACTORS
330
A69
102
}
330
18
100
AcDbEntity
  8
ROGO
 62
     4
100
AcDbLine
 10
157.697972742409
 20
145.6257215618459
 30
0.0
 11
156.8063644739277
 21
145.6257215618459
 31
0.0
  0
LINE
  5
A61
102
{ACAD_REACTORS
330
A69
102
}
330
18
100
AcDbEntity
  8
ROGO
 62
     4
100
AcDbLine
 10
157.1707267625953
 20
146.43106958119
 30
0.0
 11
157.0127289662379
 21
146.0818478963046
 31
0.0
  0
SPLINE
  5
A62
102
{ACAD_REACTORS
330
A69
102
}
330
18
100
AcDbEntity
  8
ROGO
 62
     4
100
AcDbSpline
210
0.0
220
0.0
230
1.0
 70
     8
 71
     3
 72
    15
 73
    11
 74
     9
 42
0.0000000001
 43
0.0000000001
 44
0.0000000001
 40
0.0
 40
0.0
 40
0.0
 40
0.0
 40
0.1539705029175028
 40
0.2241725832587281
 40
0.3038566179396687
 40
0.3581410872474193
 40
0.443992538467216
 40
0.4954152125469665
 40
0.5836396705646186
 40
0.6130478420065743
 40
0.6130478420065743
 40
0.6130478420065743
 40
0.6130478420065743
 10
157.5767137616927
 20
146.43106958119
 30
0.0
 10
157.634542096752
 20
146.4313344658325
 30
0.0
 10
157.71873697181
 20
146.4317201233022
 30
0.0
 10
157.7647777281747
 20
146.3275708193727
 30
0.0
 10
157.7441400659411
 20
146.2605149147353
 30
0.0
 10
157.7181968425171
 20
146.1916694004874
 30
0.0
 10
157.6723492909747
 20
146.1448878352181
 30
0.0
 10
157.6108151613795
 20
146.0998293015811
 30
0.0
 10
157.5526624683238
 20
146.0943747643216
 30
0.0
 10
157.5148406693512
 20
146.0843532708675
 30
0.0
 10
157.5053852150819
 20
146.0818478963046
 30
0.0
 11
157.5767137616927
 21
146.43106958119
 31
0.0
 11
157.7265038326215
 21
146.3954346205501
 31
0.0
 11
157.7550353332966
 21
146.3312919237447
 31
0.0
 11
157.7407697880357
 21
146.2528952426833
 31
0.0
 11
157.7193712650679
 21
146.2030062977875
 31
0.0
 11
157.6623082637178
 21
146.1388636009821
 31
0.0
 11
157.6195112177819
 21
146.1103556324702
 31
0.0
 11
157.5339167157569
 21
146.0889748884326
 31
0.0
 11
157.5053852150819
 21
146.0818478963046
 31
0.0
  0
LINE
  5
A63
102
{ACAD_REACTORS
330
A69
102
}
330
18
100
AcDbEntity
  8
ROGO
 62
     4
100
AcDbLine
 10
157.5767137616928
 20
146.43106958119
 30
0.0
 11
157.1707267625953
 21
146.43106958119
 31
0.0
  0
LINE
  5
A64
102
{ACAD_REACTORS
330
A69
102
}
330
18
100
AcDbEntity
  8
ROGO
 62
     4
100
AcDbLine
 10
157.505385215082
 20
146.0818478963046
 30
0.0
 11
157.0127289662379
 21
146.0818478963046
 31
0.0
  0
LINE
  5
A65
102
{ACAD_REACTORS
330
A69
102
}
330
18
100
AcDbEntity
  8
ROGO
 62
     4
100
AcDbLine
 10
156.8063644739277
 20
145.6257215618459
 30
0.0
 11
156.4721403230993
 21
144.8869877074974
 31
0.0
  0
LINE
  5
A66
102
{ACAD_REACTORS
330
A58
102
}
330
18
100
AcDbEntity
  8
ROGO
 62
     4
100
AcDbLine
 10
159.0987122134462
 20
146.9388664924034
 30
0.0
 11
158.4489803141861
 21
145.6257215618459
 31
0.0
  0
LINE
  5
A67
102
{ACAD_REACTORS
330
A58
102
}
330
18
100
AcDbEntity
  8
ROGO
 62
     4
100
AcDbLine
 10
159.7924967439776
 20
146.6380641617113
 30
0.0
 11
159.6761268979011
 21
146.4028741185271
 31
0.0
  0
LINE
  5
A68
102
{ACAD_REACTORS
330
A58
102
}
330
18
100
AcDbEntity
  8
ROGO
 62
     4
100
AcDbLine
 10
159.5568005222773
 20
146.1617087618459
 30
0.0
 11
159.4404257496609
 21
145.926508761846
 31
0.0
  0
HATCH
  5
A69
330
18
100
AcDbEntity
  8
ROGO
 62
     4
100
AcDbHatch
 10
0.0
 20
0.0
 30
0.0
210
0.0
220
0.0
230
1.0
  2
SOLID
 70
     1
 71
     1
 91
        2
 92
        5
 93
        6
 72
     1
 10
155.5183393671628
 20
144.8869877074974
 11
156.4721403230993
 21
144.8869877074974
 72
     1
 10
156.4721403230993
 20
144.8869877074974
 11
156.8063644739277
 21
145.6257215618459
 72
     1
 10
156.8063644739277
 20
145.6257215618459
 11
157.6979727421
 21
145.6257215618459
 72
     4
 94
        3
 73
     0
 74
     0
 95
       18
 96
       14
 40
0.108740278791501
 40
0.108740278791501
 40
0.108740278791501
 40
0.108740278791501
 40
0.6623149649549278
 40
1.384304701649787
 40
2.097394834876493
 40
2.774073369849618
 40
3.428974823686337
 40
4.005208313035923
 40
4.455173659284313
 40
4.720999734343524
 40
5.086034088486724
 40
5.569973738255373
 40
6.060470601257719
 40
6.060470601257719
 40
6.060470601257719
 40
6.060470601257719
 10
157.6979727420999
 20
145.6257215618459
 10
157.7607226589946
 20
145.626188841477
 10
157.9053130160481
 20
145.6272655620856
 10
158.1075937941554
 20
145.735328398581
 10
158.2994137672484
 20
145.8729925789228
 10
158.4539117063298
 20
146.0449896097246
 10
158.5501685772059
 20
146.2416387472453
 10
158.565078462253
 20
146.430108882817
 10
158.5559763437421
 20
146.5791864169734
 10
158.4909371351991
 20
146.6830971592763
 10
158.4233209412744
 20
146.7885559364491
 10
158.2993357057272
 20
146.8799082462404
 10
158.1977477578767
 20
146.9199341375557
 10
158.1460882202406
 20
146.9388664924034
 72
     1
 10
158.1460882202408
 20
146.9388664924034
 11
156.5335899072555
 21
146.9388664924034
 72
     1
 10
156.5335899072555
 20
146.9388664924034
 11
155.5183393671628
 21
144.8869877074974
 97
        6
330
A5F
330
A5D
330
A5E
330
A59
330
A65
330
A60
 92
       20
 93
        4
 72
     1
 10
157.0127289662379
 20
146.0818478963046
 11
157.1707267625953
 21
146.43106958119
 72
     1
 10
157.1707267625953
 20
146.43106958119
 11
157.5767137616927
 21
146.43106958119
 72
     4
 94
        3
 73
     0
 74
     0
 95
       15
 96
       11
 40
0.0
 40
0.0
 40
0.0
 40
0.0
 40
0.1539705029175028
 40
0.2241725832587281
 40
0.3038566179396687
 40
0.3581410872474193
 40
0.443992538467216
 40
0.4954152125469665
 40
0.5836396705646186
 40
0.6130478420065743
 40
0.6130478420065743
 40
0.6130478420065743
 40
0.6130478420065743
 10
157.5767137616927
 20
146.43106958119
 10
157.634542096752
 20
146.4313344658325
 10
157.71873697181
 20
146.4317201233022
 10
157.7647777281747
 20
146.3275708193727
 10
157.7441400659411
 20
146.2605149147353
 10
157.7181968425171
 20
146.1916694004874
 10
157.6723492909747
 20
146.1448878352181
 10
157.6108151613795
 20
146.0998293015811
 10
157.5526624683238
 20
146.0943747643216
 10
157.5148406693512
 20
146.0843532708675
 10
157.5053852150819
 20
146.0818478963046
 72
     1
 10
157.5053852150819
 20
146.0818478963046
 11
157.0127289662379
 21
146.0818478963046
 97
        4
330
A61
330
A63
330
A62
330
A64
 75
     0
 76
     1
 47
0.0514683685270805
 98
        2
 10
156.5422084605624
 20
146.3006777355144
 10
156.5422084605624
 20
146.3006777355144
450
        0
451
        0
460
0.0
461
0.0
452
        0
462
0.0
453
        0
470

  0
TEXT
  5
A6A
330
18
100
AcDbEntity
  8
文字
100
AcDbText
 10
150.3944065669695
 20
150.3412298378669
 30
0.0
 40
1.5
  1
90
  7
STYLE3
100
AcDbText
  0
LINE
  5
A6B
102
{ACAD_REACTORS
330
A6D
102
}
330
18
100
AcDbEntity
  8
ROGO
 62
     4
100
AcDbLine
 10
164.1030827994104
 20
146.4502914401865
 30
0.0
 11
164.9248497227616
 21
146.4502914401865
 31
0.0
  0
LINE
  5
A6C
102
{ACAD_REACTORS
330
A6D
102
}
330
18
100
AcDbEntity
  8
ROGO
 62
     4
100
AcDbLine
 10
163.8534326811963
 20
146.9388664924034
 30
0.0
 11
165.1684690233022
 21
146.9388664924034
 31
0.0
  0
HATCH
  5
A6D
330
18
100
AcDbEntity
  8
ROGO
 62
     4
100
AcDbHatch
 10
0.0
 20
0.0
 30
0.0
210
0.0
220
0.0
230
1.0
  2
SOLID
 70
     1
 71
     1
 91
        1
 92
        5
 93
        8
 72
     1
 10
164.9248497227616
 20
146.4502914401865
 11
165.1684690233022
 21
146.9388664924034
 72
     1
 10
165.1684690233022
 20
146.9388664924034
 11
163.8534326811962
 21
146.9388664924034
 72
     4
 94
        3
 73
     0
 74
     0
 95
       26
 96
       22
 40
0.0
 40
0.0
 40
0.0
 40
0.0
 40
0.2382195346591896
 40
0.397689067266058
 40
0.5126795869787669
 40
0.5985392873135731
 40
0.7099038249249733
 40
0.7911890807494741
 40
0.9379713068543702
 40
1.057449928673087
 40
1.138714535893316
 40
1.218398644003506
 40
1.36093802187036
 40
1.461730374800257
 40
1.516014844108008
 40
1.593124329220501
 40
1.648806818593631
 40
1.729472362005518
 40
1.775122082164342
 40
1.874460993765092
 40
1.919820003751207
 40
1.919820003751207
 40
1.919820003751207
 40
1.919820003751207
 10
163.8534326811959
 20
146.9388664924034
 10
163.7725772904373
 20
146.9340425211383
 10
163.6375954763713
 20
146.9259892746416
 10
163.4893862656596
 20
146.8359537707832
 10
163.3807995212493
 20
146.7836110854408
 10
163.3033555868252
 20
146.7124556640212
 10
163.2465888689576
 20
146.6389573114999
 10
163.1750237642601
 20
146.5513845633745
 10
163.1166644663542
 20
146.4494096419099
 10
163.086945623821
 20
146.3370155008466
 10
163.0606209551673
 20
146.2474367182877
 10
163.0410981401943
 20
146.1476128553952
 10
163.0460652970072
 20
146.039767967273
 10
163.0531784928917
 20
145.9396071562691
 10
163.0849371828157
 20
145.8681073333425
 10
163.1211047052057
 20
145.8172043864131
 10
163.1653913410607
 20
145.7611404337144
 10
163.213850605378
 20
145.7240094593841
 10
163.2539303724887
 20
145.6567442042436
 10
163.3240886527511
 20
145.6481606725673
 10
163.368684046827
 20
145.6310768826904
 10
163.3826635352884
 20
145.6257215618459
 72
     1
 10
163.3826635352884
 20
145.6257215618459
 11
164.513692550293
 21
145.6257215618459
 72
     1
 10
164.513692550293
 20
145.6257215618459
 11
164.7573092709718
 21
146.1142914401865
 72
     1
 10
164.7573092709718
 20
146.1142914401865
 11
163.9176282500997
 21
146.1142914401865
 72
     4
 94
        3
 73
     0
 74
     0
 95
       16
 96
       12
 40
0.0
 40
0.0
 40
0.0
 40
0.0
 40
0.0719416665231651
 40
0.1446253590759065
 40
0.1879779149910977
 40
0.2295440936104405
 40
0.2751936323958134
 40
0.3070718656052443
 40
0.3373215422372259
 40
0.3986635435212919
 40
0.5242542460842631
 40
0.5242542460842631
 40
0.5242542460842631
 40
0.5242542460842631
 10
163.9176282500997
 20
146.1142914401865
 10
163.8923005114279
 20
146.1217432322751
 10
163.8413837968589
 20
146.1367236762745
 10
163.8371224790113
 20
146.2093433654118
 10
163.842927908073
 20
146.2610908363709
 10
163.8672410579503
 20
146.298766017087
 10
163.8967371258109
 20
146.3261796681226
 10
163.9077198200626
 20
146.3618816623048
 10
163.9400024491866
 20
146.3888411346214
 10
163.9972482005777
 20
146.434156241597
 10
164.0605520917891
 20
146.4438073468826
 10
164.1030827994105
 20
146.4502914401865
 72
     1
 10
164.1030827994105
 20
146.4502914401865
 11
164.9248497227616
 21
146.4502914401865
 97
        8
330
A6C
330
A7A
330
A79
330
A81
330
A80
330
A7B
330
A6B
330
A82
 75
     0
 76
     1
 47
0.0514683685270805
 98
        1
 10
164.3133495784029
 20
146.6465450360565
450
        0
451
        0
460
0.0
461
0.0
452
        0
462
0.0
453
        0
470

  0
LINE
  5
A6E
102
{ACAD_REACTORS
330
A58
102
}
330
18
100
AcDbEntity
  8
ROGO
 62
     4
100
AcDbLine
 10
160.8747953619301
 20
146.9388664924034
 30
0.0
 11
160.7259611661956
 21
146.6380641617113
 31
0.0
  0
LINE
  5
A6F
102
{ACAD_REACTORS
330
A58
102
}
330
18
100
AcDbEntity
  8
ROGO
 62
     4
100
AcDbLine
 10
160.6095913201191
 20
146.4028741185271
 30
0.0
 11
160.4902649444952
 21
146.1617087618459
 31
0.0
  0
LINE
  5
A70
102
{ACAD_REACTORS
330
A58
102
}
330
18
100
AcDbEntity
  8
ROGO
 62
     4
100
AcDbLine
 10
160.3738901718789
 20
145.926508761846
 30
0.0
 11
160.22506346267
 21
145.6257215618459
 31
0.0
  0
LINE
  5
A71
102
{ACAD_REACTORS
330
A7F
102
}
330
18
100
AcDbEntity
  8
ROGO
 62
     4
100
AcDbLine
 10
161.3892896271278
 20
146.9388664924034
 30
0.0
 11
160.4423552970287
 21
145.6257215618459
 31
0.0
  0
LINE
  5
A72
102
{ACAD_REACTORS
330
A7F
102
}
330
18
100
AcDbEntity
  8
ROGO
 62
     4
100
AcDbLine
 10
161.8634174837595
 20
146.5878575154516
 30
0.0
 11
161.5400507474463
 21
146.1394342436327
 31
0.0
  0
LINE
  5
A73
102
{ACAD_REACTORS
330
A7F
102
}
330
18
100
AcDbEntity
  8
ROGO
 62
     4
100
AcDbLine
 10
161.3498929863012
 20
145.8757362319367
 30
0.0
 11
162.1797699750855
 21
145.8757362319367
 31
0.0
  0
LINE
  5
A74
102
{ACAD_REACTORS
330
A7F
102
}
330
18
100
AcDbEntity
  8
ROGO
 62
     4
100
AcDbLine
 10
161.5400507474463
 20
146.1394342436328
 30
0.0
 11
162.0626248694849
 21
146.1394342436328
 31
0.0
  0
LINE
  5
A75
102
{ACAD_REACTORS
330
A7F
102
}
330
18
100
AcDbEntity
  8
ROGO
 62
     4
100
AcDbLine
 10
161.3498929863012
 20
145.8757362319367
 30
0.0
 11
161.1696025487203
 21
145.625721561846
 31
0.0
  0
LINE
  5
A76
102
{ACAD_REACTORS
330
A7F
102
}
330
18
100
AcDbEntity
  8
ROGO
 62
     4
100
AcDbLine
 10
160.4423552970287
 20
145.6257215618459
 30
0.0
 11
161.1696025487202
 21
145.6257215618459
 31
0.0
  0
LINE
  5
A77
102
{ACAD_REACTORS
330
A7F
102
}
330
18
100
AcDbEntity
  8
ROGO
 62
     4
100
AcDbLine
 10
161.3892896271278
 20
146.9388664924034
 30
0.0
 11
162.4396931098992
 21
146.9388664924034
 31
0.0
  0
LINE
  5
A78
102
{ACAD_REACTORS
330
A7F
102
}
330
18
100
AcDbEntity
  8
ROGO
 62
     4
100
AcDbLine
 10
163.0230441202826
 20
145.625721561846
 30
0.0
 11
162.2908363981544
 21
145.6257215618459
 31
0.0
  0
LINE
  5
A79
102
{ACAD_REACTORS
330
A6D
102
}
330
18
100
AcDbEntity
  8
ROGO
 62
     4
100
AcDbLine
 10
163.3826635352884
 20
145.6257215618459
 30
0.0
 11
164.513692550293
 21
145.6257215618459
 31
0.0
  0
SPLINE
  5
A7A
102
{ACAD_REACTORS
330
A6D
102
}
330
18
100
AcDbEntity
  8
ROGO
 62
     4
100
AcDbSpline
210
0.0
220
0.0
230
1.0
 70
     8
 71
     3
 72
    26
 73
    22
 74
    20
 42
0.0000000001
 43
0.0000000001
 44
0.0000000001
 40
0.0
 40
0.0
 40
0.0
 40
0.0
 40
0.2382195346591896
 40
0.397689067266058
 40
0.5126795869787669
 40
0.5985392873135731
 40
0.7099038249249733
 40
0.7911890807494741
 40
0.9379713068543702
 40
1.057449928673087
 40
1.138714535893316
 40
1.218398644003506
 40
1.36093802187036
 40
1.461730374800257
 40
1.516014844108008
 40
1.593124329220501
 40
1.648806818593631
 40
1.729472362005518
 40
1.775122082164342
 40
1.874460993765092
 40
1.919820003751207
 40
1.919820003751207
 40
1.919820003751207
 40
1.919820003751207
 10
163.8534326811959
 20
146.9388664924034
 30
0.0
 10
163.7725772904373
 20
146.9340425211383
 30
0.0
 10
163.6375954763713
 20
146.9259892746416
 30
0.0
 10
163.4893862656596
 20
146.8359537707832
 30
0.0
 10
163.3807995212493
 20
146.7836110854408
 30
0.0
 10
163.3033555868252
 20
146.7124556640212
 30
0.0
 10
163.2465888689576
 20
146.6389573114999
 30
0.0
 10
163.1750237642601
 20
146.5513845633745
 30
0.0
 10
163.1166644663542
 20
146.4494096419099
 30
0.0
 10
163.086945623821
 20
146.3370155008466
 30
0.0
 10
163.0606209551673
 20
146.2474367182877
 30
0.0
 10
163.0410981401943
 20
146.1476128553952
 30
0.0
 10
163.0460652970072
 20
146.039767967273
 30
0.0
 10
163.0531784928917
 20
145.9396071562691
 30
0.0
 10
163.0849371828157
 20
145.8681073333425
 30
0.0
 10
163.1211047052057
 20
145.8172043864131
 30
0.0
 10
163.1653913410607
 20
145.7611404337144
 30
0.0
 10
163.213850605378
 20
145.7240094593841
 30
0.0
 10
163.2539303724887
 20
145.6567442042436
 30
0.0
 10
163.3240886527511
 20
145.6481606725673
 30
0.0
 10
163.368684046827
 20
145.6310768826904
 30
0.0
 10
163.3826635352884
 20
145.6257215618459
 30
0.0
 11
163.8534326811959
 21
146.9388664924034
 31
0.0
 11
163.6180481082421
 21
146.9022243103097
 31
0.0
 11
163.4753906048671
 21
146.8309546213763
 31
0.0
 11
163.3755305575812
 21
146.7739389166988
 31
0.0
 11
163.3113349886775
 21
146.716922979675
 31
0.0
 11
163.2400064420667
 21
146.6313993064856
 31
0.0
 11
163.1900764184238
 21
146.5672566096802
 31
0.0
 11
163.1187474616596
 21
146.438970983723
 31
0.0
 11
163.0830833934308
 21
146.3249393420218
 31
0.0
 11
163.061684870463
 21
146.2465426609603
 31
0.0
 11
163.0474189150487
 21
146.168145979899
 31
0.0
 11
163.0474189150487
 21
146.0256066020321
 31
0.0
 11
163.061684870463
 21
145.9258289445869
 31
0.0
 11
163.0830833934308
 21
145.875939999691
 31
0.0
 11
163.1258804393666
 21
145.8117973028855
 31
0.0
 11
163.1615449177488
 21
145.7690353501177
 31
0.0
 11
163.2186075089453
 21
145.7120196454402
 31
0.0
 11
163.2471390096204
 21
145.6763846848003
 31
0.0
 11
163.3398664893525
 21
145.6407499565068
 31
0.0
 11
163.3826635352884
 21
145.6257215618459
 31
0.0
  0
SPLINE
  5
A7B
102
{ACAD_REACTORS
330
A6D
102
}
330
18
100
AcDbEntity
  8
ROGO
 62
     4
100
AcDbSpline
210
0.0
220
0.0
230
1.0
 70
     8
 71
     3
 72
    16
 73
    12
 74
    10
 42
0.0000000001
 43
0.0000000001
 44
0.0000000001
 40
0.0
 40
0.0
 40
0.0
 40
0.0
 40
0.1255907025629711
 40
0.1869327038470372
 40
0.2171823804790188
 40
0.2490606136884497
 40
0.2947101524738226
 40
0.3362763310931653
 40
0.3796288870083566
 40
0.452312579561098
 40
0.5242542460842631
 40
0.5242542460842631
 40
0.5242542460842631
 40
0.5242542460842631
 10
164.1030827994105
 20
146.4502914401865
 30
0.0
 10
164.0605520917891
 20
146.4438073468826
 30
0.0
 10
163.9972482005777
 20
146.434156241597
 30
0.0
 10
163.9400024491866
 20
146.3888411346214
 30
0.0
 10
163.9077198200626
 20
146.3618816623048
 30
0.0
 10
163.8967371258109
 20
146.3261796681226
 30
0.0
 10
163.8672410579503
 20
146.298766017087
 30
0.0
 10
163.842927908073
 20
146.2610908363709
 30
0.0
 10
163.8371224790113
 20
146.2093433654118
 30
0.0
 10
163.8413837968589
 20
146.1367236762745
 30
0.0
 10
163.8923005114279
 20
146.1217432322751
 30
0.0
 10
163.9176282500997
 20
146.1142914401865
 30
0.0
 11
164.1030827994105
 21
146.4502914401865
 31
0.0
 11
163.9818242291567
 21
146.4175900073391
 31
0.0
 11
163.9318942055138
 21
146.3819552790456
 31
0.0
 11
163.910495682546
 21
146.3605743026616
 31
0.0
 11
163.8962297271317
 21
146.3320663341497
 31
0.0
 11
163.8676982264567
 21
146.2964316058562
 31
0.0
 11
163.8462997034888
 21
146.2607966452164
 31
0.0
 11
163.8391667257817
 21
146.2180349247948
 31
0.0
 11
163.8534326811959
 21
146.1467650035151
 31
0.0
 11
163.9176282500997
 21
146.1142914401865
 31
0.0
  0
LINE
  5
A7C
102
{ACAD_REACTORS
330
A7F
102
}
330
18
100
AcDbEntity
  8
ROGO
 62
     4
100
AcDbLine
 10
162.4396931098992
 20
146.9388664924034
 30
0.0
 11
163.0230441202826
 21
145.6257215618459
 31
0.0
  0
LINE
  5
A7D
102
{ACAD_REACTORS
330
A7F
102
}
330
18
100
AcDbEntity
  8
ROGO
 62
     4
100
AcDbLine
 10
161.8634174837596
 20
146.5878575154516
 30
0.0
 11
162.0626248694849
 21
146.1394342436327
 31
0.0
  0
LINE
  5
A7E
102
{ACAD_REACTORS
330
A7F
102
}
330
18
100
AcDbEntity
  8
ROGO
 62
     4
100
AcDbLine
 10
162.1797699750855
 20
145.8757362319367
 30
0.0
 11
162.2908363981544
 21
145.6257215618459
 31
0.0
  0
HATCH
  5
A7F
330
18
100
AcDbEntity
  8
ROGO
 62
     4
100
AcDbHatch
 10
0.0
 20
0.0
 30
0.0
210
0.0
220
0.0
230
1.0
  2
SOLID
 70
     1
 71
     1
 91
        2
 92
        7
 72
     0
 73
     1
 93
        8
 10
162.4396931098992
 20
146.9388664924034
 10
161.3892896271278
 20
146.9388664924033
 10
160.4423552970287
 20
145.6257215618459
 10
161.1696025487203
 20
145.6257215618459
 10
161.3498929863012
 20
145.8757362319367
 10
162.1797699750855
 20
145.8757362319367
 10
162.2908363981545
 20
145.6257215618459
 10
163.0230441202825
 20
145.625721561846
 97
        8
330
A77
330
A71
330
A76
330
A75
330
A73
330
A7E
330
A78
330
A7C
 92
       22
 72
     0
 73
     1
 93
        3
 10
162.0626248694849
 20
146.1394342436328
 10
161.5400507474463
 20
146.1394342436328
 10
161.8634174837596
 20
146.5878575154517
 97
        3
330
A74
330
A72
330
A7D
 75
     0
 76
     1
 47
0.0128389261915577
 98
        2
 10
162.3574382174035
 20
146.6238245755944
 10
162.3574382174035
 20
146.6238245755944
450
        0
451
        0
460
0.0
461
0.0
452
        0
462
0.0
453
        0
470

  0
LINE
  5
A80
102
{ACAD_REACTORS
330
A6D
102
}
330
18
100
AcDbEntity
  8
ROGO
 62
     4
100
AcDbLine
 10
163.9176282500996
 20
146.1142914401865
 30
0.0
 11
164.7573092709718
 21
146.1142914401865
 31
0.0
  0
LINE
  5
A81
102
{ACAD_REACTORS
330
A6D
102
}
330
18
100
AcDbEntity
  8
ROGO
 62
     4
100
AcDbLine
 10
164.7573092709718
 20
146.1142914401865
 30
0.0
 11
164.513692550293
 21
145.6257215618459
 31
0.0
  0
LINE
  5
A82
102
{ACAD_REACTORS
330
A6D
102
}
330
18
100
AcDbEntity
  8
ROGO
 62
     4
100
AcDbLine
 10
165.1684690233022
 20
146.9388664924034
 30
0.0
 11
164.9248497227616
 21
146.4502914401865
 31
0.0
  0
LINE
  5
A83
102
{ACAD_REACTORS
330
A8B
102
}
330
18
100
AcDbEntity
  8
ROGO
 62
     4
100
AcDbLine
 10
167.6137333062162
 20
145.6257215618459
 30
0.0
 11
168.7447623212209
 21
145.6257215618459
 31
0.0
  0
LINE
  5
A84
102
{ACAD_REACTORS
330
A8B
102
}
330
18
100
AcDbEntity
  8
ROGO
 62
     4
100
AcDbLine
 10
168.0845024521241
 20
146.9388664924034
 30
0.0
 11
169.39953879423
 21
146.9388664924034
 31
0.0
  0
SPLINE
  5
A85
102
{ACAD_REACTORS
330
A8B
102
}
330
18
100
AcDbEntity
  8
ROGO
 62
     4
100
AcDbSpline
210
0.0
220
0.0
230
1.0
 70
     8
 71
     3
 72
    16
 73
    12
 74
    10
 42
0.0000000001
 43
0.0000000001
 44
0.0000000001
 40
0.0
 40
0.0
 40
0.0
 40
0.0
 40
0.1255907025629163
 40
0.1869327038470616
 40
0.217182380479003
 40
0.2490606136884339
 40
0.2947101524738157
 40
0.3362763310931585
 40
0.3796288870082937
 40
0.4523125795610796
 40
0.5242542460842448
 40
0.5242542460842448
 40
0.5242542460842448
 40
0.5242542460842448
 10
168.3341525703383
 20
146.4502914401865
 30
0.0
 10
168.2916218627169
 20
146.4438073468825
 30
0.0
 10
168.2283179715055
 20
146.434156241597
 30
0.0
 10
168.1710722201145
 20
146.3888411346212
 30
0.0
 10
168.1387895909903
 20
146.3618816623048
 30
0.0
 10
168.1278068967387
 20
146.3261796681226
 30
0.0
 10
168.0983108288782
 20
146.2987660170869
 30
0.0
 10
168.0739976790009
 20
146.2610908363708
 30
0.0
 10
168.0681922499392
 20
146.2093433654117
 30
0.0
 10
168.0724535677867
 20
146.1367236762744
 30
0.0
 10
168.1233702823558
 20
146.121743232275
 30
0.0
 10
168.1486980210275
 20
146.1142914401865
 30
0.0
 11
168.3341525703383
 21
146.4502914401865
 31
0.0
 11
168.2128940000846
 21
146.4175900073391
 31
0.0
 11
168.1629639764417
 21
146.3819552790455
 31
0.0
 11
168.1415654534738
 21
146.3605743026616
 31
0.0
 11
168.1272994980596
 21
146.3320663341497
 31
0.0
 11
168.0987679973846
 21
146.2964316058562
 31
0.0
 11
168.0773694744167
 21
146.2607966452163
 31
0.0
 11
168.0702364967095
 21
146.2180349247948
 31
0.0
 11
168.0845024521238
 21
146.146765003515
 31
0.0
 11
168.1486980210275
 21
146.1142914401865
 31
0.0
  0
SPLINE
  5
A86
102
{ACAD_REACTORS
330
A8B
102
}
330
18
100
AcDbEntity
  8
ROGO
 62
     4
100
AcDbSpline
210
0.0
220
0.0
230
1.0
 70
     8
 71
     3
 72
    26
 73
    22
 74
    20
 42
0.0000000001
 43
0.0000000001
 44
0.0000000001
 40
0.0
 40
0.0
 40
0.0
 40
0.0
 40
0.2382195346591896
 40
0.397689067266058
 40
0.5126795869787176
 40
0.5985392873135238
 40
0.7099038249250041
 40
0.7911890807494602
 40
0.9379713068544059
 40
1.057449928673177
 40
1.138714535893296
 40
1.218398644003487
 40
1.36093802187034
 40
1.461730374800238
 40
1.51601484410804
 40
1.593124329220486
 40
1.648806818593696
 40
1.729472362005543
 40
1.775122082164332
 40
1.874460993765135
 40
1.919820003751196
 40
1.919820003751196
 40
1.919820003751196
 40
1.919820003751196
 10
168.0845024521238
 20
146.9388664924034
 30
0.0
 10
168.0036470613651
 20
146.9340425211383
 30
0.0
 10
167.8686652472992
 20
146.9259892746416
 30
0.0
 10
167.7204560365874
 20
146.8359537707832
 30
0.0
 10
167.6118692921772
 20
146.7836110854408
 30
0.0
 10
167.534425357753
 20
146.7124556640212
 30
0.0
 10
167.4776586398855
 20
146.6389573114998
 30
0.0
 10
167.4060935351878
 20
146.5513845633744
 30
0.0
 10
167.347734237282
 20
146.4494096419098
 30
0.0
 10
167.3180153947488
 20
146.3370155008465
 30
0.0
 10
167.2916907260951
 20
146.2474367182877
 30
0.0
 10
167.2721679111221
 20
146.1476128553952
 30
0.0
 10
167.2771350679351
 20
146.039767967273
 30
0.0
 10
167.2842482638195
 20
145.9396071562691
 30
0.0
 10
167.3160069537436
 20
145.8681073333425
 30
0.0
 10
167.3521744761336
 20
145.8172043864131
 30
0.0
 10
167.3964611119885
 20
145.7611404337144
 30
0.0
 10
167.4449203763059
 20
145.7240094593842
 30
0.0
 10
167.4850001434166
 20
145.6567442042436
 30
0.0
 10
167.555158423679
 20
145.6481606725674
 30
0.0
 10
167.5997538177548
 20
145.6310768826904
 30
0.0
 10
167.6137333062162
 20
145.6257215618459
 30
0.0
 11
168.0845024521238
 21
146.9388664924034
 31
0.0
 11
167.8491178791699
 21
146.9022243103097
 31
0.0
 11
167.7064603757949
 21
146.8309546213763
 31
0.0
 11
167.6066003285091
 21
146.7739389166988
 31
0.0
 11
167.5424047596054
 21
146.716922979675
 31
0.0
 11
167.4710762129946
 21
146.6313993064856
 31
0.0
 11
167.4211461893516
 21
146.5672566096802
 31
0.0
 11
167.3498172325874
 21
146.438970983723
 31
0.0
 11
167.3141531643587
 21
146.3249393420217
 31
0.0
 11
167.2927546413908
 21
146.2465426609603
 31
0.0
 11
167.2784886859766
 21
146.168145979899
 31
0.0
 11
167.2784886859766
 21
146.0256066020321
 31
0.0
 11
167.2927546413908
 21
145.9258289445869
 31
0.0
 11
167.3141531643587
 21
145.875939999691
 31
0.0
 11
167.3569502102945
 21
145.8117973028855
 31
0.0
 11
167.3926146886767
 21
145.7690353501177
 31
0.0
 11
167.4496772798732
 21
145.7120196454402
 31
0.0
 11
167.4782087805483
 21
145.6763846848003
 31
0.0
 11
167.5709362602804
 21
145.6407499565068
 31
0.0
 11
167.6137333062162
 21
145.6257215618459
 31
0.0
  0
LINE
  5
A87
102
{ACAD_REACTORS
330
A8B
102
}
330
18
100
AcDbEntity
  8
ROGO
 62
     4
100
AcDbLine
 10
168.9883790418997
 20
146.1142914401865
 30
0.0
 11
168.7447623212208
 21
145.6257215618459
 31
0.0
  0
LINE
  5
A88
102
{ACAD_REACTORS
330
A8B
102
}
330
18
100
AcDbEntity
  8
ROGO
 62
     4
100
AcDbLine
 10
168.1486980210275
 20
146.1142914401865
 30
0.0
 11
168.9883790418997
 21
146.1142914401865
 31
0.0
  0
LINE
  5
A89
102
{ACAD_REACTORS
330
A8B
102
}
330
18
100
AcDbEntity
  8
ROGO
 62
     4
100
AcDbLine
 10
168.3341525703383
 20
146.4502914401865
 30
0.0
 11
169.1559194936895
 21
146.4502914401865
 31
0.0
  0
LINE
  5
A8A
102
{ACAD_REACTORS
330
A8B
102
}
330
18
100
AcDbEntity
  8
ROGO
 62
     4
100
AcDbLine
 10
169.39953879423
 20
146.9388664924034
 30
0.0
 11
169.1559194936895
 21
146.4502914401865
 31
0.0
  0
HATCH
  5
A8B
330
18
100
AcDbEntity
  8
ROGO
 62
     4
100
AcDbHatch
 10
0.0
 20
0.0
 30
0.0
210
0.0
220
0.0
230
1.0
  2
SOLID
 70
     1
 71
     1
 91
        1
 92
        5
 93
        8
 72
     4
 94
        3
 73
     0
 74
     0
 95
       26
 96
       22
 40
0.0
 40
0.0
 40
0.0
 40
0.0
 40
0.2382195346591896
 40
0.397689067266058
 40
0.5126795869787176
 40
0.5985392873135238
 40
0.7099038249250041
 40
0.7911890807494602
 40
0.9379713068544059
 40
1.057449928673177
 40
1.138714535893296
 40
1.218398644003487
 40
1.36093802187034
 40
1.461730374800238
 40
1.51601484410804
 40
1.593124329220486
 40
1.648806818593696
 40
1.729472362005543
 40
1.775122082164332
 40
1.874460993765135
 40
1.919820003751196
 40
1.919820003751196
 40
1.919820003751196
 40
1.919820003751196
 10
168.0845024521238
 20
146.9388664924034
 10
168.0036470613651
 20
146.9340425211383
 10
167.8686652472992
 20
146.9259892746416
 10
167.7204560365874
 20
146.8359537707832
 10
167.6118692921772
 20
146.7836110854408
 10
167.534425357753
 20
146.7124556640212
 10
167.4776586398855
 20
146.6389573114998
 10
167.4060935351878
 20
146.5513845633744
 10
167.347734237282
 20
146.4494096419098
 10
167.3180153947488
 20
146.3370155008465
 10
167.2916907260951
 20
146.2474367182877
 10
167.2721679111221
 20
146.1476128553952
 10
167.2771350679351
 20
146.039767967273
 10
167.2842482638195
 20
145.9396071562691
 10
167.3160069537436
 20
145.8681073333425
 10
167.3521744761336
 20
145.8172043864131
 10
167.3964611119885
 20
145.7611404337144
 10
167.4449203763059
 20
145.7240094593842
 10
167.4850001434166
 20
145.6567442042436
 10
167.555158423679
 20
145.6481606725674
 10
167.5997538177548
 20
145.6310768826904
 10
167.6137333062162
 20
145.6257215618459
 72
     1
 10
167.6137333062162
 20
145.6257215618459
 11
168.7447623212208
 21
145.6257215618459
 72
     1
 10
168.7447623212208
 20
145.6257215618459
 11
168.9883790418997
 21
146.1142914401865
 72
     1
 10
168.9883790418997
 20
146.1142914401865
 11
168.1486980210275
 21
146.1142914401865
 72
     4
 94
        3
 73
     0
 74
     0
 95
       16
 96
       12
 40
0.0
 40
0.0
 40
0.0
 40
0.0
 40
0.0719416665231652
 40
0.1446253590759511
 40
0.1879779149910863
 40
0.229544093610429
 40
0.2751936323958108
 40
0.3070718656052417
 40
0.3373215422371831
 40
0.3986635435213285
 40
0.5242542460842448
 40
0.5242542460842448
 40
0.5242542460842448
 40
0.5242542460842448
 10
168.1486980210275
 20
146.1142914401865
 10
168.1233702823558
 20
146.121743232275
 10
168.0724535677867
 20
146.1367236762744
 10
168.0681922499392
 20
146.2093433654117
 10
168.0739976790009
 20
146.2610908363708
 10
168.0983108288782
 20
146.2987660170869
 10
168.1278068967387
 20
146.3261796681226
 10
168.1387895909903
 20
146.3618816623048
 10
168.1710722201145
 20
146.3888411346212
 10
168.2283179715055
 20
146.434156241597
 10
168.2916218627169
 20
146.4438073468825
 10
168.3341525703383
 20
146.4502914401865
 72
     1
 10
168.3341525703383
 20
146.4502914401866
 11
169.1559194936895
 21
146.4502914401865
 72
     1
 10
169.1559194936895
 20
146.4502914401865
 11
169.3995387942301
 21
146.9388664924034
 72
     1
 10
169.3995387942301
 20
146.9388664924034
 11
168.0845024521237
 21
146.9388664924034
 97
        8
330
A84
330
A86
330
A83
330
A87
330
A88
330
A85
330
A89
330
A8A
 75
     0
 76
     1
 47
0.0514683685270805
 98
        1
 10
168.3114198818086
 20
146.6984251892243
450
        0
451
        0
460
0.0
461
0.0
452
        0
462
0.0
453
        0
470

  0
SPLINE
  5
A8C
102
{ACAD_REACTORS
330
A93
102
}
330
18
100
AcDbEntity
  8
ROGO
 62
     4
100
AcDbSpline
210
0.0
220
0.0
230
1.0
 70
     8
 71
     3
 72
    38
 73
    34
 74
    32
 42
0.0000000001
 43
0.0000000001
 44
0.0000000001
 40
0.0
 40
0.0
 40
0.0
 40
0.0
 40
0.1807680148264315
 40
0.2375392910068956
 40
0.3104865209606157
 40
0.3712759982447458
 40
0.422566754387306
 40
0.490692583720658
 40
0.5255021974951946
 40
0.5647069597052371
 40
0.622487401681883
 40
0.6879401044674746
 40
0.7303986317551266
 40
0.7765228362185534
 40
0.8277951442290254
 40
0.9056034697002209
 40
0.9795294930264187
 40
1.013897332332996
 40
1.053089255536027
 40
1.099518741889647
 40
1.132570569820733
 40
1.160277520290299
 40
1.19983678629386
 40
1.243305643169139
 40
1.286774258016964
 40
1.324809356515675
 40
1.411916492917645
 40
1.446284332224223
 40
1.5150200516612
 40
1.575779369908399
 40
1.69209852953623
 40
1.835624328519098
 40
2.042896467983898
 40
2.042896467983898
 40
2.042896467983898
 40
2.042896467983898
 10
165.897694343345
 20
146.9443437115757
 30
0.0
 10
165.8374389457193
 20
146.9400870924748
 30
0.0
 10
165.7582599800982
 20
146.9344936566876
 30
0.0
 10
165.6577212075886
 20
146.9069490304828
 30
0.0
 10
165.6029164531476
 20
146.8741345110248
 30
0.0
 10
165.5458811518304
 20
146.8500142663243
 30
0.0
 10
165.4972532454453
 20
146.814296967075
 30
0.0
 10
165.4480671447496
 20
146.7958921868817
 30
0.0
 10
165.4136255313737
 20
146.7627050785091
 30
0.0
 10
165.3737621732408
 20
146.742432960334
 30
0.0
 10
165.3420182734054
 20
146.6970580663197
 30
0.0
 10
165.3065375968737
 20
146.6546341846613
 30
0.0
 10
165.2653755484666
 20
146.6236666430837
 30
0.0
 10
165.2315933029072
 20
146.5911416641214
 30
0.0
 10
165.2006027899829
 20
146.5409458489375
 30
0.0
 10
165.1822612174118
 20
146.4742504742519
 30
0.0
 10
165.1305594030024
 20
146.4321414199667
 30
0.0
 10
165.1227747285193
 20
146.3815137722906
 30
0.0
 10
165.0941768783236
 20
146.3516443120999
 30
0.0
 10
165.0817415328677
 20
146.3130871301149
 30
0.0
 10
165.0770055547438
 20
146.2777619407942
 30
0.0
 10
165.0713212517015
 20
146.2447706593659
 30
0.0
 10
165.0564521914689
 20
146.210065288628
 30
0.0
 10
165.0613055040303
 20
146.1671950096931
 30
0.0
 10
165.0599229409881
 20
146.1256822956666
 30
0.0
 10
165.0607365809614
 20
146.0696388390551
 30
0.0
 10
165.0578000416154
 20
146.0150736421356
 30
0.0
 10
165.0812177921305
 20
145.9556937659672
 30
0.0
 10
165.0950756397333
 20
145.9027648213007
 30
0.0
 10
165.1330276096769
 20
145.8294782790492
 30
0.0
 10
165.1984939624948
 20
145.7449214553403
 30
0.0
 10
165.3229837085123
 20
145.6422854920475
 30
0.0
 10
165.4426842390716
 20
145.6318735513302
 30
0.0
 10
165.5134103818018
 20
145.6257215618459
 30
0.0
 11
165.897694343345
 21
146.9443437115757
 31
0.0
 11
165.7182377063977
 21
146.9226091621243
 31
0.0
 11
165.6638569202695
 21
146.906308613077
 31
0.0
 11
165.5986002332615
 21
146.8737070309274
 31
0.0
 11
165.5442194471334
 21
146.8465392071543
 31
0.0
 11
165.5007149891281
 21
146.8193711413539
 31
0.0
 11
165.44089625256
 21
146.7867698012317
 31
0.0
 11
165.4137056458743
 21
146.7650354938078
 31
0.0
 11
165.3810770887489
 21
146.7433009443564
 31
0.0
 11
165.3430105811835
 21
146.6998323295086
 31
0.0
 11
165.2995061231781
 21
146.6509301983116
 31
0.0
 11
165.2668775660526
 21
146.6237621325111
 31
0.0
 11
165.2342494361701
 21
146.591160792389
 31
0.0
 11
165.2070588294845
 21
146.5476921775412
 31
0.0
 11
165.1744306996022
 21
146.4770554968929
 31
0.0
 11
165.1309258143537
 21
146.4172860909702
 31
0.0
 11
165.1200499134739
 21
146.3846845088206
 31
0.0
 11
165.0982976844713
 21
146.3520831686984
 31
0.0
 11
165.0819834059085
 21
146.3086143118232
 31
0.0
 11
165.0765450282255
 21
146.276012971701
 31
0.0
 11
165.0711070777856
 21
146.2488449059005
 31
0.0
 11
165.0602311769058
 21
146.2108100494292
 31
0.0
 11
165.0602311769058
 21
146.167341192554
 31
0.0
 11
165.0602311769058
 21
146.1238725777061
 31
0.0
 11
165.0602311769058
 21
146.0858374792074
 31
0.0
 11
165.0656691273458
 21
145.9989002495117
 31
0.0
 11
165.0765450282255
 21
145.9662986673621
 31
0.0
 11
165.0982976844713
 21
145.9010957450904
 31
0.0
 11
165.1254878639138
 21
145.8467598555169
 31
0.0
 11
165.1961829286047
 21
145.754389109472
 31
0.0
 11
165.310382451301
 21
145.6674516377489
 31
0.0
 11
165.5134103818018
 21
145.6257215618459
 31
0.0
  0
SPLINE
  5
A8D
102
{ACAD_REACTORS
330
A93
102
}
330
18
100
AcDbEntity
  8
ROGO
 62
     4
100
AcDbSpline
210
0.0
220
0.0
230
1.0
 70
     8
 71
     3
 72
    25
 73
    21
 74
     0
 42
0.0000000001
 43
0.0000000001
 40
0.0
 40
0.0
 40
0.0
 40
0.0
 40
0.4087168505087288
 40
0.6887487002771746
 40
0.9415836120477687
 40
1.17452070575514
 40
1.41154617586699
 40
1.599156012919487
 40
1.80099909059943
 40
2.178735911501585
 40
2.521686161369157
 40
2.762704659361267
 40
3.06256558063785
 40
3.222432137207705
 40
3.399493810628493
 40
3.567459719866414
 40
3.743172740007509
 40
3.995988754699505
 40
4.17170091132118
 40
4.337226830236035
 40
4.337226830236035
 40
4.337226830236035
 40
4.337226830236035
 10
166.6481481665303
 20
146.9443437115757
 30
0.0
 10
166.6973682169559
 20
146.9427623221196
 30
0.0
 10
166.7803113246744
 20
146.9400974456136
 30
0.0
 10
166.8693609832955
 20
146.8704947562381
 30
0.0
 10
166.9374992040549
 20
146.8127887939231
 30
0.0
 10
166.9858645589155
 20
146.7430249875889
 30
0.0
 10
167.0282581475579
 20
146.6788808839118
 30
0.0
 10
167.0561923083271
 20
146.6111594692457
 30
0.0
 10
167.0941882860019
 20
146.5298999737088
 30
0.0
 10
167.1099167436491
 20
146.4211868412778
 30
0.0
 10
167.0992903003124
 20
146.3088217882322
 30
0.0
 10
167.0715602448149
 20
146.2092205045288
 30
0.0
 10
167.0424736461149
 20
146.1328087393846
 30
0.0
 10
167.0081916271976
 20
146.066287557394
 30
0.0
 10
166.9673230798935
 20
146.023215086895
 30
0.0
 10
166.9389701243545
 20
145.9684488605475
 30
0.0
 10
166.8845077236373
 20
145.923653027674
 30
0.0
 10
166.8403575638306
 20
145.86838125722
 30
0.0
 10
166.7902563271909
 20
145.8209409088814
 30
0.0
 10
166.762009027887
 20
145.7916707856597
 30
0.0
 10
166.7471163704933
 20
145.7793640417141
 30
0.0
  0
LINE
  5
A8E
102
{ACAD_REACTORS
330
A93
102
}
330
18
100
AcDbEntity
  8
ROGO
 62
     4
100
AcDbLine
 10
165.897694343345
 20
146.9443437115757
 30
0.0
 11
166.6481481665303
 21
146.9443437115757
 31
0.0
  0
LINE
  5
A8F
102
{ACAD_REACTORS
330
A93
102
}
330
18
100
AcDbEntity
  8
ROGO
 62
     4
100
AcDbLine
 10
165.5134103818018
 20
145.6257215618459
 30
0.0
 11
166.2638642049872
 21
145.6257215618459
 31
0.0
  0
SPLINE
  5
A90
102
{ACAD_REACTORS
330
A93
102
}
330
18
100
AcDbEntity
  8
ROGO
 62
     4
100
AcDbSpline
210
0.0
220
0.0
230
1.0
 70
     8
 71
     3
 72
    11
 73
     7
 74
     0
 42
0.0000000001
 43
0.0000000001
 40
0.1647869275458134
 40
0.1647869275458134
 40
0.1647869275458134
 40
0.1647869275458134
 40
0.2895635144633836
 40
0.5387013147903714
 40
0.7953622617455423
 40
0.8850764140209602
 40
0.8850764140209602
 40
0.8850764140209602
 40
0.8850764140209602
 10
166.5138816636052
 20
145.6549980087545
 30
0.0
 10
166.4999031208044
 20
145.651107076038
 30
0.0
 10
166.4565621093701
 20
145.6441794862541
 30
0.0
 10
166.383863342232
 20
145.6346670918807
 30
0.0
 10
166.3147668001357
 20
145.6247405612961
 30
0.0
 10
166.2743361053071
 20
145.6255197462029
 30
0.0
 10
166.2638642049872
 20
145.6257215618459
 30
0.0
  0
SPLINE
  5
A91
102
{ACAD_REACTORS
330
A93
102
}
330
18
100
AcDbEntity
  8
ROGO
 62
     4
100
AcDbSpline
210
0.0
220
0.0
230
1.0
 70
     8
 71
     3
 72
     9
 73
     5
 74
     3
 42
0.0000000001
 43
0.0000000001
 44
0.0000000001
 40
0.0
 40
0.0
 40
0.0
 40
0.0
 40
0.1135793343552172
 40
0.2662938392177403
 40
0.2662938392177403
 40
0.2662938392177403
 40
0.2662938392177403
 10
166.5138816636052
 20
145.6549980087545
 30
0.0
 10
166.5503666319232
 20
145.6661603484777
 30
0.0
 10
166.6359079176006
 20
145.6923311507317
 30
0.0
 10
166.7065846148374
 20
145.7476434685061
 30
0.0
 10
166.7471163704933
 20
145.7793640417141
 30
0.0
 11
166.5138816636052
 21
145.6549980087545
 31
0.0
 11
166.6206324278299
 21
145.6937864030242
 31
0.0
 11
166.7471163704933
 21
145.7793640417141
 31
0.0
  0
ELLIPSE
  5
A92
102
{ACAD_REACTORS
330
A93
102
}
330
18
100
AcDbEntity
  8
ROGO
 62
     4
100
AcDbEllipse
 10
166.0701527379757
 20
146.2666477193567
 30
0.0
 11
0.1782847090673272
 21
0.1567790921840611
 31
0.0
210
0.0
220
0.0
230
0.9999999999999998
 40
0.6788083417438792
 41
0.0
 42
6.283185307179586
  0
HATCH
  5
A93
330
18
100
AcDbEntity
  8
ROGO
 62
     4
100
AcDbHatch
 10
0.0
 20
0.0
 30
0.0
210
0.0
220
0.0
230
1.0
  2
SOLID
 70
     1
 71
     1
 91
        2
 92
        5
 93
        6
 72
     4
 94
        3
 73
     0
 74
     0
 95
       38
 96
       34
 40
0.0
 40
0.0
 40
0.0
 40
0.0
 40
0.1807680148264315
 40
0.2375392910068956
 40
0.3104865209606157
 40
0.3712759982447458
 40
0.422566754387306
 40
0.490692583720658
 40
0.5255021974951946
 40
0.5647069597052371
 40
0.622487401681883
 40
0.6879401044674746
 40
0.7303986317551266
 40
0.7765228362185534
 40
0.8277951442290254
 40
0.9056034697002209
 40
0.9795294930264187
 40
1.013897332332996
 40
1.053089255536027
 40
1.099518741889647
 40
1.132570569820733
 40
1.160277520290299
 40
1.19983678629386
 40
1.243305643169139
 40
1.286774258016964
 40
1.324809356515675
 40
1.411916492917645
 40
1.446284332224223
 40
1.5150200516612
 40
1.575779369908399
 40
1.69209852953623
 40
1.835624328519098
 40
2.042896467983898
 40
2.042896467983898
 40
2.042896467983898
 40
2.042896467983898
 10
165.897694343345
 20
146.9443437115757
 10
165.8374389457193
 20
146.9400870924748
 10
165.7582599800982
 20
146.9344936566876
 10
165.6577212075886
 20
146.9069490304828
 10
165.6029164531476
 20
146.8741345110248
 10
165.5458811518304
 20
146.8500142663243
 10
165.4972532454453
 20
146.814296967075
 10
165.4480671447496
 20
146.7958921868817
 10
165.4136255313737
 20
146.7627050785091
 10
165.3737621732408
 20
146.742432960334
 10
165.3420182734054
 20
146.6970580663197
 10
165.3065375968737
 20
146.6546341846613
 10
165.2653755484666
 20
146.6236666430837
 10
165.2315933029072
 20
146.5911416641214
 10
165.2006027899829
 20
146.5409458489375
 10
165.1822612174118
 20
146.4742504742519
 10
165.1305594030024
 20
146.4321414199667
 10
165.1227747285193
 20
146.3815137722906
 10
165.0941768783236
 20
146.3516443120999
 10
165.0817415328677
 20
146.3130871301149
 10
165.0770055547438
 20
146.2777619407942
 10
165.0713212517015
 20
146.2447706593659
 10
165.0564521914689
 20
146.210065288628
 10
165.0613055040303
 20
146.1671950096931
 10
165.0599229409881
 20
146.1256822956666
 10
165.0607365809614
 20
146.0696388390551
 10
165.0578000416154
 20
146.0150736421356
 10
165.0812177921305
 20
145.9556937659672
 10
165.0950756397333
 20
145.9027648213007
 10
165.1330276096769
 20
145.8294782790492
 10
165.1984939624948
 20
145.7449214553403
 10
165.3229837085123
 20
145.6422854920475
 10
165.4426842390716
 20
145.6318735513302
 10
165.5134103818018
 20
145.6257215618459
 72
     1
 10
165.5134103818019
 20
145.6257215618459
 11
166.2638642049869
 21
145.6257215618459
 72
     4
 94
        3
 73
     0
 74
     0
 95
       11
 96
        7
 40
0.1647869275458135
 40
0.1647869275458135
 40
0.1647869275458135
 40
0.1647869275458135
 40
0.2545010798212315
 40
0.5111620267764023
 40
0.7602998271033902
 40
0.8850764140209603
 40
0.8850764140209603
 40
0.8850764140209603
 40
0.8850764140209603
 10
166.2638642049872
 20
145.6257215618459
 10
166.2743361053071
 20
145.6255197462029
 10
166.3147668001357
 20
145.6247405612961
 10
166.383863342232
 20
145.6346670918807
 10
166.4565621093701
 20
145.6441794862541
 10
166.4999031208044
 20
145.651107076038
 10
166.5138816636052
 20
145.6549980087545
 72
     4
 94
        3
 73
     0
 74
     0
 95
        9
 96
        5
 40
0.0
 40
0.0
 40
0.0
 40
0.0
 40
0.1135793343552172
 40
0.2662938392177403
 40
0.2662938392177403
 40
0.2662938392177403
 40
0.2662938392177403
 10
166.5138816636052
 20
145.6549980087545
 10
166.5503666319232
 20
145.6661603484777
 10
166.6359079176006
 20
145.6923311507317
 10
166.7065846148374
 20
145.7476434685061
 10
166.7471163704933
 20
145.7793640417141
 72
     4
 94
        3
 73
     0
 74
     0
 95
       25
 96
       21
 40
0.0
 40
0.0
 40
0.0
 40
0.0
 40
0.165525918914855
 40
0.3412380755365305
 40
0.5940540902285263
 40
0.7697671103696209
 40
0.9377330196075423
 40
1.11479469302833
 40
1.274661249598185
 40
1.574522170874768
 40
1.815540668866877
 40
2.15849091873445
 40
2.536227739636605
 40
2.738070817316548
 40
2.925680654369045
 40
3.162706124480894
 40
3.395643218188267
 40
3.648478129958861
 40
3.928509979727306
 40
4.337226830236035
 40
4.337226830236035
 40
4.337226830236035
 40
4.337226830236035
 10
166.7471163704933
 20
145.7793640417141
 10
166.762009027887
 20
145.7916707856597
 10
166.7902563271909
 20
145.8209409088814
 10
166.8403575638306
 20
145.86838125722
 10
166.8845077236373
 20
145.923653027674
 10
166.9389701243545
 20
145.9684488605475
 10
166.9673230798935
 20
146.023215086895
 10
167.0081916271976
 20
146.066287557394
 10
167.0424736461149
 20
146.1328087393846
 10
167.0715602448149
 20
146.2092205045288
 10
167.0992903003124
 20
146.3088217882322
 10
167.1099167436491
 20
146.4211868412778
 10
167.0941882860019
 20
146.5298999737088
 10
167.0561923083271
 20
146.6111594692457
 10
167.0282581475579
 20
146.6788808839118
 10
166.9858645589155
 20
146.7430249875889
 10
166.9374992040549
 20
146.8127887939231
 10
166.8693609832955
 20
146.8704947562381
 10
166.7803113246744
 20
146.9400974456136
 10
166.6973682169559
 20
146.9427623221196
 10
166.6481481665303
 20
146.9443437115757
 72
     1
 10
166.6481481665303
 20
146.9443437115757
 11
165.897694343345
 21
146.9443437115758
 97
        6
330
A8D
330
A8E
330
A8C
330
A8F
330
A90
330
A91
 92
       20
 93
        1
 72
     3
 10
166.0701527379757
 20
146.2666477193567
 11
0.1782847090673272
 21
0.1567790921840611
 40
0.678808341743879
 50
0.0
 51
360.0
 73
     1
 97
        1
330
A92
 75
     0
 76
     1
 47
0.088756267210375
 98
        2
 10
166.1225840137443
 20
146.5801349896807
 10
166.1225840137443
 20
146.5801349896807
450
        0
451
        0
460
0.0
461
0.0
452
        0
462
0.0
453
        0
470

  0
LINE
  5
A94
102
{ACAD_REACTORS
330
A37
102
}
330
18
100
AcDbEntity
  8
ROGO
 62
     4
100
AcDbLine
 10
169.6745659233522
 20
146.9388664924034
 30
0.0
 11
168.6514328916823
 21
144.8869877074974
 31
0.0
  0
LINE
  5
A95
102
{ACAD_REACTORS
330
A37
102
}
330
18
100
AcDbEntity
  8
ROGO
 62
     4
100
AcDbLine
 10
169.6745659233522
 20
145.422551269617
 30
0.0
 11
169.4075166341866
 21
144.8869877074974
 31
0.0
  0
LINE
  5
A96
330
18
100
AcDbEntity
  8
目盛
100
AcDbLine
 10
152.5253539942417
 20
164.5374179420562
 30
0.0
 11
153.5376965141245
 21
161.9805326058636
 31
0.0
  0
LINE
  5
A97
330
18
100
AcDbEntity
  8
目盛
100
AcDbLine
 10
150.8533665667101
 20
163.8138843728115
 30
0.0
 11
152.0242596185141
 21
161.32560997853
 31
0.0
  0
LINE
  5
A98
330
18
100
AcDbEntity
  8
目盛
100
AcDbLine
 10
154.2394731852238
 20
165.1545388238563
 30
0.0
 11
155.7073039085048
 21
160.6370203714543
 31
0.0
  0
LINE
  5
A99
330
18
100
AcDbEntity
  8
目盛
100
AcDbLine
 10
159.5663022487325
 20
166.3452261894167
 30
0.0
 11
159.9109686410343
 21
163.6169107608019
 31
0.0
  0
LINE
  5
A9A
330
18
100
AcDbEntity
  8
目盛
100
AcDbLine
 10
157.7669078991113
 20
166.0602301224289
 30
0.0
 11
158.2822065142221
 21
163.358940182925
 31
0.0
  0
LINE
  5
A9B
330
18
100
AcDbEntity
  8
目盛
100
AcDbLine
 10
155.9889592943165
 20
165.6628115240271
 30
0.0
 11
156.67285648402
 21
162.9992078309235
 31
0.0
  0
LINE
  5
A9C
330
18
100
AcDbEntity
  8
目盛
100
AcDbLine
 10
163.2009660220973
 20
166.5738998512969
 30
0.0
 11
163.2009660220973
 21
161.8238998512969
 31
0.0
  0
TEXT
  5
A9D
330
18
100
AcDbEntity
  8
文字
100
AcDbText
 10
161.7016087784076
 20
157.8372845923129
 30
0.0
 40
3.0
  1
0
  7
STYLE3
100
AcDbText
  0
LINE
  5
A9E
330
18
100
AcDbEntity
  8
目盛
100
AcDbLine
 10
165.0218910884474
 20
166.5166749757168
 30
0.0
 11
164.8492171597418
 21
163.772101472539
 31
0.0
  0
LINE
  5
A9F
330
18
100
AcDbEntity
  8
目盛
100
AcDbLine
 10
161.3800409557473
 20
166.5166749757167
 30
0.0
 11
161.5527148844529
 21
163.7721014725389
 31
0.0
  0
LINE
  5
AA0
330
18
100
AcDbEntity
  8
目盛
100
AcDbLine
 10
168.6350241450833
 20
166.0602301224289
 30
0.0
 11
168.1197255299726
 21
163.358940182925
 31
0.0
  0
LINE
  5
AA1
330
18
100
AcDbEntity
  8
目盛
100
AcDbLine
 10
166.8356297954622
 20
166.3452261894168
 30
0.0
 11
166.4909634031603
 21
163.6169107608019
 31
0.0
  0
LINE
  5
AA3
330
18
100
AcDbEntity
  8
ﾊｯﾁﾝｸ
 62
     4
100
AcDbLine
 10
159.7009660220972
 20
176.0628257331208
 30
0.0
 11
160.8620602055865
 21
178.0738998512969
 31
0.0
  0
LINE
  5
AA4
330
18
100
AcDbEntity
  8
ﾊｯﾁﾝｸ
 62
     4
100
AcDbLine
 10
161.2905449937742
 20
173.062825733121
 30
0.0
 11
159.7009660220973
 21
175.8160572747087
 31
0.0
  0
LINE
  5
AA5
330
18
100
AcDbEntity
  8
ﾊｯﾁﾝｸ
 62
     4
100
AcDbLine
 10
160.1294508102851
 20
173.0738998512969
 30
0.0
 11
159.7009660220973
 21
173.8160572747086
 31
0.0
  0
LINE
  5
AA6
330
18
100
AcDbEntity
  8
ﾊｯﾁﾝｸ
 62
     4
100
AcDbLine
 10
159.7009660220973
 20
174.062825733121
 30
0.0
 11
162.0167607439658
 21
178.0738998512969
 31
0.0
  0
LINE
  5
AA7
330
18
100
AcDbEntity
  8
ﾊｯﾁﾝｸ
 62
     4
100
AcDbLine
 10
162.4388518870435
 20
173.0738998512969
 30
0.0
 11
159.7009660220972
 21
177.8160572747085
 31
0.0
  0
LINE
  5
AA8
330
18
100
AcDbEntity
  8
外形線
100
AcDbLine
 10
159.7009660220973
 20
173.0738998512969
 30
0.0
 11
160.2009660220973
 21
172.5738998512969
 31
0.0
  0
LINE
  5
AA9
330
18
100
AcDbEntity
  8
外形線
100
AcDbLine
 10
159.7009660220973
 20
172.5738998512969
 30
0.0
 11
166.7009660220973
 21
172.5738998512969
 31
0.0
  0
LINE
  5
AAA
330
18
100
AcDbEntity
  8
外形線
100
AcDbLine
 10
159.7009660220973
 20
173.0738998512969
 30
0.0
 11
166.7009660220973
 21
173.0738998512969
 31
0.0
  0
LINE
  5
AAB
330
18
100
AcDbEntity
  8
外形線
100
AcDbLine
 10
159.7009660220972
 20
178.0738998512969
 30
0.0
 11
166.7009660220972
 21
178.0738998512969
 31
0.0
  0
ARC
  5
AAC
330
18
100
AcDbEntity
  8
外形線
100
AcDbCircle
 10
163.2009660220973
 20
166.073899851297
 30
0.0
 40
12.49999999999989
100
AcDbArc
 50
73.73979529168789
 51
106.2602047083121
  0
LINE
  5
AAD
330
18
100
AcDbEntity
  8
外形線
100
AcDbLine
 10
159.7009660220972
 20
178.0738998512969
 30
0.0
 11
159.7009660220973
 21
173.0738998512969
 31
0.0
  0
ARC
  5
AAE
330
18
100
AcDbEntity
  8
外形線
100
AcDbCircle
 10
159.7009660220973
 20
172.0738998512969
 30
0.0
 40
0.5
100
AcDbArc
 50
90.0
 51
180.0
  0
LINE
  5
AAF
330
18
100
AcDbEntity
  8
外形線
100
AcDbLine
 10
159.2009660220973
 20
172.0738998512969
 30
0.0
 11
159.2009660220972
 21
170.582421478295
 31
0.0
  0
LINE
  5
AB0
330
18
100
AcDbEntity
  8
外形線
100
AcDbLine
 10
159.7009660220971
 20
178.0628257331208
 30
0.0
 11
159.7073596672072
 21
178.073899851297
 31
0.0
  0
LINE
  5
AB1
330
18
100
AcDbEntity
  8
外形線
100
AcDbLine
 10
166.7009660220972
 20
178.0738998512969
 30
0.0
 11
166.7009660220973
 21
173.0738998512969
 31
0.0
  0
LINE
  5
AB2
330
18
100
AcDbEntity
  8
ﾊｯﾁﾝｸ
 62
     4
100
AcDbLine
 10
163.2009660220973
 20
175.7538794482174
 30
0.0
 11
161.8615016178538
 21
178.0738998512969
 31
0.0
  0
LINE
  5
AB3
330
18
100
AcDbEntity
  8
ﾊｯﾁﾝｸ
 62
     4
100
AcDbLine
 10
160.2847099363968
 20
173.0738998512969
 30
0.0
 11
163.1714612823449
 21
178.073899851297
 31
0.0
  0
LINE
  5
AB4
330
18
100
AcDbEntity
  8
ﾊｯﾁﾝｸ
 62
     4
100
AcDbLine
 10
163.2009660220973
 20
173.7538794482173
 30
0.0
 11
160.7068010794746
 21
178.0738998512969
 31
0.0
  0
LINE
  5
AB5
330
18
100
AcDbEntity
  8
ﾊｯﾁﾝｸ
 62
     4
100
AcDbLine
 10
162.5941110131553
 20
173.0738998512969
 30
0.0
 11
163.2009660220973
 21
174.1250035596121
 31
0.0
  0
LINE
  5
AB6
330
18
100
AcDbEntity
  8
ﾊｯﾁﾝｸ
 62
     4
100
AcDbLine
 10
161.4330168296661
 20
173.062825733121
 30
0.0
 11
163.2009660220973
 21
176.1250035596122
 31
0.0
  0
ARC
  5
AB7
330
18
100
AcDbEntity
  8
外形線
100
AcDbCircle
 10
166.7009660220973
 20
172.0738998512969
 30
0.0
 40
0.5
100
AcDbArc
 50
0.0
 51
90.0
  0
LINE
  5
AB8
330
18
100
AcDbEntity
  8
外形線
100
AcDbLine
 10
167.2009660220973
 20
172.0738998512969
 30
0.0
 11
167.2009660220973
 21
170.582421478295
 31
0.0
  0
LINE
  5
AB9
330
18
100
AcDbEntity
  8
外形線
100
AcDbLine
 10
166.2009660220973
 20
172.5738998512969
 30
0.0
 11
166.7009660220973
 21
173.0738998512969
 31
0.0
  0
POINT
  5
ABA
330
18
100
AcDbEntity
  8
DEFPOINTS
  6
ByBlock
 62
     0
100
AcDbPoint
 10
163.2009660220973
 20
178.5738998512969
 30
0.0
  0
LINE
  5
ABB
330
18
100
AcDbEntity
  8
ﾊｯﾁﾝｸ
 62
     4
100
AcDbLine
 10
163.2009660220973
 20
177.7538794482173
 30
0.0
 11
163.0162021562331
 21
178.0738998512969
 31
0.0
  0
LINE
  5
ABD
330
18
100
AcDbEntity
  8
目盛
100
AcDbLine
 10
190.1644841128566
 20
148.2495118791525
 30
0.0
 11
187.607598776664
 21
147.2371693592696
 31
0.0
  0
LINE
  5
ABE
330
18
100
AcDbEntity
  8
目盛
100
AcDbLine
 10
189.4409505436119
 20
149.921499306684
 30
0.0
 11
186.9526761493303
 21
148.75060625488
 31
0.0
  0
LINE
  5
ABF
330
18
100
AcDbEntity
  8
目盛
100
AcDbLine
 10
190.7816049946567
 20
146.5353926881704
 30
0.0
 11
186.2640865422547
 21
145.0675619648893
 31
0.0
  0
LINE
  5
AC0
330
18
100
AcDbEntity
  8
目盛
100
AcDbLine
 10
191.2898776948275
 20
144.7859065790777
 30
0.0
 11
188.6262740017238
 21
144.1020093893743
 31
0.0
  0
TEXT
  5
AC1
330
18
100
AcDbEntity
  8
文字
100
AcDbText
 10
172.7312700262021
 20
152.9457204202183
 30
0.0
 40
3.0
  1
90
  7
STYLE3
100
AcDbText
  0
LINE
  5
AC2
330
18
100
AcDbEntity
  8
目盛
100
AcDbLine
 10
185.5458500625951
 20
156.0591955540089
 30
0.0
 11
183.4269386449617
 21
154.3062795822
 31
0.0
  0
LINE
  5
AC3
102
{ACAD_REACTORS
330
A37
102
}
330
18
100
AcDbEntity
  8
ROGO
 62
     4
100
AcDbLine
 10
170.4306496658564
 20
146.9388664924034
 30
0.0
 11
170.3189443589354
 21
146.7148430835818
 31
0.0
  0
LINE
  5
AC4
102
{ACAD_REACTORS
330
A37
102
}
330
18
100
AcDbEntity
  8
ROGO
 62
     4
100
AcDbLine
 10
170.3189443589354
 20
146.7148430835818
 30
0.0
 11
170.6729574420142
 21
146.9388664924034
 31
0.0
  0
LINE
  5
AC5
102
{ACAD_REACTORS
330
A37
102
}
330
18
100
AcDbEntity
  8
ROGO
 62
     4
100
AcDbLine
 10
170.186115896683
 20
145.9129270999504
 30
0.0
 11
170.6976824125179
 21
144.8869877074974
 31
0.0
  0
LINE
  5
AC6
102
{ACAD_REACTORS
330
A37
102
}
330
18
100
AcDbEntity
  8
ROGO
 62
     4
100
AcDbLine
 10
170.186115896683
 20
145.9129270999504
 30
0.0
 11
171.4290246420143
 21
146.9388664924034
 31
0.0
  0
LINE
  5
AC7
102
{ACAD_REACTORS
330
A37
102
}
330
18
100
AcDbEntity
  8
ROGO
 62
     4
100
AcDbLine
 10
170.6729574420142
 20
146.9388664924034
 30
0.0
 11
171.4290246420143
 21
146.9388664924034
 31
0.0
  0
LINE
  5
AC8
102
{ACAD_REACTORS
330
A37
102
}
330
18
100
AcDbEntity
  8
ROGO
 62
     4
100
AcDbLine
 10
169.9416152125179
 20
144.8869877074974
 30
0.0
 11
170.6976824125179
 21
144.8869877074974
 31
0.0
  0
TEXT
  5
AC9
330
18
100
AcDbEntity
  8
文字
100
AcDbText
 10
173.0991172117656
 20
150.2252063187767
 30
0.0
 40
1.5
  1
10
  7
STYLE3
100
AcDbText
  0
TEXT
  5
ACA
330
18
100
AcDbEntity
  8
文字
100
AcDbText
 10
179.8880369254298
 20
142.7857958512445
 30
0.0
 40
3.0
  1
80
  7
STYLE3
100
AcDbText
  0
LINE
  5
ACB
330
18
100
AcDbEntity
  8
目盛
100
AcDbLine
 10
186.6624588589708
 20
154.6196721677786
 30
0.0
 11
182.8196281356897
 21
151.8276922193894
 31
0.0
  0
LINE
  5
ACC
330
18
100
AcDbEntity
  8
目盛
100
AcDbLine
 10
188.6138597433694
 20
151.5447564002466
 30
0.0
 11
186.2040163732487
 21
150.2199337964668
 31
0.0
  0
LINE
  5
ACD
330
18
100
AcDbEntity
  8
目盛
100
AcDbLine
 10
187.6864758616557
 20
153.1128769056878
 30
0.0
 11
185.3645740665252
 21
151.6393532194955
 31
0.0
  0
LINE
  5
ACE
330
18
100
AcDbEntity
  8
目盛
100
AcDbLine
 10
180.246738338579
 20
161.0353926881704
 30
0.0
 11
177.4547583901897
 21
157.1925619648894
 31
0.0
  0
LINE
  5
ACF
330
18
100
AcDbEntity
  8
目盛
100
AcDbLine
 10
172.1624588589708
 20
165.1545388238563
 30
0.0
 11
170.6946281356898
 21
160.6370203714544
 31
0.0
  0
LINE
  5
AD0
330
18
100
AcDbEntity
  8
目盛
100
AcDbLine
 10
177.1718225710471
 20
162.986793572569
 30
0.0
 11
175.8469999672673
 21
160.5769502024483
 31
0.0
  0
LINE
  5
AD1
330
18
100
AcDbEntity
  8
目盛
100
AcDbLine
 10
175.5485654774845
 20
163.8138843728115
 30
0.0
 11
174.3776724256805
 21
161.3256099785299
 31
0.0
  0
LINE
  5
AD2
330
18
100
AcDbEntity
  8
目盛
100
AcDbLine
 10
173.8765780499529
 20
164.5374179420562
 30
0.0
 11
172.8642355300701
 21
161.9805326058635
 31
0.0
  0
LINE
  5
AD3
330
18
100
AcDbEntity
  8
目盛
100
AcDbLine
 10
178.7399430764882
 20
162.0594096908553
 30
0.0
 11
177.266419390296
 21
159.7375078957248
 31
0.0
  0
LINE
  5
AD4
330
18
100
AcDbEntity
  8
目盛
100
AcDbLine
 10
170.4129727498781
 20
165.6628115240271
 30
0.0
 11
169.7290755601747
 21
162.9992078309235
 31
0.0
  0
LINE
  5
AD5
330
18
100
AcDbEntity
  8
目盛
100
AcDbLine
 10
184.3410562173182
 20
157.4257659232288
 30
0.0
 11
182.3363924919093
 21
155.543261381925
 31
0.0
  0
LINE
  5
AD6
330
18
100
AcDbEntity
  8
目盛
100
AcDbLine
 10
183.0528320940293
 20
158.7139900465179
 30
0.0
 11
181.1703275527253
 21
156.7093263211089
 31
0.0
  0
LINE
  5
AD7
330
18
100
AcDbEntity
  8
目盛
100
AcDbLine
 10
181.6862617248092
 20
159.9187838917948
 30
0.0
 11
179.9333457530004
 21
157.7998724741613
 31
0.0
  0
LINE
  5
AD8
330
18
100
AcDbEntity
  8
目盛
100
AcDbLine
 10
191.6872962932293
 20
143.0079579742828
 30
0.0
 11
188.9860063537253
 21
142.4926593591721
 31
0.0
  0
LINE
  5
ADC
330
18
100
AcDbEntity
  8
外形線
100
AcDbLine
 10
45.01056968042613
 20
172.0738998512969
 30
0.0
 11
45.01056968042613
 21
168.823899851297
 31
0.0
  0
LINE
  5
ADD
330
18
100
AcDbEntity
  8
外形線
100
AcDbLine
 10
48.66056968042599
 20
170.5738998512969
 30
0.0
 11
48.66056968042599
 21
169.4738998512969
 31
0.0
  0
LINE
  5
ADE
330
18
100
AcDbEntity
  8
外形線
 62
     4
100
AcDbLine
 10
52.46056968042594
 20
164.623899851297
 30
0.0
 11
48.66056968042599
 21
164.623899851297
 31
0.0
  0
LINE
  5
ADF
330
18
100
AcDbEntity
  8
外形線
 62
     4
100
AcDbLine
 10
52.46056968042594
 20
166.0238998512969
 30
0.0
 11
48.66056968042599
 21
166.0238998512969
 31
0.0
  0
LINE
  5
AE0
330
18
100
AcDbEntity
  8
外形線
 62
     4
100
AcDbLine
 10
52.46056968042594
 20
167.4238998512969
 30
0.0
 11
48.66056968042599
 21
167.4238998512969
 31
0.0
  0
LINE
  5
AE1
330
18
100
AcDbEntity
  8
外形線
 62
     4
100
AcDbLine
 10
52.46056968042594
 20
168.6238998512968
 30
0.0
 11
48.66056968042599
 21
168.6238998512969
 31
0.0
  0
LINE
  5
AE2
330
18
100
AcDbEntity
  8
外形線
 62
     4
100
AcDbLine
 10
52.46056968042594
 20
169.8238998512969
 30
0.0
 11
48.66056968042599
 21
169.8238998512969
 31
0.0
  0
LINE
  5
AE3
330
18
100
AcDbEntity
  8
外形線
100
AcDbLine
 10
53.66056968042599
 20
168.5238998512968
 30
0.0
 11
52.46056968042594
 21
169.5738998512969
 31
0.0
  0
LINE
  5
AE4
330
18
100
AcDbEntity
  8
外形線
100
AcDbLine
 10
48.66056968042599
 20
169.4738998512969
 30
0.0
 11
47.96056968042594
 21
169.4738998512969
 31
0.0
  0
LINE
  5
AE6
330
18
100
AcDbEntity
  8
外形線
100
AcDbLine
 10
44.51056968042613
 20
178.0738998512969
 30
0.0
 11
44.51056968042613
 21
173.0738998512969
 31
0.0
  0
LINE
  5
AE7
330
18
100
AcDbEntity
  8
外形線
100
AcDbLine
 10
52.21056968042595
 20
170.8238998512969
 30
0.0
 11
48.91056968042599
 21
170.8238998512969
 31
0.0
  0
POINT
  5
AE8
330
18
100
AcDbEntity
  8
DEFPOINTS
  6
ByBlock
 62
     0
100
AcDbPoint
 10
52.21056968042595
 20
170.8238998512969
 30
0.0
  0
LINE
  5
AE9
330
18
100
AcDbEntity
  8
外形線
100
AcDbLine
 10
52.46056968042594
 20
170.5738998512969
 30
0.0
 11
52.21056968042595
 21
170.8238998512969
 31
0.0
  0
ARC
  5
AEA
330
18
100
AcDbEntity
  8
外形線
100
AcDbCircle
 10
44.51056968042613
 20
172.0738998512969
 30
0.0
 40
0.5
100
AcDbArc
 50
0.000000000000007
 51
90.0
  0
LINE
  5
AEB
330
18
100
AcDbEntity
  8
外形線
100
AcDbLine
 10
48.91056968042599
 20
170.8238998512969
 30
0.0
 11
48.66056968042599
 21
170.5738998512969
 31
0.0
  0
LINE
  5
AEC
330
18
100
AcDbEntity
  8
外形線
100
AcDbLine
 10
44.51056968042624
 20
178.0628257331208
 30
0.0
 11
44.50417603531619
 21
178.073899851297
 31
0.0
  0
LINE
  5
AF1
330
18
100
AcDbEntity
  8
外形線
100
AcDbLine
 10
33.31056968042608
 20
167.3738998512968
 30
0.0
 11
33.31056968042608
 21
107.7738998512968
 31
0.0
  0
LINE
  5
AF2
330
18
100
AcDbEntity
  8
外形線
100
AcDbLine
 10
33.51056968042602
 20
168.823899851297
 30
0.0
 11
33.51056968042613
 21
106.3238998512969
 31
0.0
  0
LINE
  5
AFD
330
18
100
AcDbEntity
  8
外形線
100
AcDbLine
 10
45.0105696804261
 20
106.3238998512969
 30
0.0
 11
45.01056968042614
 21
99.57389985129694
 31
0.0
  0
POINT
  5
AFE
330
18
100
AcDbEntity
  8
DEFPOINTS
  6
ByBlock
 62
     0
100
AcDbPoint
 10
33.51056968042613
 20
106.3238998512969
 30
0.0
  0
LINE
  5
AFF
330
18
100
AcDbEntity
  8
外形線
100
AcDbLine
 10
33.51056968042613
 20
107.7738998512968
 30
0.0
 11
33.31056968042608
 21
107.7738998512968
 31
0.0
  0
LINE
  5
B04
330
18
100
AcDbEntity
  8
外形線
100
AcDbLine
 10
37.01056968042613
 20
172.0738998512969
 30
0.0
 11
37.01056968042613
 21
168.823899851297
 31
0.0
  0
POINT
  5
B06
330
18
100
AcDbEntity
  8
DEFPOINTS
  6
ByBlock
 62
     0
100
AcDbPoint
 10
33.51056968042602
 20
168.823899851297
 30
0.0
  0
POINT
  5
B07
330
18
100
AcDbEntity
  8
DEFPOINTS
  6
ByBlock
 62
     0
100
AcDbPoint
 10
33.51056968042602
 20
168.823899851297
 30
0.0
  0
LINE
  5
B08
330
18
100
AcDbEntity
  8
外形線
100
AcDbLine
 10
33.51056968042613
 20
167.3738998512968
 30
0.0
 11
33.31056968042608
 21
167.3738998512968
 31
0.0
  0
LINE
  5
B0B
330
18
100
AcDbEntity
  8
ﾊｯﾁﾝｸ
 62
     4
100
AcDbLine
 10
41.01056968042612
 20
175.7538794482174
 30
0.0
 11
42.3500340846696
 21
178.0738998512969
 31
0.0
  0
LINE
  5
B0C
330
18
100
AcDbEntity
  8
ﾊｯﾁﾝｸ
 62
     4
100
AcDbLine
 10
41.01056968042601
 20
173.7538794482173
 30
0.0
 11
43.50473462304878
 21
178.0738998512969
 31
0.0
  0
LINE
  5
B0D
330
18
100
AcDbEntity
  8
ﾊｯﾁﾝｸ
 62
     4
100
AcDbLine
 10
43.92682576612665
 20
173.0738998512969
 30
0.0
 11
41.04007442017851
 21
178.073899851297
 31
0.0
  0
LINE
  5
B0E
330
18
100
AcDbEntity
  8
外形線
100
AcDbLine
 10
37.51056968042613
 20
178.0738998512969
 30
0.0
 11
37.51056968042613
 21
173.0738998512969
 31
0.0
  0
LINE
  5
B0F
330
18
100
AcDbEntity
  8
ﾊｯﾁﾝｸ
 62
     4
100
AcDbLine
 10
41.61742468936805
 20
173.0738998512969
 30
0.0
 11
41.01056968042612
 21
174.1250035596121
 31
0.0
  0
LINE
  5
B10
330
18
100
AcDbEntity
  8
ﾊｯﾁﾝｸ
 62
     4
100
AcDbLine
 10
42.77851887285729
 20
173.062825733121
 30
0.0
 11
41.01056968042601
 21
176.1250035596122
 31
0.0
  0
LINE
  5
B11
330
18
100
AcDbEntity
  8
外形線
100
AcDbLine
 10
38.01056968042613
 20
172.5738998512969
 30
0.0
 11
37.51056968042613
 21
173.0738998512969
 31
0.0
  0
ARC
  5
B12
330
18
100
AcDbEntity
  8
外形線
100
AcDbCircle
 10
37.51056968042613
 20
172.0738998512969
 30
0.0
 40
0.5
100
AcDbArc
 50
90.0
 51
180.0
  0
POINT
  5
B13
330
18
100
AcDbEntity
  8
DEFPOINTS
  6
ByBlock
 62
     0
100
AcDbPoint
 10
41.01056968042612
 20
178.5738998512969
 30
0.0
  0
POINT
  5
B14
330
18
100
AcDbEntity
  8
DEFPOINTS
  6
ByBlock
 62
     0
100
AcDbPoint
 10
41.01056968042612
 20
178.5738998512969
 30
0.0
  0
LINE
  5
B15
330
18
100
AcDbEntity
  8
ﾊｯﾁﾝｸ
 62
     4
100
AcDbLine
 10
41.01056968042612
 20
177.7538794482173
 30
0.0
 11
41.19533354629029
 21
178.0738998512969
 31
0.0
  0
CIRCLE
  5
B28
330
18
100
AcDbEntity
  8
外形線
100
AcDbCircle
 10
154.7009660220973
 20
93.97389985129693
 30
0.0
 40
8.0
  0
LINE
  5
B29
330
18
100
AcDbEntity
  8
外形線
100
AcDbLine
 10
160.4141087649315
 20
99.57389985129694
 30
0.0
 11
169.2009660220973
 21
99.57389985129694
 31
0.0
  0
LINE
  5
B2B
330
18
100
AcDbEntity
  8
外形線
100
AcDbLine
 10
160.4141087649316
 20
88.37389985129695
 30
0.0
 11
169.2009660220973
 21
88.37389985129693
 31
0.0
  0
LINE
  5
B2C
330
18
100
AcDbEntity
  8
外形線
100
AcDbLine
 10
48.0105696804261
 20
56.5738998512969
 30
0.0
 11
34.0105696804261
 21
56.57389985129691
 31
0.0
  0
LINE
  5
B2D
330
18
100
AcDbEntity
  8
外形線
100
AcDbLine
 10
48.0105696804261
 20
72.57389985129693
 30
0.0
 11
34.01056968042609
 21
72.57389985129693
 31
0.0
  0
LINE
  5
B2E
330
18
100
AcDbEntity
  8
中心線
100
AcDbLine
 10
41.01056968042612
 20
181.1216289364658
 30
0.0
 11
41.01056968042608
 21
33.93177839079033
 31
0.0
  0
LINE
  5
B2F
330
18
100
AcDbEntity
  8
外形線
100
AcDbLine
 10
48.0105696804261
 20
72.57389985129693
 30
0.0
 11
48.0105696804261
 21
56.5738998512969
 31
0.0
  0
LINE
  5
B30
330
18
100
AcDbEntity
  8
外形線
100
AcDbLine
 10
34.01056968042609
 20
72.57389985129693
 30
0.0
 11
34.0105696804261
 21
56.57389985129691
 31
0.0
  0
LINE
  5
B31
330
18
100
AcDbEntity
  8
外形線
100
AcDbLine
 10
48.0105696804261
 20
67.75399910749273
 30
0.0
 11
34.01056968042609
 21
67.75399910749273
 31
0.0
  0
LINE
  5
B32
330
18
100
AcDbEntity
  8
外形線
100
AcDbLine
 10
46.5105696804261
 20
77.5738998512969
 30
0.0
 11
41.01056968042607
 21
77.5738998512969
 31
0.0
  0
LINE
  5
B33
330
18
100
AcDbEntity
  8
外形線
100
AcDbLine
 10
41.01056968042612
 20
76.57389985129693
 30
0.0
 11
47.51056968042607
 21
76.5738998512969
 31
0.0
  0
LINE
  5
B34
330
18
100
AcDbEntity
  8
外形線
100
AcDbLine
 10
34.5105696804261
 20
76.5738998512969
 30
0.0
 11
34.5105696804261
 21
72.57389985129691
 31
0.0
  0
LINE
  5
B35
330
18
100
AcDbEntity
  8
外形線
100
AcDbLine
 10
35.5105696804261
 20
77.5738998512969
 30
0.0
 11
41.01056968042612
 21
77.5738998512969
 31
0.0
  0
LINE
  5
B36
330
18
100
AcDbEntity
  8
外形線
100
AcDbLine
 10
41.01056968042607
 20
76.57389985129693
 30
0.0
 11
34.51056968042613
 21
76.5738998512969
 31
0.0
  0
LINE
  5
B37
330
18
100
AcDbEntity
  8
外形線
100
AcDbLine
 10
35.5105696804261
 20
77.57389985129687
 30
0.0
 11
34.5105696804261
 21
76.5738998512969
 31
0.0
  0
LINE
  5
B38
330
18
100
AcDbEntity
  8
外形線
100
AcDbLine
 10
47.5105696804261
 20
76.5738998512969
 30
0.0
 11
47.5105696804261
 21
72.57389985129691
 31
0.0
  0
LINE
  5
B39
330
18
100
AcDbEntity
  8
外形線
100
AcDbLine
 10
46.5105696804261
 20
77.57389985129687
 30
0.0
 11
47.5105696804261
 21
76.5738998512969
 31
0.0
  0
LINE
  5
B3A
330
18
100
AcDbEntity
  8
外形線
100
AcDbLine
 10
46.5105696804261
 20
88.37389985129693
 30
0.0
 11
46.5105696804261
 21
77.57389985129688
 31
0.0
  0
LINE
  5
B3B
330
18
100
AcDbEntity
  8
外形線
100
AcDbLine
 10
35.51056968042609
 20
88.37389985129693
 30
0.0
 11
35.5105696804261
 21
77.57389985129688
 31
0.0
  0
LINE
  5
B3C
330
18
100
AcDbEntity
  8
外形線
100
AcDbLine
 10
47.01056968042609
 20
88.37389985129693
 30
0.0
 11
41.5105696804261
 21
88.37389985129693
 31
0.0
  0
LINE
  5
BAD
330
18
100
AcDbEntity
  8
外形線
100
AcDbLine
 10
47.01056968042609
 20
99.57389985129696
 30
0.0
 11
47.01056968042609
 21
88.37389985129693
 31
0.0
  0
LINE
  5
BAE
330
18
100
AcDbEntity
  8
外形線
100
AcDbLine
 10
35.0105696804261
 20
99.57389985129694
 30
0.0
 11
35.0105696804261
 21
88.37389985129693
 31
0.0
  0
LINE
  5
BAF
330
18
100
AcDbEntity
  8
外形線
100
AcDbLine
 10
47.01056968042609
 20
99.57389985129696
 30
0.0
 11
41.5105696804261
 21
99.57389985129696
 31
0.0
  0
LINE
  5
BB0
330
18
100
AcDbEntity
  8
外形線
100
AcDbLine
 10
41.51056968042609
 20
84.57389985129694
 30
0.0
 11
40.5105696804261
 21
84.57389985129694
 31
0.0
  0
LINE
  5
BB1
330
18
100
AcDbEntity
  8
外形線
100
AcDbLine
 10
41.5105696804261
 20
99.57389985129696
 30
0.0
 11
41.51056968042609
 21
84.57389985129694
 31
0.0
  0
LINE
  5
BB2
330
18
100
AcDbEntity
  8
外形線
100
AcDbLine
 10
40.5105696804261
 20
99.57389985129696
 30
0.0
 11
40.5105696804261
 21
84.57389985129694
 31
0.0
  0
LINE
  5
BB3
330
18
100
AcDbEntity
  8
外形線
100
AcDbLine
 10
40.51056968042611
 20
99.57389985129694
 30
0.0
 11
35.0105696804261
 21
99.57389985129694
 31
0.0
  0
LINE
  5
BB4
330
18
100
AcDbEntity
  8
外形線
100
AcDbLine
 10
40.5105696804261
 20
88.37389985129693
 30
0.0
 11
35.0105696804261
 21
88.37389985129693
 31
0.0
  0
LINE
  5
BB5
330
18
100
AcDbEntity
  8
外形線
100
AcDbLine
 10
54.0105696804262
 20
101.473899851297
 30
0.0
 11
54.01056968042575
 21
89.47389985129692
 31
0.0
  0
LINE
  5
BB6
330
18
100
AcDbEntity
  8
外形線
100
AcDbLine
 10
54.51056968042609
 20
85.97389985129693
 30
0.0
 11
54.51056968042609
 21
101.973899851297
 31
0.0
  0
LINE
  5
BB7
330
18
100
AcDbEntity
  8
外形線
100
AcDbLine
 10
58.01056968042609
 20
85.97389985129693
 30
0.0
 11
58.01056968042609
 21
101.973899851297
 31
0.0
  0
LINE
  5
BB8
330
18
100
AcDbEntity
  8
外形線
100
AcDbLine
 10
58.51056968042609
 20
86.47389985129692
 30
0.0
 11
58.51056968042609
 21
101.473899851297
 31
0.0
  0
LINE
  5
BB9
330
18
100
AcDbEntity
  8
外形線
100
AcDbLine
 10
58.01056968042609
 20
101.973899851297
 30
0.0
 11
54.51056968042609
 21
101.9738998512969
 31
0.0
  0
LINE
  5
BBA
330
18
100
AcDbEntity
  8
外形線
100
AcDbLine
 10
58.51056968042609
 20
101.473899851297
 30
0.0
 11
58.01056968042609
 21
101.973899851297
 31
0.0
  0
ARC
  5
BBB
330
18
100
AcDbEntity
  8
外形線
100
AcDbCircle
 10
53.01056968042609
 20
98.473899851297
 30
0.0
 40
1.0
100
AcDbArc
 50
270.0
 51
359.9999999999996
  0
LINE
  5
BBC
330
18
100
AcDbEntity
  8
外形線
100
AcDbLine
 10
54.51056968042609
 20
101.9738998512969
 30
0.0
 11
54.0105696804261
 21
101.4738998512969
 31
0.0
  0
LINE
  5
BBD
330
18
100
AcDbEntity
  8
外形線
 62
     4
100
AcDbLine
 10
54.51056968042609
 20
101.4222731231095
 30
0.0
 11
55.46601520045987
 21
101.973899851297
 31
0.0
  0
LINE
  5
BBE
330
18
100
AcDbEntity
  8
外形線
 62
     4
100
AcDbLine
 10
54.51056968042609
 20
100.2675725847303
 30
0.0
 11
57.46601520045976
 21
101.973899851297
 31
0.0
  0
LINE
  5
BBF
330
18
100
AcDbEntity
  8
外形線
 62
     4
100
AcDbLine
 10
58.01056968042609
 20
101.3937114522177
 30
0.0
 11
57.00565389525877
 21
101.973899851297
 31
0.0
  0
LINE
  5
BC0
330
18
100
AcDbEntity
  8
外形線
 62
     4
100
AcDbLine
 10
58.01056968042609
 20
100.2390109138384
 30
0.0
 11
55.00565389525877
 21
101.973899851297
 31
0.0
  0
LINE
  5
BC1
330
18
100
AcDbEntity
  8
外形線
100
AcDbLine
 10
54.51056968042621
 20
85.97389985129698
 30
0.0
 11
54.0105696804262
 21
86.47389985129697
 31
0.0
  0
LINE
  5
BC2
330
18
100
AcDbEntity
  8
外形線
100
AcDbLine
 10
58.51056968042609
 20
86.47389985129692
 30
0.0
 11
58.01056968042609
 21
85.97389985129693
 31
0.0
  0
LINE
  5
BC3
330
18
100
AcDbEntity
  8
外形線
 62
     4
100
AcDbLine
 10
54.51056968042609
 20
99.11287204635105
 30
0.0
 11
58.01056968042609
 21
101.1335979885147
 31
0.0
  0
LINE
  5
BC4
330
18
100
AcDbEntity
  8
外形線
 62
     4
100
AcDbLine
 10
54.51056968042609
 20
94.49406989283406
 30
0.0
 11
58.01056968042609
 21
96.51479583499785
 31
0.0
  0
LINE
  5
BC5
330
18
100
AcDbEntity
  8
外形線
 62
     4
100
AcDbLine
 10
54.51056968042609
 20
95.64877043121331
 30
0.0
 11
58.01056968042621
 21
97.66949637337697
 31
0.0
  0
LINE
  5
BC6
330
18
100
AcDbEntity
  8
外形線
 62
     4
100
AcDbLine
 10
54.51056968042609
 20
96.80347096959255
 30
0.0
 11
58.01056968042609
 21
98.82419691175639
 31
0.0
  0
LINE
  5
BC7
330
18
100
AcDbEntity
  8
外形線
 62
     4
100
AcDbLine
 10
54.51056968042609
 20
97.95817150797169
 30
0.0
 11
58.01056968042609
 21
99.97889745013536
 31
0.0
  0
LINE
  5
BC8
330
18
100
AcDbEntity
  8
外形線
 62
     4
100
AcDbLine
 10
58.01056968042621
 20
99.08431037545918
 30
0.0
 11
54.51056968042609
 21
101.1050363176229
 31
0.0
  0
LINE
  5
BC9
330
18
100
AcDbEntity
  8
外形線
 62
     4
100
AcDbLine
 10
58.01056968042621
 20
97.92960983707999
 30
0.0
 11
54.51056968042609
 21
99.95033577924367
 31
0.0
  0
LINE
  5
BCA
330
18
100
AcDbEntity
  8
外形線
 62
     4
100
AcDbLine
 10
58.01056968042609
 20
96.77490929870074
 30
0.0
 11
54.51056968042609
 21
98.79563524086448
 31
0.0
  0
LINE
  5
BCB
330
18
100
AcDbEntity
  8
外形線
 62
     4
100
AcDbLine
 10
58.01056968042609
 20
95.6202087603215
 30
0.0
 11
54.51056968042609
 21
97.64093470248523
 31
0.0
  0
LINE
  5
BCC
330
18
100
AcDbEntity
  8
外形線
 62
     4
100
AcDbLine
 10
58.01056968042609
 20
94.46550822194231
 30
0.0
 11
54.51056968042609
 21
96.48623416410599
 31
0.0
  0
LINE
  5
BCD
330
18
100
AcDbEntity
  8
外形線
 62
     4
100
AcDbLine
 10
56.86206035581005
 20
93.97389985129697
 30
0.0
 11
54.51056968042609
 21
95.33153362572679
 31
0.0
  0
LINE
  5
BCE
330
18
100
AcDbEntity
  8
外形線
 62
     4
100
AcDbLine
 10
57.60960873990836
 20
93.97389985129697
 30
0.0
 11
58.01056968042609
 21
94.20539475823947
 31
0.0
  0
LINE
  5
BCF
330
18
100
AcDbEntity
  8
外形線
 62
     4
100
AcDbLine
 10
55.60960873990836
 20
93.97389985129697
 30
0.0
 11
58.01056968042598
 21
95.36009529661859
 31
0.0
  0
LINE
  5
BD0
330
18
100
AcDbEntity
  8
外形線
 62
     4
100
AcDbLine
 10
54.86206035581005
 20
93.97389985129704
 30
0.0
 11
54.51056968042609
 21
94.17683308734755
 31
0.0
  0
ARC
  5
BD1
330
18
100
AcDbEntity
  8
外形線
100
AcDbCircle
 10
53.01056968042609
 20
89.47389985129699
 30
0.0
 40
1.0
100
AcDbArc
 50
0.0000000000003997
 51
90.0
  0
LINE
  5
BD2
330
18
100
AcDbEntity
  8
外形線
100
AcDbLine
 10
54.0105696804262
 20
86.47389985129697
 30
0.0
 11
54.0105696804261
 21
89.47389985129698
 31
0.0
  0
LINE
  5
BD3
330
18
100
AcDbEntity
  8
外形線
100
AcDbLine
 10
58.01056968042609
 20
85.97389985129693
 30
0.0
 11
54.51056968042621
 21
85.97389985129698
 31
0.0
  0
LINE
  5
BD4
330
18
100
AcDbEntity
  8
外形線
100
AcDbLine
 10
47.51056968042598
 20
89.97389985129691
 30
0.0
 11
47.51056968042598
 21
97.97389985129697
 31
0.0
  0
LINE
  5
BD5
330
18
100
AcDbEntity
  8
外形線
100
AcDbLine
 10
53.01056968042609
 20
97.47389985129698
 30
0.0
 11
48.01056968042609
 21
97.47389985129698
 31
0.0
  0
LINE
  5
BD6
330
18
100
AcDbEntity
  8
外形線
100
AcDbLine
 10
47.51056968042598
 20
97.97389985129697
 30
0.0
 11
47.01056968042609
 21
97.97389985129692
 31
0.0
  0
ARC
  5
BD7
330
18
100
AcDbEntity
  8
外形線
100
AcDbCircle
 10
48.01056968042609
 20
96.97389985129699
 30
0.0
 40
0.5
100
AcDbArc
 50
90.0
 51
180.0
  0
LINE
  5
BD8
330
18
100
AcDbEntity
  8
外形線
100
AcDbLine
 10
53.01056968042609
 20
90.47389985129697
 30
0.0
 11
48.01056968042609
 21
90.47389985129697
 31
0.0
  0
LINE
  5
BD9
330
18
100
AcDbEntity
  8
外形線
100
AcDbLine
 10
47.51056968042598
 20
89.97389985129691
 30
0.0
 11
47.01056968042609
 21
89.97389985129691
 31
0.0
  0
ARC
  5
BDA
330
18
100
AcDbEntity
  8
外形線
100
AcDbCircle
 10
48.01056968042609
 20
90.973899851297
 30
0.0
 40
0.5
100
AcDbArc
 50
180.0
 51
270.0
  0
LINE
  5
BDB
330
18
100
AcDbEntity
  8
中心線
 48
0.5
100
AcDbLine
 10
60.46967049988495
 20
93.97389985129697
 30
0.0
 11
33.41465078595184
 21
93.97389985129697
 31
0.0
  0
LINE
  5
BDD
330
18
100
AcDbEntity
  8
中心線
 48
0.5
100
AcDbLine
 10
41.5105696804261
 20
96.47389985129699
 30
0.0
 11
40.5105696804261
 21
96.47389985129699
 31
0.0
  0
LINE
  5
BDE
330
18
100
AcDbEntity
  8
中心線
 48
0.5
100
AcDbLine
 10
41.5105696804261
 20
91.47389985129697
 30
0.0
 11
40.5105696804261
 21
91.47389985129697
 31
0.0
  0
LINE
  5
BDF
330
18
100
AcDbEntity
  8
外形線
100
AcDbLine
 10
41.5105696804261
 20
95.973899851297
 30
0.0
 11
40.5105696804261
 21
95.973899851297
 31
0.0
  0
LINE
  5
BE0
330
18
100
AcDbEntity
  8
外形線
100
AcDbLine
 10
41.5105696804261
 20
91.97389985129698
 30
0.0
 11
40.5105696804261
 21
91.97389985129698
 31
0.0
  0
LINE
  5
BE2
330
18
100
AcDbEntity
  8
外形線
100
AcDbLine
 10
162.7409660220972
 20
36.57389985129692
 30
0.0
 11
163.6609660220973
 21
36.57389985129692
 31
0.0
  0
LINE
  5
BE3
330
18
100
AcDbEntity
  8
外形線
100
AcDbLine
 10
160.7009660220973
 20
41.67389985129691
 30
0.0
 11
165.7009660220972
 21
41.67389985129691
 31
0.0
  0
LINE
  5
BE4
330
18
100
AcDbEntity
  8
外形線
100
AcDbLine
 10
165.7009660220973
 20
56.5738998512969
 30
0.0
 11
165.7009660220973
 21
41.67389985129691
 31
0.0
  0
LINE
  5
BE5
330
18
100
AcDbEntity
  8
外形線
100
AcDbLine
 10
160.7009660220973
 20
56.5738998512969
 30
0.0
 11
160.7009660220973
 21
41.67389985129691
 31
0.0
  0
LINE
  5
BE8
330
18
100
AcDbEntity
  8
外形線
100
AcDbLine
 10
163.6609660220973
 20
36.57389985129692
 30
0.0
 11
165.7009660220973
 21
41.67389985129691
 31
0.0
  0
LINE
  5
BE9
330
18
100
AcDbEntity
  8
外形線
100
AcDbLine
 10
160.7009660220973
 20
41.67389985129691
 30
0.0
 11
162.7409660220973
 21
36.57389985129692
 31
0.0
  0
LINE
  5
BEA
330
18
100
AcDbEntity
  8
外形線
100
AcDbLine
 10
160.7009660220973
 20
54.57389985129691
 30
0.0
 11
165.7009660220973
 21
54.57389985129691
 31
0.0
  0
LINE
  5
BEB
330
18
100
AcDbEntity
  8
外形線
100
AcDbLine
 10
160.7009660220973
 20
48.57389985129692
 30
0.0
 11
165.7009660220973
 21
48.57389985129692
 31
0.0
  0
LINE
  5
BEC
330
18
100
AcDbEntity
  8
ﾊｯﾁﾝｸ
 62
     4
100
AcDbLine
 10
163.0372543657831
 20
48.57389985129692
 30
0.0
 11
163.2009660220973
 21
48.85745675782436
 31
0.0
  0
LINE
  5
BED
330
18
100
AcDbEntity
  8
ﾊｯﾁﾝｸ
 62
     4
100
AcDbLine
 10
161.8825538274038
 20
48.57389985129691
 30
0.0
 11
163.2009660220973
 21
50.85745675782439
 31
0.0
  0
LINE
  5
BEE
330
18
100
AcDbEntity
  8
ﾊｯﾁﾝｸ
 62
     4
100
AcDbLine
 10
160.7009660220973
 20
48.52732973890216
 30
0.0
 11
163.2009660220973
 21
52.85745675782433
 31
0.0
  0
LINE
  5
BEF
330
18
100
AcDbEntity
  8
ﾊｯﾁﾝｸ
 62
     4
100
AcDbLine
 10
160.7009660220973
 20
50.52732973890215
 30
0.0
 11
163.0372543657831
 21
54.5738998512969
 31
0.0
  0
LINE
  5
BF0
330
18
100
AcDbEntity
  8
ﾊｯﾁﾝｸ
 62
     4
100
AcDbLine
 10
160.7009660220973
 20
52.52732973890219
 30
0.0
 11
161.8825538274038
 21
54.57389985129691
 31
0.0
  0
LINE
  5
BF1
330
18
100
AcDbEntity
  8
ﾊｯﾁﾝｸ
 62
     4
100
AcDbLine
 10
160.7009660220973
 20
54.52732973890213
 30
0.0
 11
160.7278532890246
 21
54.5738998512969
 31
0.0
  0
LINE
  5
BF2
330
18
100
AcDbEntity
  8
ﾊｯﾁﾝｸ
 62
     4
100
AcDbLine
 10
161.3045965754677
 20
48.57389985129692
 30
0.0
 11
160.7009660220973
 21
49.61941863873546
 31
0.0
  0
LINE
  5
BF3
330
18
100
AcDbEntity
  8
ﾊｯﾁﾝｸ
 62
     4
100
AcDbLine
 10
162.459297113847
 20
48.57389985129691
 30
0.0
 11
160.7009660220973
 21
51.6194186387354
 31
0.0
  0
LINE
  5
BF4
330
18
100
AcDbEntity
  8
ﾊｯﾁﾝｸ
 62
     4
100
AcDbLine
 10
163.2009660220973
 20
49.28929161981326
 30
0.0
 11
160.7009660220973
 21
53.61941863873539
 31
0.0
  0
LINE
  5
BF5
330
18
100
AcDbEntity
  8
ﾊｯﾁﾝｸ
 62
     4
100
AcDbLine
 10
163.2009660220973
 20
51.28929161981326
 30
0.0
 11
161.3045965754677
 21
54.5738998512969
 31
0.0
  0
LINE
  5
BF6
330
18
100
AcDbEntity
  8
ﾊｯﾁﾝｸ
 62
     4
100
AcDbLine
 10
163.2009660220973
 20
53.28929161981331
 30
0.0
 11
162.459297113847
 21
54.5738998512969
 31
0.0
  0
LINE
  5
BF8
330
18
100
AcDbEntity
  8
外形線
100
AcDbLine
 10
38.51056968042609
 20
56.5738998512969
 30
0.0
 11
38.51056968042609
 21
41.67389985129691
 31
0.0
  0
LINE
  5
BF9
330
18
100
AcDbEntity
  8
外形線
100
AcDbLine
 10
43.51056968042608
 20
56.5738998512969
 30
0.0
 11
43.51056968042608
 21
41.67389985129691
 31
0.0
  0
LINE
  5
BFA
330
18
100
AcDbEntity
  8
外形線
100
AcDbLine
 10
38.51056968042609
 20
48.57389985129692
 30
0.0
 11
43.51056968042612
 21
48.57389985129692
 31
0.0
  0
LINE
  5
BFB
330
18
100
AcDbEntity
  8
外形線
100
AcDbLine
 10
38.51056968042609
 20
54.57389985129691
 30
0.0
 11
43.51056968042612
 21
54.57389985129691
 31
0.0
  0
LINE
  5
BFC
330
18
100
AcDbEntity
  8
外形線
100
AcDbLine
 10
38.51056968042609
 20
41.67389985129691
 30
0.0
 11
43.51056968042605
 21
41.67389985129691
 31
0.0
  0
LINE
  5
BFD
330
18
100
AcDbEntity
  8
外形線
100
AcDbLine
 10
41.47056968042609
 20
36.57389985129692
 30
0.0
 11
43.51056968042608
 21
41.67389985129691
 31
0.0
  0
LINE
  5
BFE
330
18
100
AcDbEntity
  8
外形線
100
AcDbLine
 10
38.51056968042609
 20
41.67389985129691
 30
0.0
 11
40.55056968042608
 21
36.57389985129692
 31
0.0
  0
LINE
  5
BFF
330
18
100
AcDbEntity
  8
外形線
100
AcDbLine
 10
40.55056968042605
 20
36.57389985129692
 30
0.0
 11
41.47056968042609
 21
36.57389985129692
 31
0.0
  0
LINE
  5
C00
330
18
100
AcDbEntity
  8
ﾊｯﾁﾝｸ
 62
     4
100
AcDbLine
 10
41.01056968042608
 20
49.28929161981326
 30
0.0
 11
38.51056968042612
 21
53.61941863873539
 31
0.0
  0
LINE
  5
C01
330
18
100
AcDbEntity
  8
ﾊｯﾁﾝｸ
 62
     4
100
AcDbLine
 10
39.69215748573261
 20
48.57389985129691
 30
0.0
 11
41.01056968042608
 21
50.85745675782439
 31
0.0
  0
LINE
  5
C02
330
18
100
AcDbEntity
  8
ﾊｯﾁﾝｸ
 62
     4
100
AcDbLine
 10
38.51056968042612
 20
48.52732973890216
 30
0.0
 11
41.01056968042608
 21
52.85745675782433
 31
0.0
  0
LINE
  5
C03
330
18
100
AcDbEntity
  8
ﾊｯﾁﾝｸ
 62
     4
100
AcDbLine
 10
40.26890077217577
 20
48.57389985129691
 30
0.0
 11
38.51056968042612
 21
51.6194186387354
 31
0.0
  0
LINE
  5
C04
330
18
100
AcDbEntity
  8
ﾊｯﾁﾝｸ
 62
     4
100
AcDbLine
 10
39.11420023379655
 20
48.57389985129692
 30
0.0
 11
38.51056968042609
 21
49.61941863873546
 31
0.0
  0
LINE
  5
C05
330
18
100
AcDbEntity
  8
ﾊｯﾁﾝｸ
 62
     4
100
AcDbLine
 10
40.84685802411188
 20
48.57389985129692
 30
0.0
 11
41.01056968042612
 21
48.85745675782436
 31
0.0
  0
LINE
  5
C06
330
18
100
AcDbEntity
  8
ﾊｯﾁﾝｸ
 62
     4
100
AcDbLine
 10
38.51056968042609
 20
50.52732973890215
 30
0.0
 11
41.01056968042608
 21
54.85745675782431
 31
0.0
  0
LINE
  5
C07
330
18
100
AcDbEntity
  8
ﾊｯﾁﾝｸ
 62
     4
100
AcDbLine
 10
38.51056968042612
 20
52.52732973890219
 30
0.0
 11
39.69215748573264
 21
54.57389985129691
 31
0.0
  0
LINE
  5
C08
330
18
100
AcDbEntity
  8
ﾊｯﾁﾝｸ
 62
     4
100
AcDbLine
 10
38.51056968042612
 20
54.52732973890213
 30
0.0
 11
38.53745694735342
 21
54.5738998512969
 31
0.0
  0
LINE
  5
C09
330
18
100
AcDbEntity
  8
ﾊｯﾁﾝｸ
 62
     4
100
AcDbLine
 10
41.01056968042608
 20
51.28929161981326
 30
0.0
 11
39.11420023379655
 21
54.5738998512969
 31
0.0
  0
LINE
  5
C0A
330
18
100
AcDbEntity
  8
ﾊｯﾁﾝｸ
 62
     4
100
AcDbLine
 10
41.01056968042608
 20
53.28929161981331
 30
0.0
 11
40.26890077217579
 21
54.5738998512969
 31
0.0
  0
DIMENSION
  5
C24
330
18
100
AcDbEntity
  8
文字
100
AcDbDimension
  2
*D2
 10
68.98212079035579
 20
104.3238998512969
 30
0.0
 11
67.10712079035578
 21
137.5738998512969
 31
0.0
 70
    32
  1
φ66.5
 71
     5
 42
66.49999999999998
  3
STYLE3
100
AcDbAlignedDimension
 13
52.21056968042595
 23
170.8238998512969
 33
0.0
 14
52.21056968042595
 24
104.3238998512969
 34
0.0
 50
90.0
100
AcDbRotatedDimension
1001
ACAD
1000
DSTYLE
1002
{
1070
   271
1070
     2
1002
}
  0
DIMENSION
  5
C3C
330
18
100
AcDbEntity
  8
文字
100
AcDbDimension
  2
*D3
 10
98.298841963084
 20
137.5738998512969
 30
0.0
 11
98.29884196308398
 21
157.5129123951215
 31
0.0
 70
   160
 71
     5
 42
41.0
  3
STYLE3
100
AcDbAlignedDimension
 13
163.2009660220973
 23
178.5738998512969
 33
0.0
 14
125.3511201238967
 24
137.5738998512969
 34
0.0
 50
90.0
100
AcDbRotatedDimension
1001
ACAD
1000
DSTYLE
1002
{
1070
   271
1070
     2
1002
}
  0
DIMENSION
  5
C5E
330
18
100
AcDbEntity
  8
文字
100
AcDbDimension
  2
*D4
 10
98.29884196308398
 20
56.57389985129691
 30
0.0
 11
96.42384196308396
 21
97.07389985129694
 31
0.0
 70
    32
 71
     5
 42
81.0
  3
STYLE3
100
AcDbAlignedDimension
 13
125.3511201238967
 23
137.5738998512969
 33
0.0
 14
103.2009660220973
 24
56.57389985129691
 34
0.0
 50
90.0
100
AcDbRotatedDimension
1001
ACAD
1000
DSTYLE
1002
{
1070
    75
1070
     1
1070
   271
1070
     2
1070
   279
1070
     1
1002
}
  0
DIMENSION
  5
C6B
330
18
100
AcDbEntity
  8
文字
100
AcDbDimension
  2
*D5
 10
91.34197008807735
 20
56.57389985129691
 30
0.0
 11
89.46697008807735
 21
117.5738998512969
 31
0.0
 70
    32
 71
     5
 42
122.0
  3
STYLE3
100
AcDbAlignedDimension
 13
97.04884196308398
 23
178.5738998512969
 33
0.0
 14
97.04884196308398
 24
56.57389985129691
 34
0.0
 50
90.0
100
AcDbRotatedDimension
1001
ACAD
1000
DSTYLE
1002
{
1070
   271
1070
     2
1002
}
  0
DIMENSION
  5
C8C
330
18
100
AcDbEntity
  8
文字
100
AcDbDimension
  2
*D6
 10
91.34197008807735
 20
36.57389985129694
 30
0.0
 11
89.46697008807733
 21
46.57389985129693
 31
0.0
 70
    32
  1
20～160
 71
     5
 42
19.99999999999998
  3
STYLE3
100
AcDbAlignedDimension
 13
97.04884196308398
 23
56.57389985129691
 33
0.0
 14
162.7409660220973
 24
36.57389985129692
 34
0.0
 50
90.0
100
AcDbRotatedDimension
1001
ACAD
1000
DSTYLE
1002
{
1070
    75
1070
     1
1070
   271
1070
     2
1070
   279
1070
     1
1002
}
  0
LINE
  5
DB2
330
18
100
AcDbEntity
  8
0
  6
ByBlock
 62
     2
100
AcDbLine
 10
34.0105696804261
 20
56.57389985129691
 30
0.0
 11
34.0105696804261
 21
18.07564107306251
 31
0.0
  0
LINE
  5
DB3
330
18
100
AcDbEntity
  8
0
  6
ByBlock
 62
     2
100
AcDbLine
 10
48.0105696804261
 20
56.5738998512969
 30
0.0
 11
48.0105696804261
 21
18.07564107306251
 31
0.0
  0
LINE
  5
DB4
330
18
100
AcDbEntity
  8
0
  6
ByBlock
 62
     2
100
AcDbLine
 10
36.5105696804261
 20
19.32564107306251
 30
0.0
 11
45.5105696804261
 21
19.32564107306251
 31
0.0
  0
INSERT
  5
DB5
330
18
100
AcDbEntity
  8
0
  6
ByBlock
 62
     2
100
AcDbBlockReference
  2
_OPEN
 10
34.0105696804261
 20
19.32564107306251
 30
0.0
 41
2.5
 42
2.5
 43
2.5
 50
180.0
  0
INSERT
  5
DB6
330
18
100
AcDbEntity
  8
0
  6
ByBlock
 62
     2
100
AcDbBlockReference
  2
_OPEN
 10
48.0105696804261
 20
19.32564107306251
 30
0.0
 41
2.5
 42
2.5
 43
2.5
  0
MTEXT
  5
DB7
330
18
100
AcDbEntity
  8
0
  6
ByBlock
 62
     6
100
AcDbMText
 10
41.0105696804261
 20
21.20064107306252
 30
0.0
 40
2.5
 41
0.0
 71
     5
 72
     1
  1
\A1;14
  7
STYLE3
 73
     1
 44
1.0
  0
POINT
  5
DB8
330
18
100
AcDbEntity
  8
DEFPOINTS
  6
ByBlock
 62
     0
100
AcDbPoint
 10
34.0105696804261
 20
56.57389985129691
 30
0.0
  0
POINT
  5
DB9
330
18
100
AcDbEntity
  8
DEFPOINTS
  6
ByBlock
 62
     0
100
AcDbPoint
 10
48.0105696804261
 20
56.5738998512969
 30
0.0
  0
POINT
  5
DBA
330
18
100
AcDbEntity
  8
DEFPOINTS
  6
ByBlock
 62
     0
100
AcDbPoint
 10
48.0105696804261
 20
19.32564107306251
 30
0.0
  0
LINE
  5
DBC
330
18
100
AcDbEntity
  8
寸法線
100
AcDbLine
 10
40.55056968042608
 20
36.57389985129692
 30
0.0
 11
37.28923607645027
 21
26.42457425474856
 31
0.0
  0
LINE
  5
DBD
330
18
100
AcDbEntity
  8
寸法線
100
AcDbLine
 10
41.47056968042609
 20
36.57389985129692
 30
0.0
 11
38.20923607645028
 21
26.42457425474856
 31
0.0
  0
LINE
  5
DBE
330
18
100
AcDbEntity
  8
寸法線
100
AcDbLine
 10
35.05018700460039
 20
27.68914001151512
 30
0.0
 11
41.96203462147685
 21
27.68914001151512
 31
0.0
  0
INSERT
  5
DBF
330
18
100
AcDbEntity
  8
0
  6
ByBlock
 62
     2
100
AcDbBlockReference
  2
_OPEN
 10
38.61558532180137
 20
27.68914001151512
 30
0.0
 41
2.5
 42
2.5
 43
2.5
 50
180.0
  0
POINT
  5
DC0
330
18
100
AcDbEntity
  8
DEFPOINTS
  6
ByBlock
 62
     0
100
AcDbPoint
 10
37.69558532180135
 20
27.68914001151512
 30
0.0
  0
INSERT
  5
DC1
330
18
100
AcDbEntity
  8
0
  6
ByBlock
 62
     2
100
AcDbBlockReference
  2
_OPEN
 10
37.69558532180135
 20
27.68914001151512
 30
0.0
 41
2.5
 42
2.5
 43
2.5
  0
MTEXT
  5
DC2
330
18
100
AcDbEntity
  8
0
  6
ByBlock
 62
     6
100
AcDbMText
 10
42.37346932205173
 20
29.85805219079793
 30
0.0
 40
2.5
 41
0.0
 71
     5
 72
     1
  1
φ1
  7
STYLE3
 73
     1
 44
1.0
  0
LINE
  5
DC6
330
18
100
AcDbEntity
  8
0
  6
ByBlock
 62
     2
100
AcDbLine
 10
103.2009660220973
 20
56.57389985129691
 30
0.0
 11
103.2009660220973
 21
27.97449940799095
 31
0.0
  0
LINE
  5
DC7
330
18
100
AcDbEntity
  8
0
  6
ByBlock
 62
     2
100
AcDbLine
 10
223.2009660220973
 20
56.57389985129691
 30
0.0
 11
223.2009660220973
 21
27.97449940799095
 31
0.0
  0
LINE
  5
DC8
330
18
100
AcDbEntity
  8
0
  6
ByBlock
 62
     2
100
AcDbLine
 10
105.7009660220973
 20
29.22449940799095
 30
0.0
 11
220.7009660220973
 21
29.22449940799095
 31
0.0
  0
INSERT
  5
DC9
330
18
100
AcDbEntity
  8
0
  6
ByBlock
 62
     2
100
AcDbBlockReference
  2
_OPEN
 10
103.2009660220973
 20
29.22449940799095
 30
0.0
 41
2.5
 42
2.5
 43
2.5
 50
180.0
  0
INSERT
  5
DCA
330
18
100
AcDbEntity
  8
0
  6
ByBlock
 62
     2
100
AcDbBlockReference
  2
_OPEN
 10
223.2009660220973
 20
29.22449940799095
 30
0.0
 41
2.5
 42
2.5
 43
2.5
  0
MTEXT
  5
DCB
330
18
100
AcDbEntity
  8
0
  6
ByBlock
 62
     6
100
AcDbMText
 10
163.2009660220973
 20
31.09949940799095
 30
0.0
 40
2.5
 41
0.0
 71
     5
 72
     1
  1
\A1;120
  7
STYLE3
 73
     1
 44
1.0
  0
POINT
  5
DCC
330
18
100
AcDbEntity
  8
DEFPOINTS
  6
ByBlock
 62
     0
100
AcDbPoint
 10
103.2009660220973
 20
56.57389985129691
 30
0.0
  0
POINT
  5
DCD
330
18
100
AcDbEntity
  8
DEFPOINTS
  6
ByBlock
 62
     0
100
AcDbPoint
 10
223.2009660220973
 20
56.57389985129691
 30
0.0
  0
POINT
  5
DCE
330
18
100
AcDbEntity
  8
DEFPOINTS
  6
ByBlock
 62
     0
100
AcDbPoint
 10
223.2009660220973
 20
29.22449940799095
 30
0.0
  0
TEXT
  5
E3F
330
18
100
AcDbEntity
  8
文字
100
AcDbText
 10
154.6943779271149
 20
187.9772365248612
 30
0.0
 40
4.0
  1
Model No.T-1 Dial Depth Gauge
  7
STYLE3
100
AcDbText
  0
LINE
  5
E40
330
18
100
AcDbEntity
  8
外形線
100
AcDbLine
 10
154.0757779271149
 20
185.0823215248612
 30
0.0
 11
249.075777927115
 21
185.0823215248612
 31
0.0
  0
LINE
  5
E41
330
18
100
AcDbEntity
  8
外形線
100
AcDbLine
 10
154.0757779271149
 20
186.0823215248612
 30
0.0
 11
249.075777927115
 21
186.0823215248612
 31
0.0
  0
TEXT
  5
E42
330
18
100
AcDbEntity
  8
0
  6
Continuous
100
AcDbText
 10
188.0001588404018
 20
2.168599462753754
 30
0.0
 40
2.1
  1
Date
  7
STYLE3
100
AcDbText
  0
TEXT
  5
E43
330
18
100
AcDbEntity
  8
0
  6
Continuous
100
AcDbText
 10
187.6167978404018
 20
5.501682462753754
 30
0.0
 40
3.0
  1
日 付
  7
STYLE3
100
AcDbText
  0
TEXT
  5
E44
330
18
100
AcDbEntity
  8
0
  6
Continuous
100
AcDbText
 10
196.7449658404018
 20
3.916739462753754
 30
0.0
 40
2.1
  1
2010.06.22
  7
STYLE3
100
AcDbText
  0
TEXT
  5
E45
330
18
100
AcDbEntity
  8
0
  6
Continuous
100
AcDbText
 10
177.9063868404018
 20
4.208098462753754
 30
0.0
 40
2.399999999999999
  1
1/1
  7
STYLE3
100
AcDbText
  0
TEXT
  5
E46
330
18
100
AcDbEntity
  8
0
  6
Continuous
100
AcDbText
 10
158.5480348404018
 20
3.916741462753753
 30
0.0
 40
2.399999999999999
  1
mm
  7
STYLE3
100
AcDbText
  0
TEXT
  5
E47
330
18
100
AcDbEntity
  8
0
  6
Continuous
100
AcDbText
 10
168.2870978404018
 20
2.459955462753754
 30
0.0
 40
2.1
  1
Scale
  7
STYLE3
100
AcDbText
  0
TEXT
  5
E48
330
18
100
AcDbEntity
  8
0
  6
Continuous
100
AcDbText
 10
167.8238828404018
 20
5.379477462753754
 30
0.0
 40
3.0
  1
尺 度
  7
STYLE3
100
AcDbText
  0
LINE
  5
E49
330
18
100
AcDbEntity
  8
外形線
100
AcDbLine
 10
166.5381348404018
 20
10.03523546275375
 30
0.0
 11
166.5381348404018
 21
0.4204574627537543
 31
0.0
  0
LINE
  5
E4A
330
18
100
AcDbEntity
  8
外形線
100
AcDbLine
 10
186.0682078404018
 20
10.03523546275375
 30
0.0
 11
186.0682078404018
 21
0.4204574627537543
 31
0.0
  0
LINE
  5
E4B
330
18
100
AcDbEntity
  8
外形線
100
AcDbLine
 10
215.8005568404018
 20
10.03523546275375
 30
0.0
 11
215.8005568404018
 21
0.4204574627537543
 31
0.0
  0
TEXT
  5
E4C
330
18
100
AcDbEntity
  8
0
  6
Continuous
100
AcDbText
 10
117.5672088404018
 20
5.664880462753753
 30
0.0
 40
3.0
  1
三　　角　　法
  7
STYLE3
100
AcDbText
  0
TEXT
  5
E4D
330
18
100
AcDbEntity
  8
0
  6
Continuous
100
AcDbText
 10
114.9437658404018
 20
2.168597462753754
 30
0.0
 40
2.1
  1
3RD Angle Projection
  7
STYLE3
100
AcDbText
  0
LINE
  5
E4E
330
18
100
AcDbEntity
  8
外形線
100
AcDbLine
 10
149.0485178404018
 20
10.03523546275375
 30
0.0
 11
149.0485178404018
 21
0.4204574627537543
 31
0.0
  0
LINE
  5
E4F
330
18
100
AcDbEntity
  8
外形線
100
AcDbLine
 10
113.7777898404018
 20
0.4204574627537543
 30
0.0
 11
113.7777898404018
 21
20.81544046275375
 31
0.0
  0
TEXT
  5
E50
330
18
100
AcDbEntity
  8
0
  6
Continuous
100
AcDbText
 10
150.6777078404018
 20
2.168598462753754
 30
0.0
 40
2.1
  1
Unit
  7
STYLE3
100
AcDbText
  0
TEXT
  5
E51
330
18
100
AcDbEntity
  8
0
  6
Continuous
100
AcDbText
 10
150.5059868404018
 20
5.670835462753754
 30
0.0
 40
3.0
  1
単位
  7
STYLE3
100
AcDbText
  0
TEXT
  5
E52
330
18
100
AcDbEntity
  8
0
  6
Continuous
100
AcDbText
 10
217.1495198404018
 20
5.956237462753754
 30
0.0
 40
3.0
  1
株式会社　尾崎製作所
  7
STYLE3
100
AcDbText
  0
TEXT
  5
E53
330
18
100
AcDbEntity
  8
0
  6
Continuous
100
AcDbText
 10
115.5267518404018
 20
15.86237346275375
 30
0.0
 40
3.5
  1
仕様及び外観は予告なく変更される場合がございますのでご了承下さい。
  7
STYLE3
100
AcDbText
  0
TEXT
  5
E54
330
18
100
AcDbEntity
  8
0
  6
Continuous
100
AcDbText
 10
115.2352578404018
 20
11.93322546275375
 30
0.0
 40
2.1
  1
Design and specifications are subject to change without notice for future improvement.
  7
STYLE3
100
AcDbText
  0
LINE
  5
E55
330
18
100
AcDbEntity
  8
外形線
100
AcDbLine
 10
113.7777898404018
 20
10.03523546275375
 30
0.0
 11
254.5692078404019
 21
10.03523546275375
 31
0.0
  0
LINE
  5
E56
330
18
100
AcDbEntity
  8
外形線
100
AcDbLine
 10
113.7777898404018
 20
20.81544046275375
 30
0.0
 11
254.5692078404019
 21
20.81544046275375
 31
0.0
  0
TEXT
  5
E57
330
18
100
AcDbEntity
  8
0
  6
Continuous
100
AcDbText
 10
218.0239988404018
 20
2.168598462753754
 30
0.0
 40
2.1
  1
OZAKI MFG. CO., LTD.
  7
STYLE3
100
AcDbText
  0
VIEWPORT
  5
177
330
15
100
AcDbEntity
 67
     1
  8
0
100
AcDbViewport
 10
127.5041203589828
 20
97.49391214526822
 30
0.0
 40
418.3086347473814
 41
243.0346063651093
 68
     1
 69
     1
 12
127.5041203589828
 22
97.49391214526822
 13
0.0
 23
0.0
 14
10.0
 24
10.0
 15
10.0
 25
10.0
 16
0.0
 26
0.0
 36
1.0
 17
0.0
 27
0.0
 37
0.0
 42
50.0
 43
0.0
 44
0.0
 45
243.0346063651093
 50
0.0
 51
0.0
 72
   100
 90
    32800
  1

281
     0
 71
     1
 74
     0
110
0.0
120
0.0
130
0.0
111
1.0
121
0.0
131
0.0
112
0.0
122
1.0
132
0.0
 79
     0
146
0.0
170
     0
  0
ENDSEC
  0
SECTION
  2
OBJECTS
  0
DICTIONARY
  5
C
330
0
100
AcDbDictionary
281
     1
  3
ACAD_COLOR
350
DDD
  3
ACAD_GROUP
350
D
  3
ACAD_LAYOUT
350
DE0
  3
ACAD_MATERIAL
350
DDC
  3
ACAD_MLINESTYLE
350
1B
  3
ACAD_PLOTSETTINGS
350
DE1
  3
ACAD_PLOTSTYLENAME
350
DDA
  3
ACAD_TABLESTYLE
350
DDE
  3
AcDbVariableDictionary
350
DEA
  0
DICTIONARY
  5
DDD
102
{ACAD_REACTORS
330
C
102
}
330
C
100
AcDbDictionary
281
     1
  0
DICTIONARY
  5
D
102
{ACAD_REACTORS
330
C
102
}
330
C
100
AcDbDictionary
281
     1
  0
DICTIONARY
  5
DE0
102
{ACAD_REACTORS
330
C
102
}
330
C
100
AcDbDictionary
281
     1
  3
Model
350
DE2
  3
レイアウト1
350
DE3
  0
DICTIONARY
  5
DDC
102
{ACAD_REACTORS
330
C
102
}
330
C
100
AcDbDictionary
281
     1
  0
DICTIONARY
  5
1B
102
{ACAD_REACTORS
330
C
102
}
330
C
100
AcDbDictionary
281
     1
  3
STANDARD
350
1C
  0
DICTIONARY
  5
DE1
102
{ACAD_REACTORS
330
C
102
}
330
C
100
AcDbDictionary
281
     1
  0
ACDBDICTIONARYWDFLT
  5
DDA
102
{ACAD_REACTORS
330
C
102
}
330
C
100
AcDbDictionary
281
     1
  3
Normal
350
DDB
100
AcDbDictionaryWithDefault
340
DDB
  0
DICTIONARY
  5
DDE
102
{ACAD_REACTORS
330
C
102
}
330
C
100
AcDbDictionary
281
     1
  3
Standard
350
DDF
  0
DICTIONARY
  5
DEA
102
{ACAD_REACTORS
330
C
102
}
330
C
100
AcDbDictionary
281
     1
  3
CTABLESTYLE
350
DEB
  0
LAYOUT
  5
DE2
102
{ACAD_REACTORS
330
DE0
102
}
330
DE0
100
AcDbPlotSettings
  1

  2
A4 EPSON LP-6100.pc3
  4
A4
  6

 40
5.873749732971191
 41
5.873747825622558
 42
5.873748779296875
 43
5.873748779296875
 44
209.9733276367187
 45
297.0106506347656
 46
1.5
 47
25.0
 48
0.0
 49
0.0
140
0.0
141
0.0
142
1.0
143
1.0
 70
 28336
 72
     1
 73
     1
 74
     1
  7
AutoCAD LT 98.ctb
 75
    16
147
1.0
 76
     1
 77
     2
 78
   300
148
0.2256454072593215
149
0.2181385412601458
100
AcDbLayout
  1
Model
 70
     1
 71
     0
 10
0.0
 20
0.0
 11
12.0
 21
9.0
 12
0.0
 22
0.0
 32
0.0
 14
0.0
 24
0.0
 34
0.0
 15
0.0
 25
0.0
 35
0.0
146
0.0
 13
0.0
 23
0.0
 33
0.0
 16
1.0
 26
0.0
 36
0.0
 17
0.0
 27
1.0
 37
0.0
 76
     0
330
18
1001
ACAD_PSEXT
1000
A4 EPSON LP-6100.pc3
1000
EPSON LP-6100
1000
USB002
1000

1070
     0
  0
LAYOUT
  5
DE3
102
{ACAD_REACTORS
330
DE0
102
}
330
DE0
100
AcDbPlotSettings
  1

  2
WIDR Printer
  4

  6

 40
0.0
 41
0.0
 42
0.0
 43
0.0
 44
0.0
 45
0.0
 46
0.0
 47
0.0
 48
0.0
 49
0.0
140
0.0
141
0.0
142
1.0
143
1.0
 70
   688
 72
     0
 73
     0
 74
     5
  7
AutoCad LT 98.ctb
 75
    16
147
1.0
 76
     0
 77
     2
 78
   300
148
0.0
149
0.0
100
AcDbLayout
  1
レイアウト1
 70
     1
 71
     1
 10
0.0
 20
0.0
 11
420.0
 21
297.0
 12
0.0
 22
0.0
 32
0.0
 14
-0.2
 24
-0.2
 34
0.0
 15
255.2
 25
195.2
 35
0.0
146
0.0
 13
0.0
 23
0.0
 33
0.0
 16
1.0
 26
0.0
 36
0.0
 17
0.0
 27
1.0
 37
0.0
 76
     0
330
15
331
177
  0
MLINESTYLE
  5
1C
102
{ACAD_REACTORS
330
1B
102
}
330
1B
100
AcDbMlineStyle
  2
STANDARD
 70
     0
  3

 62
   256
 51
90.0
 52
90.0
 71
     2
 49
0.5
 62
   256
  6
BYLAYER
 49
-0.5
 62
   256
  6
BYLAYER
  0
ACDBPLACEHOLDER
  5
DDB
102
{ACAD_REACTORS
330
DDA
102
}
330
DDA
  0
ACAD_PROXY_OBJECT
  5
DDF
102
{ACAD_REACTORS
330
DDE
102
}
330
DDE
100
AcDbProxyObject
 90
      499
 91
      503
 95
  2555929
 70
     0
 93
     1849
310
4214DD185B99185C992420000000000000F83F0000000000003E0FC00000000000004901028000000C1008070000C3001FDFF8000000C1003FBFF000000182007F7FE00000030400FEFFC00000060801FDFF8000000C1003FBFF000000182000000000000000C2020B0000001820100E000186003FBFF000000182007F7FE0
310
0000030400FEFFC00000060801FDFF8000000C1003FBFF000000182007F7FE0000003040000000000000012404160000003040201C00030C007F7FE00000030400FEFFC00000060801FDFF8000000C1003FBFF000000182007F7FE00000030400FEFFC000000608000
340
F
340
F
340
F
 94
        0
  0
DICTIONARYVAR
  5
DEB
102
{ACAD_REACTORS
330
DEA
102
}
330
DEA
100
DictionaryVariables
280
     0
  1
STANDARD
  0
ENDSEC
  0
EOF
