  0
SECTION
  2
HEADER
  9
$ACADVER
  1
AC1018
  9
$ACADMAINTVER
 70
     0
  9
$DWGCODEPAGE
  3
ANSI_932
  9
$INSBASE
 10
0.0
 20
0.0
 30
0.0
  9
$EXTMIN
 10
-0.2192307289083146
 20
22.51428294427956
 30
-0.0000000000000058
  9
$EXTMAX
 10
255.2285122392454
 20
217.9281011853927
 30
0.0000000000000104
  9
$LIMMIN
 10
0.0
 20
0.0
  9
$LIMMAX
 10
420.0
 20
297.0
  9
$ORTHOMODE
 70
     1
  9
$REGENMODE
 70
     1
  9
$FILLMODE
 70
     1
  9
$QTEXTMODE
 70
     0
  9
$MIRRTEXT
 70
     1
  9
$LTSCALE
 40
1.0
  9
$ATTMODE
 70
     1
  9
$TEXTSIZE
 40
2.5
  9
$TRACEWID
 40
1.0
  9
$TEXTSTYLE
  7
STYLE3
  9
$CLAYER
  8
寸法線
  9
$CELTYPE
  6
BYLAYER
  9
$CECOLOR
 62
   256
  9
$CELTSCALE
 40
1.0
  9
$DISPSILH
 70
     0
  9
$DIMSCALE
 40
1.0
  9
$DIMASZ
 40
2.5
  9
$DIMEXO
 40
0.0
  9
$DIMDLI
 40
3.75
  9
$DIMRND
 40
0.0
  9
$DIMDLE
 40
0.0
  9
$DIMEXE
 40
1.25
  9
$DIMTP
 40
0.0
  9
$DIMTM
 40
0.0
  9
$DIMTXT
 40
2.5
  9
$DIMCEN
 40
2.5
  9
$DIMTSZ
 40
0.0
  9
$DIMTOL
 70
     0
  9
$DIMLIM
 70
     0
  9
$DIMTIH
 70
     0
  9
$DIMTOH
 70
     0
  9
$DIMSE1
 70
     0
  9
$DIMSE2
 70
     0
  9
$DIMTAD
 70
     1
  9
$DIMZIN
 70
     8
  9
$DIMBLK
  1

  9
$DIMASO
 70
     1
  9
$DIMSHO
 70
     1
  9
$DIMPOST
  1

  9
$DIMAPOST
  1

  9
$DIMALT
 70
     0
  9
$DIMALTD
 70
     4
  9
$DIMALTF
 40
0.0394
  9
$DIMLFAC
 40
1.0
  9
$DIMTOFL
 70
     1
  9
$DIMTVP
 40
0.0
  9
$DIMTIX
 70
     0
  9
$DIMSOXD
 70
     0
  9
$DIMSAH
 70
     1
  9
$DIMBLK1
  1
OPEN
  9
$DIMBLK2
  1
OPEN
  9
$DIMSTYLE
  2
STYLE3
  9
$DIMCLRD
 70
     2
  9
$DIMCLRE
 70
     2
  9
$DIMCLRT
 70
     6
  9
$DIMTFAC
 40
1.0
  9
$DIMGAP
 40
0.625
  9
$DIMJUST
 70
     0
  9
$DIMSD1
 70
     0
  9
$DIMSD2
 70
     0
  9
$DIMTOLJ
 70
     1
  9
$DIMTZIN
 70
     0
  9
$DIMALTZ
 70
     0
  9
$DIMALTTZ
 70
     0
  9
$DIMUPT
 70
     0
  9
$DIMDEC
 70
     2
  9
$DIMTDEC
 70
     4
  9
$DIMALTU
 70
     8
  9
$DIMALTTD
 70
     4
  9
$DIMTXSTY
  7
STYLE3
  9
$DIMAUNIT
 70
     0
  9
$DIMADEC
 70
     0
  9
$DIMALTRND
 40
0.0
  9
$DIMAZIN
 70
     0
  9
$DIMDSEP
 70
    46
  9
$DIMATFIT
 70
     3
  9
$DIMFRAC
 70
     0
  9
$DIMLDRBLK
  1

  9
$DIMLUNIT
 70
     2
  9
$DIMLWD
 70
    -2
  9
$DIMLWE
 70
    -2
  9
$DIMTMOVE
 70
     0
  9
$LUNITS
 70
     2
  9
$LUPREC
 70
     4
  9
$SKETCHINC
 40
1.0
  9
$FILLETRAD
 40
0.0
  9
$AUNITS
 70
     0
  9
$AUPREC
 70
     0
  9
$MENU
  1
.
  9
$ELEVATION
 40
0.0
  9
$PELEVATION
 40
0.0
  9
$THICKNESS
 40
0.0
  9
$LIMCHECK
 70
     0
  9
$CHAMFERA
 40
0.3
  9
$CHAMFERB
 40
0.3
  9
$CHAMFERC
 40
20.0
  9
$CHAMFERD
 40
0.0
  9
$SKPOLY
 70
     0
  9
$TDCREATE
 40
2451400.687391204
  9
$TDUCREATE
 40
2451400.312391204
  9
$TDUPDATE
 40
2455379.483182685
  9
$TDUUPDATE
 40
2455379.108182685
  9
$TDINDWG
 40
1.2970944444
  9
$TDUSRTIMER
 40
1.2970944444
  9
$USRTIMER
 70
     1
  9
$ANGBASE
 50
0.0
  9
$ANGDIR
 70
     0
  9
$PDMODE
 70
     0
  9
$PDSIZE
 40
0.0
  9
$PLINEWID
 40
0.0
  9
$SPLFRAME
 70
     0
  9
$SPLINETYPE
 70
     6
  9
$SPLINESEGS
 70
     8
  9
$HANDSEED
  5
36B6
  9
$SURFTAB1
 70
     6
  9
$SURFTAB2
 70
     6
  9
$SURFTYPE
 70
     6
  9
$SURFU
 70
     6
  9
$SURFV
 70
     6
  9
$UCSBASE
  2

  9
$UCSNAME
  2

  9
$UCSORG
 10
0.0
 20
0.0
 30
0.0
  9
$UCSXDIR
 10
1.0
 20
0.0
 30
0.0
  9
$UCSYDIR
 10
0.0
 20
1.0
 30
0.0
  9
$UCSORTHOREF
  2

  9
$UCSORTHOVIEW
 70
     0
  9
$UCSORGTOP
 10
0.0
 20
0.0
 30
0.0
  9
$UCSORGBOTTOM
 10
0.0
 20
0.0
 30
0.0
  9
$UCSORGLEFT
 10
0.0
 20
0.0
 30
0.0
  9
$UCSORGRIGHT
 10
0.0
 20
0.0
 30
0.0
  9
$UCSORGFRONT
 10
0.0
 20
0.0
 30
0.0
  9
$UCSORGBACK
 10
0.0
 20
0.0
 30
0.0
  9
$PUCSBASE
  2

  9
$PUCSNAME
  2

  9
$PUCSORG
 10
0.0
 20
0.0
 30
0.0
  9
$PUCSXDIR
 10
1.0
 20
0.0
 30
0.0
  9
$PUCSYDIR
 10
0.0
 20
1.0
 30
0.0
  9
$PUCSORTHOREF
  2

  9
$PUCSORTHOVIEW
 70
     0
  9
$PUCSORGTOP
 10
0.0
 20
0.0
 30
0.0
  9
$PUCSORGBOTTOM
 10
0.0
 20
0.0
 30
0.0
  9
$PUCSORGLEFT
 10
0.0
 20
0.0
 30
0.0
  9
$PUCSORGRIGHT
 10
0.0
 20
0.0
 30
0.0
  9
$PUCSORGFRONT
 10
0.0
 20
0.0
 30
0.0
  9
$PUCSORGBACK
 10
0.0
 20
0.0
 30
0.0
  9
$USERI1
 70
     0
  9
$USERI2
 70
     0
  9
$USERI3
 70
     0
  9
$USERI4
 70
     0
  9
$USERI5
 70
     0
  9
$USERR1
 40
0.0
  9
$USERR2
 40
0.0
  9
$USERR3
 40
0.0
  9
$USERR4
 40
0.0
  9
$USERR5
 40
0.0
  9
$WORLDVIEW
 70
     1
  9
$SHADEDGE
 70
     3
  9
$SHADEDIF
 70
    70
  9
$TILEMODE
 70
     1
  9
$MAXACTVP
 70
    48
  9
$PINSBASE
 10
0.0
 20
0.0
 30
0.0
  9
$PLIMCHECK
 70
     0
  9
$PEXTMIN
 10
-0.2
 20
-0.2
 30
0.0
  9
$PEXTMAX
 10
255.2
 20
195.2
 30
0.0
  9
$PLIMMIN
 10
0.0
 20
0.0
  9
$PLIMMAX
 10
420.0
 20
297.0
  9
$UNITMODE
 70
     0
  9
$VISRETAIN
 70
     1
  9
$PLINEGEN
 70
     0
  9
$PSLTSCALE
 70
     1
  9
$TREEDEPTH
 70
  3020
  9
$CMLSTYLE
  2
STANDARD
  9
$CMLJUST
 70
     0
  9
$CMLSCALE
 40
20.0
  9
$PROXYGRAPHICS
 70
     1
  9
$MEASUREMENT
 70
     1
  9
$CELWEIGHT
370
    -1
  9
$ENDCAPS
280
     0
  9
$JOINSTYLE
280
     0
  9
$LWDISPLAY
290
     0
  9
$INSUNITS
 70
     0
  9
$HYPERLINKBASE
  1

  9
$STYLESHEET
  1
AutoCAD LT 98.ctb
  9
$XEDIT
290
     1
  9
$CEPSNTYPE
380
     0
  9
$PSTYLEMODE
290
     1
  9
$FINGERPRINTGUID
  2
{DDC3FD6E-54AB-454C-96CA-0A7B5CC57652}
  9
$VERSIONGUID
  2
{B259F79D-889E-4C01-8960-DF5DB824D067}
  9
$EXTNAMES
290
     1
  9
$PSVPSCALE
 40
0.0
  9
$OLESTARTUP
290
     0
  9
$SORTENTS
280
    96
  9
$INDEXCTL
280
     0
  9
$HIDETEXT
280
     0
  9
$XCLIPFRAME
290
     0
  9
$HALOGAP
280
     0
  9
$OBSCOLOR
 70
   257
  9
$OBSLTYPE
280
     0
  9
$INTERSECTIONDISPLAY
280
     0
  9
$INTERSECTIONCOLOR
 70
   257
  9
$DIMASSOC
280
     1
  9
$PROJECTNAME
  1

  0
ENDSEC
  0
SECTION
  2
CLASSES
  0
CLASS
  1
HATCH
  2
AcDbHatch
  3
ObjectDBX Classes
 90
        0
 91
       12
280
     0
281
     1
  0
CLASS
  1
IMAGEDEF
  2
AcDbRasterImageDef
  3
ISM
 90
        0
 91
        1
280
     0
281
     0
  0
CLASS
  1
LWPOLYLINE
  2
AcDbPolyline
  3
ObjectDBX Classes
 90
        0
 91
        7
280
     0
281
     1
  0
CLASS
  1
DICTIONARYVAR
  2
AcDbDictionaryVar
  3
ObjectDBX Classes
 90
        0
 91
        2
280
     0
281
     0
  0
CLASS
  1
ACDBDICTIONARYWDFLT
  2
AcDbDictionaryWithDefault
  3
ObjectDBX Classes
 90
        0
 91
        1
280
     0
281
     0
  0
CLASS
  1
TABLESTYLE
  2
AcDbTableStyle
  3
ObjectDBX Classes
 90
     2047
 91
        1
280
     0
281
     0
  0
CLASS
  1
SORTENTSTABLE
  2
AcDbSortentsTable
  3
ObjectDBX Classes
 90
        0
 91
        2
280
     0
281
     0
  0
ENDSEC
  0
SECTION
  2
TABLES
  0
TABLE
  2
VPORT
  5
8
330
0
100
AcDbSymbolTable
 70
     2
  0
VPORT
  5
36B5
330
8
100
AcDbSymbolTableRecord
100
AcDbViewportTableRecord
  2
*Active
 70
     0
 10
0.0
 20
0.0
 11
1.0
 21
1.0
 12
127.5046407551685
 22
120.2211920648361
 13
0.0
 23
0.0
 14
10.0
 24
10.0
 15
10.0
 25
10.0
 16
0.0
 26
0.0
 36
1.0
 17
0.0
 27
0.0
 37
0.0
 40
196.89985488173
 41
1.530456852791878
 42
50.0
 43
0.0
 44
0.0
 50
0.0
 51
0.0
 71
     0
 72
   100
 73
     1
 74
     1
 75
     0
 76
     0
 77
     0
 78
     0
281
     0
 65
     1
110
0.0
120
0.0
130
0.0
111
1.0
121
0.0
131
0.0
112
0.0
122
1.0
132
0.0
 79
     0
146
0.0
  0
ENDTAB
  0
TABLE
  2
LTYPE
  5
5
330
0
100
AcDbSymbolTable
 70
    12
  0
LTYPE
  5
12
330
5
100
AcDbSymbolTableRecord
100
AcDbLinetypeTableRecord
  2
BYBLOCK
 70
     0
  3

 72
    65
 73
     0
 40
0.0
  0
LTYPE
  5
13
330
5
100
AcDbSymbolTableRecord
100
AcDbLinetypeTableRecord
  2
BYLAYER
 70
     0
  3

 72
    65
 73
     0
 40
0.0
  0
LTYPE
  5
14
330
5
100
AcDbSymbolTableRecord
100
AcDbLinetypeTableRecord
  2
CONTINUOUS
 70
     0
  3
Solid line
 72
    65
 73
     0
 40
0.0
  0
LTYPE
  5
22
330
5
100
AcDbSymbolTableRecord
100
AcDbLinetypeTableRecord
  2
CENTER2
 70
     0
  3
Center (.5x) ___ _ ___ _ ___ _ ___ _ ___ _ ___
 72
    65
 73
     4
 40
28.575
 49
19.05
 74
     0
 49
-3.174999999999999
 74
     0
 49
3.174999999999999
 74
     0
 49
-3.174999999999999
 74
     0
  0
ENDTAB
  0
TABLE
  2
LAYER
  5
2
102
{ACAD_XDICTIONARY
360
284A
102
}
330
0
100
AcDbSymbolTable
 70
    15
  0
LAYER
  5
E
330
2
100
AcDbSymbolTableRecord
100
AcDbLayerTableRecord
  2
0
 70
     0
 62
     7
  6
CONTINUOUS
370
    -3
390
1B3E
  0
LAYER
  5
25
330
2
100
AcDbSymbolTableRecord
100
AcDbLayerTableRecord
  2
外形線
 70
     0
 62
     7
  6
CONTINUOUS
370
    -3
390
1B3E
  0
LAYER
  5
26
330
2
100
AcDbSymbolTableRecord
100
AcDbLayerTableRecord
  2
寸法線
 70
     0
 62
     2
  6
CONTINUOUS
370
    -3
390
1B3E
  0
LAYER
  5
27
330
2
100
AcDbSymbolTableRecord
100
AcDbLayerTableRecord
  2
中心線
 70
     0
 62
     4
  6
CENTER2
370
    -3
390
1B3E
  0
LAYER
  5
2B
330
2
100
AcDbSymbolTableRecord
100
AcDbLayerTableRecord
  2
文字
 70
     0
 62
     6
  6
CONTINUOUS
370
    -3
390
1B3E
  0
LAYER
  5
53
330
2
100
AcDbSymbolTableRecord
100
AcDbLayerTableRecord
  2
DEFPOINTS
 70
     0
 62
     7
  6
CONTINUOUS
290
     0
370
    -3
390
1B3E
  0
LAYER
  5
A5
330
2
100
AcDbSymbolTableRecord
100
AcDbLayerTableRecord
  2
C
 70
     0
 62
     7
  6
CONTINUOUS
370
    -3
390
1B3E
  0
LAYER
  5
306
330
2
100
AcDbSymbolTableRecord
100
AcDbLayerTableRecord
  2
ROGO
 70
     0
 62
     6
  6
CONTINUOUS
370
    -3
390
1B3E
  0
ENDTAB
  0
TABLE
  2
STYLE
  5
3
330
0
100
AcDbSymbolTable
 70
     8
  0
STYLE
  5
F
330
3
100
AcDbSymbolTableRecord
100
AcDbTextStyleTableRecord
  2
STANDARD
 70
     0
 40
0.0
 41
1.0
 50
0.0
 71
     0
 42
2.5
  3
txt
  4

  0
STYLE
  5
3F
330
3
100
AcDbSymbolTableRecord
100
AcDbTextStyleTableRecord
  2
STYLE3
 70
     0
 40
0.0
 41
1.0
 50
0.0
 71
     0
 42
2.5
  3
romans.shx
  4
bigfont.shx
  0
STYLE
  5
1507
330
3
100
AcDbSymbolTableRecord
100
AcDbTextStyleTableRecord
  2
STYLE4
 70
     0
 40
0.0
 41
1.0
 50
0.0
 71
     0
 42
5.0
  3
romans.shx
  4
bigfont.shx
  0
ENDTAB
  0
TABLE
  2
VIEW
  5
6
330
0
100
AcDbSymbolTable
 70
     1
  0
VIEW
  5
2385
330
6
100
AcDbSymbolTableRecord
100
AcDbViewTableRecord
  2
OLE1
 70
     0
 40
196.9540047779719
 10
127.507280422385
 20
120.2274084341726
 41
303.1648031660929
 11
0.0
 21
0.0
 31
1.0
 12
0.0
 22
0.0
 32
0.0
 42
50.0
 43
0.0
 44
0.0
 50
0.0
 71
     0
281
     0
 72
     0
  0
ENDTAB
  0
TABLE
  2
UCS
  5
7
330
0
100
AcDbSymbolTable
 70
     0
  0
ENDTAB
  0
TABLE
  2
APPID
  5
9
330
0
100
AcDbSymbolTable
 70
     2
  0
APPID
  5
10
330
9
100
AcDbSymbolTableRecord
100
AcDbRegAppTableRecord
  2
ACAD
 70
     0
  0
APPID
  5
1BF6
330
9
100
AcDbSymbolTableRecord
100
AcDbRegAppTableRecord
  2
ACAD_PSEXT
 70
     0
  0
ENDTAB
  0
TABLE
  2
DIMSTYLE
  5
A
330
0
100
AcDbSymbolTable
 70
     4
100
AcDbDimStyleTable
 71
     1
340
8F
  0
DIMSTYLE
105
1D
330
A
100
AcDbSymbolTableRecord
100
AcDbDimStyleTableRecord
  2
STANDARD
 70
     0
 41
2.5
 42
0.625
 43
3.75
 44
1.25
 73
     0
 74
     0
 77
     1
 78
     8
140
2.5
141
2.5
143
0.0394
147
0.625
171
     4
172
     1
273
     8
274
     4
277
     6
340
F
  0
DIMSTYLE
105
8F
102
{ACAD_REACTORS
330
12BF
330
12F1
330
2227
330
2236
330
2245
330
27BB
330
330C
102
}
330
A
100
AcDbSymbolTableRecord
100
AcDbDimStyleTableRecord
  2
STYLE3
 70
     0
 41
2.5
 42
0.0
 43
3.75
 44
1.25
 73
     0
 74
     0
 77
     1
 78
     8
140
2.5
141
2.5
143
0.0394
147
0.625
171
     4
172
     1
173
     1
176
     2
177
     2
178
     6
271
     1
273
     8
274
     4
340
3F
341
45
343
45
344
45
  0
ENDTAB
  0
TABLE
  2
BLOCK_RECORD
  5
1
330
0
100
AcDbSymbolTable
 70
    13
  0
BLOCK_RECORD
  5
18
102
{ACAD_XDICTIONARY
360
220E
102
}
330
1
100
AcDbSymbolTableRecord
100
AcDbBlockTableRecord
  2
*MODEL_SPACE
340
1B45
  0
BLOCK_RECORD
  5
15
330
1
100
AcDbSymbolTableRecord
100
AcDbBlockTableRecord
  2
*PAPER_SPACE
340
1B46
  0
BLOCK_RECORD
  5
45
330
1
100
AcDbSymbolTableRecord
100
AcDbBlockTableRecord
  2
_OPEN
340
0
102
{BLKREFS
331
134D
331
134E
331
27CB
331
27CC
331
35FC
331
35FD
331
3612
331
3613
331
368F
331
3690
331
3698
331
3699
331
36A0
331
36A1
331
36A9
331
36AA
102
}
  0
BLOCK_RECORD
  5
12B4
330
1
100
AcDbSymbolTableRecord
100
AcDbBlockTableRecord
  2
*D1
340
0
  0
BLOCK_RECORD
  5
12E5
330
1
100
AcDbSymbolTableRecord
100
AcDbBlockTableRecord
  2
*D2
340
0
  0
BLOCK_RECORD
  5
2228
330
1
100
AcDbSymbolTableRecord
100
AcDbBlockTableRecord
  2
*D4
340
0
  0
BLOCK_RECORD
  5
2237
330
1
100
AcDbSymbolTableRecord
100
AcDbBlockTableRecord
  2
*D5
340
0
  0
BLOCK_RECORD
  5
2246
330
1
100
AcDbSymbolTableRecord
100
AcDbBlockTableRecord
  2
*D6
340
0
  0
BLOCK_RECORD
  5
27BC
330
1
100
AcDbSymbolTableRecord
100
AcDbBlockTableRecord
  2
*D8
340
0
  0
BLOCK_RECORD
  5
330D
330
1
100
AcDbSymbolTableRecord
100
AcDbBlockTableRecord
  2
*D9
340
0
  0
ENDTAB
  0
ENDSEC
  0
SECTION
  2
BLOCKS
  0
BLOCK
  5
19
330
18
100
AcDbEntity
  8
0
100
AcDbBlockBegin
  2
*MODEL_SPACE
 70
     0
 10
0.0
 20
0.0
 30
0.0
  3
*MODEL_SPACE
  1

  0
ENDBLK
  5
1A
330
18
100
AcDbEntity
  8
0
100
AcDbBlockEnd
  0
BLOCK
  5
16
330
15
100
AcDbEntity
 67
     1
  8
0
100
AcDbBlockBegin
  2
*PAPER_SPACE
 70
     0
 10
0.0
 20
0.0
 30
0.0
  3
*PAPER_SPACE
  1

  0
ENDBLK
  5
17
330
15
100
AcDbEntity
 67
     1
  8
0
100
AcDbBlockEnd
  0
BLOCK
  5
46
330
45
100
AcDbEntity
  8
0
100
AcDbBlockBegin
  2
_OPEN
 70
     0
 10
0.0
 20
0.0
 30
0.0
  3
_OPEN
  1

  0
LINE
  5
47
330
45
100
AcDbEntity
  8
0
  6
ByBlock
 62
     0
100
AcDbLine
 10
-1.0
 20
0.1666666666666666
 30
0.0
 11
0.0
 21
0.0
 31
0.0
  0
LINE
  5
48
330
45
100
AcDbEntity
  8
0
  6
ByBlock
 62
     0
100
AcDbLine
 10
0.0
 20
0.0
 30
0.0
 11
-1.0
 21
-0.1666666666666666
 31
0.0
  0
LINE
  5
49
330
45
100
AcDbEntity
  8
0
  6
ByBlock
 62
     0
100
AcDbLine
 10
0.0
 20
0.0
 30
0.0
 11
-1.0
 21
0.0
 31
0.0
  0
ENDBLK
  5
4A
330
45
100
AcDbEntity
  8
0
100
AcDbBlockEnd
  0
BLOCK
  5
12B5
330
12B4
100
AcDbEntity
  8
0
100
AcDbBlockBegin
  2
*D1
 70
     1
 10
0.0
 20
0.0
 30
0.0
  3
*D1
  1

  0
LINE
  5
369E
330
12B4
100
AcDbEntity
  8
外形線
 62
     2
370
    -2
100
AcDbLine
 10
90.59572707326003
 20
41.48065725455833
 30
0.0
 11
40.72458312400374
 21
41.48065725455835
 31
0.0
  0
LINE
  5
369F
330
12B4
100
AcDbEntity
  8
外形線
 62
     2
370
    -2
100
AcDbLine
 10
41.97458312400375
 20
59.08065725455834
 30
0.0
 11
41.97458312400374
 21
43.98065725455835
 31
0.0
  0
INSERT
  5
36A0
330
12B4
100
AcDbEntity
  8
外形線
 62
     2
370
    -2
100
AcDbBlockReference
  2
_OPEN
 10
41.97458312400375
 20
61.58065725455834
 30
0.0
 41
2.5
 42
2.5
 43
2.5
 50
90.0
  0
INSERT
  5
36A1
330
12B4
100
AcDbEntity
  8
外形線
 62
     2
370
    -2
100
AcDbBlockReference
  2
_OPEN
 10
41.97458312400374
 20
41.48065725455835
 30
0.0
 41
2.5
 42
2.5
 43
2.5
 50
270.0
  0
MTEXT
  5
36A2
330
12B4
100
AcDbEntity
  8
外形線
 62
     6
100
AcDbMText
 10
40.09958312400374
 20
51.53065725455835
 30
0.0
 40
2.5
 41
0.0
 71
     5
 72
     1
  1
\A1;20.1
  7
STYLE3
 11
0.0000000000000001
 21
1.0
 31
0.0
 73
     1
 44
1.0
  0
POINT
  5
36A3
330
12B4
100
AcDbEntity
  8
DEFPOINTS
 62
     0
100
AcDbPoint
 10
53.09572707326004
 20
61.58065725455833
 30
0.0
  0
POINT
  5
36A4
330
12B4
100
AcDbEntity
  8
DEFPOINTS
 62
     0
100
AcDbPoint
 10
90.59572707326003
 20
41.48065725455833
 30
0.0
  0
POINT
  5
36A5
330
12B4
100
AcDbEntity
  8
DEFPOINTS
 62
     0
100
AcDbPoint
 10
41.97458312400374
 20
41.48065725455835
 30
0.0
  0
ENDBLK
  5
12BE
330
12B4
100
AcDbEntity
  8
0
100
AcDbBlockEnd
  0
BLOCK
  5
12E6
330
12E5
100
AcDbEntity
  8
0
100
AcDbBlockBegin
  2
*D2
 70
     1
 10
0.0
 20
0.0
 30
0.0
  3
*D2
  1

  0
LINE
  5
35F9
330
12E5
100
AcDbEntity
  8
外形線
 62
     2
370
    -2
100
AcDbLine
 10
190.9935474326374
 20
61.58065725455833
 30
0.0
 11
190.9935474326374
 21
26.81376923347034
 31
0.0
  0
LINE
  5
35FA
330
12E5
100
AcDbEntity
  8
外形線
 62
     2
370
    -2
100
AcDbLine
 10
201.9935474326374
 20
61.58065725455833
 30
0.0
 11
201.9935474326374
 21
26.81376923347034
 31
0.0
  0
LINE
  5
35FB
330
12E5
100
AcDbEntity
  8
外形線
 62
     2
370
    -2
100
AcDbLine
 10
193.4935474326374
 20
28.06376923347034
 30
0.0
 11
199.4935474326374
 21
28.06376923347034
 31
0.0
  0
INSERT
  5
35FC
330
12E5
100
AcDbEntity
  8
外形線
 62
     2
370
    -2
100
AcDbBlockReference
  2
_OPEN
 10
190.9935474326374
 20
28.06376923347034
 30
0.0
 41
2.5
 42
2.5
 43
2.5
 50
180.0
  0
INSERT
  5
35FD
330
12E5
100
AcDbEntity
  8
外形線
 62
     2
370
    -2
100
AcDbBlockReference
  2
_OPEN
 10
201.9935474326374
 20
28.06376923347034
 30
0.0
 41
2.5
 42
2.5
 43
2.5
  0
MTEXT
  5
35FE
330
12E5
100
AcDbEntity
  8
外形線
 62
     6
100
AcDbMText
 10
196.4935474326374
 20
29.93876923347034
 30
0.0
 40
2.5
 41
0.0
 71
     5
 72
     1
  1
\A1;11
  7
STYLE3
 73
     1
 44
1.0
  0
POINT
  5
35FF
330
12E5
100
AcDbEntity
  8
DEFPOINTS
 62
     0
100
AcDbPoint
 10
190.9935474326374
 20
61.58065725455833
 30
0.0
  0
POINT
  5
3600
330
12E5
100
AcDbEntity
  8
DEFPOINTS
 62
     0
100
AcDbPoint
 10
201.9935474326374
 20
61.58065725455833
 30
0.0
  0
POINT
  5
3601
330
12E5
100
AcDbEntity
  8
DEFPOINTS
 62
     0
100
AcDbPoint
 10
201.9935474326374
 20
28.06376923347034
 30
0.0
  0
ENDBLK
  5
12F0
330
12E5
100
AcDbEntity
  8
0
100
AcDbBlockEnd
  0
BLOCK
  5
2232
330
2228
100
AcDbEntity
  8
0
100
AcDbBlockBegin
  2
*D4
 70
     1
 10
0.0
 20
0.0
 30
0.0
  3
*D4
  1

  0
LINE
  5
36A6
330
2228
100
AcDbEntity
  8
寸法線
 62
     2
370
    -2
100
AcDbLine
 10
53.09572707326004
 20
61.58065725455833
 30
0.0
 11
40.72458312400374
 21
61.58065725455834
 31
0.0
  0
LINE
  5
36A7
330
2228
100
AcDbEntity
  8
寸法線
 62
     2
370
    -2
100
AcDbLine
 10
54.67676512120585
 20
138.9806572545583
 30
0.0
 11
40.72458312400375
 21
138.9806572545583
 31
0.0
  0
LINE
  5
36A8
330
2228
100
AcDbEntity
  8
寸法線
 62
     2
370
    -2
100
AcDbLine
 10
41.97458312400374
 20
64.08065725455833
 30
0.0
 11
41.97458312400375
 21
136.4806572545583
 31
0.0
  0
INSERT
  5
36A9
330
2228
100
AcDbEntity
  8
寸法線
 62
     2
370
    -2
100
AcDbBlockReference
  2
_OPEN
 10
41.97458312400374
 20
61.58065725455834
 30
0.0
 41
2.5
 42
2.5
 43
2.5
 50
270.0
  0
INSERT
  5
36AA
330
2228
100
AcDbEntity
  8
寸法線
 62
     2
370
    -2
100
AcDbBlockReference
  2
_OPEN
 10
41.97458312400375
 20
138.9806572545583
 30
0.0
 41
2.5
 42
2.5
 43
2.5
 50
90.0
  0
MTEXT
  5
36AB
330
2228
100
AcDbEntity
  8
寸法線
 62
     6
100
AcDbMText
 10
40.09958312400374
 20
100.2806572545583
 30
0.0
 40
2.5
 41
0.0
 71
     5
 72
     1
  1
\A1;77.4
  7
STYLE3
 11
0.0000000000000001
 21
1.0
 31
0.0
 73
     1
 44
1.0
  0
POINT
  5
36AC
330
2228
100
AcDbEntity
  8
DEFPOINTS
 62
     0
100
AcDbPoint
 10
53.09572707326004
 20
61.58065725455833
 30
0.0
  0
POINT
  5
36AD
330
2228
100
AcDbEntity
  8
DEFPOINTS
 62
     0
100
AcDbPoint
 10
54.67676512120585
 20
138.9806572545583
 30
0.0
  0
POINT
  5
36AE
330
2228
100
AcDbEntity
  8
DEFPOINTS
 62
     0
100
AcDbPoint
 10
41.97458312400375
 20
138.9806572545583
 30
0.0
  0
ENDBLK
  5
2233
330
2228
100
AcDbEntity
  8
0
100
AcDbBlockEnd
  0
BLOCK
  5
2241
330
2237
100
AcDbEntity
  8
0
100
AcDbBlockBegin
  2
*D5
 70
     1
 10
0.0
 20
0.0
 30
0.0
  3
*D5
  1

  0
LINE
  5
3695
330
2237
100
AcDbEntity
  8
寸法線
 62
     2
370
    -2
100
AcDbLine
 10
54.67676512120585
 20
138.9806572545583
 30
0.0
 11
40.72458312400375
 21
138.9806572545583
 31
0.0
  0
LINE
  5
3696
330
2237
100
AcDbEntity
  8
寸法線
 62
     2
370
    -2
100
AcDbLine
 10
87.09572707326003
 20
202.9806572545583
 30
0.0
 11
40.72458312400377
 21
202.9806572545584
 31
0.0
  0
LINE
  5
3697
330
2237
100
AcDbEntity
  8
寸法線
 62
     2
370
    -2
100
AcDbLine
 10
41.97458312400375
 20
141.4806572545583
 30
0.0
 11
41.97458312400377
 21
200.4806572545583
 31
0.0
  0
INSERT
  5
3698
330
2237
100
AcDbEntity
  8
寸法線
 62
     2
370
    -2
100
AcDbBlockReference
  2
_OPEN
 10
41.97458312400375
 20
138.9806572545583
 30
0.0
 41
2.5
 42
2.5
 43
2.5
 50
270.0
  0
INSERT
  5
3699
330
2237
100
AcDbEntity
  8
寸法線
 62
     2
370
    -2
100
AcDbBlockReference
  2
_OPEN
 10
41.97458312400377
 20
202.9806572545584
 30
0.0
 41
2.5
 42
2.5
 43
2.5
 50
90.0
  0
MTEXT
  5
369A
330
2237
100
AcDbEntity
  8
寸法線
 62
     6
100
AcDbMText
 10
40.09958312400374
 20
170.9806572545583
 30
0.0
 40
2.5
 41
0.0
 71
     5
 72
     1
  1
\A1;64
  7
STYLE3
 11
0.0000000000000001
 21
1.0
 31
0.0
 73
     1
 44
1.0
  0
POINT
  5
369B
330
2237
100
AcDbEntity
  8
DEFPOINTS
 62
     0
100
AcDbPoint
 10
54.67676512120585
 20
138.9806572545583
 30
0.0
  0
POINT
  5
369C
330
2237
100
AcDbEntity
  8
DEFPOINTS
 62
     0
100
AcDbPoint
 10
87.09572707326003
 20
202.9806572545583
 30
0.0
  0
POINT
  5
369D
330
2237
100
AcDbEntity
  8
DEFPOINTS
 62
     0
100
AcDbPoint
 10
41.97458312400377
 20
202.9806572545584
 30
0.0
  0
ENDBLK
  5
2242
330
2237
100
AcDbEntity
  8
0
100
AcDbBlockEnd
  0
BLOCK
  5
2250
330
2246
100
AcDbEntity
  8
0
100
AcDbBlockBegin
  2
*D6
 70
     1
 10
0.0
 20
0.0
 30
0.0
  3
*D6
  1

  0
LINE
  5
368C
330
2246
100
AcDbEntity
  8
寸法線
 62
     2
370
    -2
100
AcDbLine
 10
90.59572707326003
 20
202.9806572545583
 30
0.0
 11
29.9192829121753
 21
202.9806572545584
 31
0.0
  0
LINE
  5
368D
330
2246
100
AcDbEntity
  8
寸法線
 62
     2
370
    -2
100
AcDbLine
 10
90.59572707326003
 20
41.48065725455831
 30
0.0
 11
29.91928291217527
 21
41.48065725455833
 31
0.0
  0
LINE
  5
368E
330
2246
100
AcDbEntity
  8
寸法線
 62
     2
370
    -2
100
AcDbLine
 10
31.1692829121753
 20
200.4806572545583
 30
0.0
 11
31.16928291217527
 21
43.98065725455833
 31
0.0
  0
INSERT
  5
368F
330
2246
100
AcDbEntity
  8
寸法線
 62
     2
370
    -2
100
AcDbBlockReference
  2
_OPEN
 10
31.1692829121753
 20
202.9806572545584
 30
0.0
 41
2.5
 42
2.5
 43
2.5
 50
90.0
  0
INSERT
  5
3690
330
2246
100
AcDbEntity
  8
寸法線
 62
     2
370
    -2
100
AcDbBlockReference
  2
_OPEN
 10
31.16928291217527
 20
41.48065725455833
 30
0.0
 41
2.5
 42
2.5
 43
2.5
 50
270.0
  0
MTEXT
  5
3691
330
2246
100
AcDbEntity
  8
寸法線
 62
     6
100
AcDbMText
 10
29.29428291217526
 20
122.2306572545583
 30
0.0
 40
2.5
 41
0.0
 71
     5
 72
     1
  1
\A1;161.5
  7
STYLE3
 11
0.0000000000000001
 21
1.0
 31
0.0
 73
     1
 44
1.0
  0
POINT
  5
3692
330
2246
100
AcDbEntity
  8
DEFPOINTS
 62
     0
100
AcDbPoint
 10
90.59572707326003
 20
202.9806572545583
 30
0.0
  0
POINT
  5
3693
330
2246
100
AcDbEntity
  8
DEFPOINTS
 62
     0
100
AcDbPoint
 10
90.59572707326003
 20
41.48065725455831
 30
0.0
  0
POINT
  5
3694
330
2246
100
AcDbEntity
  8
DEFPOINTS
 62
     0
100
AcDbPoint
 10
31.16928291217527
 20
41.48065725455833
 30
0.0
  0
ENDBLK
  5
2251
330
2246
100
AcDbEntity
  8
0
100
AcDbBlockEnd
  0
BLOCK
  5
27C6
330
27BC
100
AcDbEntity
  8
0
100
AcDbBlockBegin
  2
*D8
 70
     1
 10
0.0
 20
0.0
 30
0.0
  3
*D8
  1

  0
LINE
  5
27C8
330
27BC
100
AcDbEntity
  8
寸法線
 62
     2
370
    -2
100
AcDbLine
 10
174.9935474326373
 20
168.9806572545583
 30
0.0
 11
163.3784798397812
 21
168.9806572545583
 31
0.0
  0
LINE
  5
27C9
330
27BC
100
AcDbEntity
  8
寸法線
 62
     2
370
    -2
100
AcDbLine
 10
174.9935474326371
 20
108.9806572545596
 30
0.0
 11
163.3784798397812
 21
108.9806572545596
 31
0.0
  0
LINE
  5
27CA
330
27BC
100
AcDbEntity
  8
寸法線
 62
     2
370
    -2
100
AcDbLine
 10
164.6284798397812
 20
166.4806572545583
 30
0.0
 11
164.6284798397812
 21
111.4806572545596
 31
0.0
  0
INSERT
  5
27CB
330
27BC
100
AcDbEntity
  8
寸法線
 62
     2
370
    -2
100
AcDbBlockReference
  2
_OPEN
 10
164.6284798397812
 20
168.9806572545583
 30
0.0
 41
2.5
 42
2.5
 43
2.5
 50
90.0
  0
INSERT
  5
27CC
330
27BC
100
AcDbEntity
  8
寸法線
 62
     2
370
    -2
100
AcDbBlockReference
  2
_OPEN
 10
164.6284798397812
 20
108.9806572545596
 30
0.0
 41
2.5
 42
2.5
 43
2.5
 50
270.0
  0
MTEXT
  5
27CD
330
27BC
100
AcDbEntity
  8
寸法線
 62
     6
100
AcDbMText
 10
162.7534798397812
 20
138.980657254559
 30
0.0
 40
2.5
 41
0.0
 71
     5
 72
     1
  1
\A1;%%C60
  7
STYLE3
 11
0.0000000000000001
 21
1.0
 31
0.0
 73
     1
 44
1.0
  0
POINT
  5
27CE
330
27BC
100
AcDbEntity
  8
DEFPOINTS
 62
     0
100
AcDbPoint
 10
174.9935474326373
 20
168.9806572545583
 30
0.0
  0
POINT
  5
27CF
330
27BC
100
AcDbEntity
  8
DEFPOINTS
 62
     0
100
AcDbPoint
 10
174.9935474326371
 20
108.9806572545596
 30
0.0
  0
POINT
  5
27D0
330
27BC
100
AcDbEntity
  8
DEFPOINTS
 62
     0
100
AcDbPoint
 10
164.6284798397812
 20
108.9806572545596
 30
0.0
  0
ENDBLK
  5
27C7
330
27BC
100
AcDbEntity
  8
0
100
AcDbBlockEnd
  0
BLOCK
  5
3319
330
330D
100
AcDbEntity
  8
0
100
AcDbBlockBegin
  2
*D9
 70
     1
 10
0.0
 20
0.0
 30
0.0
  3
*D9
  1

  0
LINE
  5
360D
330
330D
100
AcDbEntity
  8
寸法線
 62
     2
370
    -2
100
AcDbLine
 10
193.9935474326372
 20
56.48065725455836
 30
0.0
 11
193.9935474326372
 21
33.13129696923488
 31
0.0
  0
LINE
  5
360E
330
330D
100
AcDbEntity
  8
寸法線
 62
     2
370
    -2
100
AcDbLine
 10
198.9935474326372
 20
56.48065725455836
 30
0.0
 11
198.9935474326372
 21
33.13129696923488
 31
0.0
  0
LINE
  5
360F
330
330D
100
AcDbEntity
  8
寸法線
 62
     2
370
    -2
100
AcDbLine
 10
191.4935474326372
 20
34.38129696923488
 30
0.0
 11
188.9935474326372
 21
34.38129696923488
 31
0.0
  0
LINE
  5
3610
330
330D
100
AcDbEntity
  8
寸法線
 62
     2
370
    -2
100
AcDbLine
 10
201.4935474326372
 20
34.38129696923488
 30
0.0
 11
203.9935474326372
 21
34.38129696923488
 31
0.0
  0
LINE
  5
3611
330
330D
100
AcDbEntity
  8
寸法線
 62
     2
370
    -2
100
AcDbLine
 10
193.9935474326372
 20
34.38129696923488
 30
0.0
 11
198.9935474326372
 21
34.38129696923488
 31
0.0
  0
INSERT
  5
3612
330
330D
100
AcDbEntity
  8
寸法線
 62
     2
370
    -2
100
AcDbBlockReference
  2
_OPEN
 10
193.9935474326372
 20
34.38129696923488
 30
0.0
 41
2.5
 42
2.5
 43
2.5
  0
INSERT
  5
3613
330
330D
100
AcDbEntity
  8
寸法線
 62
     2
370
    -2
100
AcDbBlockReference
  2
_OPEN
 10
198.9935474326372
 20
34.38129696923488
 30
0.0
 41
2.5
 42
2.5
 43
2.5
 50
180.0
  0
MTEXT
  5
3614
330
330D
100
AcDbEntity
  8
寸法線
 62
     6
100
AcDbMText
 10
196.4935474326372
 20
36.25629696923488
 30
0.0
 40
2.5
 41
0.0
 71
     5
 72
     1
  1
\A1;%%C5
  7
STYLE3
 73
     1
 44
1.0
  0
POINT
  5
3615
330
330D
100
AcDbEntity
  8
DEFPOINTS
 62
     0
100
AcDbPoint
 10
193.9935474326372
 20
56.48065725455836
 30
0.0
  0
POINT
  5
3616
330
330D
100
AcDbEntity
  8
DEFPOINTS
 62
     0
100
AcDbPoint
 10
198.9935474326372
 20
56.48065725455836
 30
0.0
  0
POINT
  5
3617
330
330D
100
AcDbEntity
  8
DEFPOINTS
 62
     0
100
AcDbPoint
 10
198.9935474326372
 20
34.38129696923488
 30
0.0
  0
ENDBLK
  5
331A
330
330D
100
AcDbEntity
  8
0
100
AcDbBlockEnd
  0
ENDSEC
  0
SECTION
  2
ENTITIES
  0
LWPOLYLINE
  5
26C
330
18
100
AcDbEntity
  8
C
100
AcDbPolyline
 90
        5
 70
     0
 43
0.4
 10
0.0
 20
217.7198361406849
 10
255.0
 20
217.7198361406849
 10
255.0
 20
22.71983614068495
 10
0.0
 20
22.71983614068495
 10
0.0
 20
217.7198361406849
  0
LINE
  5
280
330
18
100
AcDbEntity
  8
C
100
AcDbLine
 10
228.925
 20
22.71983614068495
 30
0.0
 11
254.85
 21
22.71983614068495
 31
0.0
  0
LINE
  5
305
330
18
100
AcDbEntity
  8
中心線
100
AcDbLine
 10
90.59572707326003
 20
205.918613668389
 30
0.0
 11
90.59572707326003
 21
39.93182159792571
 31
0.0
  0
MTEXT
  5
663
330
18
100
AcDbEntity
  8
DEFPOINTS
  6
Continuous
100
AcDbMText
 10
1007.302375181315
 20
334.9201117568839
 30
0.0
 40
1.0
 41
0.0
 71
     4
 72
     1
  1
\A1;
 73
     1
 44
1.0
  0
MTEXT
  5
6BC
330
18
100
AcDbEntity
  8
文字
100
AcDbMText
 10
574.4415847393145
 20
360.9980939951181
 30
0.0
 40
1.0
 41
6.927999999999999
 71
     1
 72
     5
  1

  7
STYLE3
 73
     1
 44
1.0
  0
MTEXT
  5
71B
330
18
100
AcDbEntity
  8
DEFPOINTS
  6
Continuous
100
AcDbMText
 10
896.177394394456
 20
284.2456452825689
 30
0.0
 40
0.35
 41
0.0
 71
     4
 72
     1
  1
\A1;
 73
     1
 44
1.0
  0
LINE
  5
8EC
330
18
100
AcDbEntity
  8
外形線
100
AcDbLine
 10
53.09572707326004
 20
61.58065725455833
 30
0.0
 11
128.09572707326
 21
61.58065725455833
 31
0.0
  0
LINE
  5
92D
330
18
100
AcDbEntity
  8
外形線
100
AcDbLine
 10
79.59572707326003
 20
97.58065725455834
 30
0.0
 11
79.59572707326003
 21
83.58065725455835
 31
0.0
  0
LINE
  5
92E
330
18
100
AcDbEntity
  8
外形線
100
AcDbLine
 10
101.59572707326
 20
97.58065725455834
 30
0.0
 11
101.59572707326
 21
83.58065725455833
 31
0.0
  0
LINE
  5
92F
330
18
100
AcDbEntity
  8
外形線
100
AcDbLine
 10
111.59572707326
 20
73.58065725455833
 30
0.0
 11
124.09572707326
 21
73.58065725455833
 31
0.0
  0
ARC
  5
932
330
18
100
AcDbEntity
  8
外形線
100
AcDbCircle
 10
111.59572707326
 20
83.58065725455833
 30
0.0
 40
10.0
100
AcDbArc
 50
180.0
 51
270.0
  0
LINE
  5
933
330
18
100
AcDbEntity
  8
外形線
100
AcDbLine
 10
57.09572707326003
 20
73.58065725455833
 30
0.0
 11
69.59572707326003
 21
73.58065725455834
 31
0.0
  0
ARC
  5
934
330
18
100
AcDbEntity
  8
外形線
100
AcDbCircle
 10
69.59572707326003
 20
83.58065725455835
 30
0.0
 40
10.0
100
AcDbArc
 50
270.0
 51
0.0
  0
LINE
  5
941
330
18
100
AcDbEntity
  8
外形線
100
AcDbLine
 10
81.59572707326002
 20
99.58065725455831
 30
0.0
 11
79.59572707326003
 21
97.58065725455834
 31
0.0
  0
LINE
  5
942
330
18
100
AcDbEntity
  8
外形線
100
AcDbLine
 10
99.59572707326005
 20
99.58065725455831
 30
0.0
 11
101.59572707326
 21
97.58065725455834
 31
0.0
  0
LINE
  5
943
330
18
100
AcDbEntity
  8
中心線
100
AcDbLine
 10
78.0167163570469
 20
92.58065725455834
 30
0.0
 11
103.4671334820498
 21
92.58065725455834
 31
0.0
  0
LINE
  5
944
330
18
100
AcDbEntity
  8
中心線
 48
0.4
100
AcDbLine
 10
83.59572707326003
 20
99.07836021804934
 30
0.0
 11
83.59572707326003
 21
86.08295429106732
 31
0.0
  0
LINE
  5
945
330
18
100
AcDbEntity
  8
中心線
 48
0.4
100
AcDbLine
 10
97.59572707326004
 20
99.04781581805739
 30
0.0
 11
97.59572707326004
 21
86.11349869105927
 31
0.0
  0
CIRCLE
  5
952
330
18
100
AcDbEntity
  8
外形線
100
AcDbCircle
 10
83.59572707326003
 20
92.58065725455834
 30
0.0
 40
3.0
  0
CIRCLE
  5
954
330
18
100
AcDbEntity
  8
外形線
100
AcDbCircle
 10
97.59572707326004
 20
92.58065725455834
 30
0.0
 40
3.0
  0
MTEXT
  5
D14
330
18
100
AcDbEntity
  8
DEFPOINTS
  6
Continuous
100
AcDbMText
 10
998.3960534921905
 20
332.695293381138
 30
0.0
 40
1.0
 41
0.0
 71
     4
 72
     1
  1
\A1;
 73
     1
 44
1.0
  0
MTEXT
  5
D5E
330
18
100
AcDbEntity
  8
文字
100
AcDbMText
 10
565.53526305019
 20
358.7732756193721
 30
0.0
 40
1.0
 41
6.927999999999999
 71
     1
 72
     5
  1

  7
STYLE3
 73
     1
 44
1.0
  0
MTEXT
  5
DAC
330
18
100
AcDbEntity
  8
DEFPOINTS
  6
Continuous
100
AcDbMText
 10
887.2710727053314
 20
282.0208269068229
 30
0.0
 40
0.35
 41
0.0
 71
     4
 72
     1
  1
\A1;
 73
     1
 44
1.0
  0
LINE
  5
F97
330
18
100
AcDbEntity
  8
外形線
100
AcDbLine
 10
53.09572707326004
 20
69.58065725455833
 30
0.0
 11
53.09572707326004
 21
61.58065725455833
 31
0.0
  0
LINE
  5
F98
330
18
100
AcDbEntity
  8
外形線
100
AcDbLine
 10
128.09572707326
 20
69.58065725455833
 30
0.0
 11
128.09572707326
 21
61.58065725455833
 31
0.0
  0
ARC
  5
F99
330
18
100
AcDbEntity
  8
外形線
100
AcDbCircle
 10
124.09572707326
 20
69.58065725455833
 30
0.0
 40
4.0
100
AcDbArc
 50
0.0
 51
90.0
  0
ARC
  5
F9A
330
18
100
AcDbEntity
  8
外形線
100
AcDbCircle
 10
57.09572707326003
 20
69.58065725455833
 30
0.0
 40
4.0
100
AcDbArc
 50
90.00000000000005
 51
180.0
  0
MTEXT
  5
102E
330
18
100
AcDbEntity
  8
DEFPOINTS
  6
Continuous
100
AcDbMText
 10
1001.73119290509
 20
331.5882610650886
 30
0.0
 40
1.0
 41
0.0
 71
     4
 72
     1
  1
\A1;
 73
     1
 44
1.0
  0
MTEXT
  5
1078
330
18
100
AcDbEntity
  8
文字
100
AcDbMText
 10
568.8704024630892
 20
357.6662433033228
 30
0.0
 40
1.0
 41
6.927999999999999
 71
     1
 72
     5
  1

  7
STYLE3
 73
     1
 44
1.0
  0
MTEXT
  5
10C6
330
18
100
AcDbEntity
  8
DEFPOINTS
  6
Continuous
100
AcDbMText
 10
890.6062121182308
 20
280.9137945907736
 30
0.0
 40
0.35
 41
0.0
 71
     4
 72
     1
  1
\A1;
 73
     1
 44
1.0
  0
LINE
  5
1272
330
18
100
AcDbEntity
  8
外形線
100
AcDbLine
 10
190.9935474326374
 20
73.58065725455833
 30
0.0
 11
201.9935474326373
 21
73.58065725455833
 31
0.0
  0
LINE
  5
1273
330
18
100
AcDbEntity
  8
外形線
100
AcDbLine
 10
190.9935474326374
 20
61.58065725455833
 30
0.0
 11
201.9935474326374
 21
61.58065725455833
 31
0.0
  0
LINE
  5
1274
330
18
100
AcDbEntity
  8
外形線
 48
0.5
100
AcDbLine
 10
190.9935474326373
 20
99.58065725455833
 30
0.0
 11
190.9935474326374
 21
61.58065725455833
 31
0.0
  0
LINE
  5
1275
330
18
100
AcDbEntity
  8
外形線
 48
0.5
100
AcDbLine
 10
201.9935474326373
 20
99.58065725455833
 30
0.0
 11
201.9935474326374
 21
61.58065725455833
 31
0.0
  0
LINE
  5
1298
330
18
100
AcDbEntity
  8
外形線
100
AcDbLine
 10
93.09572707325997
 20
56.48065725455836
 30
0.0
 11
88.09572707326001
 21
56.48065725455824
 31
0.0
  0
LINE
  5
129A
330
18
100
AcDbEntity
  8
外形線
100
AcDbLine
 10
92.79572707326002
 20
56.48065725455833
 30
0.0
 11
91.84572707326003
 21
56.48065725455833
 31
0.0
  0
DIMENSION
  5
12BF
330
18
100
AcDbEntity
  8
外形線
100
AcDbDimension
  2
*D1
 10
41.97458312400374
 20
41.48065725455835
 30
0.0
 11
40.09958312400374
 21
51.53065725455835
 31
0.0
 70
    32
 71
     5
 42
20.09999999999999
  3
STYLE3
100
AcDbAlignedDimension
 13
53.09572707326004
 23
61.58065725455833
 33
0.0
 14
90.59572707326003
 24
41.48065725455833
 34
0.0
 50
90.0
100
AcDbRotatedDimension
1001
ACAD
1000
DSTYLE
1002
{
1070
    75
1070
     1
1070
   271
1070
     2
1070
   279
1070
     1
1002
}
  0
DIMENSION
  5
12F1
330
18
100
AcDbEntity
  8
外形線
100
AcDbDimension
  2
*D2
 10
201.9935474326374
 20
28.06376923347034
 30
0.0
 11
196.4935474326374
 21
29.93876923347034
 31
0.0
 70
    32
 71
     5
 42
10.99999999999997
  3
STYLE3
100
AcDbAlignedDimension
 13
190.9935474326374
 23
61.58065725455833
 33
0.0
 14
201.9935474326374
 24
61.58065725455833
 34
0.0
100
AcDbRotatedDimension
1001
ACAD
1000
DSTYLE
1002
{
1070
   271
1070
     2
1002
}
  0
LWPOLYLINE
  5
12F2
330
18
100
AcDbEntity
  8
外形線
100
AcDbPolyline
 90
        6
 70
     1
 43
0.0
 10
82.72072707326003
 20
94.0962017111811
 10
81.84572707326003
 20
92.58065725455834
 10
82.72072707326003
 20
91.06511279793556
 10
84.47072707326004
 20
91.06511279793556
 10
85.34572707326004
 20
92.58065725455834
 10
84.47072707326004
 20
94.0962017111811
  0
LWPOLYLINE
  5
12F3
330
18
100
AcDbEntity
  8
外形線
100
AcDbPolyline
 90
        6
 70
     1
 43
0.0
 10
96.72072707326003
 20
94.0962017111811
 10
95.84572707326003
 20
92.58065725455834
 10
96.72072707326003
 20
91.06511279793556
 10
98.47072707326004
 20
91.06511279793556
 10
99.34572707326005
 20
92.58065725455834
 10
98.47072707326004
 20
94.0962017111811
  0
LINE
  5
12F4
330
18
100
AcDbEntity
  8
外形線
 48
0.5
100
AcDbLine
 10
195.7435474326374
 20
99.58065725455835
 30
0.0
 11
195.7435474326374
 21
75.58065725455833
 31
0.0
  0
LINE
  5
12F5
330
18
100
AcDbEntity
  8
外形線
 48
0.5
100
AcDbLine
 10
197.2435474326373
 20
99.58065725455835
 30
0.0
 11
197.2435474326374
 21
75.58065725455833
 31
0.0
  0
LINE
  5
12F7
330
18
100
AcDbEntity
  8
外形線
100
AcDbLine
 10
190.9935474326373
 20
99.58065725455833
 30
0.0
 11
195.7435474326374
 21
99.58065725455835
 31
0.0
  0
LINE
  5
12F8
330
18
100
AcDbEntity
  8
外形線
100
AcDbLine
 10
195.7435474326374
 20
75.58065725455833
 30
0.0
 11
197.2435474326374
 21
75.58065725455833
 31
0.0
  0
LINE
  5
130E
330
18
100
AcDbEntity
  8
外形線
100
AcDbLine
 10
197.2435474326373
 20
99.58065725455835
 30
0.0
 11
201.9935474326373
 21
99.58065725455833
 31
0.0
  0
LINE
  5
130F
330
18
100
AcDbEntity
  8
中心線
 48
0.5
100
AcDbLine
 10
187.4330601221288
 20
92.58065725455834
 30
0.0
 11
205.986309984592
 21
92.58065725455834
 31
0.0
  0
LINE
  5
134A
330
18
100
AcDbEntity
  8
0
  6
ByBlock
 62
     2
100
AcDbLine
 10
53.09572707326004
 20
61.58065725455833
 30
0.0
 11
53.09572707326004
 21
31.44630973049903
 31
0.0
  0
LINE
  5
134B
330
18
100
AcDbEntity
  8
0
  6
ByBlock
 62
     2
100
AcDbLine
 10
128.09572707326
 20
61.58065725455833
 30
0.0
 11
128.09572707326
 21
31.44630973049903
 31
0.0
  0
LINE
  5
134C
330
18
100
AcDbEntity
  8
0
  6
ByBlock
 62
     2
100
AcDbLine
 10
55.59572707326004
 20
32.69630973049903
 30
0.0
 11
125.59572707326
 21
32.69630973049903
 31
0.0
  0
INSERT
  5
134D
330
18
100
AcDbEntity
  8
0
  6
ByBlock
 62
     2
100
AcDbBlockReference
  2
_OPEN
 10
53.09572707326004
 20
32.69630973049903
 30
0.0
 41
2.5
 42
2.5
 43
2.5
 50
180.0
  0
INSERT
  5
134E
330
18
100
AcDbEntity
  8
0
  6
ByBlock
 62
     2
100
AcDbBlockReference
  2
_OPEN
 10
128.09572707326
 20
32.69630973049903
 30
0.0
 41
2.5
 42
2.5
 43
2.5
  0
MTEXT
  5
134F
330
18
100
AcDbEntity
  8
0
  6
ByBlock
 62
     6
100
AcDbMText
 10
90.59572707326003
 20
34.57130973049903
 30
0.0
 40
2.5
 41
0.0
 71
     5
 72
     1
  1
\A1;75
  7
STYLE3
 73
     1
 44
1.0
  0
POINT
  5
1350
330
18
100
AcDbEntity
  8
DEFPOINTS
  6
ByBlock
 62
     0
100
AcDbPoint
 10
53.09572707326004
 20
61.58065725455833
 30
0.0
  0
POINT
  5
1351
330
18
100
AcDbEntity
  8
DEFPOINTS
  6
ByBlock
 62
     0
100
AcDbPoint
 10
128.09572707326
 20
61.58065725455833
 30
0.0
  0
POINT
  5
1352
330
18
100
AcDbEntity
  8
DEFPOINTS
  6
ByBlock
 62
     0
100
AcDbPoint
 10
128.09572707326
 20
32.69630973049903
 30
0.0
  0
LINE
  5
1356
330
18
100
AcDbEntity
  8
外形線
100
AcDbLine
 10
190.9935474326373
 20
97.58065725455834
 30
0.0
 11
195.7435474326374
 21
97.58065725455832
 31
0.0
  0
LINE
  5
1357
330
18
100
AcDbEntity
  8
外形線
100
AcDbLine
 10
197.2435474326373
 20
97.58065725455832
 30
0.0
 11
201.9935474326373
 21
97.58065725455834
 31
0.0
  0
LINE
  5
1750
330
18
100
AcDbEntity
  8
外形線
100
AcDbLine
 10
94.59572707326003
 20
103.8806572545583
 30
0.0
 11
94.59572707326003
 21
99.5806572545583
 31
0.0
  0
LINE
  5
1751
330
18
100
AcDbEntity
  8
外形線
100
AcDbLine
 10
86.59572707326004
 20
103.8806572545583
 30
0.0
 11
86.59572707325999
 21
99.58065725455831
 31
0.0
  0
LINE
  5
17AF
330
18
100
AcDbEntity
  8
外形線
100
AcDbLine
 10
192.4935474326373
 20
103.8806572545583
 30
0.0
 11
192.4935474326372
 21
99.58065725455837
 31
0.0
  0
LINE
  5
17B0
330
18
100
AcDbEntity
  8
外形線
100
AcDbLine
 10
200.4935474326373
 20
103.8806572545583
 30
0.0
 11
200.4935474326373
 21
99.58065725455833
 31
0.0
  0
ARC
  5
1A1F
330
18
100
AcDbEntity
  8
外形線
100
AcDbCircle
 10
90.59572707326003
 20
42.4806572545583
 30
0.0
 40
1.0
100
AcDbArc
 50
180.0000000000022
 51
359.9999999999847
  0
LINE
  5
1A20
330
18
100
AcDbEntity
  8
外形線
100
AcDbLine
 10
93.09572707325997
 20
56.48065725455836
 30
0.0
 11
93.09572707326003
 21
51.48065725455836
 31
0.0
  0
LINE
  5
1A21
330
18
100
AcDbEntity
  8
外形線
100
AcDbLine
 10
88.09572707325997
 20
56.48065725455836
 30
0.0
 11
88.09572707326003
 21
51.48065725455825
 31
0.0
  0
LINE
  5
1A22
330
18
100
AcDbEntity
  8
外形線
100
AcDbLine
 10
93.09572707326003
 20
51.48065725455836
 30
0.0
 11
88.09572707326003
 21
51.48065725455825
 31
0.0
  0
LINE
  5
1A23
330
18
100
AcDbEntity
  8
外形線
100
AcDbLine
 10
88.09572707326003
 20
51.48065725455825
 30
0.0
 11
89.59572707326003
 21
42.4806572545583
 31
0.0
  0
LINE
  5
1A24
330
18
100
AcDbEntity
  8
外形線
100
AcDbLine
 10
93.0957270732601
 20
51.48065725455836
 30
0.0
 11
91.59572707326004
 21
42.4806572545583
 31
0.0
  0
HATCH
  5
1A2C
330
18
100
AcDbEntity
  8
中心線
100
AcDbHatch
 10
0.0
 20
0.0
 30
0.0
210
0.0
220
0.0
230
1.0
  2
ANSI31
 70
     0
 71
     0
 91
        1
 92
        7
 72
     0
 73
     1
 93
        4
 10
90.59572707326003
 20
56.48065725455832
 10
88.09572707325997
 20
56.48065725455836
 10
88.0957270732601
 20
51.48065725455825
 10
90.59572707326003
 20
51.48065725455831
 97
        0
 75
     0
 76
     1
 52
15.0
 41
0.5
 77
     0
 78
     1
 53
60.0
 43
-255.1436496294906
 44
16.29774947152776
 45
-1.374815328507796
 46
0.7937500000000002
 79
     0
 47
0.034048834291334
 98
        1
 10
89.37691745433211
 20
53.03322961739894
  0
HATCH
  5
1A32
330
18
100
AcDbEntity
  8
中心線
100
AcDbHatch
 10
0.0
 20
0.0
 30
0.0
210
0.0
220
0.0
230
1.0
  2
ANSI31
 70
     0
 71
     0
 91
        1
 92
        7
 72
     0
 73
     1
 93
        4
 10
90.59572707326003
 20
56.48065725455831
 10
88.09572707325997
 20
56.48065725455836
 10
88.09572707326003
 20
51.48065725455825
 10
90.59572707325997
 20
51.48065725455831
 97
        0
 75
     0
 76
     1
 52
75.0
 41
0.5
 77
     0
 78
     1
 53
120.0
 43
-255.1436496294906
 44
16.29774947152776
 45
-1.374815328507796
 46
-0.79375
 79
     0
 47
0.034048834291334
 98
        1
 10
90.12657593775713
 20
53.68015708712125
  0
LINE
  5
1A4B
330
18
100
AcDbEntity
  8
外形線
100
AcDbLine
 10
92.59572707326004
 20
61.58065725455834
 30
0.0
 11
92.59572707326004
 21
56.48065725455833
 31
0.0
  0
LINE
  5
1A4C
330
18
100
AcDbEntity
  8
外形線
100
AcDbLine
 10
88.59572707326003
 20
61.58065725455834
 30
0.0
 11
88.59572707326003
 21
56.48065725455833
 31
0.0
  0
LINE
  5
1A4E
330
18
100
AcDbEntity
  8
外形線
100
AcDbLine
 10
99.59572707326005
 20
99.58065725455831
 30
0.0
 11
81.59572707326002
 21
99.58065725455831
 31
0.0
  0
LINE
  5
1A50
330
18
100
AcDbEntity
  8
外形線
100
AcDbLine
 10
193.9935474326373
 20
51.48065725455825
 30
0.0
 11
195.4935474326373
 21
42.4806572545583
 31
0.0
  0
LINE
  5
1A51
330
18
100
AcDbEntity
  8
外形線
100
AcDbLine
 10
198.9935474326373
 20
51.48065725455836
 30
0.0
 11
197.4935474326373
 21
42.4806572545583
 31
0.0
  0
ARC
  5
1A52
330
18
100
AcDbEntity
  8
外形線
100
AcDbCircle
 10
196.4935474326373
 20
42.4806572545583
 30
0.0
 40
1.0
100
AcDbArc
 50
180.0000000000022
 51
359.9999999999847
  0
LINE
  5
1A53
330
18
100
AcDbEntity
  8
外形線
100
AcDbLine
 10
194.4935474326373
 20
61.58065725455833
 30
0.0
 11
194.4935474326373
 21
56.48065725455833
 31
0.0
  0
LINE
  5
1A54
330
18
100
AcDbEntity
  8
外形線
100
AcDbLine
 10
198.4935474326373
 20
61.58065725455833
 30
0.0
 11
198.4935474326373
 21
56.48065725455833
 31
0.0
  0
HATCH
  5
1A55
330
18
100
AcDbEntity
  8
中心線
100
AcDbHatch
 10
0.0
 20
0.0
 30
0.0
210
0.0
220
0.0
230
1.0
  2
ANSI31
 70
     0
 71
     0
 91
        1
 92
        7
 72
     0
 73
     1
 93
        4
 10
196.4935474326373
 20
56.48065725455831
 10
193.9935474326372
 20
56.48065725455836
 10
193.9935474326373
 20
51.48065725455825
 10
196.4935474326372
 20
51.48065725455831
 97
        0
 75
     0
 76
     1
 52
75.0
 41
0.5
 77
     0
 78
     1
 53
120.0
 43
-149.2458292701133
 44
16.29774947152776
 45
-1.374815328507796
 46
-0.79375
 79
     0
 47
0.034048834291334
 98
        1
 10
196.0243962971344
 20
53.68015708712125
  0
HATCH
  5
1A56
330
18
100
AcDbEntity
  8
中心線
100
AcDbHatch
 10
0.0
 20
0.0
 30
0.0
210
0.0
220
0.0
230
1.0
  2
ANSI31
 70
     0
 71
     0
 91
        1
 92
        7
 72
     0
 73
     1
 93
        4
 10
196.4935474326373
 20
56.48065725455832
 10
193.9935474326372
 20
56.48065725455836
 10
193.9935474326373
 20
51.48065725455825
 10
196.4935474326373
 20
51.48065725455831
 97
        0
 75
     0
 76
     1
 52
15.0
 41
0.5
 77
     0
 78
     1
 53
60.0
 43
-149.2458292701133
 44
16.29774947152776
 45
-1.374815328507796
 46
0.7937500000000002
 79
     0
 47
0.034048834291334
 98
        1
 10
195.2747378137094
 20
53.03322961739894
  0
LINE
  5
1A57
330
18
100
AcDbEntity
  8
外形線
100
AcDbLine
 10
198.9935474326372
 20
56.48065725455836
 30
0.0
 11
198.9935474326373
 21
51.48065725455836
 31
0.0
  0
LINE
  5
1A58
330
18
100
AcDbEntity
  8
外形線
100
AcDbLine
 10
193.9935474326372
 20
56.48065725455836
 30
0.0
 11
193.9935474326373
 21
51.48065725455825
 31
0.0
  0
LINE
  5
1A59
330
18
100
AcDbEntity
  8
外形線
100
AcDbLine
 10
198.9935474326373
 20
51.48065725455836
 30
0.0
 11
193.9935474326373
 21
51.48065725455825
 31
0.0
  0
LINE
  5
1A5A
330
18
100
AcDbEntity
  8
外形線
100
AcDbLine
 10
198.9935474326372
 20
56.48065725455836
 30
0.0
 11
193.9935474326373
 21
56.48065725455824
 31
0.0
  0
LINE
  5
1A5B
330
18
100
AcDbEntity
  8
外形線
100
AcDbLine
 10
198.6935474326373
 20
56.48065725455833
 30
0.0
 11
197.7435474326373
 21
56.48065725455833
 31
0.0
  0
LINE
  5
1AD3
330
18
100
AcDbEntity
  8
外形線
 48
0.5
100
AcDbLine
 10
195.7435474326374
 20
94.08065725455832
 30
0.0
 11
197.2435474326373
 21
94.08065725455832
 31
0.0
  0
LINE
  5
1AD4
330
18
100
AcDbEntity
  8
外形線
 48
0.5
100
AcDbLine
 10
195.7435474326374
 20
91.08065725455832
 30
0.0
 11
197.2435474326373
 21
91.08065725455833
 31
0.0
  0
LINE
  5
1AD5
330
18
100
AcDbEntity
  8
中心線
 48
0.5
100
AcDbLine
 10
195.7435474326374
 20
93.58065725455832
 30
0.0
 11
197.2435474326373
 21
93.58065725455833
 31
0.0
  0
LINE
  5
1AD6
330
18
100
AcDbEntity
  8
中心線
 48
0.5
100
AcDbLine
 10
195.7435474326374
 20
91.58065725455832
 30
0.0
 11
197.2435474326373
 21
91.58065725455832
 31
0.0
  0
LINE
  5
1E12
330
18
100
AcDbEntity
  8
中心線
100
AcDbLine
 10
168.3458961970766
 20
138.9806572545583
 30
0.0
 11
212.199310553852
 21
138.9806572545583
 31
0.0
  0
LINE
  5
1E13
330
18
100
AcDbEntity
  8
外形線
100
AcDbLine
 10
189.9935474326374
 20
168.3806572545583
 30
0.0
 11
205.9935474326374
 21
168.3806572545582
 31
0.0
  0
LINE
  5
1E14
330
18
100
AcDbEntity
  8
外形線
100
AcDbLine
 10
189.9935474326373
 20
109.5806572545583
 30
0.0
 11
205.9935474326374
 21
109.5806572545583
 31
0.0
  0
LINE
  5
1E15
330
18
100
AcDbEntity
  8
外形線
100
AcDbLine
 10
205.9935474326374
 20
168.3806572545582
 30
0.0
 11
205.9935474326374
 21
109.5806572545583
 31
0.0
  0
LINE
  5
1E16
330
18
100
AcDbEntity
  8
外形線
100
AcDbLine
 10
174.9935474326373
 20
168.9806572545583
 30
0.0
 11
174.9935474326373
 21
108.9806572545583
 31
0.0
  0
LINE
  5
1E17
330
18
100
AcDbEntity
  8
外形線
100
AcDbLine
 10
204.4935474326374
 20
168.3806572545582
 30
0.0
 11
204.4935474326374
 21
109.5806572545583
 31
0.0
  0
LINE
  5
1E18
330
18
100
AcDbEntity
  8
外形線
100
AcDbLine
 10
203.4935474326374
 20
168.3806572545582
 30
0.0
 11
203.4935474326374
 21
109.5806572545583
 31
0.0
  0
LINE
  5
1E19
330
18
100
AcDbEntity
  8
外形線
100
AcDbLine
 10
187.9935474326374
 20
169.9806572545583
 30
0.0
 11
187.9935474326375
 21
165.4806572545583
 31
0.0
  0
LINE
  5
1E1A
330
18
100
AcDbEntity
  8
外形線
100
AcDbLine
 10
182.4935474326373
 20
169.9806572545583
 30
0.0
 11
182.4935474326374
 21
165.4806572545583
 31
0.0
  0
LINE
  5
1E1B
330
18
100
AcDbEntity
  8
外形線
100
AcDbLine
 10
174.9935474326373
 20
168.9806572545582
 30
0.0
 11
182.4935474326373
 21
168.9806572545583
 31
0.0
  0
LINE
  5
1E1C
330
18
100
AcDbEntity
  8
外形線
100
AcDbLine
 10
174.9935474326374
 20
108.9806572545583
 30
0.0
 11
187.9935474326376
 21
108.9806572545583
 31
0.0
  0
LINE
  5
1E1D
330
18
100
AcDbEntity
  8
外形線
100
AcDbLine
 10
182.4935474326373
 20
169.9806572545583
 30
0.0
 11
187.9935474326374
 21
169.9806572545583
 31
0.0
  0
LINE
  5
1E1E
330
18
100
AcDbEntity
  8
外形線
100
AcDbLine
 10
182.4935474326373
 20
166.4806572545583
 30
0.0
 11
187.9935474326374
 21
166.4806572545583
 31
0.0
  0
LINE
  5
1E1F
330
18
100
AcDbEntity
  8
外形線
100
AcDbLine
 10
182.4935474326374
 20
165.4806572545583
 30
0.0
 11
187.9935474326375
 21
165.4806572545583
 31
0.0
  0
LINE
  5
1E20
330
18
100
AcDbEntity
  8
外形線
100
AcDbLine
 10
187.9935474326375
 20
165.4806572545583
 30
0.0
 11
187.9935474326375
 21
108.9806572545582
 31
0.0
  0
LINE
  5
1E21
330
18
100
AcDbEntity
  8
外形線
100
AcDbLine
 10
186.9935474326375
 20
111.4806572545583
 30
0.0
 11
186.9935474326375
 21
108.9806572545582
 31
0.0
  0
LINE
  5
1E22
330
18
100
AcDbEntity
  8
外形線
100
AcDbLine
 10
181.4935474326374
 20
111.4806572545582
 30
0.0
 11
181.4935474326374
 21
108.9806572545582
 31
0.0
  0
LINE
  5
1E23
330
18
100
AcDbEntity
  8
外形線
100
AcDbLine
 10
181.4935474326374
 20
111.4806572545582
 30
0.0
 11
186.9935474326375
 21
111.4806572545583
 31
0.0
  0
LINE
  5
1E24
330
18
100
AcDbEntity
  8
外形線
100
AcDbLine
 10
173.9935474326373
 20
138.9806572545583
 30
0.0
 11
173.9935474326373
 21
127.4806572545583
 31
0.0
  0
LINE
  5
1E25
330
18
100
AcDbEntity
  8
外形線
100
AcDbLine
 10
172.3935474326373
 20
127.4806572545583
 30
0.0
 11
173.9935474326373
 21
127.4806572545583
 31
0.0
  0
ARC
  5
1E26
330
18
100
AcDbEntity
  8
外形線
100
AcDbCircle
 10
353.6108016729638
 20
143.4914639123599
 30
0.0
 40
181.9206400838717
100
AcDbArc
 50
185.0491250177044
 51
187.1079812663745
  0
LINE
  5
1E27
330
18
100
AcDbEntity
  8
外形線
100
AcDbLine
 10
172.3960854971188
 20
120.9806572545583
 30
0.0
 11
173.3960854971187
 21
120.9806572545583
 31
0.0
  0
LINE
  5
1E28
330
18
100
AcDbEntity
  8
外形線
100
AcDbLine
 10
172.3960854971188
 20
116.9806572545583
 30
0.0
 11
174.3960854971188
 21
116.9806572545583
 31
0.0
  0
LINE
  5
1E29
330
18
100
AcDbEntity
  8
外形線
100
AcDbLine
 10
173.9935474326373
 20
138.9806572545583
 30
0.0
 11
174.9935474326373
 21
138.9806572545583
 31
0.0
  0
LINE
  5
1E2A
330
18
100
AcDbEntity
  8
外形線
100
AcDbLine
 10
172.3960854971188
 20
120.9806572545583
 30
0.0
 11
172.3960854971188
 21
116.9806572545583
 31
0.0
  0
LINE
  5
1E2B
330
18
100
AcDbEntity
  8
外形線
100
AcDbLine
 10
173.3960854971187
 20
120.9806572545583
 30
0.0
 11
174.3960854971188
 21
116.9806572545583
 31
0.0
  0
ARC
  5
1E2C
330
18
100
AcDbEntity
  8
外形線
100
AcDbCircle
 10
353.6108016729638
 20
143.4914639123599
 30
0.0
 40
181.9206400838717
100
AcDbArc
 50
188.379398725257
 51
190.9354250164128
  0
LINE
  5
1E2D
330
18
100
AcDbEntity
  8
外形線
100
AcDbLine
 10
189.9935474326374
 20
168.3806572545583
 30
0.0
 11
189.9935474326373
 21
109.5806572545583
 31
0.0
  0
LINE
  5
1E2E
330
18
100
AcDbEntity
  8
外形線
100
AcDbLine
 10
187.9935474326376
 20
108.9806572545583
 30
0.0
 11
189.9935474326373
 21
109.5806572545583
 31
0.0
  0
LINE
  5
1E58
330
18
100
AcDbEntity
  8
外形線
100
AcDbLine
 10
189.9935474326374
 20
168.3806572545583
 30
0.0
 11
187.9935474326374
 21
168.9806572545583
 31
0.0
  0
LINE
  5
1F4F
330
18
100
AcDbEntity
  8
外形線
100
AcDbLine
 10
202.4935474326374
 20
184.9806572545583
 30
0.0
 11
202.4935474326374
 21
168.3806572545582
 31
0.0
  0
LINE
  5
1F50
330
18
100
AcDbEntity
  8
外形線
100
AcDbLine
 10
190.4935474326373
 20
184.9806572545582
 30
0.0
 11
190.4935474326373
 21
168.3806572545583
 31
0.0
  0
LINE
  5
1F51
330
18
100
AcDbEntity
  8
外形線
100
AcDbLine
 10
201.4935474326374
 20
193.8806572545583
 30
0.0
 11
201.4935474326374
 21
186.5806572545583
 31
0.0
  0
LINE
  5
1F52
330
18
100
AcDbEntity
  8
外形線
100
AcDbLine
 10
191.4935474326374
 20
193.8806572545584
 30
0.0
 11
191.4935474326373
 21
186.5806572545583
 31
0.0
  0
LINE
  5
1F53
330
18
100
AcDbEntity
  8
外形線
100
AcDbLine
 10
191.4935474326374
 20
186.5806572545583
 30
0.0
 11
201.4935474326374
 21
186.5806572545583
 31
0.0
  0
LINE
  5
1F54
330
18
100
AcDbEntity
  8
外形線
100
AcDbLine
 10
191.4935474326374
 20
185.9806572545583
 30
0.0
 11
201.4935474326374
 21
185.9806572545583
 31
0.0
  0
LINE
  5
1F55
330
18
100
AcDbEntity
  8
外形線
100
AcDbLine
 10
190.4935474326373
 20
184.9806572545583
 30
0.0
 11
202.4935474326374
 21
184.9806572545583
 31
0.0
  0
LINE
  5
1F56
330
18
100
AcDbEntity
  8
外形線
100
AcDbLine
 10
190.4935474326374
 20
184.9806572545583
 30
0.0
 11
191.4935474326374
 21
185.9806572545583
 31
0.0
  0
LINE
  5
1F57
330
18
100
AcDbEntity
  8
外形線
100
AcDbLine
 10
192.4935474326374
 20
186.5806572545583
 30
0.0
 11
192.4935474326374
 21
185.9806572545583
 31
0.0
  0
POINT
  5
1F58
330
18
100
AcDbEntity
  8
DEFPOINTS
  6
ByBlock
 62
     0
100
AcDbPoint
 10
191.4935474326374
 20
185.9806572545583
 30
0.0
  0
LINE
  5
1F59
330
18
100
AcDbEntity
  8
外形線
100
AcDbLine
 10
201.4935474326374
 20
185.9806572545583
 30
0.0
 11
202.4935474326374
 21
184.9806572545583
 31
0.0
  0
LINE
  5
1F5A
330
18
100
AcDbEntity
  8
外形線
100
AcDbLine
 10
200.4935474326374
 20
186.5806572545584
 30
0.0
 11
200.4935474326374
 21
185.9806572545583
 31
0.0
  0
LINE
  5
1F5B
330
18
100
AcDbEntity
  8
外形線
100
AcDbLine
 10
192.9935474326374
 20
202.9806572545583
 30
0.0
 11
199.9935474326374
 21
202.9806572545583
 31
0.0
  0
LINE
  5
1F5C
330
18
100
AcDbEntity
  8
外形線
100
AcDbLine
 10
191.4935474326375
 20
193.8806572545584
 30
0.0
 11
201.4935474326375
 21
193.8806572545583
 31
0.0
  0
LINE
  5
1F5D
330
18
100
AcDbEntity
  8
外形線
100
AcDbLine
 10
191.4935474326375
 20
195.3806572545584
 30
0.0
 11
201.4935474326375
 21
195.3806572545583
 31
0.0
  0
LINE
  5
1F5E
330
18
100
AcDbEntity
  8
外形線
100
AcDbLine
 10
191.4935474326375
 20
196.6806572545585
 30
0.0
 11
201.4935474326375
 21
196.6806572545583
 31
0.0
  0
LINE
  5
1F5F
330
18
100
AcDbEntity
  8
外形線
100
AcDbLine
 10
191.4935474326375
 20
197.6806572545585
 30
0.0
 11
201.4935474326375
 21
197.6806572545583
 31
0.0
  0
LINE
  5
1F60
330
18
100
AcDbEntity
  8
外形線
100
AcDbLine
 10
191.4935474326375
 20
198.9806572545584
 30
0.0
 11
201.4935474326375
 21
198.9806572545584
 31
0.0
  0
LINE
  5
1F61
330
18
100
AcDbEntity
  8
外形線
100
AcDbLine
 10
191.4935474326375
 20
199.9806572545584
 30
0.0
 11
201.4935474326375
 21
199.9806572545584
 31
0.0
  0
LINE
  5
1F62
330
18
100
AcDbEntity
  8
外形線
100
AcDbLine
 10
191.4935474326374
 20
201.4806572545583
 30
0.0
 11
191.4935474326374
 21
199.9806572545584
 31
0.0
  0
LINE
  5
1F63
330
18
100
AcDbEntity
  8
外形線
100
AcDbLine
 10
192.4935474326373
 20
199.9806572545584
 30
0.0
 11
192.4935474326373
 21
198.9806572545584
 31
0.0
  0
LINE
  5
1F64
330
18
100
AcDbEntity
  8
外形線
100
AcDbLine
 10
192.4935474326373
 20
197.6806572545582
 30
0.0
 11
192.4935474326374
 21
196.6806572545583
 31
0.0
  0
LINE
  5
1F65
330
18
100
AcDbEntity
  8
外形線
100
AcDbLine
 10
191.4935474326374
 20
198.9806572545584
 30
0.0
 11
191.4935474326374
 21
197.6806572545585
 31
0.0
  0
ARC
  5
1F66
330
18
100
AcDbEntity
  8
外形線
100
AcDbCircle
 10
192.9935474326374
 20
201.4806572545583
 30
0.0
 40
1.5
100
AcDbArc
 50
90.0
 51
180.0
  0
LINE
  5
1F67
330
18
100
AcDbEntity
  8
外形線
100
AcDbLine
 10
192.4935474326374
 20
195.3806572545584
 30
0.0
 11
192.4935474326374
 21
193.8806572545583
 31
0.0
  0
LINE
  5
1F68
330
18
100
AcDbEntity
  8
外形線
100
AcDbLine
 10
191.4935474326374
 20
196.6806572545585
 30
0.0
 11
191.4935474326374
 21
195.3806572545584
 31
0.0
  0
LINE
  5
1F69
330
18
100
AcDbEntity
  8
外形線
100
AcDbLine
 10
201.4935474326374
 20
201.4806572545583
 30
0.0
 11
201.4935474326374
 21
199.9806572545582
 31
0.0
  0
LINE
  5
1F6A
330
18
100
AcDbEntity
  8
外形線
100
AcDbLine
 10
200.4935474326374
 20
199.9806572545583
 30
0.0
 11
200.4935474326374
 21
198.9806572545584
 31
0.0
  0
LINE
  5
1F6B
330
18
100
AcDbEntity
  8
外形線
100
AcDbLine
 10
200.4935474326374
 20
197.6806572545583
 30
0.0
 11
200.4935474326374
 21
196.6806572545582
 31
0.0
  0
LINE
  5
1F6C
330
18
100
AcDbEntity
  8
外形線
100
AcDbLine
 10
201.4935474326374
 20
198.9806572545583
 30
0.0
 11
201.4935474326374
 21
197.6806572545582
 31
0.0
  0
ARC
  5
1F6D
330
18
100
AcDbEntity
  8
外形線
100
AcDbCircle
 10
199.9935474326374
 20
201.4806572545583
 30
0.0
 40
1.5
100
AcDbArc
 50
0.0
 51
90.0
  0
LINE
  5
1F6E
330
18
100
AcDbEntity
  8
外形線
100
AcDbLine
 10
200.4935474326374
 20
195.3806572545583
 30
0.0
 11
200.4935474326374
 21
193.8806572545583
 31
0.0
  0
LINE
  5
1F6F
330
18
100
AcDbEntity
  8
外形線
100
AcDbLine
 10
201.4935474326374
 20
196.6806572545583
 30
0.0
 11
201.4935474326374
 21
195.3806572545583
 31
0.0
  0
LINE
  5
1F70
330
18
100
AcDbEntity
  8
外形線
100
AcDbLine
 10
191.4935474326373
 20
103.8806572545583
 30
0.0
 11
201.4935474326374
 21
103.8806572545584
 31
0.0
  0
POINT
  5
1F71
330
18
100
AcDbEntity
  8
DEFPOINTS
  6
ByBlock
 62
     0
100
AcDbPoint
 10
190.4935474326373
 20
107.9806572545583
 30
0.0
  0
LINE
  5
1F72
330
18
100
AcDbEntity
  8
外形線
100
AcDbLine
 10
190.4935474326373
 20
109.5867803411602
 30
0.0
 11
190.4935474326373
 21
105.8806572545583
 31
0.0
  0
LINE
  5
1F73
330
18
100
AcDbEntity
  8
外形線
100
AcDbLine
 10
202.4935474326374
 20
109.5867803411602
 30
0.0
 11
202.4935474326374
 21
105.8806572545584
 31
0.0
  0
LINE
  5
1F74
330
18
100
AcDbEntity
  8
外形線
100
AcDbLine
 10
190.4935474326373
 20
105.8806572545583
 30
0.0
 11
202.4935474326374
 21
105.8806572545584
 31
0.0
  0
LINE
  5
1F75
330
18
100
AcDbEntity
  8
外形線
100
AcDbLine
 10
190.4935474326373
 20
105.8806572545583
 30
0.0
 11
191.4935474326373
 21
103.8806572545583
 31
0.0
  0
LINE
  5
1F76
330
18
100
AcDbEntity
  8
外形線
100
AcDbLine
 10
202.4935474326374
 20
105.8806572545584
 30
0.0
 11
201.4935474326374
 21
103.8806572545584
 31
0.0
  0
LINE
  5
1F77
330
18
100
AcDbEntity
  8
外形線
100
AcDbLine
 10
190.4935474326373
 20
106.3806572545583
 30
0.0
 11
202.4935474326374
 21
106.3806572545584
 31
0.0
  0
LINE
  5
1F78
330
18
100
AcDbEntity
  8
外形線
100
AcDbLine
 10
198.4935474326374
 20
61.58065725455833
 30
0.0
 11
198.4935474326374
 21
56.48065725455831
 31
0.0
  0
LINE
  5
1F79
330
18
100
AcDbEntity
  8
外形線
100
AcDbLine
 10
194.4935474326374
 20
61.58065725455833
 30
0.0
 11
194.4935474326373
 21
56.48065725455831
 31
0.0
  0
LINE
  5
1F8E
330
18
100
AcDbEntity
  8
外形線
100
AcDbLine
 10
194.4935474326373
 20
56.4806572545583
 30
0.0
 11
198.4935474326374
 21
56.48065725455831
 31
0.0
  0
LINE
  5
1F92
330
18
100
AcDbEntity
  8
外形線
100
AcDbLine
 10
200.4935474326374
 20
103.8806572545583
 30
0.0
 11
200.4935474326373
 21
99.58065725455833
 31
0.0
  0
LINE
  5
1F93
330
18
100
AcDbEntity
  8
外形線
100
AcDbLine
 10
192.4935474326374
 20
103.8806572545583
 30
0.0
 11
192.4935474326374
 21
99.58065725455835
 31
0.0
  0
LINE
  5
1F96
330
18
100
AcDbEntity
  8
外形線
100
AcDbLine
 10
195.7435474326374
 20
83.38065725455837
 30
0.0
 11
197.2435474326373
 21
83.38065725455837
 31
0.0
  0
LINE
  5
1F97
330
18
100
AcDbEntity
  8
外形線
100
AcDbLine
 10
195.7435474326374
 20
84.88065725455836
 30
0.0
 11
197.2435474326374
 21
84.88065725455838
 31
0.0
  0
LINE
  5
1F98
330
18
100
AcDbEntity
  8
外形線
100
AcDbLine
 10
195.7435474326374
 20
82.88065725455837
 30
0.0
 11
197.2435474326374
 21
82.88065725455835
 31
0.0
  0
LINE
  5
1F9D
330
18
100
AcDbEntity
  8
外形線
100
AcDbLine
 10
195.7435474326374
 20
87.68065725455839
 30
0.0
 11
197.2435474326373
 21
87.68065725455839
 31
0.0
  0
LINE
  5
1F9E
330
18
100
AcDbEntity
  8
外形線
100
AcDbLine
 10
195.7435474326374
 20
82.88065725455835
 30
0.0
 11
197.2435474326374
 21
82.88065725455835
 31
0.0
  0
LINE
  5
215E
330
18
100
AcDbEntity
  8
中心線
100
AcDbLine
 10
54.67676512120585
 20
138.9806572545583
 30
0.0
 11
124.9566446106215
 21
138.9806572545583
 31
0.0
  0
CIRCLE
  5
215F
330
18
100
AcDbEntity
  8
外形線
100
AcDbCircle
 10
90.59572707325997
 20
138.9806572545583
 30
0.0
 40
30.0
  0
LINE
  5
2160
330
18
100
AcDbEntity
  8
外形線
100
AcDbLine
 10
94.59572707325998
 20
103.8806572545583
 30
0.0
 11
94.59572707325998
 21
99.58065725455831
 31
0.0
  0
LINE
  5
2161
330
18
100
AcDbEntity
  8
外形線
100
AcDbLine
 10
86.59572707325997
 20
103.8806572545583
 30
0.0
 11
86.59572707325995
 21
99.5806572545583
 31
0.0
  0
LINE
  5
2162
330
18
100
AcDbEntity
  8
外形線
100
AcDbLine
 10
112.5957270732599
 20
148.9806572545583
 30
0.0
 11
112.5957270732599
 21
128.9806572545583
 31
0.0
  0
LINE
  5
2163
330
18
100
AcDbEntity
  8
外形線
100
AcDbLine
 10
68.59572707325998
 20
148.9806572545583
 30
0.0
 11
68.59572707325987
 21
128.9806572545583
 31
0.0
  0
ARC
  5
2164
330
18
100
AcDbEntity
  8
外形線
100
AcDbCircle
 10
111.09572707326
 20
128.9806572545583
 30
0.0
 40
1.5
100
AcDbArc
 50
270.0
 51
0.0
  0
TEXT
  5
216E
330
18
100
AcDbEntity
  8
寸法線
100
AcDbText
 10
80.65439493292757
 20
124.0911498517112
 30
0.0
 40
1.199999999999999
  1
MODE
  7
STYLE4
100
AcDbText
  0
LINE
  5
216F
330
18
100
AcDbEntity
  8
外形線
100
AcDbLine
 10
70.09572707325986
 20
127.4806572545583
 30
0.0
 11
111.09572707326
 21
127.4806572545583
 31
0.0
  0
LINE
  5
2171
330
18
100
AcDbEntity
  8
外形線
100
AcDbLine
 10
85.59572707325997
 20
103.8806572545583
 30
0.0
 11
95.59572707325997
 21
103.8806572545584
 31
0.0
  0
POINT
  5
2172
330
18
100
AcDbEntity
  8
DEFPOINTS
  6
ByBlock
 62
     0
100
AcDbPoint
 10
84.59572707325998
 20
107.9806572545583
 30
0.0
  0
LINE
  5
2173
330
18
100
AcDbEntity
  8
外形線
100
AcDbLine
 10
84.59572707325998
 20
109.5867803411602
 30
0.0
 11
84.59572707325998
 21
105.8806572545583
 31
0.0
  0
ARC
  5
2174
330
18
100
AcDbEntity
  8
外形線
100
AcDbCircle
 10
70.09572707325986
 20
128.9806572545583
 30
0.0
 40
1.5
100
AcDbArc
 50
180.0
 51
270.0
  0
LINE
  5
2175
330
18
100
AcDbEntity
  8
外形線
100
AcDbLine
 10
96.59572707325999
 20
109.5867803411602
 30
0.0
 11
96.59572707325999
 21
105.8806572545584
 31
0.0
  0
TEXT
  5
2176
330
18
100
AcDbEntity
  8
寸法線
100
AcDbText
 10
94.86008249311471
 20
124.0911498517112
 30
0.0
 40
1.199999999999999
  1
ON/OFF
  7
STYLE4
100
AcDbText
  0
LINE
  5
2177
330
18
100
AcDbEntity
  8
外形線
100
AcDbLine
 10
61.59572707325998
 20
138.9806572545583
 30
0.0
 11
68.59572707325998
 21
138.9806572545583
 31
0.0
  0
ARC
  5
2178
330
18
100
AcDbEntity
  8
外形線
100
AcDbCircle
 10
90.59572707325997
 20
138.9806572545583
 30
0.0
 40
29.0
100
AcDbArc
 50
0.0
 51
180.0
  0
ARC
  5
2179
330
18
100
AcDbEntity
  8
外形線
100
AcDbCircle
 10
111.09572707326
 20
148.9806572545583
 30
0.0
 40
1.5
100
AcDbArc
 50
0.0
 51
90.0
  0
LINE
  5
217A
330
18
100
AcDbEntity
  8
外形線
100
AcDbLine
 10
96.59572707325999
 20
184.9806572545583
 30
0.0
 11
96.59572707325999
 21
169.3944699060494
 31
0.0
  0
LINE
  5
217B
330
18
100
AcDbEntity
  8
外形線
100
AcDbLine
 10
84.59572707325998
 20
184.9806572545582
 30
0.0
 11
84.59572707325998
 21
169.3944699060494
 31
0.0
  0
LINE
  5
217C
102
{ACAD_REACTORS
330
2180
102
}
330
18
100
AcDbEntity
  8
ROGO
 62
     4
100
AcDbLine
 10
85.80732546425593
 20
155.7368168005002
 30
0.0
 11
87.00749400710771
 21
155.7368168005002
 31
0.0
  0
LINE
  5
217D
102
{ACAD_REACTORS
330
2180
102
}
330
18
100
AcDbEntity
  8
ROGO
 62
     4
100
AcDbLine
 10
85.65770709072905
 20
155.4344296021206
 30
0.0
 11
86.8578756335807
 21
155.4344296021206
 31
0.0
  0
LINE
  5
217E
102
{ACAD_REACTORS
330
2180
102
}
330
18
100
AcDbEntity
  8
ROGO
 62
     4
100
AcDbLine
 10
85.50428746492702
 20
155.1243598578162
 30
0.0
 11
86.70445600777867
 21
155.1243598578163
 31
0.0
  0
LINE
  5
217F
102
{ACAD_REACTORS
330
2180
102
}
330
18
100
AcDbEntity
  8
ROGO
 62
     4
100
AcDbLine
 10
84.91531678214419
 20
156.1235626542473
 30
0.0
 11
87.19885225876641
 21
156.1235626542474
 31
0.0
  0
HATCH
  5
2180
330
18
100
AcDbEntity
  8
ROGO
 62
     4
100
AcDbHatch
 10
0.0
 20
0.0
 30
0.0
210
0.0
220
0.0
230
1.0
  2
SOLID
 70
     1
 71
     1
 91
        1
 92
        1
 93
       12
 72
     1
 10
84.91531678214419
 20
156.1235626542473
 11
87.19885225876641
 21
156.1235626542474
 72
     1
 10
87.19885225876641
 20
156.1235626542473
 11
87.00749400710771
 21
155.7368168005002
 72
     1
 10
87.00749400710771
 20
155.7368168005002
 11
85.80732546425593
 21
155.7368168005002
 72
     1
 10
85.80732546425593
 20
155.7368168005002
 11
85.65770709072905
 21
155.4344296021206
 72
     1
 10
85.65770709072905
 20
155.4344296021206
 11
86.8578756335807
 21
155.4344296021206
 72
     1
 10
86.8578756335807
 20
155.4344296021206
 11
86.70445600777867
 21
155.1243598578162
 72
     1
 10
86.70445600777867
 20
155.1243598578163
 11
85.50428746492702
 21
155.1243598578162
 72
     1
 10
85.50428746492702
 20
155.1243598578162
 11
85.35466275727737
 21
154.8219598578162
 72
     1
 10
85.35466275727737
 20
154.8219598578162
 11
86.55483130012902
 21
154.8219598578162
 72
     1
 10
86.55483130012902
 20
154.8219598578162
 11
86.36348267400336
 21
154.4352334578162
 72
     1
 10
86.36348267400336
 20
154.4352334578162
 11
84.07994719738127
 21
154.4352334578162
 72
     1
 10
84.07994719738127
 20
154.4352334578162
 11
84.91531678214419
 21
156.1235626542473
 97
       12
330
217F
330
21A8
330
217C
330
218C
330
217D
330
21B1
330
217E
330
218F
330
218D
330
218E
330
2196
330
218A
 75
     0
 76
     1
 98
        1
 10
-8.491991904767303
 20
39.38315344953278
450
        0
451
        0
460
0.0
461
0.0
452
        0
462
0.0
453
        0
470

  0
TEXT
  5
2181
330
18
100
AcDbEntity
  8
文字
100
AcDbText
 10
84.33297145844376
 20
158.32387682537
 30
0.0
 40
2.0
  1
T2-205W
 51
10.0
  7
STYLE3
100
AcDbText
  0
LINE
  5
2182
102
{ACAD_REACTORS
330
2189
330
21A7
102
}
330
18
100
AcDbEntity
  8
ROGO
 62
     4
100
AcDbLine
 10
80.31198026549413
 20
153.4854327879395
 30
0.0
 11
98.16949389452469
 21
153.4854327879395
 31
0.0
  0
LINE
  5
2183
330
18
100
AcDbEntity
  8
ROGO
 62
     4
100
AcDbLine
 10
81.63959410834781
 20
153.749865910314
 30
0.0
 11
97.32924112080144
 21
153.749865910314
 31
0.0
  0
HATCH
  5
2184
330
18
100
AcDbEntity
  8
ROGO
 62
     4
100
AcDbHatch
 10
0.0
 20
0.0
 30
0.0
210
0.0
220
0.0
230
1.0
  2
SOLID
 70
     1
 71
     0
 91
        1
 92
        7
 72
     0
 73
     1
 93
        4
 10
81.6579328258121
 20
153.749865910314
 10
81.53829578026961
 20
153.4854327879395
 10
97.19738622559072
 20
153.4854327879395
 10
97.32924112080144
 20
153.749865910314
 97
        0
 75
     0
 76
     1
 47
0.0514683685270805
 98
        1
 10
91.55309244695429
 20
153.6799275991936
450
        0
451
        0
460
0.0
461
0.0
452
        0
462
0.0
453
        0
470

  0
ARC
  5
2185
330
18
100
AcDbEntity
  8
外形線
100
AcDbCircle
 10
90.59572707325997
 20
138.9806572545583
 30
0.0
 40
31.0
100
AcDbArc
 50
69.21644040415319
 51
110.7835595958468
  0
LINE
  5
2186
330
18
100
AcDbEntity
  8
外形線
100
AcDbLine
 10
70.09572707325998
 20
150.4806572545583
 30
0.0
 11
111.09572707326
 21
150.4806572545583
 31
0.0
  0
LINE
  5
2187
102
{ACAD_REACTORS
330
2189
102
}
330
18
100
AcDbEntity
  8
ROGO
 62
     4
100
AcDbLine
 10
81.61730238847047
 20
156.1235626542473
 30
0.0
 11
80.31198026549413
 21
153.4854327879395
 31
0.0
  0
SPLINE
  5
2188
102
{ACAD_REACTORS
330
2189
102
}
330
18
100
AcDbEntity
  8
ROGO
 62
     4
100
AcDbSpline
210
0.0
220
0.0
230
1.0
 70
     8
 71
     3
 72
    18
 73
    14
 74
     0
 42
0.0000000001
 43
0.0000000001
 40
0.1087402787915014
 40
0.1087402787915014
 40
0.1087402787915014
 40
0.1087402787915014
 40
0.5992371417938475
 40
1.083176791562496
 40
1.448211145705696
 40
1.714037220764907
 40
2.164002567013297
 40
2.740236056362883
 40
3.395137510199602
 40
4.071816045172726
 40
4.784906178399433
 40
5.506895915094292
 40
6.060470601257719
 40
6.060470601257719
 40
6.060470601257719
 40
6.060470601257719
 10
83.69051450516559
 20
156.1235626542474
 30
0.0
 10
83.75693391069768
 20
156.0992210551574
 30
0.0
 10
83.88754698650547
 20
156.0477591948949
 30
0.0
 10
84.04695657506607
 20
155.9303062251631
 30
0.0
 10
84.13389168154077
 20
155.7947163687981
 30
0.0
 10
84.21751352109613
 20
155.6611168429802
 30
0.0
 10
84.22921624489589
 20
155.4694457276362
 30
0.0
 10
84.2100463926925
 20
155.2271269819011
 30
0.0
 10
84.08628755870887
 20
154.9742923765174
 30
0.0
 10
83.88764735131855
 20
154.753153336915
 30
0.0
 10
83.64102167162746
 20
154.5761565336186
 30
0.0
 10
83.38094638548961
 20
154.4372186009816
 30
0.0
 10
83.19504449784933
 20
154.4358342459134
 30
0.0
 10
83.11436603327042
 20
154.4352334578162
 30
0.0
  0
HATCH
  5
2189
330
18
100
AcDbEntity
  8
ROGO
 62
     4
100
AcDbHatch
 10
0.0
 20
0.0
 30
0.0
210
0.0
220
0.0
230
1.0
  2
SOLID
 70
     1
 71
     1
 91
        2
 92
        5
 93
        6
 72
     1
 10
80.31198026549413
 20
153.4854327879395
 11
81.53829578026963
 21
153.4854327879395
 72
     1
 10
81.53829578026963
 20
153.4854327879395
 11
81.96801254562052
 21
154.4352334578162
 72
     1
 10
81.96801254562052
 20
154.4352334578162
 11
83.11436603327043
 21
154.4352334578162
 72
     4
 94
        3
 73
     0
 74
     0
 95
       18
 96
       14
 40
0.108740278791501
 40
0.108740278791501
 40
0.108740278791501
 40
0.108740278791501
 40
0.6623149649549278
 40
1.384304701649787
 40
2.097394834876493
 40
2.774073369849618
 40
3.428974823686337
 40
4.005208313035923
 40
4.455173659284313
 40
4.720999734343524
 40
5.086034088486724
 40
5.569973738255373
 40
6.060470601257719
 40
6.060470601257719
 40
6.060470601257719
 40
6.060470601257719
 10
83.11436603327042
 20
154.4352334578162
 10
83.19504449784933
 20
154.4358342459134
 10
83.38094638548961
 20
154.4372186009816
 10
83.64102167162746
 20
154.5761565336186
 10
83.88764735131855
 20
154.753153336915
 10
84.08628755870887
 20
154.9742923765174
 10
84.2100463926925
 20
155.2271269819011
 10
84.22921624489589
 20
155.4694457276362
 10
84.21751352109613
 20
155.6611168429802
 10
84.13389168154077
 20
155.7947163687981
 10
84.04695657506607
 20
155.9303062251631
 10
83.88754698650547
 20
156.0477591948949
 10
83.75693391069768
 20
156.0992210551574
 10
83.69051450516559
 20
156.1235626542474
 72
     1
 10
83.69051450516581
 20
156.1235626542472
 11
81.61730238847047
 21
156.1235626542473
 72
     1
 10
81.61730238847047
 20
156.1235626542473
 11
80.31198026549413
 21
153.4854327879395
 97
        6
330
2188
330
2198
330
2187
330
2182
330
2195
330
2190
 92
       20
 93
        4
 72
     1
 10
82.23333832144778
 20
155.0216816021203
 11
82.43647834533595
 21
155.4706809112586
 72
     1
 10
82.43647834533595
 20
155.4706809112586
 11
82.95846162988974
 21
155.4706809112586
 72
     4
 94
        3
 73
     0
 74
     0
 95
       15
 96
       11
 40
0.0
 40
0.0
 40
0.0
 40
0.0
 40
0.1979620751796092
 40
0.2882218927611821
 40
0.390672794493828
 40
0.4604671121752228
 40
0.570847549457819
 40
0.6369624161317818
 40
0.7503938621545029
 40
0.7882043682941406
 40
0.7882043682941406
 40
0.7882043682941406
 40
0.7882043682941406
 10
82.95846162988977
 20
155.4706809112587
 10
83.03281234639442
 20
155.4710214772275
 10
83.14106290004051
 20
155.4715173225456
 10
83.20025815822367
 20
155.3376110746364
 10
83.17372402106617
 20
155.2513963401025
 10
83.14036844809251
 20
155.1628806789268
 10
83.08142159610941
 20
155.102732952152
 10
83.0023062866299
 20
155.0448005517614
 10
82.9275385384154
 20
155.037787575285
 10
82.87891051116492
 20
155.0249027979868
 10
82.866753498533
 20
155.0216816021203
 72
     1
 10
82.86675349853272
 20
155.0216816021202
 11
82.23333832144778
 21
155.0216816021203
 97
        4
330
2191
330
2193
330
2192
330
2194
 75
     0
 76
     1
 47
0.0514683685270805
 98
        2
 10
81.6283833855793
 20
155.3030342525329
 10
81.6283833855793
 20
155.3030342525329
450
        0
451
        0
460
0.0
461
0.0
452
        0
462
0.0
453
        0
470

  0
LINE
  5
218A
102
{ACAD_REACTORS
330
2180
102
}
330
18
100
AcDbEntity
  8
ROGO
 62
     4
100
AcDbLine
 10
84.91531678214419
 20
156.1235626542473
 30
0.0
 11
84.07994719738127
 21
154.4352334578162
 31
0.0
  0
ARC
  5
218B
330
18
100
AcDbEntity
  8
外形線
100
AcDbCircle
 10
70.09572707325998
 20
148.9806572545583
 30
0.0
 40
1.5
100
AcDbArc
 50
90.0
 51
180.0
  0
LINE
  5
218C
102
{ACAD_REACTORS
330
2180
102
}
330
18
100
AcDbEntity
  8
ROGO
 62
     4
100
AcDbLine
 10
85.80732546425593
 20
155.7368168005002
 30
0.0
 11
85.65770709072905
 21
155.4344296021206
 31
0.0
  0
LINE
  5
218D
102
{ACAD_REACTORS
330
2180
102
}
330
18
100
AcDbEntity
  8
ROGO
 62
     4
100
AcDbLine
 10
85.35466275727737
 20
154.8219598578162
 30
0.0
 11
86.55483130012902
 21
154.8219598578162
 31
0.0
  0
LINE
  5
218E
102
{ACAD_REACTORS
330
2180
102
}
330
18
100
AcDbEntity
  8
ROGO
 62
     4
100
AcDbLine
 10
86.55483130012902
 20
154.8219598578162
 30
0.0
 11
86.36348267400336
 21
154.4352334578162
 31
0.0
  0
LINE
  5
218F
102
{ACAD_REACTORS
330
2180
102
}
330
18
100
AcDbEntity
  8
ROGO
 62
     4
100
AcDbLine
 10
85.50428746492702
 20
155.1243598578162
 30
0.0
 11
85.35466275727737
 21
154.8219598578162
 31
0.0
  0
LINE
  5
2190
102
{ACAD_REACTORS
330
2189
102
}
330
18
100
AcDbEntity
  8
ROGO
 62
     4
100
AcDbLine
 10
83.11436603366775
 20
154.4352334578162
 30
0.0
 11
81.96801254562052
 21
154.4352334578162
 31
0.0
  0
LINE
  5
2191
102
{ACAD_REACTORS
330
2189
102
}
330
18
100
AcDbEntity
  8
ROGO
 62
     4
100
AcDbLine
 10
82.43647834533595
 20
155.4706809112587
 30
0.0
 11
82.23333832144778
 21
155.0216816021203
 31
0.0
  0
SPLINE
  5
2192
102
{ACAD_REACTORS
330
2189
102
}
330
18
100
AcDbEntity
  8
ROGO
 62
     4
100
AcDbSpline
210
0.0
220
0.0
230
1.0
 70
     8
 71
     3
 72
    15
 73
    11
 74
     9
 42
0.0000000001
 43
0.0000000001
 44
0.0000000001
 40
0.0
 40
0.0
 40
0.0
 40
0.0
 40
0.1979620751796092
 40
0.2882218927611821
 40
0.390672794493828
 40
0.4604671121752228
 40
0.570847549457819
 40
0.6369624161317818
 40
0.7503938621545029
 40
0.7882043682941406
 40
0.7882043682941406
 40
0.7882043682941406
 40
0.7882043682941406
 10
82.95846162988977
 20
155.4706809112587
 30
0.0
 10
83.03281234639442
 20
155.4710214772275
 30
0.0
 10
83.14106290004051
 20
155.4715173225456
 30
0.0
 10
83.20025815822367
 20
155.3376110746364
 30
0.0
 10
83.17372402106617
 20
155.2513963401025
 30
0.0
 10
83.14036844809251
 20
155.1628806789268
 30
0.0
 10
83.08142159610941
 20
155.102732952152
 30
0.0
 10
83.0023062866299
 20
155.0448005517614
 30
0.0
 10
82.9275385384154
 20
155.037787575285
 30
0.0
 10
82.87891051116492
 20
155.0249027979868
 30
0.0
 10
82.866753498533
 20
155.0216816021203
 30
0.0
 11
82.95846162988977
 21
155.4706809112587
 31
0.0
 11
83.15104886394108
 21
155.4248645332931
 31
0.0
 11
83.18773222195176
 21
155.3423953516861
 31
0.0
 11
83.16939080661638
 21
155.2415996188929
 31
0.0
 11
83.14187841994344
 21
155.1774566897411
 31
0.0
 11
83.06851170392196
 21
155.0949875081341
 31
0.0
 11
83.01348693057589
 21
155.0583344057617
 31
0.0
 11
82.90343685654368
 21
155.0308448777134
 31
0.0
 11
82.866753498533
 21
155.0216816021203
 31
0.0
  0
LINE
  5
2193
102
{ACAD_REACTORS
330
2189
102
}
330
18
100
AcDbEntity
  8
ROGO
 62
     4
100
AcDbLine
 10
82.95846162988977
 20
155.4706809112587
 30
0.0
 11
82.43647834533595
 21
155.4706809112587
 31
0.0
  0
LINE
  5
2194
102
{ACAD_REACTORS
330
2189
102
}
330
18
100
AcDbEntity
  8
ROGO
 62
     4
100
AcDbLine
 10
82.86675349853311
 20
155.0216816021202
 30
0.0
 11
82.23333832144778
 21
155.0216816021203
 31
0.0
  0
LINE
  5
2195
102
{ACAD_REACTORS
330
2189
102
}
330
18
100
AcDbEntity
  8
ROGO
 62
     4
100
AcDbLine
 10
81.96801254562052
 20
154.4352334578162
 30
0.0
 11
81.53829578026961
 21
153.4854327879395
 31
0.0
  0
LINE
  5
2196
102
{ACAD_REACTORS
330
2180
102
}
330
18
100
AcDbEntity
  8
ROGO
 62
     4
100
AcDbLine
 10
84.07994719738127
 20
154.4352334578162
 30
0.0
 11
86.36348267400336
 21
154.4352334578162
 31
0.0
  0
LINE
  5
2197
330
18
100
AcDbEntity
  8
外形線
100
AcDbLine
 10
79.59572707325998
 20
167.9634107469371
 30
0.0
 11
79.59572707325998
 21
166.891228728464
 31
0.0
  0
LINE
  5
2198
102
{ACAD_REACTORS
330
2189
102
}
330
18
100
AcDbEntity
  8
ROGO
 62
     4
100
AcDbLine
 10
81.61730238847047
 20
156.1235626542473
 30
0.0
 11
83.69051450516559
 21
156.1235626542473
 31
0.0
  0
LINE
  5
2199
102
{ACAD_REACTORS
330
21A7
102
}
330
18
100
AcDbEntity
  8
ROGO
 62
     4
100
AcDbLine
 10
99.48495064952879
 20
156.1235626542473
 30
0.0
 11
99.2477827018409
 21
155.6479256986831
 31
0.0
  0
LINE
  5
219A
102
{ACAD_REACTORS
330
21A7
102
}
330
18
100
AcDbEntity
  8
ROGO
 62
     4
100
AcDbLine
 10
99.17055008916287
 20
154.8044977210934
 30
0.0
 11
100.7685756188745
 21
156.1235626542473
 31
0.0
  0
LINE
  5
219B
102
{ACAD_REACTORS
330
21A7
102
}
330
18
100
AcDbEntity
  8
ROGO
 62
     4
100
AcDbLine
 10
99.2477827018409
 20
155.6479256986831
 30
0.0
 11
99.79648921887458
 21
156.1235626542473
 31
0.0
  0
SPLINE
  5
219C
330
18
100
AcDbEntity
  8
ROGO
 62
     4
100
AcDbSpline
210
0.0
220
0.0
230
1.0
 70
     8
 71
     3
 72
    26
 73
    22
 74
    20
 42
0.0000000001
 43
0.0000000001
 44
0.0000000001
 40
0.0
 40
0.0
 40
0.0
 40
0.0
 40
0.306282258847545
 40
0.5113145150563467
 40
0.6591594689727181
 40
0.7695505122602936
 40
0.9127334891893321
 40
1.017243103820775
 40
1.205963108812882
 40
1.359578479722684
 40
1.464061546148625
 40
1.566512542290257
 40
1.74977745669044
 40
1.879367624743214
 40
1.949161942424609
 40
2.048302708997821
 40
2.119894481049017
 40
2.223607322578586
 40
2.282299819925649
 40
2.41002127769804
 40
2.468340004822995
 40
2.468340004822995
 40
2.468340004822995
 40
2.468340004822995
 10
96.46847566044398
 20
156.1235626542473
 30
0.0
 10
96.36451872946857
 20
156.1173604054778
 30
0.0
 10
96.19097068281238
 20
156.1070062314106
 30
0.0
 10
96.00041598332579
 20
155.9912462978785
 30
0.0
 10
95.86080445479836
 20
155.923948559581
 30
0.0
 10
95.76123368196713
 20
155.832463017756
 30
0.0
 10
95.68824790185191
 20
155.7379651359426
 30
0.0
 10
95.59623562438343
 20
155.6253716026387
 30
0.0
 10
95.52120224136173
 20
155.494260989327
 30
0.0
 10
95.48299230096183
 20
155.3497542365313
 30
0.0
 10
95.44914629840709
 20
155.2345815160984
 30
0.0
 10
95.42404553629905
 20
155.1062365495224
 30
0.0
 10
95.43043188077279
 20
154.9675788362224
 30
0.0
 10
95.43957741833855
 20
154.8388006506461
 30
0.0
 10
95.48041001966934
 20
154.7468723068832
 30
0.0
 10
95.52691111988517
 20
154.6814256608312
 30
0.0
 10
95.58385108026994
 20
154.6093434359328
 30
0.0
 10
95.64615584867823
 20
154.561603611794
 30
0.0
 10
95.69768697782038
 20
154.4751197123275
 30
0.0
 10
95.78789048101493
 20
154.4640837430295
 30
0.0
 10
95.84522741625525
 20
154.4421188703306
 30
0.0
 10
95.86320104427711
 20
154.4352334578162
 30
0.0
 11
96.46847566044398
 21
156.1235626542473
 31
0.0
 11
96.16583835236049
 21
156.0764512772696
 31
0.0
 11
95.98242156230691
 21
155.9848188200695
 31
0.0
 11
95.85403007293933
 21
155.9115129140557
 31
0.0
 11
95.77149291292021
 21
155.8382067093108
 31
0.0
 11
95.67978478156357
 21
155.7282477009244
 31
0.0
 11
95.61558903687972
 21
155.6457785193175
 31
0.0
 11
95.52388037818293
 21
155.4808398573724
 31
0.0
 11
95.47802657617451
 21
155.3342277466137
 31
0.0
 11
95.45051418950157
 21
155.2334320138204
 31
0.0
 11
95.43217224682615
 21
155.1326362810273
 31
0.0
 11
95.43217224682615
 21
154.9493713666271
 31
0.0
 11
95.45051418950157
 21
154.8210858070546
 31
0.0
 11
95.47802657617451
 21
154.7569428779028
 31
0.0
 11
95.53305134952058
 21
154.6744736962957
 31
0.0
 11
95.57890567886904
 21
154.619494042737
 31
0.0
 11
95.65227186755038
 21
154.5461881367232
 31
0.0
 11
95.68895522556118
 21
154.5003717587576
 31
0.0
 11
95.80817627093102
 21
154.4545556795231
 31
0.0
 11
95.86320104427711
 21
154.4352334578162
 31
0.0
  0
LINE
  5
219D
330
18
100
AcDbEntity
  8
ROGO
 62
     4
100
AcDbLine
 10
98.15923667172349
 20
156.1235626542473
 30
0.0
 11
97.84601185674269
 21
155.4953947299684
 31
0.0
  0
LINE
  5
219E
102
{ACAD_REACTORS
330
21A7
102
}
330
18
100
AcDbEntity
  8
ROGO
 62
     4
100
AcDbLine
 10
98.51284298059482
 20
156.1235626542473
 30
0.0
 11
97.19738622559072
 21
153.4854327879395
 31
0.0
  0
HATCH
  5
219F
330
18
100
AcDbEntity
  8
ROGO
 62
     4
100
AcDbHatch
 10
0.0
 20
0.0
 30
0.0
210
0.0
220
0.0
230
1.0
  2
SOLID
 70
     1
 71
     0
 91
        1
 92
        5
 93
        8
 72
     4
 94
        3
 73
     0
 74
     0
 95
       26
 96
       22
 40
0.0
 40
0.0
 40
0.0
 40
0.0
 40
0.306282258847545
 40
0.5113145150563467
 40
0.6591594689727181
 40
0.7695505122602936
 40
0.9127334891893321
 40
1.017243103820775
 40
1.205963108812882
 40
1.359578479722684
 40
1.464061546148625
 40
1.566512542290257
 40
1.74977745669044
 40
1.879367624743214
 40
1.949161942424609
 40
2.048302708997821
 40
2.119894481049017
 40
2.223607322578586
 40
2.282299819925649
 40
2.41002127769804
 40
2.468340004822995
 40
2.468340004822995
 40
2.468340004822995
 40
2.468340004822995
 10
96.46847566044398
 20
156.1235626542473
 10
96.36451872946857
 20
156.1173604054778
 10
96.19097068281242
 20
156.1070062314106
 10
96.0004159833257
 20
155.9912462978785
 10
95.86080445479836
 20
155.9239485595811
 10
95.76123368196709
 20
155.832463017756
 10
95.68824790185187
 20
155.7379651359426
 10
95.59623562438337
 20
155.6253716026388
 10
95.52120224136166
 20
155.494260989327
 10
95.48299230096182
 20
155.3497542365313
 10
95.44914629840702
 20
155.2345815160985
 10
95.42404553629905
 20
155.1062365495225
 10
95.4304318807728
 20
154.9675788362224
 10
95.4395774183385
 20
154.8388006506461
 10
95.48041001966936
 20
154.7468723068832
 10
95.52691111988513
 20
154.6814256608313
 10
95.58385108026987
 20
154.6093434359328
 10
95.64615584867812
 20
154.561603611794
 10
95.69768697782029
 20
154.4751197123275
 10
95.78789048101493
 20
154.4640837430295
 10
95.84522741625523
 20
154.4421188703306
 10
95.86320104427711
 20
154.4352334578162
 72
     1
 10
95.86320104427711
 20
154.4352334578163
 11
97.31738120642587
 21
154.4352334578162
 72
     1
 10
97.31738120642587
 20
154.4352334578162
 11
97.63060270444151
 21
155.0633947299684
 72
     1
 10
97.63060270444151
 20
155.0633947299684
 11
96.55101282046297
 21
155.0633947299684
 72
     4
 94
        3
 73
     0
 74
     0
 95
       16
 96
       12
 40
0.0
 40
0.0
 40
0.0
 40
0.0
 40
0.0924964283868937
 40
0.185946890240525
 40
0.2416858907028844
 40
0.2951281203562444
 40
0.3538203845089212
 40
0.3948066843497379
 40
0.4336991257335823
 40
0.5125674130988856
 40
0.6740411735369252
 40
0.6740411735369252
 40
0.6740411735369252
 40
0.6740411735369252
 10
96.5510128204631
 20
155.0633947299684
 10
96.51844858502801
 20
155.0729756055109
 10
96.45298423772494
 20
155.0922361763672
 10
96.44750540049205
 20
155.1856043481151
 10
96.45496952357172
 20
155.2521368107769
 10
96.48622928769947
 20
155.3005763288404
 10
96.52415280352039
 20
155.3358224516005
 10
96.53827341041512
 20
155.3817250155491
 10
96.57977964786068
 20
155.4163871942417
 10
96.65338132822029
 20
155.4746494746392
 10
96.73477204549209
 20
155.4870580385776
 10
96.78945438386262
 20
155.4953947299684
 72
     1
 10
96.78945438386262
 20
155.4953947299684
 11
97.84601185674269
 21
155.4953947299684
 72
     1
 10
97.84601185674269
 20
155.4953947299684
 11
98.15923667172349
 21
156.1235626542473
 72
     1
 10
98.15923667172349
 20
156.1235626542473
 11
96.46847566044408
 21
156.1235626542473
 97
        0
 75
     0
 76
     1
 47
0.0514683685270805
 98
        1
 10
96.76022664146735
 20
155.8144238358742
450
        0
451
        0
460
0.0
461
0.0
452
        0
462
0.0
453
        0
470

  0
SPLINE
  5
21A0
102
{ACAD_REACTORS
330
21A6
102
}
330
18
100
AcDbEntity
  8
ROGO
 62
     4
100
AcDbSpline
210
0.0
220
0.0
230
1.0
 70
     8
 71
     3
 72
    25
 73
    21
 74
     0
 42
0.0000000001
 43
0.0000000001
 40
0.0
 40
0.0
 40
0.0
 40
0.0
 40
0.4087168505087288
 40
0.6887487002771746
 40
0.9415836120477687
 40
1.17452070575514
 40
1.41154617586699
 40
1.599156012919487
 40
1.80099909059943
 40
2.178735911501585
 40
2.521686161369157
 40
2.762704659361267
 40
3.06256558063785
 40
3.222432137207705
 40
3.399493810628493
 40
3.567459719866414
 40
3.743172740007509
 40
3.995988754699505
 40
4.17170091132118
 40
4.337226830236035
 40
4.337226830236035
 40
4.337226830236035
 40
4.337226830236035
 10
94.62173443610954
 20
156.1306047931831
 30
0.0
 10
94.68501735808519
 20
156.1285715781681
 30
0.0
 10
94.7916584965805
 20
156.1251453083747
 30
0.0
 10
94.9061509148076
 20
156.0356561363204
 30
0.0
 10
94.99375719864104
 20
155.9614627562011
 30
0.0
 10
95.05594122631903
 20
155.8717664337715
 30
0.0
 10
95.11044726885922
 20
155.7892954433295
 30
0.0
 10
95.14636261841969
 20
155.7022250530446
 30
0.0
 10
95.19521458971581
 20
155.5977485587827
 30
0.0
 10
95.21543689240507
 20
155.4579745313715
 30
0.0
 10
95.2017743224008
 20
155.3135051774558
 30
0.0
 10
95.16612139390401
 20
155.1854463841227
 30
0.0
 10
95.12872433843261
 20
155.0872026860803
 30
0.0
 10
95.08464745696739
 20
155.0016754520924
 30
0.0
 10
95.03210218186206
 20
154.9462965614508
 30
0.0
 10
94.99564838188343
 20
154.8758828418611
 30
0.0
 10
94.92562529524702
 20
154.8182881995952
 30
0.0
 10
94.86886080406696
 20
154.7472244947258
 30
0.0
 10
94.80444492838746
 20
154.6862297611476
 30
0.0
 10
94.76812697213956
 20
154.6485967455768
 30
0.0
 10
94.74897926977616
 20
154.6327737890752
 30
0.0
  0
LINE
  5
21A1
330
18
100
AcDbEntity
  8
ROGO
 62
     4
100
AcDbLine
 10
92.71928982338767
 20
156.1235626542473
 30
0.0
 11
92.40606500840687
 21
155.4953947299684
 31
0.0
  0
SPLINE
  5
21A2
330
18
100
AcDbEntity
  8
ROGO
 62
     4
100
AcDbSpline
210
0.0
220
0.0
230
1.0
 70
     8
 71
     3
 72
    26
 73
    22
 74
    20
 42
0.0000000001
 43
0.0000000001
 44
0.0000000001
 40
0.0
 40
0.0
 40
0.0
 40
0.0
 40
0.306282258847545
 40
0.5113145150563467
 40
0.6591594689727181
 40
0.7695505122602936
 40
0.9127334891892449
 40
1.017243103820777
 40
1.205963108812785
 40
1.359578479722587
 40
1.464061546148638
 40
1.566512542290269
 40
1.749777456690453
 40
1.879367624743226
 40
1.949161942424621
 40
2.048302708997833
 40
2.119894481049029
 40
2.223607322578598
 40
2.282299819925661
 40
2.410021277698012
 40
2.468340004823004
 40
2.468340004823004
 40
2.468340004823004
 40
2.468340004823004
 10
91.02852881210816
 20
156.1235626542473
 30
0.0
 10
90.92457188113275
 20
156.1173604054778
 30
0.0
 10
90.75102383447656
 20
156.1070062314106
 30
0.0
 10
90.56046913498994
 20
155.9912462978785
 30
0.0
 10
90.42085760646257
 20
155.9239485595811
 30
0.0
 10
90.32128683363131
 20
155.8324630177559
 30
0.0
 10
90.24830105351602
 20
155.7379651359427
 30
0.0
 10
90.15628877604768
 20
155.6253716026387
 30
0.0
 10
90.08125539302588
 20
155.4942609893271
 30
0.0
 10
90.04304545262602
 20
155.3497542365314
 30
0.0
 10
90.00919945007131
 20
155.2345815160985
 30
0.0
 10
89.98409868796322
 20
155.1062365495224
 30
0.0
 10
89.99048503243697
 20
154.9675788362224
 30
0.0
 10
89.99963057000275
 20
154.8388006506461
 30
0.0
 10
90.04046317133353
 20
154.7468723068832
 30
0.0
 10
90.08696427154935
 20
154.6814256608312
 30
0.0
 10
90.14390423193413
 20
154.6093434359328
 30
0.0
 10
90.20620900034243
 20
154.561603611794
 30
0.0
 10
90.25774012948453
 20
154.4751197123274
 30
0.0
 10
90.34794363267915
 20
154.4640837430296
 30
0.0
 10
90.40528056791943
 20
154.4421188703306
 30
0.0
 10
90.4232541959413
 20
154.4352334578162
 30
0.0
 11
91.02852881210816
 21
156.1235626542473
 31
0.0
 11
90.72589150402468
 21
156.0764512772696
 31
0.0
 11
90.54247471397109
 21
155.9848188200695
 31
0.0
 11
90.41408322460354
 21
155.9115129140557
 31
0.0
 11
90.33154606458442
 21
155.8382067093108
 31
0.0
 11
90.23983793322775
 21
155.7282477009245
 31
0.0
 11
90.17564218854392
 21
155.6457785193175
 31
0.0
 11
90.08393352984711
 21
155.4808398573725
 31
0.0
 11
90.03807972783869
 21
155.3342277466138
 31
0.0
 11
90.01056734116577
 21
155.2334320138204
 31
0.0
 11
89.99222539849034
 21
155.1326362810273
 31
0.0
 11
89.99222539849034
 21
154.9493713666271
 31
0.0
 11
90.01056734116577
 21
154.8210858070546
 31
0.0
 11
90.03807972783869
 21
154.7569428779028
 31
0.0
 11
90.09310450118476
 21
154.6744736962957
 31
0.0
 11
90.13895883053322
 21
154.619494042737
 31
0.0
 11
90.21232501921458
 21
154.5461881367232
 31
0.0
 11
90.24900837722539
 21
154.5003717587576
 31
0.0
 11
90.36822942259522
 21
154.4545556795232
 31
0.0
 11
90.4232541959413
 21
154.4352334578162
 31
0.0
  0
HATCH
  5
21A3
330
18
100
AcDbEntity
  8
ROGO
 62
     4
100
AcDbHatch
 10
0.0
 20
0.0
 30
0.0
210
0.0
220
0.0
230
1.0
  2
SOLID
 70
     1
 71
     0
 91
        1
 92
        5
 93
        8
 72
     1
 10
92.40606500840693
 20
155.4953947299685
 11
92.71928982338772
 21
156.1235626542474
 72
     1
 10
92.71928982338772
 20
156.1235626542474
 11
91.02852881210839
 21
156.1235626542474
 72
     4
 94
        3
 73
     0
 74
     0
 95
       26
 96
       22
 40
0.0
 40
0.0
 40
0.0
 40
0.0
 40
0.306282258847545
 40
0.5113145150563467
 40
0.6591594689727181
 40
0.7695505122602936
 40
0.9127334891892449
 40
1.017243103820777
 40
1.205963108812785
 40
1.359578479722587
 40
1.464061546148638
 40
1.566512542290269
 40
1.749777456690453
 40
1.879367624743226
 40
1.949161942424621
 40
2.048302708997833
 40
2.119894481049029
 40
2.223607322578598
 40
2.282299819925661
 40
2.410021277698012
 40
2.468340004823004
 40
2.468340004823004
 40
2.468340004823004
 40
2.468340004823004
 10
91.02852881210816
 20
156.1235626542473
 10
90.92457188113275
 20
156.1173604054778
 10
90.7510238344766
 20
156.1070062314106
 10
90.56046913499001
 20
155.9912462978785
 10
90.42085760646278
 20
155.9239485595811
 10
90.32128683363117
 20
155.8324630177559
 10
90.24830105351606
 20
155.7379651359427
 10
90.15628877604758
 20
155.6253716026386
 10
90.08125539302573
 20
155.4942609893271
 10
90.0430454526259
 20
155.3497542365314
 10
90.00919945007144
 20
155.2345815160985
 10
89.98409868796324
 20
155.1062365495225
 10
89.99048503243676
 20
154.9675788362224
 10
89.99963057000291
 20
154.8388006506462
 10
90.04046317133356
 20
154.7468723068832
 10
90.08696427154921
 20
154.6814256608313
 10
90.14390423193431
 20
154.6093434359328
 10
90.20620900034254
 20
154.5616036117941
 10
90.25774012948437
 20
154.4751197123274
 10
90.34794363267911
 20
154.4640837430297
 10
90.40528056791941
 20
154.4421188703306
 10
90.4232541959413
 20
154.4352334578162
 72
     1
 10
90.42325419594135
 20
154.4352334578162
 11
91.87743435809011
 21
154.4352334578162
 72
     1
 10
91.87743435809011
 20
154.4352334578162
 11
92.19065585610577
 21
155.0633947299684
 72
     1
 10
92.19065585610577
 20
155.0633947299684
 11
91.11106597212733
 21
155.0633947299684
 72
     4
 94
        3
 73
     0
 74
     0
 95
       16
 96
       12
 40
0.0
 40
0.0
 40
0.0
 40
0.0
 40
0.092496428386945
 40
0.1859468902404647
 40
0.2416858907028242
 40
0.2951281203562815
 40
0.3538203845089407
 40
0.3948066843496557
 40
0.4336991257336609
 40
0.512567413098898
 40
0.6740411735369377
 40
0.6740411735369377
 40
0.6740411735369377
 40
0.6740411735369377
 10
91.11106597212728
 20
155.0633947299684
 10
91.07850173669232
 20
155.0729756055109
 10
91.01303738938923
 20
155.0922361763672
 10
91.00755855215613
 20
155.1856043481151
 10
91.01502267523613
 20
155.2521368107769
 10
91.04628243936366
 20
155.3005763288406
 10
91.08420595518481
 20
155.3358224516005
 10
91.09832656207919
 20
155.3817250155492
 10
91.13983279952464
 20
155.4163871942418
 10
91.2134344798847
 20
155.4746494746392
 10
91.2948251971564
 20
155.4870580385777
 10
91.34950753552681
 20
155.4953947299684
 72
     1
 10
91.05141943516651
 20
155.4953947299684
 11
92.40606500840693
 21
155.4953947299685
 97
        0
 75
     0
 76
     1
 47
0.0514683685270805
 98
        1
 10
91.61985053708855
 20
155.7477207818011
450
        0
451
        0
460
0.0
461
0.0
452
        0
462
0.0
453
        0
470

  0
LINE
  5
21A4
102
{ACAD_REACTORS
330
21AA
102
}
330
18
100
AcDbEntity
  8
ROGO
 62
     4
100
AcDbLine
 10
89.21086364901242
 20
156.1235626542473
 30
0.0
 11
89.96088637664815
 21
154.4352334578162
 31
0.0
  0
SPLINE
  5
21A5
102
{ACAD_REACTORS
330
21A6
102
}
330
18
100
AcDbEntity
  8
ROGO
 62
     4
100
AcDbSpline
210
0.0
220
0.0
230
1.0
 70
     8
 71
     3
 72
    38
 73
    34
 74
    32
 42
0.0000000001
 43
0.0000000001
 44
0.0000000001
 40
0.0
 40
0.0
 40
0.0
 40
0.0
 40
0.2324160190625641
 40
0.3054076598660179
 40
0.3991969555208118
 40
0.4773548548861183
 40
0.5433001127836845
 40
0.6308904647837286
 40
0.6756456824938584
 40
0.7260518053353911
 40
0.8003409450195571
 40
0.884494420029689
 40
0.9390839551137702
 40
0.9983865037096219
 40
1.064308042580248
 40
1.164347318186099
 40
1.259395062462607
 40
1.303582284428296
 40
1.353971899974848
 40
1.413666953858189
 40
1.456162161198055
 40
1.491785383230425
 40
1.542647296663551
 40
1.598535826931799
 40
1.654424046021893
 40
1.703326315520178
 40
1.815321205179844
 40
1.859508427145426
 40
1.947882923564461
 40
2.026002047025105
 40
2.175555252260891
 40
2.360088422381767
 40
2.626581173122162
 40
2.626581173122162
 40
2.626581173122162
 40
2.626581173122162
 10
93.65686523487118
 20
156.1306047931831
 30
0.0
 10
93.57939400935249
 20
156.1251319971963
 30
0.0
 10
93.47759248212533
 20
156.1179404368985
 30
0.0
 10
93.34832834604149
 20
156.0825259174922
 30
0.0
 10
93.27786509033176
 20
156.0403358210463
 30
0.0
 10
93.20453398863817
 20
156.0093240778599
 30
0.0
 10
93.14201239471458
 20
155.9634018359679
 30
0.0
 10
93.07877312239119
 20
155.939738547148
 30
0.0
 10
93.03449104805102
 20
155.8970694078115
 30
0.0
 10
92.98323815902289
 20
155.8710052558725
 30
0.0
 10
92.94242457352032
 20
155.8126661064253
 30
0.0
 10
92.89680656083673
 20
155.7581211157216
 30
0.0
 10
92.84388392717048
 20
155.718305705122
 30
0.0
 10
92.80044961145113
 20
155.6764878750276
 30
0.0
 10
92.76060466626278
 20
155.6119503983625
 30
0.0
 10
92.7370226443856
 20
155.5261992023381
 30
0.0
 10
92.67054888300213
 20
155.4720589896858
 30
0.0
 10
92.66054001580956
 20
155.4069662998165
 30
0.0
 10
92.62377135127231
 20
155.3685627081428
 30
0.0
 10
92.60778304997183
 20
155.3189891884478
 30
0.0
 10
92.60169393524119
 20
155.2735710878926
 30
0.0
 10
92.59438554561516
 20
155.2311537260562
 30
0.0
 10
92.5752681824591
 20
155.1865325351075
 30
0.0
 10
92.58150815575232
 20
155.1314136050483
 30
0.0
 10
92.5797305746981
 20
155.0780401155856
 30
0.0
 10
92.58077668323517
 20
155.0059842427995
 30
0.0
 10
92.57700113264737
 20
154.9358289896173
 30
0.0
 10
92.60710966902392
 20
154.8594834345436
 30
0.0
 10
92.6249269016562
 20
154.7914319342581
 30
0.0
 10
92.67372229158359
 20
154.6972063799348
 30
0.0
 10
92.75789331663535
 20
154.5884904637376
 30
0.0
 10
92.91795156151488
 20
154.456529939504
 30
0.0
 10
93.07185224366262
 20
154.4431431585818
 30
0.0
 10
93.16278585574428
 20
154.4352334578162
 30
0.0
 11
93.65686523487118
 21
156.1306047931831
 31
0.0
 11
93.42613527308179
 21
156.1026603724599
 31
0.0
 11
93.35621711948846
 21
156.0817025236848
 31
0.0
 11
93.27231566476388
 21
156.0397862037781
 31
0.0
 11
93.20239751117055
 21
156.0048561446414
 31
0.0
 11
93.14646320802086
 21
155.9699257743265
 31
0.0
 11
93.0695534038619
 21
155.928009765598
 31
0.0
 11
93.03459405240898
 21
155.9000656560529
 31
0.0
 11
92.99264305039043
 21
155.8721212353297
 31
0.0
 11
92.94370039780636
 21
155.8162330162397
 31
0.0
 11
92.88776609465669
 21
155.7533588475578
 31
0.0
 11
92.84581509263814
 21
155.7184284772429
 31
0.0
 11
92.8038646399321
 21
155.6765124685145
 31
0.0
 11
92.76890528847918
 21
155.6206242494244
 31
0.0
 11
92.72695483577326
 21
155.5298056600194
 31
0.0
 11
92.67101998331094
 21
155.4529592809761
 31
0.0
 11
92.6570366821798
 21
155.4110429610694
 31
0.0
 11
92.62906953060502
 21
155.3691269523409
 31
0.0
 11
92.60809402959575
 21
155.3132384220727
 31
0.0
 11
92.60110182971761
 21
155.2713224133442
 31
0.0
 11
92.59411017915198
 21
155.2363920430293
 31
0.0
 11
92.58012687802084
 21
155.1874900847091
 31
0.0
 11
92.58012687802084
 21
155.1316015544408
 31
0.0
 11
92.58012687802084
 21
155.0757133353507
 31
0.0
 11
92.58012687802084
 21
155.0268110658525
 31
0.0
 11
92.58711852858647
 21
154.9150346276723
 31
0.0
 11
92.60110182971761
 21
154.8731183077657
 31
0.0
 11
92.62906953060502
 21
154.7892859791305
 31
0.0
 11
92.66402833274543
 21
154.7194255496789
 31
0.0
 11
92.75492198734804
 21
154.600663161907
 31
0.0
 11
92.90174994510044
 21
154.4888864125487
 31
0.0
 11
93.16278585574428
 21
154.4352334578162
 31
0.0
  0
HATCH
  5
21A6
330
18
100
AcDbEntity
  8
ROGO
 62
     4
100
AcDbHatch
 10
0.0
 20
0.0
 30
0.0
210
0.0
220
0.0
230
1.0
  2
SOLID
 70
     1
 71
     1
 91
        1
 92
        5
 93
        6
 72
     4
 94
        3
 73
     0
 74
     0
 95
       38
 96
       34
 40
0.0
 40
0.0
 40
0.0
 40
0.0
 40
0.2324160190625641
 40
0.3054076598660179
 40
0.3991969555208118
 40
0.4773548548861183
 40
0.5433001127836845
 40
0.6308904647837286
 40
0.6756456824938584
 40
0.7260518053353911
 40
0.8003409450195571
 40
0.884494420029689
 40
0.9390839551137702
 40
0.9983865037096219
 40
1.064308042580248
 40
1.164347318186099
 40
1.259395062462607
 40
1.303582284428296
 40
1.353971899974848
 40
1.413666953858189
 40
1.456162161198055
 40
1.491785383230425
 40
1.542647296663551
 40
1.598535826931799
 40
1.654424046021893
 40
1.703326315520178
 40
1.815321205179844
 40
1.859508427145426
 40
1.947882923564461
 40
2.026002047025105
 40
2.175555252260891
 40
2.360088422381767
 40
2.626581173122162
 40
2.626581173122162
 40
2.626581173122162
 40
2.626581173122162
 10
93.65686523487118
 20
156.1306047931831
 10
93.57939400935249
 20
156.1251319971963
 10
93.47759248212533
 20
156.1179404368985
 10
93.34832834604149
 20
156.0825259174922
 10
93.27786509033176
 20
156.0403358210463
 10
93.20453398863817
 20
156.0093240778599
 10
93.14201239471458
 20
155.9634018359679
 10
93.07877312239119
 20
155.939738547148
 10
93.03449104805102
 20
155.8970694078115
 10
92.98323815902289
 20
155.8710052558725
 10
92.94242457352032
 20
155.8126661064253
 10
92.89680656083673
 20
155.7581211157216
 10
92.84388392717048
 20
155.718305705122
 10
92.80044961145113
 20
155.6764878750276
 10
92.76060466626278
 20
155.6119503983625
 10
92.7370226443856
 20
155.5261992023381
 10
92.67054888300213
 20
155.4720589896858
 10
92.66054001580956
 20
155.4069662998165
 10
92.62377135127231
 20
155.3685627081428
 10
92.60778304997183
 20
155.3189891884478
 10
92.60169393524119
 20
155.2735710878926
 10
92.59438554561516
 20
155.2311537260562
 10
92.5752681824591
 20
155.1865325351075
 10
92.58150815575232
 20
155.1314136050483
 10
92.5797305746981
 20
155.0780401155856
 10
92.58077668323517
 20
155.0059842427995
 10
92.57700113264737
 20
154.9358289896173
 10
92.60710966902392
 20
154.8594834345436
 10
92.6249269016562
 20
154.7914319342581
 10
92.67372229158359
 20
154.6972063799348
 10
92.75789331663535
 20
154.5884904637376
 10
92.91795156151488
 20
154.456529939504
 10
93.07185224366262
 20
154.4431431585818
 10
93.16278585574428
 20
154.4352334578162
 72
     1
 10
93.16278585574426
 20
154.4352334578162
 11
94.12765505698287
 21
154.4352334578162
 72
     4
 94
        3
 73
     0
 74
     0
 95
       11
 96
        7
 40
0.1647869275458135
 40
0.1647869275458135
 40
0.1647869275458135
 40
0.1647869275458135
 40
0.2545010798212315
 40
0.5111620267764023
 40
0.7602998271033902
 40
0.8850764140209603
 40
0.8850764140209603
 40
0.8850764140209603
 40
0.8850764140209603
 10
94.12765505698263
 20
154.4352334578162
 10
94.14111892882255
 20
154.4349739805609
 10
94.19310125074497
 20
154.4339721713951
 10
94.28193966201178
 20
154.4467348535753
 10
94.37540950547504
 20
154.4589650749125
 10
94.43113366303322
 20
154.4678719760633
 10
94.44910607520574
 20
154.4728746038415
 72
     4
 94
        3
 73
     0
 74
     0
 95
        9
 96
        5
 40
0.0
 40
0.0
 40
0.0
 40
0.0
 40
0.146030572742497
 40
0.3423777932799819
 40
0.3423777932799819
 40
0.3423777932799819
 40
0.3423777932799819
 10
94.44910607520574
 20
154.4728746038415
 10
94.49601532018602
 20
154.4872261834857
 10
94.6059969731999
 20
154.5208743578122
 10
94.69686701250436
 20
154.5919901949508
 10
94.74897926977616
 20
154.6327737890752
 72
     4
 94
        3
 73
     0
 74
     0
 95
       25
 96
       21
 40
0.0
 40
0.0
 40
0.0
 40
0.0
 40
0.165525918914855
 40
0.3412380755365305
 40
0.5940540902285263
 40
0.7697671103696209
 40
0.9377330196075423
 40
1.11479469302833
 40
1.274661249598185
 40
1.574522170874768
 40
1.815540668866877
 40
2.15849091873445
 40
2.536227739636605
 40
2.738070817316548
 40
2.925680654369045
 40
3.162706124480894
 40
3.395643218188267
 40
3.648478129958861
 40
3.928509979727306
 40
4.337226830236035
 40
4.337226830236035
 40
4.337226830236035
 40
4.337226830236035
 10
94.74897926977616
 20
154.6327737890752
 10
94.76812697213956
 20
154.6485967455768
 10
94.80444492838746
 20
154.6862297611476
 10
94.86886080406696
 20
154.7472244947258
 10
94.92562529524702
 20
154.8182881995952
 10
94.99564838188343
 20
154.8758828418611
 10
95.03210218186206
 20
154.9462965614508
 10
95.08464745696739
 20
155.0016754520924
 10
95.12872433843261
 20
155.0872026860803
 10
95.16612139390401
 20
155.1854463841227
 10
95.2017743224008
 20
155.3135051774558
 10
95.21543689240507
 20
155.4579745313715
 10
95.19521458971581
 20
155.5977485587827
 10
95.14636261841969
 20
155.7022250530446
 10
95.11044726885922
 20
155.7892954433295
 10
95.05594122631903
 20
155.8717664337715
 10
94.99375719864104
 20
155.9614627562011
 10
94.9061509148076
 20
156.0356561363204
 10
94.7916584965805
 20
156.1251453083747
 10
94.68501735808519
 20
156.1285715781681
 10
94.62173443610954
 20
156.1306047931831
 72
     1
 10
94.62173443610955
 20
156.1306047931831
 11
93.65686523487113
 21
156.1306047931831
 97
        6
330
21A0
330
21CA
330
21A5
330
21C2
330
21C0
330
21C1
 75
     0
 76
     1
 47
0.088756267210375
 98
        1
 10
93.94600909681328
 20
155.662336436461
450
        0
451
        0
460
0.0
461
0.0
452
        0
462
0.0
453
        0
470

  0
HATCH
  5
21A7
330
18
100
AcDbEntity
  8
ROGO
 62
     4
100
AcDbHatch
 10
0.0
 20
0.0
 30
0.0
210
0.0
220
0.0
230
1.0
  2
SOLID
 70
     1
 71
     1
 91
        1
 92
        7
 72
     0
 73
     1
 93
       11
 10
99.24778270184107
 20
155.6479256986835
 10
99.48495064952881
 20
156.1235626542473
 10
98.51284298059484
 20
156.1235626542473
 10
97.1973862255907
 20
153.4854327879395
 10
98.16949389452469
 20
153.4854327879395
 10
98.51284298059482
 20
154.1740145106647
 10
98.85619206666495
 20
153.4854327879395
 10
99.8282784666649
 20
153.4854327879395
 10
99.17055008916285
 20
154.8044977210934
 10
100.7685756188745
 20
156.1235626542473
 10
99.79648921887454
 20
156.1235626542472
 97
       11
330
21CC
330
219B
330
2199
330
21C6
330
219E
330
2182
330
21BF
330
21C4
330
21AB
330
21C5
330
219A
 75
     0
 76
     1
 47
0.015942268611278
 98
        1
 10
99.03759386238455
 20
155.2677025784535
450
        0
451
        0
460
0.0
461
0.0
452
        0
462
0.0
453
        0
470

  0
LINE
  5
21A8
102
{ACAD_REACTORS
330
2180
102
}
330
18
100
AcDbEntity
  8
ROGO
 62
     4
100
AcDbLine
 10
87.19885225876641
 20
156.1235626542473
 30
0.0
 11
87.00749400710771
 21
155.7368168005002
 31
0.0
  0
LINE
  5
21A9
102
{ACAD_REACTORS
330
21AA
102
}
330
18
100
AcDbEntity
  8
ROGO
 62
     4
100
AcDbLine
 10
87.86034488544913
 20
156.1235626542473
 30
0.0
 11
86.64285788960734
 21
154.4352334578162
 31
0.0
  0
HATCH
  5
21AA
330
18
100
AcDbEntity
  8
ROGO
 62
     4
100
AcDbHatch
 10
0.0
 20
0.0
 30
0.0
210
0.0
220
0.0
230
1.0
  2
SOLID
 70
     1
 71
     1
 91
        2
 92
        7
 72
     0
 73
     1
 93
        8
 10
89.21086364901238
 20
156.1235626542473
 10
87.86034488544913
 20
156.1235626542473
 10
86.64285788960734
 20
154.4352334578162
 10
87.57789007035363
 20
154.4352334578163
 10
87.8096920615291
 20
154.7566808907901
 10
88.87667676139466
 20
154.7566808907901
 10
89.01947644819761
 20
154.4352334578163
 10
89.96088637664808
 20
154.4352334578164
 97
        8
330
21C8
330
21A9
330
21B6
330
21B5
330
21B3
330
21B8
330
21B9
330
21A4
 92
       22
 72
     0
 73
     1
 93
        3
 10
88.72606162562254
 20
155.0957211915422
 10
88.05418061157281
 20
155.0957211915422
 10
88.46993784397559
 20
155.6722653981665
 97
        3
330
21B4
330
21B2
330
21B7
 75
     0
 76
     1
 47
0.0128389261915577
 98
        2
 10
89.10510735866074
 20
155.7185087612071
 10
89.10510735866074
 20
155.7185087612071
450
        0
451
        0
460
0.0
461
0.0
452
        0
462
0.0
453
        0
470

  0
LINE
  5
21AB
102
{ACAD_REACTORS
330
21A7
102
}
330
18
100
AcDbEntity
  8
ROGO
 62
     4
100
AcDbLine
 10
98.85619206666497
 20
153.4854327879395
 30
0.0
 11
99.82827846666493
 21
153.4854327879395
 31
0.0
  0
LINE
  5
21AC
330
18
100
AcDbEntity
  8
ROGO
 62
     4
100
AcDbLine
 10
90.42325419594119
 20
154.4352334578162
 30
0.0
 11
91.87743435809005
 21
154.4352334578162
 31
0.0
  0
LINE
  5
21AD
330
18
100
AcDbEntity
  8
ROGO
 62
     4
100
AcDbLine
 10
91.34950753552681
 20
155.4953947299684
 30
0.0
 11
92.40606500840687
 21
155.4953947299685
 31
0.0
  0
LINE
  5
21AE
330
18
100
AcDbEntity
  8
ROGO
 62
     4
100
AcDbLine
 10
91.11106597212716
 20
155.0633947299684
 30
0.0
 11
92.1906558561057
 21
155.0633947299684
 31
0.0
  0
SPLINE
  5
21AF
330
18
100
AcDbEntity
  8
ROGO
 62
     4
100
AcDbSpline
210
0.0
220
0.0
230
1.0
 70
     8
 71
     3
 72
    16
 73
    12
 74
    10
 42
0.0000000001
 43
0.0000000001
 44
0.0000000001
 40
0.0
 40
0.0
 40
0.0
 40
0.0
 40
0.1614737604380397
 40
0.2403420478032769
 40
0.279234489187282
 40
0.320220789027997
 40
0.3789130531806562
 40
0.4323552828341136
 40
0.488094283296473
 40
0.5815447451499928
 40
0.6740411735369377
 40
0.6740411735369377
 40
0.6740411735369377
 40
0.6740411735369377
 10
91.34950753552681
 20
155.4953947299684
 30
0.0
 10
91.29482519715637
 20
155.4870580385776
 30
0.0
 10
91.21343447988458
 20
155.4746494746392
 30
0.0
 10
91.13983279952481
 20
155.4163871942417
 30
0.0
 10
91.09832656207926
 20
155.3817250155492
 30
0.0
 10
91.08420595518476
 20
155.3358224516005
 30
0.0
 10
91.04628243936364
 20
155.3005763288405
 30
0.0
 10
91.01502267523596
 20
155.2521368107769
 30
0.0
 10
91.00755855215629
 20
155.1856043481151
 30
0.0
 10
91.01303738938922
 20
155.0922361763672
 30
0.0
 10
91.07850173669222
 20
155.0729756055109
 30
0.0
 10
91.11106597212728
 20
155.0633947299684
 30
0.0
 11
91.34950753552681
 21
155.4953947299684
 31
0.0
 11
91.19360365948631
 21
155.4533500305932
 31
0.0
 11
91.12940791480259
 21
155.4075339513587
 31
0.0
 11
91.10189552812954
 21
155.3800441245793
 31
0.0
 11
91.08355358545423
 21
155.3433910222068
 31
0.0
 11
91.04687022744343
 21
155.2975749429723
 31
0.0
 11
91.0193578407704
 21
155.2517585650067
 31
0.0
 11
91.01018686943262
 21
155.1967792101791
 31
0.0
 11
91.02852881210816
 21
155.105146454248
 31
0.0
 11
91.11106597212728
 21
155.0633947299684
 31
0.0
  0
LINE
  5
21B0
330
18
100
AcDbEntity
  8
ROGO
 62
     4
100
AcDbLine
 10
92.1906558561057
 20
155.0633947299684
 30
0.0
 11
91.87743435809005
 21
154.4352334578162
 31
0.0
  0
LINE
  5
21B1
102
{ACAD_REACTORS
330
2180
102
}
330
18
100
AcDbEntity
  8
ROGO
 62
     4
100
AcDbLine
 10
86.8578756335807
 20
155.4344296021206
 30
0.0
 11
86.70445600777867
 21
155.1243598578162
 31
0.0
  0
LINE
  5
21B2
102
{ACAD_REACTORS
330
21AA
102
}
330
18
100
AcDbEntity
  8
ROGO
 62
     4
100
AcDbLine
 10
88.46993784397552
 20
155.6722653981664
 30
0.0
 11
88.05418061157281
 21
155.0957211915422
 31
0.0
  0
LINE
  5
21B3
102
{ACAD_REACTORS
330
21AA
102
}
330
18
100
AcDbEntity
  8
ROGO
 62
     4
100
AcDbLine
 10
87.80969206152912
 20
154.7566808907901
 30
0.0
 11
88.87667676139466
 21
154.7566808907901
 31
0.0
  0
LINE
  5
21B4
102
{ACAD_REACTORS
330
21AA
102
}
330
18
100
AcDbEntity
  8
ROGO
 62
     4
100
AcDbLine
 10
88.05418061157292
 20
155.0957211915422
 30
0.0
 11
88.72606162562254
 21
155.0957211915422
 31
0.0
  0
LINE
  5
21B5
102
{ACAD_REACTORS
330
21AA
102
}
330
18
100
AcDbEntity
  8
ROGO
 62
     4
100
AcDbLine
 10
87.80969206152912
 20
154.7566808907901
 30
0.0
 11
87.5778900703537
 21
154.4352334578164
 31
0.0
  0
LINE
  5
21B6
102
{ACAD_REACTORS
330
21AA
102
}
330
18
100
AcDbEntity
  8
ROGO
 62
     4
100
AcDbLine
 10
86.64285788960734
 20
154.4352334578162
 30
0.0
 11
87.5778900703537
 21
154.4352334578162
 31
0.0
  0
LINE
  5
21B7
102
{ACAD_REACTORS
330
21AA
102
}
330
18
100
AcDbEntity
  8
ROGO
 62
     4
100
AcDbLine
 10
88.46993784397563
 20
155.6722653981664
 30
0.0
 11
88.72606162562254
 21
155.0957211915422
 31
0.0
  0
LINE
  5
21B8
102
{ACAD_REACTORS
330
21AA
102
}
330
18
100
AcDbEntity
  8
ROGO
 62
     4
100
AcDbLine
 10
88.87667676139466
 20
154.7566808907901
 30
0.0
 11
89.01947644819761
 21
154.4352334578162
 31
0.0
  0
LINE
  5
21B9
102
{ACAD_REACTORS
330
21AA
102
}
330
18
100
AcDbEntity
  8
ROGO
 62
     4
100
AcDbLine
 10
89.96088637664815
 20
154.4352334578164
 30
0.0
 11
89.01947644819761
 21
154.4352334578162
 31
0.0
  0
LINE
  5
21BA
330
18
100
AcDbEntity
  8
ROGO
 62
     4
100
AcDbLine
 10
95.86320104427699
 20
154.4352334578162
 30
0.0
 11
97.31738120642587
 21
154.4352334578162
 31
0.0
  0
SPLINE
  5
21BB
330
18
100
AcDbEntity
  8
ROGO
 62
     4
100
AcDbSpline
210
0.0
220
0.0
230
1.0
 70
     8
 71
     3
 72
    16
 73
    12
 74
    10
 42
0.0000000001
 43
0.0000000001
 44
0.0000000001
 40
0.0
 40
0.0
 40
0.0
 40
0.0
 40
0.1614737604380397
 40
0.2403420478033429
 40
0.2792344891871872
 40
0.320220789028004
 40
0.3789130531806808
 40
0.4323552828340408
 40
0.4880942832964002
 40
0.5815447451500316
 40
0.6740411735369252
 40
0.6740411735369252
 40
0.6740411735369252
 40
0.6740411735369252
 10
96.78945438386262
 20
155.4953947299684
 30
0.0
 10
96.73477204549218
 20
155.4870580385776
 30
0.0
 10
96.65338132822036
 20
155.4746494746393
 30
0.0
 10
96.57977964786063
 20
155.4163871942416
 30
0.0
 10
96.53827341041521
 20
155.3817250155491
 30
0.0
 10
96.5241528035203
 20
155.3358224516005
 30
0.0
 10
96.48622928769954
 20
155.3005763288403
 30
0.0
 10
96.4549695235717
 20
155.2521368107768
 30
0.0
 10
96.44750540049214
 20
155.1856043481151
 30
0.0
 10
96.45298423772498
 20
155.0922361763671
 30
0.0
 10
96.51844858502803
 20
155.0729756055108
 30
0.0
 10
96.5510128204631
 20
155.0633947299684
 30
0.0
 11
96.78945438386262
 21
155.4953947299684
 31
0.0
 11
96.63355050782213
 21
155.4533500305932
 31
0.0
 11
96.5693547631384
 21
155.4075339513586
 31
0.0
 11
96.54184237646546
 21
155.3800441245793
 31
0.0
 11
96.52350043378994
 21
155.3433910222068
 31
0.0
 11
96.48681707577924
 21
155.2975749429722
 31
0.0
 11
96.4593046891062
 21
155.2517585650067
 31
0.0
 11
96.45013371776844
 21
155.1967792101791
 31
0.0
 11
96.46847566044398
 21
155.1051464542479
 31
0.0
 11
96.5510128204631
 21
155.0633947299684
 31
0.0
  0
LINE
  5
21BC
330
18
100
AcDbEntity
  8
ROGO
 62
     4
100
AcDbLine
 10
97.63060270444151
 20
155.0633947299684
 30
0.0
 11
97.31738120642587
 21
154.4352334578162
 31
0.0
  0
LINE
  5
21BD
330
18
100
AcDbEntity
  8
ROGO
 62
     4
100
AcDbLine
 10
96.55101282046297
 20
155.0633947299684
 30
0.0
 11
97.63060270444151
 21
155.0633947299684
 31
0.0
  0
LINE
  5
21BE
330
18
100
AcDbEntity
  8
ROGO
 62
     4
100
AcDbLine
 10
96.7894543838625
 20
155.4953947299684
 30
0.0
 11
97.84601185674269
 21
155.4953947299684
 31
0.0
  0
LINE
  5
21BF
102
{ACAD_REACTORS
330
21A7
102
}
330
18
100
AcDbEntity
  8
ROGO
 62
     4
100
AcDbLine
 10
98.51284298059482
 20
154.1740145106647
 30
0.0
 11
98.16949389452469
 21
153.4854327879395
 31
0.0
  0
SPLINE
  5
21C0
102
{ACAD_REACTORS
330
21A6
102
}
330
18
100
AcDbEntity
  8
ROGO
 62
     4
100
AcDbSpline
210
0.0
220
0.0
230
1.0
 70
     8
 71
     3
 72
    11
 73
     7
 74
     0
 42
0.0000000001
 43
0.0000000001
 40
0.1647869275458134
 40
0.1647869275458134
 40
0.1647869275458134
 40
0.1647869275458134
 40
0.2895635144633836
 40
0.5387013147903714
 40
0.7953622617455423
 40
0.8850764140209602
 40
0.8850764140209602
 40
0.8850764140209602
 40
0.8850764140209602
 10
94.44910607520574
 20
154.4728746038415
 30
0.0
 10
94.43113366303322
 20
154.4678719760633
 30
0.0
 10
94.37540950547504
 20
154.4589650749125
 30
0.0
 10
94.28193966201178
 20
154.4467348535753
 30
0.0
 10
94.19310125074497
 20
154.4339721713951
 30
0.0
 10
94.14111892882255
 20
154.4349739805609
 30
0.0
 10
94.12765505698263
 20
154.4352334578162
 30
0.0
  0
SPLINE
  5
21C1
102
{ACAD_REACTORS
330
21A6
102
}
330
18
100
AcDbEntity
  8
ROGO
 62
     4
100
AcDbSpline
210
0.0
220
0.0
230
1.0
 70
     8
 71
     3
 72
     9
 73
     5
 74
     3
 42
0.0000000001
 43
0.0000000001
 44
0.0000000001
 40
0.0
 40
0.0
 40
0.0
 40
0.0
 40
0.146030572742497
 40
0.3423777932799819
 40
0.3423777932799819
 40
0.3423777932799819
 40
0.3423777932799819
 10
94.44910607520574
 20
154.4728746038415
 30
0.0
 10
94.49601532018602
 20
154.4872261834857
 30
0.0
 10
94.6059969731999
 20
154.5208743578122
 30
0.0
 10
94.69686701250436
 20
154.5919901949508
 30
0.0
 10
94.74897926977616
 20
154.6327737890752
 30
0.0
 11
94.44910607520574
 21
154.4728746038415
 31
0.0
 11
94.58635705778039
 21
154.5227453964741
 31
0.0
 11
94.74897926977616
 21
154.6327737890752
 31
0.0
  0
LINE
  5
21C2
102
{ACAD_REACTORS
330
21A6
102
}
330
18
100
AcDbEntity
  8
ROGO
 62
     4
100
AcDbLine
 10
93.16278585574428
 20
154.4352334578162
 30
0.0
 11
94.12765505698263
 21
154.4352334578162
 31
0.0
  0
ELLIPSE
  5
21C3
330
18
100
AcDbEntity
  8
ROGO
 62
     4
100
AcDbEllipse
 10
93.87859745653925
 20
155.2592813746158
 30
0.0
 11
0.2292231973722778
 21
0.2015731185223643
 31
0.0
210
0.0
220
0.0
230
1.0
 40
0.6788083417438792
 41
0.0
 42
6.283185307179586
  0
LINE
  5
21C4
102
{ACAD_REACTORS
330
21A7
102
}
330
18
100
AcDbEntity
  8
ROGO
 62
     4
100
AcDbLine
 10
98.51284298059482
 20
154.1740145106647
 30
0.0
 11
98.85619206666497
 21
153.4854327879395
 31
0.0
  0
LINE
  5
21C5
102
{ACAD_REACTORS
330
21A7
102
}
330
18
100
AcDbEntity
  8
ROGO
 62
     4
100
AcDbLine
 10
99.17055008916287
 20
154.8044977210934
 30
0.0
 11
99.82827846666493
 21
153.4854327879395
 31
0.0
  0
LINE
  5
21C6
102
{ACAD_REACTORS
330
21A7
102
}
330
18
100
AcDbEntity
  8
ROGO
 62
     4
100
AcDbLine
 10
98.51284298059482
 20
156.1235626542473
 30
0.0
 11
99.48495064952879
 21
156.1235626542473
 31
0.0
  0
LINE
  5
21C7
330
18
100
AcDbEntity
  8
ROGO
 62
     4
100
AcDbLine
 10
91.02852881210862
 20
156.1235626542474
 30
0.0
 11
92.71928982338767
 21
156.1235626542474
 31
0.0
  0
LINE
  5
21C8
102
{ACAD_REACTORS
330
21AA
102
}
330
18
100
AcDbEntity
  8
ROGO
 62
     4
100
AcDbLine
 10
87.86034488544913
 20
156.1235626542473
 30
0.0
 11
89.21086364901242
 21
156.1235626542473
 31
0.0
  0
LINE
  5
21C9
330
18
100
AcDbEntity
  8
ROGO
 62
     4
100
AcDbLine
 10
96.46847566044442
 20
156.1235626542473
 30
0.0
 11
98.15923667172349
 21
156.1235626542473
 31
0.0
  0
LINE
  5
21CA
102
{ACAD_REACTORS
330
21A6
102
}
330
18
100
AcDbEntity
  8
ROGO
 62
     4
100
AcDbLine
 10
93.65686523487118
 20
156.1306047931831
 30
0.0
 11
94.62173443610954
 21
156.1306047931831
 31
0.0
  0
LINE
  5
21CB
330
18
100
AcDbEntity
  8
外形線
100
AcDbLine
 10
101.59572707326
 20
167.9634107469371
 30
0.0
 11
101.59572707326
 21
166.891228728464
 31
0.0
  0
LINE
  5
21CC
102
{ACAD_REACTORS
330
21A7
102
}
330
18
100
AcDbEntity
  8
ROGO
 62
     4
100
AcDbLine
 10
99.79648921887458
 20
156.1235626542473
 30
0.0
 11
100.7685756188745
 21
156.1235626542473
 31
0.0
  0
LINE
  5
21CD
330
18
100
AcDbEntity
  8
外形線
100
AcDbLine
 10
74.59572707325998
 20
125.4806572545583
 30
0.0
 11
74.59572707325998
 21
115.3374764194845
 31
0.0
  0
LINE
  5
21CE
330
18
100
AcDbEntity
  8
外形線
100
AcDbLine
 10
106.5957270732599
 20
125.4806572545583
 30
0.0
 11
106.5957270732599
 21
115.3374764194845
 31
0.0
  0
LINE
  5
21CF
330
18
100
AcDbEntity
  8
外形線
100
AcDbLine
 10
75.59572707325997
 20
126.4806572545583
 30
0.0
 11
105.5957270732599
 21
126.4806572545583
 31
0.0
  0
ARC
  5
21D1
330
18
100
AcDbEntity
  8
外形線
100
AcDbCircle
 10
90.59572707325997
 20
138.9806572545583
 30
0.0
 40
29.0
100
AcDbArc
 50
237.6076345141539
 51
302.3923654858461
  0
ARC
  5
21D2
330
18
100
AcDbEntity
  8
外形線
100
AcDbCircle
 10
75.59572707325997
 20
125.4806572545583
 30
0.0
 40
1.0
100
AcDbArc
 50
90.0
 51
180.0
  0
ARC
  5
21D3
330
18
100
AcDbEntity
  8
外形線
100
AcDbCircle
 10
105.5957270732599
 20
125.4806572545583
 30
0.0
 40
1.0
100
AcDbArc
 50
0.0
 51
90.0
  0
ARC
  5
21D4
330
18
100
AcDbEntity
  8
外形線
100
AcDbCircle
 10
105.5957270732599
 20
115.3374764194845
 30
0.0
 40
1.0
100
AcDbArc
 50
302.3923654858419
 51
0.0
  0
ARC
  5
21D5
330
18
100
AcDbEntity
  8
外形線
100
AcDbCircle
 10
75.59572707325997
 20
115.3374764194845
 30
0.0
 40
1.0
100
AcDbArc
 50
180.0
 51
237.6076345141571
  0
ELLIPSE
  5
21D6
330
18
100
AcDbEntity
  8
外形線
100
AcDbEllipse
 10
98.44450896086863
 20
119.072373781379
 30
0.0
 11
-4.089143464216689
 21
0.0
 31
0.0
210
0.0
220
0.0
230
1.0
 40
0.6358299782710266
 41
0.0
 42
6.283185307179586
  0
ELLIPSE
  5
21D7
330
18
100
AcDbEntity
  8
外形線
100
AcDbEllipse
 10
83.26831326385962
 20
119.072373781379
 30
0.0
 11
-4.089143464216689
 21
0.0
 31
0.0
210
0.0
220
0.0
230
1.0
 40
0.6358299782710266
 41
0.0
 42
6.283185307179586
  0
TEXT
  5
21D8
330
18
100
AcDbEntity
  8
寸法線
100
AcDbText
 10
96.75022338195795
 20
112.9379260891198
 30
0.0
 40
1.199999999999999
  1
SET
  7
STYLE4
100
AcDbText
  0
ELLIPSE
  5
21D9
330
18
100
AcDbEntity
  8
外形線
100
AcDbEllipse
 10
98.44450896086863
 20
119.072373781379
 30
0.0
 11
-5.473687379191062
 21
0.0
 31
0.0
210
0.0
220
0.0
230
1.0
 40
0.7307688077339824
 41
0.0
 42
6.283185307179586
  0
ELLIPSE
  5
21DA
330
18
100
AcDbEntity
  8
外形線
100
AcDbEllipse
 10
83.26831326385962
 20
119.072373781379
 30
0.0
 11
-5.473687379191062
 21
0.0
 31
0.0
210
0.0
220
0.0
230
1.0
 40
0.7307688077339824
 41
0.0
 42
6.283185307179586
  0
LINE
  5
21DB
330
18
100
AcDbEntity
  8
外形線
100
AcDbLine
 10
84.59572707325998
 20
105.8806572545583
 30
0.0
 11
96.59572707325999
 21
105.8806572545584
 31
0.0
  0
LINE
  5
21DC
330
18
100
AcDbEntity
  8
外形線
100
AcDbLine
 10
84.59572707325998
 20
105.8806572545583
 30
0.0
 11
85.59572707325997
 21
103.8806572545583
 31
0.0
  0
LINE
  5
21DE
330
18
100
AcDbEntity
  8
外形線
100
AcDbLine
 10
84.59572707325998
 20
106.3806572545583
 30
0.0
 11
96.59572707325999
 21
106.3806572545584
 31
0.0
  0
LINE
  5
21DF
330
18
100
AcDbEntity
  8
中心線
 48
0.3
100
AcDbLine
 10
76.29872516629354
 20
119.072373781379
 30
0.0
 11
90.2379013614257
 21
119.072373781379
 31
0.0
  0
LINE
  5
21E0
330
18
100
AcDbEntity
  8
中心線
 48
0.3
100
AcDbLine
 10
83.26831326385962
 20
124.3899837651695
 30
0.0
 11
83.26831326385962
 21
113.7911350249293
 31
0.0
  0
LINE
  5
21E1
330
18
100
AcDbEntity
  8
中心線
 48
0.3
100
AcDbLine
 10
98.44450896086863
 20
124.3899837651695
 30
0.0
 11
98.44450896086863
 21
113.7911350249293
 31
0.0
  0
LINE
  5
21E2
330
18
100
AcDbEntity
  8
中心線
 48
0.3
100
AcDbLine
 10
91.47492086330254
 20
119.072373781379
 30
0.0
 11
105.4140970584347
 21
119.072373781379
 31
0.0
  0
LINE
  5
21E3
330
18
100
AcDbEntity
  8
外形線
100
AcDbLine
 10
95.59572707326003
 20
193.8806572545583
 30
0.0
 11
95.59572707326003
 21
186.5806572545583
 31
0.0
  0
LINE
  5
21E4
330
18
100
AcDbEntity
  8
外形線
100
AcDbLine
 10
85.59572707326003
 20
193.8806572545584
 30
0.0
 11
85.59572707325997
 21
186.5806572545583
 31
0.0
  0
LINE
  5
21E5
330
18
100
AcDbEntity
  8
外形線
100
AcDbLine
 10
85.59572707326003
 20
186.5806572545583
 30
0.0
 11
95.59572707326003
 21
186.5806572545583
 31
0.0
  0
LINE
  5
21E6
330
18
100
AcDbEntity
  8
外形線
100
AcDbLine
 10
85.59572707326003
 20
185.9806572545583
 30
0.0
 11
95.59572707326003
 21
185.9806572545583
 31
0.0
  0
LINE
  5
21E7
330
18
100
AcDbEntity
  8
外形線
100
AcDbLine
 10
84.59572707325998
 20
184.9806572545583
 30
0.0
 11
96.59572707326004
 21
184.9806572545583
 31
0.0
  0
LINE
  5
21E8
330
18
100
AcDbEntity
  8
外形線
100
AcDbLine
 10
84.59572707326003
 20
184.9806572545583
 30
0.0
 11
85.59572707326003
 21
185.9806572545583
 31
0.0
  0
LINE
  5
21E9
330
18
100
AcDbEntity
  8
外形線
100
AcDbLine
 10
86.59572707325997
 20
186.5806572545583
 30
0.0
 11
86.59572707325997
 21
185.9806572545583
 31
0.0
  0
POINT
  5
21EA
330
18
100
AcDbEntity
  8
DEFPOINTS
  6
ByBlock
 62
     0
100
AcDbPoint
 10
85.59572707326003
 20
185.9806572545583
 30
0.0
  0
LINE
  5
21EB
330
18
100
AcDbEntity
  8
外形線
100
AcDbLine
 10
95.59572707326003
 20
185.9806572545583
 30
0.0
 11
96.59572707326004
 21
184.9806572545583
 31
0.0
  0
LINE
  5
21EC
330
18
100
AcDbEntity
  8
外形線
100
AcDbLine
 10
94.59572707326003
 20
186.5806572545584
 30
0.0
 11
94.59572707326003
 21
185.9806572545583
 31
0.0
  0
LINE
  5
21ED
330
18
100
AcDbEntity
  8
外形線
100
AcDbLine
 10
87.09572707326003
 20
202.9806572545583
 30
0.0
 11
94.09572707326004
 21
202.9806572545583
 31
0.0
  0
LINE
  5
21EE
330
18
100
AcDbEntity
  8
外形線
100
AcDbLine
 10
85.5957270732601
 20
193.8806572545584
 30
0.0
 11
95.5957270732601
 21
193.8806572545583
 31
0.0
  0
LINE
  5
21EF
330
18
100
AcDbEntity
  8
外形線
100
AcDbLine
 10
85.5957270732601
 20
195.3806572545584
 30
0.0
 11
95.5957270732601
 21
195.3806572545583
 31
0.0
  0
LINE
  5
21F0
330
18
100
AcDbEntity
  8
外形線
100
AcDbLine
 10
85.5957270732601
 20
196.6806572545585
 30
0.0
 11
95.5957270732601
 21
196.6806572545583
 31
0.0
  0
LINE
  5
21F1
330
18
100
AcDbEntity
  8
外形線
100
AcDbLine
 10
85.5957270732601
 20
197.6806572545585
 30
0.0
 11
95.5957270732601
 21
197.6806572545583
 31
0.0
  0
LINE
  5
21F2
330
18
100
AcDbEntity
  8
外形線
100
AcDbLine
 10
85.5957270732601
 20
198.9806572545584
 30
0.0
 11
95.5957270732601
 21
198.9806572545584
 31
0.0
  0
LINE
  5
21F3
330
18
100
AcDbEntity
  8
外形線
100
AcDbLine
 10
85.5957270732601
 20
199.9806572545584
 30
0.0
 11
95.5957270732601
 21
199.9806572545584
 31
0.0
  0
LINE
  5
21F4
330
18
100
AcDbEntity
  8
外形線
100
AcDbLine
 10
85.59572707326003
 20
201.4806572545583
 30
0.0
 11
85.59572707326003
 21
199.9806572545584
 31
0.0
  0
LINE
  5
21F5
330
18
100
AcDbEntity
  8
外形線
100
AcDbLine
 10
86.59572707325992
 20
199.9806572545584
 30
0.0
 11
86.59572707325992
 21
198.9806572545584
 31
0.0
  0
LINE
  5
21F6
330
18
100
AcDbEntity
  8
外形線
100
AcDbLine
 10
86.59572707325992
 20
197.6806572545582
 30
0.0
 11
86.59572707325997
 21
196.6806572545583
 31
0.0
  0
LINE
  5
21F7
330
18
100
AcDbEntity
  8
外形線
100
AcDbLine
 10
85.59572707326003
 20
198.9806572545584
 30
0.0
 11
85.59572707326003
 21
197.6806572545585
 31
0.0
  0
ARC
  5
21F8
330
18
100
AcDbEntity
  8
外形線
100
AcDbCircle
 10
87.09572707326003
 20
201.4806572545583
 30
0.0
 40
1.5
100
AcDbArc
 50
90.0
 51
180.0
  0
LINE
  5
21F9
330
18
100
AcDbEntity
  8
外形線
100
AcDbLine
 10
86.59572707325997
 20
195.3806572545584
 30
0.0
 11
86.59572707325997
 21
193.8806572545583
 31
0.0
  0
LINE
  5
21FA
330
18
100
AcDbEntity
  8
外形線
100
AcDbLine
 10
85.59572707326003
 20
196.6806572545585
 30
0.0
 11
85.59572707326003
 21
195.3806572545584
 31
0.0
  0
LINE
  5
21FB
330
18
100
AcDbEntity
  8
外形線
100
AcDbLine
 10
95.59572707326003
 20
201.4806572545583
 30
0.0
 11
95.59572707326003
 21
199.9806572545582
 31
0.0
  0
LINE
  5
21FC
330
18
100
AcDbEntity
  8
外形線
100
AcDbLine
 10
94.59572707326003
 20
199.9806572545583
 30
0.0
 11
94.59572707326003
 21
198.9806572545584
 31
0.0
  0
LINE
  5
21FD
330
18
100
AcDbEntity
  8
外形線
100
AcDbLine
 10
94.59572707326003
 20
197.6806572545583
 30
0.0
 11
94.59572707326003
 21
196.6806572545582
 31
0.0
  0
LINE
  5
21FE
330
18
100
AcDbEntity
  8
外形線
100
AcDbLine
 10
95.59572707326003
 20
198.9806572545583
 30
0.0
 11
95.59572707326003
 21
197.6806572545582
 31
0.0
  0
ARC
  5
21FF
330
18
100
AcDbEntity
  8
外形線
100
AcDbCircle
 10
94.09572707326004
 20
201.4806572545583
 30
0.0
 40
1.5
100
AcDbArc
 50
0.0
 51
90.0
  0
LINE
  5
2200
330
18
100
AcDbEntity
  8
外形線
100
AcDbLine
 10
94.59572707326003
 20
195.3806572545583
 30
0.0
 11
94.59572707326003
 21
193.8806572545583
 31
0.0
  0
LINE
  5
2201
330
18
100
AcDbEntity
  8
外形線
100
AcDbLine
 10
95.59572707326003
 20
196.6806572545583
 30
0.0
 11
95.59572707326003
 21
195.3806572545583
 31
0.0
  0
LINE
  5
2205
330
18
100
AcDbEntity
  8
外形線
100
AcDbLine
 10
88.34572707325998
 20
56.4806572545583
 30
0.0
 11
92.84572707325997
 21
56.4806572545583
 31
0.0
  0
LINE
  5
2208
330
18
100
AcDbEntity
  8
外形線
100
AcDbLine
 10
96.5957270732601
 20
105.8806572545583
 30
0.0
 11
95.5957270732601
 21
103.8806572545583
 31
0.0
  0
LINE
  5
2211
330
18
100
AcDbEntity
  8
外形線
100
AcDbLine
 10
88.59572707325998
 20
61.58065725455833
 30
0.0
 11
88.59572707325998
 21
56.4806572545583
 31
0.0
  0
LINE
  5
2212
330
18
100
AcDbEntity
  8
外形線
100
AcDbLine
 10
92.59572707325999
 20
61.58065725455834
 30
0.0
 11
92.59572707325999
 21
56.4806572545583
 31
0.0
  0
LINE
  5
2216
330
18
100
AcDbEntity
  8
C
100
AcDbLine
 10
228.925
 20
217.7198361406849
 30
0.0
 11
255.0
 21
217.7198361406849
 31
0.0
  0
DIMENSION
  5
2227
330
18
100
AcDbEntity
  8
寸法線
100
AcDbDimension
  2
*D4
 10
41.97458312400375
 20
138.9806572545583
 30
0.0
 11
40.09958312400374
 21
100.2806572545583
 31
0.0
 70
    32
 71
     5
 42
77.39999999999996
  3
STYLE3
100
AcDbAlignedDimension
 13
53.09572707326004
 23
61.58065725455833
 33
0.0
 14
54.67676512120585
 24
138.9806572545583
 34
0.0
 50
90.0
100
AcDbRotatedDimension
1001
ACAD
1000
DSTYLE
1002
{
1070
   271
1070
     2
1070
   341
1005
0
1002
}
  0
DIMENSION
  5
2236
330
18
100
AcDbEntity
  8
寸法線
100
AcDbDimension
  2
*D5
 10
41.97458312400377
 20
202.9806572545584
 30
0.0
 11
40.09958312400374
 21
170.9806572545583
 31
0.0
 70
    32
 71
     5
 42
64.00000000000003
  3
STYLE3
100
AcDbAlignedDimension
 13
54.67676512120585
 23
138.9806572545583
 33
0.0
 14
87.09572707326003
 24
202.9806572545583
 34
0.0
 50
90.0
100
AcDbRotatedDimension
1001
ACAD
1000
DSTYLE
1002
{
1070
   271
1070
     2
1070
   341
1005
0
1002
}
  0
DIMENSION
  5
2245
330
18
100
AcDbEntity
  8
寸法線
100
AcDbDimension
  2
*D6
 10
31.16928291217527
 20
41.48065725455833
 30
0.0
 11
29.29428291217526
 21
122.2306572545583
 31
0.0
 70
    32
 71
     5
 42
161.5
  3
STYLE3
100
AcDbAlignedDimension
 13
90.59572707326003
 23
202.9806572545583
 33
0.0
 14
90.59572707326003
 24
41.48065725455831
 34
0.0
 50
90.0
100
AcDbRotatedDimension
1001
ACAD
1000
DSTYLE
1002
{
1070
   271
1070
     2
1070
   341
1005
0
1002
}
  0
LINE
  5
233E
330
18
100
AcDbEntity
  8
中心線
100
AcDbLine
 10
196.4935474326374
 20
205.918613668389
 30
0.0
 11
196.4935474326374
 21
39.93182159792571
 31
0.0
  0
DIMENSION
  5
27BB
330
18
100
AcDbEntity
  8
寸法線
100
AcDbDimension
  2
*D8
 10
164.6284798397812
 20
108.9806572545596
 30
0.0
 11
162.7534798397812
 21
138.980657254559
 31
0.0
 70
    32
  1
%%C<>
 71
     5
 42
59.99999999999866
  3
STYLE3
100
AcDbAlignedDimension
 13
174.9935474326373
 23
168.9806572545583
 33
0.0
 14
174.9935474326371
 24
108.9806572545596
 34
0.0
 50
90.0
100
AcDbRotatedDimension
1001
ACAD
1000
DSTYLE
1002
{
1070
   271
1070
     2
1070
   341
1005
0
1002
}
  0
LINE
  5
2DA2
330
18
100
AcDbEntity
  8
外形線
100
AcDbLine
 10
112.5957270732599
 20
138.9806572545583
 30
0.0
 11
119.59572707326
 21
138.9806572545583
 31
0.0
  0
DIMENSION
  5
330C
330
18
100
AcDbEntity
  8
寸法線
100
AcDbDimension
  2
*D9
 10
198.9935474326372
 20
34.38129696923488
 30
0.0
 11
196.4935474326372
 21
34.38129696923488
 31
0.0
 70
   160
  1
%%C<>
 71
     5
 42
5.0
  3
STYLE3
100
AcDbAlignedDimension
 13
193.9935474326372
 23
56.48065725455836
 33
0.0
 14
198.9935474326372
 24
56.48065725455836
 34
0.0
100
AcDbRotatedDimension
1001
ACAD
1000
DSTYLE
1002
{
1070
   271
1070
     2
1070
   341
1005
0
1002
}
  0
LINE
  5
364E
330
18
100
AcDbEntity
  8
外形線
100
AcDbLine
 10
92.05208501350901
 20
208.3163111409172
 30
0.0
 11
195.052085013509
 21
208.3163111409172
 31
0.0
  0
LINE
  5
364F
330
18
100
AcDbEntity
  8
外形線
100
AcDbLine
 10
92.05208501350901
 20
207.3163111409172
 30
0.0
 11
195.052085013509
 21
207.3163111409172
 31
0.0
  0
TEXT
  5
3650
330
18
100
AcDbEntity
  8
文字
100
AcDbText
 10
92.24364901350904
 20
210.3125031409172
 30
0.0
 40
3.5
  1
Model No.T2-205W Digital Depth Gauge
  7
STYLE3
100
AcDbText
  0
LINE
  5
3676
330
18
100
AcDbEntity
  8
外形線
100
AcDbLine
 10
234.1970545320168
 20
76.53898382258512
 30
0.0
 11
234.1970545320168
 21
217.3304018225851
 31
0.0
  0
LINE
  5
3677
330
18
100
AcDbEntity
  8
外形線
100
AcDbLine
 10
244.9772605320168
 20
76.53898382258512
 30
0.0
 11
244.9772605320168
 21
217.3304018225851
 31
0.0
  0
TEXT
  5
3678
330
18
100
AcDbEntity
  8
0
  6
Continuous
100
AcDbText
 10
243.0792705320168
 20
77.99645082258511
 30
0.0
 40
2.1
  1
Design and specifications are subject to change without notice for future improvement.
 50
90.0
  7
STYLE3
100
AcDbText
  0
TEXT
  5
3679
330
18
100
AcDbEntity
  8
0
  6
Continuous
100
AcDbText
 10
239.1501225320169
 20
78.28794482258512
 30
0.0
 40
3.5
  1
仕様及び外観は予告なく変更される場合がございますのでご了承下さい。
 50
90.0
  7
STYLE3
100
AcDbText
  0
TEXT
  5
367A
330
18
100
AcDbEntity
  8
0
  6
Continuous
100
AcDbText
 10
252.8438985320168
 20
77.70495982258513
 30
0.0
 40
2.1
  1
3RD Angle Projection
 50
90.0
  7
STYLE3
100
AcDbText
  0
TEXT
  5
367B
330
18
100
AcDbEntity
  8
0
  6
Continuous
100
AcDbText
 10
249.3476155320168
 20
80.32840282258511
 30
0.0
 40
3.0
  1
三　　角　　法
 50
90.0
  7
STYLE3
100
AcDbText
  0
LINE
  5
367C
330
18
100
AcDbEntity
  8
外形線
100
AcDbLine
 10
254.5920385320168
 20
76.53898382258512
 30
0.0
 11
234.1970545320168
 21
76.53898382258512
 31
0.0
  0
LINE
  5
367D
330
18
100
AcDbEntity
  8
外形線
100
AcDbLine
 10
244.9772605320168
 20
178.5617508225851
 30
0.0
 11
254.5920385320168
 21
178.5617508225851
 31
0.0
  0
LINE
  5
367E
330
18
100
AcDbEntity
  8
外形線
100
AcDbLine
 10
244.9772605320168
 20
148.8294008225851
 30
0.0
 11
254.5920385320168
 21
148.8294008225851
 31
0.0
  0
LINE
  5
367F
330
18
100
AcDbEntity
  8
外形線
100
AcDbLine
 10
244.9772605320168
 20
129.2993288225851
 30
0.0
 11
254.5920385320168
 21
129.2993288225851
 31
0.0
  0
LINE
  5
3680
330
18
100
AcDbEntity
  8
外形線
100
AcDbLine
 10
244.9772605320168
 20
111.8097118225851
 30
0.0
 11
254.5920385320168
 21
111.8097118225851
 31
0.0
  0
TEXT
  5
3681
330
18
100
AcDbEntity
  8
0
  6
Continuous
100
AcDbText
 10
249.3416605320168
 20
113.2671808225851
 30
0.0
 40
3.0
  1
単位
 50
90.0
  7
STYLE3
100
AcDbText
  0
TEXT
  5
3682
330
18
100
AcDbEntity
  8
0
  6
Continuous
100
AcDbText
 10
252.8438975320168
 20
113.4389018225851
 30
0.0
 40
2.1
  1
Unit
 50
90.0
  7
STYLE3
100
AcDbText
  0
TEXT
  5
3683
330
18
100
AcDbEntity
  8
0
  6
Continuous
100
AcDbText
 10
249.6330185320168
 20
130.5850768225851
 30
0.0
 40
3.0
  1
尺 度
 50
90.0
  7
STYLE3
100
AcDbText
  0
TEXT
  5
3684
330
18
100
AcDbEntity
  8
0
  6
Continuous
100
AcDbText
 10
251.0957545320168
 20
121.3092288225851
 30
0.0
 40
2.399999999999999
  1
mm
 50
90.0
  7
STYLE3
100
AcDbText
  0
TEXT
  5
3685
330
18
100
AcDbEntity
  8
0
  6
Continuous
100
AcDbText
 10
252.5525405320168
 20
131.0482918225851
 30
0.0
 40
2.1
  1
Scale
 50
90.0
  7
STYLE3
100
AcDbText
  0
TEXT
  5
3686
330
18
100
AcDbEntity
  8
0
  6
Continuous
100
AcDbText
 10
250.8043975320168
 20
140.6675808225851
 30
0.0
 40
2.399999999999999
  1
1/1
 50
90.0
  7
STYLE3
100
AcDbText
  0
TEXT
  5
3687
330
18
100
AcDbEntity
  8
0
  6
Continuous
100
AcDbText
 10
252.8438965320168
 20
150.7613518225851
 30
0.0
 40
2.1
  1
Date
 50
90.0
  7
STYLE3
100
AcDbText
  0
TEXT
  5
3688
330
18
100
AcDbEntity
  8
0
  6
Continuous
100
AcDbText
 10
249.5108135320168
 20
150.3779908225851
 30
0.0
 40
3.0
  1
日 付
 50
90.0
  7
STYLE3
100
AcDbText
  0
TEXT
  5
3689
330
18
100
AcDbEntity
  8
0
  6
Continuous
100
AcDbText
 10
251.0957555320168
 20
159.5061598225851
 30
0.0
 40
2.1
  1
2010.07.01
 50
90.0
  7
STYLE3
100
AcDbText
  0
TEXT
  5
368A
330
18
100
AcDbEntity
  8
0
  6
Continuous
100
AcDbText
 10
249.0562585320168
 20
179.9107138225851
 30
0.0
 40
3.0
  1
株式会社　尾崎製作所
 50
90.0
  7
STYLE3
100
AcDbText
  0
TEXT
  5
368B
330
18
100
AcDbEntity
  8
0
  6
Continuous
100
AcDbText
 10
252.8438975320168
 20
180.7851928225851
 30
0.0
 40
2.1
  1
OZAKI MFG. CO., LTD.
 50
90.0
  7
STYLE3
100
AcDbText
  0
VIEWPORT
  5
177
330
15
100
AcDbEntity
 67
     1
  8
0
100
AcDbViewport
 10
127.5041203589828
 20
97.49391214526822
 30
0.0
 40
418.3086347473814
 41
243.0346063651093
 68
     1
 69
     1
 12
127.5041203589828
 22
97.49391214526822
 13
0.0
 23
0.0
 14
10.0
 24
10.0
 15
10.0
 25
10.0
 16
0.0
 26
0.0
 36
1.0
 17
0.0
 27
0.0
 37
0.0
 42
50.0
 43
0.0
 44
0.0
 45
243.0346063651093
 50
0.0
 51
0.0
 72
   100
 90
    32800
  1

281
     0
 71
     1
 74
     0
110
0.0
120
0.0
130
0.0
111
1.0
121
0.0
131
0.0
112
0.0
122
1.0
132
0.0
 79
     0
146
0.0
170
     0
  0
ENDSEC
  0
SECTION
  2
OBJECTS
  0
DICTIONARY
  5
C
330
0
100
AcDbDictionary
281
     1
  3
ACAD_COLOR
350
1B40
  3
ACAD_GROUP
350
D
  3
ACAD_IMAGE_DICT
350
5E8
  3
ACAD_LAYOUT
350
1B43
  3
ACAD_MATERIAL
350
1B3F
  3
ACAD_MLINESTYLE
350
1B
  3
ACAD_PLOTSETTINGS
350
1B44
  3
ACAD_PLOTSTYLENAME
350
1B3D
  3
ACAD_TABLESTYLE
350
1B41
  3
ACDBVARIABLEDICTIONARY
350
1A25
  0
DICTIONARY
  5
284A
330
2
100
AcDbDictionary
280
     1
281
     1
  3
ACAD_LAYERFILTERS
360
32A6
  3
ACAD_LAYERSTATES
360
284B
  3
ACLYDICTIONARY
360
32A5
  0
DICTIONARY
  5
220E
330
18
100
AcDbDictionary
280
     1
281
     1
  3
ACAD_SORTENTS
360
220F
  0
DICTIONARY
  5
1B40
102
{ACAD_REACTORS
330
C
102
}
330
C
100
AcDbDictionary
281
     1
  0
DICTIONARY
  5
D
102
{ACAD_REACTORS
330
C
102
}
330
C
100
AcDbDictionary
281
     1
  0
DICTIONARY
  5
5E8
102
{ACAD_REACTORS
330
C
102
}
330
C
100
AcDbDictionary
281
     1
  3
ROGO01
350
5E9
  0
DICTIONARY
  5
1B43
102
{ACAD_REACTORS
330
C
102
}
330
C
100
AcDbDictionary
281
     1
  3
Model
350
1B45
  3
レイアウト1
350
1B46
  0
DICTIONARY
  5
1B3F
102
{ACAD_REACTORS
330
C
102
}
330
C
100
AcDbDictionary
281
     1
  0
DICTIONARY
  5
1B
102
{ACAD_REACTORS
330
C
102
}
330
C
100
AcDbDictionary
281
     1
  3
STANDARD
350
1C
  0
DICTIONARY
  5
1B44
102
{ACAD_REACTORS
330
C
102
}
330
C
100
AcDbDictionary
281
     1
  0
ACDBDICTIONARYWDFLT
  5
1B3D
102
{ACAD_REACTORS
330
C
102
}
330
C
100
AcDbDictionary
281
     1
  3
Normal
350
1B3E
100
AcDbDictionaryWithDefault
340
1B3E
  0
DICTIONARY
  5
1B41
102
{ACAD_REACTORS
330
C
102
}
330
C
100
AcDbDictionary
281
     1
  3
Standard
350
1B42
  0
DICTIONARY
  5
1A25
102
{ACAD_REACTORS
330
C
102
}
330
C
100
AcDbDictionary
281
     1
  3
CTABLESTYLE
350
22C4
  3
SORTENTS
350
1A26
  0
DICTIONARY
  5
32A6
102
{ACAD_REACTORS
330
284A
102
}
330
284A
100
AcDbDictionary
281
     1
  0
DICTIONARY
  5
284B
102
{ACAD_REACTORS
330
284A
102
}
330
284A
100
AcDbDictionary
281
     1
  0
DICTIONARY
  5
32A5
102
{ACAD_REACTORS
330
284A
102
}
330
284A
100
AcDbDictionary
281
     1
1001
ACAD
1000
<All
  0
SORTENTSTABLE
  5
220F
102
{ACAD_REACTORS
330
220E
102
}
330
220E
100
AcDbSortentsTable
330
18
331
21F9
  5
2202
331
2183
  5
218C
331
21BA
  5
21C3
331
21C2
  5
21CB
331
1F55
  5
1F5C
331
218B
  5
2194
331
2201
  5
2222
331
21CA
  5
21D3
331
27E
  5
27E
331
129A
  5
129A
331
1351
  5
1351
331
286
  5
286
331
8EC
  5
8EC
331
17B0
  5
17B0
331
2FD
  5
2FD
331
28E
  5
28E
331
934
  5
934
331
1A20
  5
1A20
331
1AB7
  5
1ABC
331
21D2
  5
21DB
331
1ABF
  5
1AC6
331
1E16
  5
1E1D
331
1F5D
  5
1F64
331
2193
  5
219C
331
2211
  5
2224
331
219B
  5
21A4
331
1AC7
  5
1AD6
331
1E1E
  5
1E25
331
1F65
  5
1F6C
331
2164
  5
2177
331
21DA
  5
21E4
331
1AD7
  5
1B32
331
1E26
  5
1E2D
331
1F6D
  5
1F74
331
21A3
  5
21AC
331
21E2
  5
21EB
331
21EA
  5
21F3
331
1E2E
  5
1E35
331
1F75
  5
1F7C
331
2174
  5
217D
331
21AB
  5
21B4
331
305
  5
305
331
944
  5
944
331
12F2
  5
12F2
331
2A6
  5
2A6
331
954
  5
954
331
2AE
  5
2AE
331
D14
  5
D14
331
277
  5
277
331
1273
  5
1273
331
1751
  5
1751
331
1A50
  5
1A50
331
21F2
  5
21FB
331
217C
  5
2185
331
21B3
  5
21BC
331
21FA
  5
2203
331
2184
  5
218D
331
21BB
  5
21C4
331
21C3
  5
21CC
331
1F56
  5
1F5D
331
218C
  5
2195
331
1F9D
  5
2165
331
21CB
  5
21D4
331
27F
  5
27F
331
DAC
  5
DAC
331
134A
  5
134A
331
1A58
  5
1A58
331
287
  5
287
331
1352
  5
1352
331
92D
  5
92D
331
28F
  5
28F
331
1A21
  5
1A21
331
297
  5
297
331
1AB8
  5
1ABD
331
1AC0
  5
1AC7
331
1E17
  5
1E1E
331
1F5E
  5
1F65
331
2194
  5
219D
331
21D3
  5
21DC
331
2212
  5
2223
331
1E1F
  5
1E26
331
1F66
  5
1F6D
331
219C
  5
21A5
331
21DB
  5
21E5
331
21E3
  5
21EC
331
1AD8
  5
1B33
331
1E27
  5
1E2E
331
1F6E
  5
1F75
331
21A4
  5
21AD
331
21AC
  5
21B5
331
1F76
  5
1F7D
331
2175
  5
217E
331
21EB
  5
21F4
331
29F
  5
29F
331
945
  5
945
331
12F3
  5
12F3
331
2A7
  5
2A7
331
2AF
  5
2AF
331
1274
  5
1274
331
133B
  5
133B
331
1A51
  5
1A51
331
21F3
  5
21FC
331
217D
  5
2186
331
21B4
  5
21BD
331
21FB
  5
2208
331
1F4F
  5
1F56
331
1F8E
  5
1F98
331
2185
  5
218E
331
21BC
  5
21C5
331
21C4
  5
21CD
331
1F96
  5
1F9D
331
1F57
  5
1F5E
331
218D
  5
2196
331
21CC
  5
21D5
331
1F9E
  5
2166
331
278
  5
278
331
134B
  5
134B
331
2EF
  5
2EF
331
280
  5
280
331
1A59
  5
1A59
331
288
  5
288
331
1353
  5
1353
331
92E
  5
92E
331
290
  5
290
331
2FF
  5
2FF
331
1AB1
  5
1AB7
331
1A22
  5
1A22
331
1AB9
  5
1ABE
331
2195
  5
219E
331
1E18
  5
1E1F
331
1F5F
  5
1F66
331
215E
  5
2170
331
21D4
  5
21DE
331
1E20
  5
1E27
331
1F67
  5
1F6E
331
219D
  5
21A6
331
21DC
  5
21E6
331
21A5
  5
21AE
331
1F6F
  5
1F76
331
1AD9
  5
1B34
331
1E28
  5
1E2F
331
216E
  5
2178
331
21E4
  5
21ED
331
1F77
  5
1F7E
331
2176
  5
217F
331
21AD
  5
21B6
331
21EC
  5
21F5
331
298
  5
298
331
2A0
  5
2A0
331
12F4
  5
12F4
331
2A8
  5
2A8
331
1A32
  5
1A32
331
2B0
  5
2B0
331
D5E
  5
D5E
331
1275
  5
1275
331
133C
  5
133C
331
1A52
  5
1A52
331
1E58
  5
1E5F
331
21F4
  5
21FD
331
217E
  5
2187
331
21B5
  5
21BE
331
1F50
  5
1F57
331
2186
  5
218F
331
21BD
  5
21C6
331
21FC
  5
2210
331
21C5
  5
21CE
331
1F97
  5
2162
331
218E
  5
2197
331
21CD
  5
21D6
331
279
  5
279
331
134C
  5
134C
331
281
  5
281
331
2F0
  5
2F0
331
1A5A
  5
1A5A
331
289
  5
289
331
1354
  5
1354
331
92F
  5
92F
331
291
  5
291
331
1384
  5
1384
331
1AB2
  5
1AB8
331
1A23
  5
1A23
331
1ABA
  5
1ABF
331
1F58
  5
1F5F
331
2196
  5
219F
331
1E19
  5
1E20
331
1F60
  5
1F67
331
215F
  5
2171
331
21D5
  5
21DF
331
1E21
  5
1E28
331
1F68
  5
1F6F
331
219E
  5
21A7
331
21E5
  5
21EE
331
21A6
  5
21AF
331
1E29
  5
1E30
331
1F70
  5
1F77
331
216F
  5
2179
331
21AE
  5
21B7
331
2177
  5
2180
331
21ED
  5
21F6
331
300
  5
300
331
299
  5
299
331
2A1
  5
2A1
331
102E
  5
102E
331
12F5
  5
12F5
331
2A9
  5
2A9
331
26A
  5
26A
331
10C6
  5
10C6
331
1A4B
  5
1A4B
331
133D
  5
133D
331
1A53
  5
1A53
331
1F78
  5
1F93
331
21F5
  5
21FE
331
217F
  5
2188
331
21B6
  5
21BF
331
21FD
  5
2211
331
1F51
  5
1F58
331
2187
  5
2190
331
21BE
  5
21C7
331
21C6
  5
21CF
331
1F98
  5
2164
331
218F
  5
2198
331
2205
  5
2225
331
21CE
  5
21D7
331
27A
  5
27A
331
134D
  5
134D
331
2F1
  5
2F1
331
282
  5
282
331
1A5B
  5
1A5B
331
F97
  5
F97
331
1AAB
  5
1AB5
331
292
  5
292
331
1AB3
  5
1AB9
331
1A24
  5
1A24
331
1ABB
  5
1AC0
331
1E12
  5
1E19
331
1F59
  5
1F60
331
21D6
  5
21E0
331
2160
  5
2173
331
1AC3
  5
1AC8
331
1E1A
  5
1E21
331
1F61
  5
1F68
331
2197
  5
21A0
331
219F
  5
21A8
331
1F69
  5
1F70
331
1AD3
  5
1B2E
331
1E22
  5
1E29
331
21DE
  5
21E7
331
21A7
  5
21B0
331
1E2A
  5
1E31
331
1F71
  5
1F78
331
21E6
  5
21EF
331
21EE
  5
21F7
331
21AF
  5
21B8
331
29A
  5
29A
331
1A2C
  5
1A2C
331
2A2
  5
2A2
331
2AA
  5
2AA
331
26B
  5
26B
331
1A4C
  5
1A4C
331
130E
  5
130E
331
273
  5
273
331
1A54
  5
1A54
331
2178
  5
2181
331
1F79
  5
1F97
331
21F6
  5
21FF
331
2180
  5
2189
331
21B7
  5
21C0
331
21FE
  5
2212
331
21BF
  5
21C8
331
2188
  5
2191
331
1F52
  5
1F59
331
2245
  5
2283
331
21C7
  5
21D0
331
21CF
  5
21D8
331
27B
  5
27B
331
283
  5
283
331
134E
  5
134E
331
1AAC
  5
1AB6
331
F98
  5
F98
331
28B
  5
28B
331
1356
  5
1356
331
293
  5
293
331
12BF
  5
12BF
331
2190
  5
2199
331
1ABC
  5
1AC3
331
1E13
  5
1E1A
331
1F5A
  5
1F61
331
2198
  5
21A1
331
2161
  5
2174
331
1AC4
  5
1AD3
331
1E1B
  5
1E22
331
1F62
  5
1F69
331
21D7
  5
21E1
331
2216
  5
2236
331
21DF
  5
21E8
331
21A0
  5
21A9
331
1AD4
  5
1B2F
331
1E23
  5
1E2A
331
1F6A
  5
1F71
331
21E7
  5
21F0
331
21A8
  5
21B1
331
2171
  5
217A
331
1E2B
  5
1E32
331
1F72
  5
1F79
331
21EF
  5
21F8
331
302
  5
302
331
29B
  5
29B
331
941
  5
941
331
12F7
  5
12F7
331
2A3
  5
2A3
331
1078
  5
1078
331
2AB
  5
2AB
331
26C
  5
26C
331
274
  5
274
331
130F
  5
130F
331
1A55
  5
1A55
331
2179
  5
2182
331
21B0
  5
21B9
331
21F7
  5
2200
331
2181
  5
218A
331
21B8
  5
21C1
331
2236
  5
2282
331
21FF
  5
2216
331
2189
  5
2192
331
1F53
  5
1F5A
331
1F92
  5
1F9B
331
21C0
  5
21C9
331
21C8
  5
21D1
331
1298
  5
1298
331
27C
  5
27C
331
284
  5
284
331
134F
  5
134F
331
28C
  5
28C
331
F99
  5
F99
331
1357
  5
1357
331
1AB5
  5
1ABA
331
294
  5
294
331
932
  5
932
331
2191
  5
219A
331
1ABD
  5
1AC4
331
1E14
  5
1E1B
331
1F5B
  5
1F62
331
21D8
  5
21E2
331
2199
  5
21A2
331
2162
  5
2175
331
1AC5
  5
1AD4
331
1E1C
  5
1E23
331
1F63
  5
1F6A
331
21A1
  5
21AA
331
1AD5
  5
1B30
331
1E24
  5
1E2B
331
1F6B
  5
1F72
331
21E0
  5
21E9
331
2227
  5
2245
331
21E8
  5
21F1
331
2172
  5
217B
331
1E2C
  5
1E33
331
1F73
  5
1F7A
331
21A9
  5
21B2
331
29C
  5
29C
331
942
  5
942
331
2A4
  5
2A4
331
952
  5
952
331
12F8
  5
12F8
331
663
  5
663
331
2AC
  5
2AC
331
275
  5
275
331
1A4E
  5
1A4E
331
1A56
  5
1A56
331
21F0
  5
21F9
331
1B35
  5
1DD3
331
217A
  5
2183
331
21B1
  5
21BA
331
21F8
  5
2201
331
2182
  5
218B
331
21B9
  5
21C2
331
21C1
  5
21CA
331
1F93
  5
1F9C
331
1F54
  5
1F5B
331
218A
  5
2193
331
2200
  5
2221
331
21C9
  5
21D2
331
27D
  5
27D
331
71B
  5
71B
331
1348
  5
1348
331
285
  5
285
331
1350
  5
1350
331
17AF
  5
17AF
331
F9A
  5
F9A
331
28D
  5
28D
331
1A1F
  5
1A1F
331
295
  5
295
331
933
  5
933
331
1AB6
  5
1ABB
331
2208
  5
2227
331
2192
  5
219B
331
1ABE
  5
1AC5
331
1E15
  5
1E1C
331
1F5C
  5
1F63
331
21D1
  5
21DA
331
219A
  5
21A3
331
2163
  5
2176
331
1AC6
  5
1AD5
331
1E1D
  5
1E24
331
1F64
  5
1F6B
331
21D9
  5
21E3
331
21E1
  5
21EA
331
21A2
  5
21AB
331
1AD6
  5
1B31
331
1E25
  5
1E2C
331
1F6C
  5
1F73
331
21E9
  5
21F2
331
21AA
  5
21B3
331
2173
  5
217C
331
1E2D
  5
1E34
331
1F74
  5
1F7B
331
943
  5
943
331
12F1
  5
12F1
331
2A5
  5
2A5
331
2AD
  5
2AD
331
276
  5
276
331
6BC
  5
6BC
331
1272
  5
1272
331
1750
  5
1750
331
1A57
  5
1A57
331
21B2
  5
21BB
331
217B
  5
2184
331
21F1
  5
21FA
  0
IMAGEDEF
  5
5E9
102
{ACAD_REACTORS
330
5E8
102
}
330
5E8
100
AcDbRasterImageDef
 90
        0
  1
D:\ﾃｽﾄ\rogo01.TIF
 10
3388.0
 20
4668.0
 11
0.0635
 21
0.0635
280
     1
281
     5
  0
LAYOUT
  5
1B45
102
{ACAD_REACTORS
330
1B43
102
}
330
1B43
100
AcDbPlotSettings
  1

  2
A3 EPSON LP-6100.pc3
  4
A3
  6

 40
5.873749732971191
 41
5.873747825622558
 42
5.873748779296875
 43
5.873748779296875
 44
297.0106506347656
 45
419.9466552734374
 46
0.9699999999999999
 47
25.0
 48
0.0
 49
0.0
140
0.0
141
0.0
142
1.0
143
1.0
 70
 28336
 72
     1
 73
     1
 74
     1
  7
AutoCAD LT 98.ctb
 75
    16
147
1.0
 76
     1
 77
     2
 78
   300
148
0.2192307289083146
149
-22.51428294427956
100
AcDbLayout
  1
Model
 70
     1
 71
     0
 10
0.0
 20
0.0
 11
12.0
 21
9.0
 12
0.0
 22
0.0
 32
0.0
 14
0.0
 24
0.0
 34
0.0
 15
0.0
 25
0.0
 35
0.0
146
0.0
 13
0.0
 23
0.0
 33
0.0
 16
1.0
 26
0.0
 36
0.0
 17
0.0
 27
1.0
 37
0.0
 76
     0
330
18
1001
ACAD_PSEXT
1000
A3 EPSON LP-6100.pc3
1000
EPSON LP-6100
1000
\\SATO-MATE2
1000

1070
     0
  0
LAYOUT
  5
1B46
102
{ACAD_REACTORS
330
1B43
102
}
330
1B43
100
AcDbPlotSettings
  1

  2
Mytalk FAX
  4

  6

 40
0.0
 41
0.0
 42
0.0
 43
0.0
 44
0.0
 45
0.0
 46
0.0
 47
0.0
 48
0.0
 49
0.0
140
0.0
141
0.0
142
1.0
143
1.0
 70
   688
 72
     0
 73
     0
 74
     5
  7
AutoCAD LT 98.ctb
 75
    16
147
1.0
 76
     0
 77
     2
 78
   300
148
0.0
149
0.0
100
AcDbLayout
  1
レイアウト1
 70
     1
 71
     1
 10
0.0
 20
0.0
 11
420.0
 21
297.0
 12
0.0
 22
0.0
 32
0.0
 14
-0.2
 24
-0.2
 34
0.0
 15
255.2
 25
195.2
 35
0.0
146
0.0
 13
0.0
 23
0.0
 33
0.0
 16
1.0
 26
0.0
 36
0.0
 17
0.0
 27
1.0
 37
0.0
 76
     0
330
15
331
177
  0
MLINESTYLE
  5
1C
102
{ACAD_REACTORS
330
1B
102
}
330
1B
100
AcDbMlineStyle
  2
STANDARD
 70
     0
  3

 62
   256
 51
90.0
 52
90.0
 71
     2
 49
0.5
 62
   256
  6
BYLAYER
 49
-0.5
 62
   256
  6
BYLAYER
  0
ACDBPLACEHOLDER
  5
1B3E
102
{ACAD_REACTORS
330
1B3D
102
}
330
1B3D
  0
ACAD_PROXY_OBJECT
  5
1B42
102
{ACAD_REACTORS
330
1B41
102
}
330
1B41
100
AcDbProxyObject
 90
      499
 91
      505
 95
  2555929
 70
     0
 93
     1849
310
4214DD185B99185C992420000000000000F83F0000000000003E0FC00000000000004901028000000C1008070000C3001FDFF8000000C1003FBFF000000182007F7FE00000030400FEFFC00000060801FDFF8000000C1003FBFF000000182000000000000000C2020B0000001820100E000186003FBFF000000182007F7FE0
310
0000030400FEFFC00000060801FDFF8000000C1003FBFF000000182007F7FE0000003040000000000000012404160000003040201C00030C007F7FE00000030400FEFFC00000060801FDFF8000000C1003FBFF000000182007F7FE00000030400FEFFC000000608000
340
F
340
F
340
F
 94
        0
  0
DICTIONARYVAR
  5
22C4
102
{ACAD_REACTORS
330
1A25
102
}
330
1A25
100
DictionaryVariables
280
     0
  1
STANDARD
  0
DICTIONARYVAR
  5
1A26
102
{ACAD_REACTORS
330
1A25
102
}
330
1A25
100
DictionaryVariables
280
     0
  1
96
  0
ENDSEC
  0
EOF
