  0
SECTION
  2
HEADER
  9
$ACADVER
  1
AC1018
  9
$ACADMAINTVER
 70
     0
  9
$DWGCODEPAGE
  3
ANSI_932
  9
$INSBASE
 10
0.0
 20
0.0
 30
0.0
  9
$EXTMIN
 10
-0.2256454072593215
 20
-0.2181385412601458
 30
-0.0000152557620687
  9
$EXTMAX
 10
255.2259969900183
 20
195.2198623512278
 30
0.0000610416757212
  9
$LIMMIN
 10
0.0
 20
0.0
  9
$LIMMAX
 10
420.0
 20
297.0
  9
$ORTHOMODE
 70
     1
  9
$REGENMODE
 70
     1
  9
$FILLMODE
 70
     1
  9
$QTEXTMODE
 70
     0
  9
$MIRRTEXT
 70
     1
  9
$LTSCALE
 40
1.0
  9
$ATTMODE
 70
     1
  9
$TEXTSIZE
 40
3.0
  9
$TRACEWID
 40
1.0
  9
$TEXTSTYLE
  7
STYLE3
  9
$CLAYER
  8
寸法線
  9
$CELTYPE
  6
BYLAYER
  9
$CECOLOR
 62
   256
  9
$CELTSCALE
 40
1.0
  9
$DISPSILH
 70
     0
  9
$DIMSCALE
 40
1.0
  9
$DIMASZ
 40
2.5
  9
$DIMEXO
 40
0.0
  9
$DIMDLI
 40
3.75
  9
$DIMRND
 40
0.0
  9
$DIMDLE
 40
0.0
  9
$DIMEXE
 40
1.25
  9
$DIMTP
 40
0.0
  9
$DIMTM
 40
0.0
  9
$DIMTXT
 40
2.5
  9
$DIMCEN
 40
2.5
  9
$DIMTSZ
 40
0.0
  9
$DIMTOL
 70
     0
  9
$DIMLIM
 70
     0
  9
$DIMTIH
 70
     0
  9
$DIMTOH
 70
     0
  9
$DIMSE1
 70
     0
  9
$DIMSE2
 70
     0
  9
$DIMTAD
 70
     1
  9
$DIMZIN
 70
     8
  9
$DIMBLK
  1

  9
$DIMASO
 70
     1
  9
$DIMSHO
 70
     1
  9
$DIMPOST
  1

  9
$DIMAPOST
  1

  9
$DIMALT
 70
     0
  9
$DIMALTD
 70
     4
  9
$DIMALTF
 40
0.0394
  9
$DIMLFAC
 40
1.0
  9
$DIMTOFL
 70
     1
  9
$DIMTVP
 40
0.0
  9
$DIMTIX
 70
     0
  9
$DIMSOXD
 70
     0
  9
$DIMSAH
 70
     1
  9
$DIMBLK1
  1
OPEN
  9
$DIMBLK2
  1
OPEN
  9
$DIMSTYLE
  2
STYLE3
  9
$DIMCLRD
 70
     2
  9
$DIMCLRE
 70
     2
  9
$DIMCLRT
 70
     6
  9
$DIMTFAC
 40
1.0
  9
$DIMGAP
 40
0.625
  9
$DIMJUST
 70
     0
  9
$DIMSD1
 70
     0
  9
$DIMSD2
 70
     0
  9
$DIMTOLJ
 70
     1
  9
$DIMTZIN
 70
     0
  9
$DIMALTZ
 70
     0
  9
$DIMALTTZ
 70
     0
  9
$DIMUPT
 70
     0
  9
$DIMDEC
 70
     2
  9
$DIMTDEC
 70
     4
  9
$DIMALTU
 70
     8
  9
$DIMALTTD
 70
     4
  9
$DIMTXSTY
  7
STYLE3
  9
$DIMAUNIT
 70
     0
  9
$DIMADEC
 70
     0
  9
$DIMALTRND
 40
0.0
  9
$DIMAZIN
 70
     0
  9
$DIMDSEP
 70
    46
  9
$DIMATFIT
 70
     3
  9
$DIMFRAC
 70
     0
  9
$DIMLDRBLK
  1

  9
$DIMLUNIT
 70
     2
  9
$DIMLWD
 70
    -2
  9
$DIMLWE
 70
    -2
  9
$DIMTMOVE
 70
     0
  9
$LUNITS
 70
     2
  9
$LUPREC
 70
     4
  9
$SKETCHINC
 40
1.0
  9
$FILLETRAD
 40
0.0
  9
$AUNITS
 70
     0
  9
$AUPREC
 70
     0
  9
$MENU
  1
.
  9
$ELEVATION
 40
0.0
  9
$PELEVATION
 40
0.0
  9
$THICKNESS
 40
0.0
  9
$LIMCHECK
 70
     0
  9
$CHAMFERA
 40
10.0
  9
$CHAMFERB
 40
10.0
  9
$CHAMFERC
 40
20.0
  9
$CHAMFERD
 40
0.0
  9
$SKPOLY
 70
     0
  9
$TDCREATE
 40
2451431.386432524
  9
$TDUCREATE
 40
2451431.011432524
  9
$TDUPDATE
 40
2455370.484527083
  9
$TDUUPDATE
 40
2455370.109527083
  9
$TDINDWG
 40
0.3879755208
  9
$TDUSRTIMER
 40
0.3879755208
  9
$USRTIMER
 70
     1
  9
$ANGBASE
 50
0.0
  9
$ANGDIR
 70
     0
  9
$PDMODE
 70
     0
  9
$PDSIZE
 40
0.0
  9
$PLINEWID
 40
0.0
  9
$SPLFRAME
 70
     0
  9
$SPLINETYPE
 70
     6
  9
$SPLINESEGS
 70
     8
  9
$HANDSEED
  5
1DEE
  9
$SURFTAB1
 70
     6
  9
$SURFTAB2
 70
     6
  9
$SURFTYPE
 70
     6
  9
$SURFU
 70
     6
  9
$SURFV
 70
     6
  9
$UCSBASE
  2

  9
$UCSNAME
  2

  9
$UCSORG
 10
0.0
 20
0.0
 30
0.0
  9
$UCSXDIR
 10
1.0
 20
0.0
 30
0.0
  9
$UCSYDIR
 10
0.0
 20
1.0
 30
0.0
  9
$UCSORTHOREF
  2

  9
$UCSORTHOVIEW
 70
     0
  9
$UCSORGTOP
 10
0.0
 20
0.0
 30
0.0
  9
$UCSORGBOTTOM
 10
0.0
 20
0.0
 30
0.0
  9
$UCSORGLEFT
 10
0.0
 20
0.0
 30
0.0
  9
$UCSORGRIGHT
 10
0.0
 20
0.0
 30
0.0
  9
$UCSORGFRONT
 10
0.0
 20
0.0
 30
0.0
  9
$UCSORGBACK
 10
0.0
 20
0.0
 30
0.0
  9
$PUCSBASE
  2

  9
$PUCSNAME
  2

  9
$PUCSORG
 10
0.0
 20
0.0
 30
0.0
  9
$PUCSXDIR
 10
1.0
 20
0.0
 30
0.0
  9
$PUCSYDIR
 10
0.0
 20
1.0
 30
0.0
  9
$PUCSORTHOREF
  2

  9
$PUCSORTHOVIEW
 70
     0
  9
$PUCSORGTOP
 10
0.0
 20
0.0
 30
0.0
  9
$PUCSORGBOTTOM
 10
0.0
 20
0.0
 30
0.0
  9
$PUCSORGLEFT
 10
0.0
 20
0.0
 30
0.0
  9
$PUCSORGRIGHT
 10
0.0
 20
0.0
 30
0.0
  9
$PUCSORGFRONT
 10
0.0
 20
0.0
 30
0.0
  9
$PUCSORGBACK
 10
0.0
 20
0.0
 30
0.0
  9
$USERI1
 70
     0
  9
$USERI2
 70
     0
  9
$USERI3
 70
     0
  9
$USERI4
 70
     0
  9
$USERI5
 70
     0
  9
$USERR1
 40
0.0
  9
$USERR2
 40
0.0
  9
$USERR3
 40
0.0
  9
$USERR4
 40
0.0
  9
$USERR5
 40
0.0
  9
$WORLDVIEW
 70
     1
  9
$SHADEDGE
 70
     3
  9
$SHADEDIF
 70
    70
  9
$TILEMODE
 70
     1
  9
$MAXACTVP
 70
    48
  9
$PINSBASE
 10
0.0
 20
0.0
 30
0.0
  9
$PLIMCHECK
 70
     0
  9
$PEXTMIN
 10
-0.2
 20
-0.2
 30
0.0
  9
$PEXTMAX
 10
255.2
 20
195.2
 30
0.0
  9
$PLIMMIN
 10
0.0
 20
0.0
  9
$PLIMMAX
 10
420.0
 20
297.0
  9
$UNITMODE
 70
     0
  9
$VISRETAIN
 70
     1
  9
$PLINEGEN
 70
     0
  9
$PSLTSCALE
 70
     1
  9
$TREEDEPTH
 70
  3020
  9
$CMLSTYLE
  2
STANDARD
  9
$CMLJUST
 70
     0
  9
$CMLSCALE
 40
20.0
  9
$PROXYGRAPHICS
 70
     1
  9
$MEASUREMENT
 70
     1
  9
$CELWEIGHT
370
    -1
  9
$ENDCAPS
280
     0
  9
$JOINSTYLE
280
     0
  9
$LWDISPLAY
290
     0
  9
$INSUNITS
 70
     0
  9
$HYPERLINKBASE
  1

  9
$STYLESHEET
  1
AutoCAD LT 98.ctb
  9
$XEDIT
290
     1
  9
$CEPSNTYPE
380
     0
  9
$PSTYLEMODE
290
     1
  9
$FINGERPRINTGUID
  2
{8A6D031D-552B-4019-8CD5-68F76121A3CB}
  9
$VERSIONGUID
  2
{4C3EF10A-33A9-46F9-8CA0-7CF2AF9B945E}
  9
$EXTNAMES
290
     1
  9
$PSVPSCALE
 40
0.0
  9
$OLESTARTUP
290
     0
  9
$SORTENTS
280
   127
  9
$INDEXCTL
280
     0
  9
$HIDETEXT
280
     0
  9
$XCLIPFRAME
290
     0
  9
$HALOGAP
280
     0
  9
$OBSCOLOR
 70
   257
  9
$OBSLTYPE
280
     0
  9
$INTERSECTIONDISPLAY
280
     0
  9
$INTERSECTIONCOLOR
 70
   257
  9
$DIMASSOC
280
     1
  9
$PROJECTNAME
  1

  0
ENDSEC
  0
SECTION
  2
CLASSES
  0
CLASS
  1
HATCH
  2
AcDbHatch
  3
ObjectDBX Classes
 90
        0
 91
       12
280
     0
281
     1
  0
CLASS
  1
IMAGEDEF
  2
AcDbRasterImageDef
  3
ISM
 90
        0
 91
        1
280
     0
281
     0
  0
CLASS
  1
LWPOLYLINE
  2
AcDbPolyline
  3
ObjectDBX Classes
 90
        0
 91
        4
280
     0
281
     1
  0
CLASS
  1
ACDBDICTIONARYWDFLT
  2
AcDbDictionaryWithDefault
  3
ObjectDBX Classes
 90
        0
 91
        1
280
     0
281
     0
  0
CLASS
  1
TABLESTYLE
  2
AcDbTableStyle
  3
ObjectDBX Classes
 90
     2047
 91
        1
280
     0
281
     0
  0
CLASS
  1
DICTIONARYVAR
  2
AcDbDictionaryVar
  3
ObjectDBX Classes
 90
        0
 91
        1
280
     0
281
     0
  0
CLASS
  1
SORTENTSTABLE
  2
AcDbSortentsTable
  3
ObjectDBX Classes
 90
        0
 91
        1
280
     0
281
     0
  0
ENDSEC
  0
SECTION
  2
TABLES
  0
TABLE
  2
VPORT
  5
8
330
0
100
AcDbSymbolTable
 70
     2
  0
VPORT
  5
1DED
330
8
100
AcDbSymbolTableRecord
100
AcDbViewportTableRecord
  2
*Active
 70
     0
 10
0.0
 20
0.0
 11
1.0
 21
1.0
 12
127.5001757913795
 22
97.50086190498384
 13
0.0
 23
0.0
 14
10.0
 24
10.0
 15
10.0
 25
10.0
 16
0.0
 26
0.0
 36
1.0
 17
0.0
 27
0.0
 37
0.0
 40
196.9242214315943
 41
1.530456852791878
 42
50.0
 43
0.0
 44
0.0
 50
0.0
 51
0.0
 71
     0
 72
   100
 73
     1
 74
     1
 75
     0
 76
     0
 77
     0
 78
     0
281
     0
 65
     1
110
0.0
120
0.0
130
0.0
111
1.0
121
0.0
131
0.0
112
0.0
122
1.0
132
0.0
 79
     0
146
0.0
  0
ENDTAB
  0
TABLE
  2
LTYPE
  5
5
330
0
100
AcDbSymbolTable
 70
    12
  0
LTYPE
  5
12
330
5
100
AcDbSymbolTableRecord
100
AcDbLinetypeTableRecord
  2
BYBLOCK
 70
     0
  3

 72
    65
 73
     0
 40
0.0
  0
LTYPE
  5
13
330
5
100
AcDbSymbolTableRecord
100
AcDbLinetypeTableRecord
  2
BYLAYER
 70
     0
  3

 72
    65
 73
     0
 40
0.0
  0
LTYPE
  5
14
330
5
100
AcDbSymbolTableRecord
100
AcDbLinetypeTableRecord
  2
CONTINUOUS
 70
     0
  3
Solid line
 72
    65
 73
     0
 40
0.0
  0
LTYPE
  5
22
330
5
100
AcDbSymbolTableRecord
100
AcDbLinetypeTableRecord
  2
CENTER2
 70
     0
  3
Center (.5x) ___ _ ___ _ ___ _ ___ _ ___ _ ___
 72
    65
 73
     4
 40
28.575
 49
19.05
 74
     0
 49
-3.174999999999999
 74
     0
 49
3.174999999999999
 74
     0
 49
-3.174999999999999
 74
     0
  0
ENDTAB
  0
TABLE
  2
LAYER
  5
2
330
0
100
AcDbSymbolTable
 70
    19
  0
LAYER
  5
E
330
2
100
AcDbSymbolTableRecord
100
AcDbLayerTableRecord
  2
0
 70
     0
 62
     7
  6
CONTINUOUS
370
    -3
390
1D14
  0
LAYER
  5
25
330
2
100
AcDbSymbolTableRecord
100
AcDbLayerTableRecord
  2
外形線
 70
     0
 62
     7
  6
CONTINUOUS
370
    -3
390
1D14
  0
LAYER
  5
26
330
2
100
AcDbSymbolTableRecord
100
AcDbLayerTableRecord
  2
寸法線
 70
     0
 62
     2
  6
CONTINUOUS
370
    -3
390
1D14
  0
LAYER
  5
27
330
2
100
AcDbSymbolTableRecord
100
AcDbLayerTableRecord
  2
中心線
 70
     0
 62
     4
  6
CENTER2
370
    -3
390
1D14
  0
LAYER
  5
2A
330
2
100
AcDbSymbolTableRecord
100
AcDbLayerTableRecord
  2
ﾊｯﾁﾝｸ
 70
     0
 62
     6
  6
CONTINUOUS
370
    -3
390
1D14
  0
LAYER
  5
2B
330
2
100
AcDbSymbolTableRecord
100
AcDbLayerTableRecord
  2
文字
 70
     0
 62
     6
  6
CONTINUOUS
370
    -3
390
1D14
  0
LAYER
  5
2C
330
2
100
AcDbSymbolTableRecord
100
AcDbLayerTableRecord
  2
目盛
 70
     0
 62
    70
  6
CONTINUOUS
370
    -3
390
1D14
  0
LAYER
  5
2D
330
2
100
AcDbSymbolTableRecord
100
AcDbLayerTableRecord
  2
針
 70
     0
 62
     5
  6
CONTINUOUS
370
    -3
390
1D14
  0
LAYER
  5
53
330
2
100
AcDbSymbolTableRecord
100
AcDbLayerTableRecord
  2
DEFPOINTS
 70
     0
 62
     7
  6
CONTINUOUS
290
     0
370
    -3
390
1D14
  0
LAYER
  5
A5
330
2
100
AcDbSymbolTableRecord
100
AcDbLayerTableRecord
  2
C
 70
     0
 62
     7
  6
CONTINUOUS
370
    -3
390
1D14
  0
LAYER
  5
2BB
330
2
100
AcDbSymbolTableRecord
100
AcDbLayerTableRecord
  2
ROGO
 70
     0
 62
     6
  6
CONTINUOUS
370
    -3
390
1D14
  0
ENDTAB
  0
TABLE
  2
STYLE
  5
3
330
0
100
AcDbSymbolTable
 70
    10
  0
STYLE
  5
F
330
3
100
AcDbSymbolTableRecord
100
AcDbTextStyleTableRecord
  2
STANDARD
 70
     0
 40
0.0
 41
1.0
 50
0.0
 71
     0
 42
2.5
  3
txt
  4

  0
STYLE
  5
3F
330
3
100
AcDbSymbolTableRecord
100
AcDbTextStyleTableRecord
  2
STYLE3
 70
     0
 40
0.0
 41
1.0
 50
0.0
 71
     0
 42
3.0
  3
romans.shx
  4
bigfont.shx
  0
ENDTAB
  0
TABLE
  2
VIEW
  5
6
330
0
100
AcDbSymbolTable
 70
     0
  0
ENDTAB
  0
TABLE
  2
UCS
  5
7
330
0
100
AcDbSymbolTable
 70
     0
  0
ENDTAB
  0
TABLE
  2
APPID
  5
9
330
0
100
AcDbSymbolTable
 70
     2
  0
APPID
  5
10
330
9
100
AcDbSymbolTableRecord
100
AcDbRegAppTableRecord
  2
ACAD
 70
     0
  0
APPID
  5
1D4C
330
9
100
AcDbSymbolTableRecord
100
AcDbRegAppTableRecord
  2
ACAD_PSEXT
 70
     0
  0
ENDTAB
  0
TABLE
  2
DIMSTYLE
  5
A
330
0
100
AcDbSymbolTable
 70
     4
100
AcDbDimStyleTable
 71
     1
340
8F
  0
DIMSTYLE
105
1D
330
A
100
AcDbSymbolTableRecord
100
AcDbDimStyleTableRecord
  2
STANDARD
 70
     0
 41
2.5
 42
0.625
 43
3.75
 44
1.25
 73
     0
 74
     0
 77
     1
 78
     8
140
2.5
141
2.5
143
0.0394
147
0.625
171
     4
172
     1
273
     8
274
     4
277
     6
340
F
  0
DIMSTYLE
105
8F
102
{ACAD_REACTORS
330
18CA
330
18FC
330
1926
330
1A98
330
1AD9
102
}
330
A
100
AcDbSymbolTableRecord
100
AcDbDimStyleTableRecord
  2
STYLE3
 70
     0
 41
2.5
 42
0.0
 43
3.75
 44
1.25
 73
     0
 74
     0
 77
     1
 78
     8
140
2.5
141
2.5
143
0.0394
147
0.625
171
     4
172
     1
173
     1
176
     2
177
     2
178
     6
271
     1
273
     8
274
     4
340
3F
341
45
343
45
344
45
  0
ENDTAB
  0
TABLE
  2
BLOCK_RECORD
  5
1
330
0
100
AcDbSymbolTable
 70
    10
  0
BLOCK_RECORD
  5
18
102
{ACAD_XDICTIONARY
360
1D49
102
}
330
1
100
AcDbSymbolTableRecord
100
AcDbBlockTableRecord
  2
*MODEL_SPACE
340
1D1B
  0
BLOCK_RECORD
  5
15
330
1
100
AcDbSymbolTableRecord
100
AcDbBlockTableRecord
  2
*PAPER_SPACE
340
1D1C
  0
BLOCK_RECORD
  5
45
330
1
100
AcDbSymbolTableRecord
100
AcDbBlockTableRecord
  2
_OPEN
340
0
102
{BLKREFS
331
1949
331
194A
331
1952
331
1953
331
1AA4
331
1AAB
331
1DB8
331
1DB9
331
1DC1
331
1DC2
331
1DCA
331
1DCB
331
1DD3
331
1DD4
331
1DDC
331
1DDD
102
}
  0
BLOCK_RECORD
  5
18BE
330
1
100
AcDbSymbolTableRecord
100
AcDbBlockTableRecord
  2
*D3
340
0
  0
BLOCK_RECORD
  5
18F0
330
1
100
AcDbSymbolTableRecord
100
AcDbBlockTableRecord
  2
*D4
340
0
  0
BLOCK_RECORD
  5
191A
330
1
100
AcDbSymbolTableRecord
100
AcDbBlockTableRecord
  2
*D5
340
0
  0
BLOCK_RECORD
  5
1B29
330
1
100
AcDbSymbolTableRecord
100
AcDbBlockTableRecord
  2
*D6
340
0
  0
BLOCK_RECORD
  5
1B41
330
1
100
AcDbSymbolTableRecord
100
AcDbBlockTableRecord
  2
*D7
340
0
  0
BLOCK_RECORD
  5
1CF9
330
1
100
AcDbSymbolTableRecord
100
AcDbBlockTableRecord
  2
A$C47D905DE
340
0
102
{BLKREFS
331
1CFD
102
}
  0
ENDTAB
  0
ENDSEC
  0
SECTION
  2
BLOCKS
  0
BLOCK
  5
19
330
18
100
AcDbEntity
  8
0
100
AcDbBlockBegin
  2
*MODEL_SPACE
 70
     0
 10
0.0
 20
0.0
 30
0.0
  3
*MODEL_SPACE
  1

  0
ENDBLK
  5
1A
330
18
100
AcDbEntity
  8
0
100
AcDbBlockEnd
  0
BLOCK
  5
16
330
15
100
AcDbEntity
 67
     1
  8
0
100
AcDbBlockBegin
  2
*PAPER_SPACE
 70
     0
 10
0.0
 20
0.0
 30
0.0
  3
*PAPER_SPACE
  1

  0
ENDBLK
  5
17
330
15
100
AcDbEntity
 67
     1
  8
0
100
AcDbBlockEnd
  0
BLOCK
  5
46
330
45
100
AcDbEntity
  8
0
100
AcDbBlockBegin
  2
_OPEN
 70
     0
 10
0.0
 20
0.0
 30
0.0
  3
_OPEN
  1

  0
LINE
  5
47
330
45
100
AcDbEntity
  8
0
  6
ByBlock
 62
     0
100
AcDbLine
 10
-1.0
 20
0.1666666666666666
 30
0.0
 11
0.0
 21
0.0
 31
0.0
  0
LINE
  5
48
330
45
100
AcDbEntity
  8
0
  6
ByBlock
 62
     0
100
AcDbLine
 10
0.0
 20
0.0
 30
0.0
 11
-1.0
 21
-0.1666666666666666
 31
0.0
  0
LINE
  5
49
330
45
100
AcDbEntity
  8
0
  6
ByBlock
 62
     0
100
AcDbLine
 10
0.0
 20
0.0
 30
0.0
 11
-1.0
 21
0.0
 31
0.0
  0
ENDBLK
  5
4A
330
45
100
AcDbEntity
  8
0
100
AcDbBlockEnd
  0
BLOCK
  5
1C74
330
18BE
100
AcDbEntity
  8
0
100
AcDbBlockBegin
  2
*D3
 70
     1
 10
0.0
 20
0.0
 30
0.0
  3
*D3
  1

  0
LINE
  5
1DD9
330
18BE
100
AcDbEntity
  8
外形線
 62
     2
370
    -2
100
AcDbLine
 10
90.39164824073003
 20
147.2617201773529
 30
0.0
 11
126.8741041943306
 21
147.2617201773529
 31
0.0
  0
LINE
  5
1DDA
330
18BE
100
AcDbEntity
  8
外形線
 62
     2
370
    -2
100
AcDbLine
 10
90.39164824073003
 20
94.46172017735296
 30
0.0
 11
126.8741041943306
 21
94.46172017735294
 31
0.0
  0
LINE
  5
1DDB
330
18BE
100
AcDbEntity
  8
外形線
 62
     2
370
    -2
100
AcDbLine
 10
125.6241041943306
 20
144.761720177353
 30
0.0
 11
125.6241041943306
 21
96.96172017735294
 31
0.0
  0
INSERT
  5
1DDC
330
18BE
100
AcDbEntity
  8
外形線
 62
     2
370
    -2
100
AcDbBlockReference
  2
_OPEN
 10
125.6241041943306
 20
147.2617201773529
 30
0.0
 41
2.5
 42
2.5
 43
2.5
 50
90.0
  0
INSERT
  5
1DDD
330
18BE
100
AcDbEntity
  8
外形線
 62
     2
370
    -2
100
AcDbBlockReference
  2
_OPEN
 10
125.6241041943306
 20
94.46172017735294
 30
0.0
 41
2.5
 42
2.5
 43
2.5
 50
270.0
  0
MTEXT
  5
1DDE
330
18BE
100
AcDbEntity
  8
外形線
 62
     6
100
AcDbMText
 10
123.7491041943306
 20
120.8617201773529
 30
0.0
 40
2.5
 41
0.0
 71
     5
 72
     1
  1
\A1;φ53
  7
STYLE3
 11
0.0000000000000001
 21
1.0
 31
0.0
 73
     1
 44
1.0
  0
POINT
  5
1DDF
330
18BE
100
AcDbEntity
  8
DEFPOINTS
 62
     0
100
AcDbPoint
 10
90.39164824073003
 20
147.2617201773529
 30
0.0
  0
POINT
  5
1DE0
330
18BE
100
AcDbEntity
  8
DEFPOINTS
 62
     0
100
AcDbPoint
 10
90.39164824073003
 20
94.46172017735296
 30
0.0
  0
POINT
  5
1DE1
330
18BE
100
AcDbEntity
  8
DEFPOINTS
 62
     0
100
AcDbPoint
 10
125.6241041943306
 20
94.46172017735294
 30
0.0
  0
ENDBLK
  5
1C7E
330
18BE
100
AcDbEntity
  8
0
100
AcDbBlockEnd
  0
BLOCK
  5
18F1
330
18F0
100
AcDbEntity
  8
0
100
AcDbBlockBegin
  2
*D4
 70
     1
 10
0.0
 20
0.0
 30
0.0
  3
*D4
  1

  0
LINE
  5
1DD0
330
18F0
100
AcDbEntity
  8
外形線
 62
     2
370
    -2
100
AcDbLine
 10
42.04900500668919
 20
58.86172017735296
 30
0.0
 11
44.54900500668919
 21
58.86172017735296
 31
0.0
  0
LINE
  5
1DD1
330
18F0
100
AcDbEntity
  8
外形線
 62
     2
370
    -2
100
AcDbLine
 10
89.89164824073004
 20
48.76172017735296
 30
0.0
 11
42.04900500668919
 21
48.76172017735298
 31
0.0
  0
LINE
  5
1DD2
330
18F0
100
AcDbEntity
  8
外形線
 62
     2
370
    -2
100
AcDbLine
 10
43.29900500668919
 20
56.36172017735296
 30
0.0
 11
43.29900500668919
 21
51.26172017735298
 31
0.0
  0
INSERT
  5
1DD3
330
18F0
100
AcDbEntity
  8
外形線
 62
     2
370
    -2
100
AcDbBlockReference
  2
_OPEN
 10
43.29900500668919
 20
58.86172017735296
 30
0.0
 41
2.5
 42
2.5
 43
2.5
 50
90.0
  0
INSERT
  5
1DD4
330
18F0
100
AcDbEntity
  8
外形線
 62
     2
370
    -2
100
AcDbBlockReference
  2
_OPEN
 10
43.29900500668919
 20
48.76172017735298
 30
0.0
 41
2.5
 42
2.5
 43
2.5
 50
270.0
  0
MTEXT
  5
1DD5
330
18F0
100
AcDbEntity
  8
外形線
 62
     6
100
AcDbMText
 10
41.42400500668917
 20
53.81172017735298
 30
0.0
 40
2.5
 41
0.0
 71
     5
 72
     1
  1
\A1;10.1
  7
STYLE3
 11
0.0000000000000001
 21
1.0
 31
0.0
 73
     1
 44
1.0
  0
POINT
  5
1DD6
330
18F0
100
AcDbEntity
  8
DEFPOINTS
 62
     0
100
AcDbPoint
 10
42.04900500668919
 20
58.86172017735296
 30
0.0
  0
POINT
  5
1DD7
330
18F0
100
AcDbEntity
  8
DEFPOINTS
 62
     0
100
AcDbPoint
 10
89.89164824073004
 20
48.76172017735296
 30
0.0
  0
POINT
  5
1DD8
330
18F0
100
AcDbEntity
  8
DEFPOINTS
 62
     0
100
AcDbPoint
 10
43.29900500668919
 20
48.76172017735298
 30
0.0
  0
ENDBLK
  5
18FB
330
18F0
100
AcDbEntity
  8
0
100
AcDbBlockEnd
  0
BLOCK
  5
191B
330
191A
100
AcDbEntity
  8
0
100
AcDbBlockBegin
  2
*D5
 70
     1
 10
0.0
 20
0.0
 30
0.0
  3
*D5
  1

  0
LINE
  5
1DC7
330
191A
100
AcDbEntity
  8
外形線
 62
     2
370
    -2
100
AcDbLine
 10
90.39164824072992
 20
162.3617201773528
 30
0.0
 11
50.95402155593604
 21
162.3617201773529
 31
0.0
  0
LINE
  5
1DC8
330
191A
100
AcDbEntity
  8
外形線
 62
     2
370
    -2
100
AcDbLine
 10
52.20402155593603
 20
120.8617201773529
 30
0.0
 11
50.95402155593603
 21
120.8617201773529
 31
0.0
  0
LINE
  5
1DC9
330
191A
100
AcDbEntity
  8
外形線
 62
     2
370
    -2
100
AcDbLine
 10
52.20402155593604
 20
159.8617201773528
 30
0.0
 11
52.20402155593603
 21
123.3617201773529
 31
0.0
  0
INSERT
  5
1DCA
330
191A
100
AcDbEntity
  8
外形線
 62
     2
370
    -2
100
AcDbBlockReference
  2
_OPEN
 10
52.20402155593604
 20
162.3617201773529
 30
0.0
 41
2.5
 42
2.5
 43
2.5
 50
90.0
  0
INSERT
  5
1DCB
330
191A
100
AcDbEntity
  8
外形線
 62
     2
370
    -2
100
AcDbBlockReference
  2
_OPEN
 10
52.20402155593603
 20
120.8617201773529
 30
0.0
 41
2.5
 42
2.5
 43
2.5
 50
270.0
  0
MTEXT
  5
1DCC
330
191A
100
AcDbEntity
  8
外形線
 62
     6
100
AcDbMText
 10
50.32902155593601
 20
141.6117201773529
 30
0.0
 40
2.5
 41
0.0
 71
     5
 72
     1
  1
\A1;41.5
  7
STYLE3
 11
0.0000000000000001
 21
1.0
 31
0.0
 73
     1
 44
1.0
  0
POINT
  5
1DCD
330
191A
100
AcDbEntity
  8
DEFPOINTS
 62
     0
100
AcDbPoint
 10
90.39164824072992
 20
162.3617201773528
 30
0.0
  0
POINT
  5
1DCE
330
191A
100
AcDbEntity
  8
DEFPOINTS
 62
     0
100
AcDbPoint
 10
52.20402155593603
 20
120.8617201773529
 30
0.0
  0
POINT
  5
1DCF
330
191A
100
AcDbEntity
  8
DEFPOINTS
 62
     0
100
AcDbPoint
 10
52.20402155593603
 20
120.8617201773529
 30
0.0
  0
ENDBLK
  5
1925
330
191A
100
AcDbEntity
  8
0
100
AcDbBlockEnd
  0
BLOCK
  5
1B4D
330
1B29
100
AcDbEntity
  8
0
100
AcDbBlockBegin
  2
*D6
 70
     1
 10
0.0
 20
0.0
 30
0.0
  3
*D6
  1

  0
LINE
  5
1DBE
330
1B29
100
AcDbEntity
  8
外形線
 62
     2
370
    -2
100
AcDbLine
 10
60.39164824072995
 20
58.86172017735296
 30
0.0
 11
60.39164824072995
 21
33.50894161220714
 31
0.0
  0
LINE
  5
1DBF
330
1B29
100
AcDbEntity
  8
外形線
 62
     2
370
    -2
100
AcDbLine
 10
120.39164824073
 20
58.86172017735296
 30
0.0
 11
120.39164824073
 21
33.50894161220714
 31
0.0
  0
LINE
  5
1DC0
330
1B29
100
AcDbEntity
  8
外形線
 62
     2
370
    -2
100
AcDbLine
 10
62.89164824072995
 20
34.75894161220714
 30
0.0
 11
117.8916482407299
 21
34.75894161220714
 31
0.0
  0
INSERT
  5
1DC1
330
1B29
100
AcDbEntity
  8
外形線
 62
     2
370
    -2
100
AcDbBlockReference
  2
_OPEN
 10
60.39164824072995
 20
34.75894161220714
 30
0.0
 41
2.5
 42
2.5
 43
2.5
 50
180.0
  0
INSERT
  5
1DC2
330
1B29
100
AcDbEntity
  8
外形線
 62
     2
370
    -2
100
AcDbBlockReference
  2
_OPEN
 10
120.39164824073
 20
34.75894161220714
 30
0.0
 41
2.5
 42
2.5
 43
2.5
  0
MTEXT
  5
1DC3
330
1B29
100
AcDbEntity
  8
外形線
 62
     6
100
AcDbMText
 10
90.39164824072996
 20
36.63394161220714
 30
0.0
 40
2.5
 41
0.0
 71
     5
 72
     1
  1
\A1;60
  7
STYLE3
 73
     1
 44
1.0
  0
POINT
  5
1DC4
330
1B29
100
AcDbEntity
  8
DEFPOINTS
 62
     0
100
AcDbPoint
 10
60.39164824072995
 20
58.86172017735296
 30
0.0
  0
POINT
  5
1DC5
330
1B29
100
AcDbEntity
  8
DEFPOINTS
 62
     0
100
AcDbPoint
 10
120.39164824073
 20
58.86172017735296
 30
0.0
  0
POINT
  5
1DC6
330
1B29
100
AcDbEntity
  8
DEFPOINTS
 62
     0
100
AcDbPoint
 10
120.39164824073
 20
34.75894161220714
 30
0.0
  0
ENDBLK
  5
1B57
330
1B29
100
AcDbEntity
  8
0
100
AcDbBlockEnd
  0
BLOCK
  5
1B63
330
1B41
100
AcDbEntity
  8
0
100
AcDbBlockBegin
  2
*D7
 70
     1
 10
0.0
 20
0.0
 30
0.0
  3
*D7
  1

  0
LINE
  5
1DB5
330
1B41
100
AcDbEntity
  8
外形線
 62
     2
370
    -2
100
AcDbLine
 10
181.7950908730031
 20
59.86172017735308
 30
0.0
 11
181.7950908730031
 21
34.48888599388403
 31
0.0
  0
LINE
  5
1DB6
330
1B41
100
AcDbEntity
  8
外形線
 62
     2
370
    -2
100
AcDbLine
 10
195.7950908730031
 20
59.86172017735308
 30
0.0
 11
195.7950908730031
 21
34.48888599388403
 31
0.0
  0
LINE
  5
1DB7
330
1B41
100
AcDbEntity
  8
外形線
 62
     2
370
    -2
100
AcDbLine
 10
184.2950908730031
 20
35.73888599388403
 30
0.0
 11
193.2950908730031
 21
35.73888599388403
 31
0.0
  0
INSERT
  5
1DB8
330
1B41
100
AcDbEntity
  8
外形線
 62
     2
370
    -2
100
AcDbBlockReference
  2
_OPEN
 10
181.7950908730031
 20
35.73888599388403
 30
0.0
 41
2.5
 42
2.5
 43
2.5
 50
180.0
  0
INSERT
  5
1DB9
330
1B41
100
AcDbEntity
  8
外形線
 62
     2
370
    -2
100
AcDbBlockReference
  2
_OPEN
 10
195.7950908730031
 20
35.73888599388403
 30
0.0
 41
2.5
 42
2.5
 43
2.5
  0
MTEXT
  5
1DBA
330
1B41
100
AcDbEntity
  8
外形線
 62
     6
100
AcDbMText
 10
188.7950908730031
 20
37.61388599388403
 30
0.0
 40
2.5
 41
0.0
 71
     5
 72
     1
  1
\A1;14
  7
STYLE3
 73
     1
 44
1.0
  0
POINT
  5
1DBB
330
1B41
100
AcDbEntity
  8
DEFPOINTS
 62
     0
100
AcDbPoint
 10
181.7950908730031
 20
59.86172017735308
 30
0.0
  0
POINT
  5
1DBC
330
1B41
100
AcDbEntity
  8
DEFPOINTS
 62
     0
100
AcDbPoint
 10
195.7950908730031
 20
59.86172017735308
 30
0.0
  0
POINT
  5
1DBD
330
1B41
100
AcDbEntity
  8
DEFPOINTS
 62
     0
100
AcDbPoint
 10
195.7950908730031
 20
35.73888599388403
 30
0.0
  0
ENDBLK
  5
1B6D
330
1B41
100
AcDbEntity
  8
0
100
AcDbBlockEnd
  0
BLOCK
  5
1CFB
330
1CF9
100
AcDbEntity
  8
0
100
AcDbBlockBegin
  2
A$C47D905DE
 70
     0
 10
0.0
 20
0.0
 30
0.0
  3
A$C47D905DE
  1

  0
TEXT
  5
1CFA
330
1CF9
100
AcDbEntity
  8
文字
100
AcDbText
 10
-0.0952384519291627
 20
-0.0000000309809707
 30
0.0
 40
1.0
  1
JEWELED
  7
STYLE3
100
AcDbText
  0
ENDBLK
  5
1CFC
330
1CF9
100
AcDbEntity
  8
0
100
AcDbBlockEnd
  0
ENDSEC
  0
SECTION
  2
ENTITIES
  0
LWPOLYLINE
  5
26C
330
18
100
AcDbEntity
  8
C
100
AcDbPolyline
 90
        5
 70
     0
 43
0.4
 10
0.0
 20
195.0
 10
255.0
 20
195.0
 10
255.0
 20
0.0
 10
0.0
 20
0.0
 10
0.0
 20
195.0
  0
LINE
  5
57B
330
18
100
AcDbEntity
  8
中心線
 48
0.5
100
AcDbLine
 10
60.73633759817721
 20
120.8617201773529
 30
0.0
 11
120.0469588832828
 21
120.8617201773529
 31
0.0
  0
LINE
  5
57C
330
18
100
AcDbEntity
  8
中心線
 48
0.5
100
AcDbLine
 10
90.39164824072992
 20
165.5035291611685
 30
0.0
 11
90.39164824072997
 21
43.58728009712407
 31
0.0
  0
CIRCLE
  5
57D
330
18
100
AcDbEntity
  8
外形線
100
AcDbCircle
 10
90.39164824073003
 20
120.8617201773529
 30
0.0
 40
15.5
  0
CIRCLE
  5
57E
330
18
100
AcDbEntity
  8
外形線
100
AcDbCircle
 10
90.39164824073003
 20
120.8617201773529
 30
0.0
 40
23.0
  0
CIRCLE
  5
57F
330
18
100
AcDbEntity
  8
外形線
100
AcDbCircle
 10
90.39164824073003
 20
120.8617201773529
 30
0.0
 40
26.4
  0
LINE
  5
580
330
18
100
AcDbEntity
  8
目盛
100
AcDbLine
 10
88.94746629155582
 20
143.8163349312032
 30
0.0
 11
89.07304733061431
 21
141.8202814743466
 31
0.0
  0
LINE
  5
581
330
18
100
AcDbEntity
  8
目盛
100
AcDbLine
 10
87.50898386875105
 20
143.680358307586
 30
0.0
 11
87.75965033587949
 21
141.6961289049569
 31
0.0
  0
LINE
  5
582
330
18
100
AcDbEntity
  8
目盛
100
AcDbLine
 10
86.08187800525838
 20
143.4543269441128
 30
0.0
 11
86.45664063442968
 21
141.4897524426554
 31
0.0
  0
LINE
  5
583
330
18
100
AcDbEntity
  8
目盛
100
AcDbLine
 10
84.67178083593825
 20
143.1391328833115
 30
0.0
 11
85.16916061026808
 21
141.2019665610542
 31
0.0
  0
LINE
  5
584
330
18
100
AcDbEntity
  8
目盛
100
AcDbLine
 10
83.2842573701061
 20
142.7360200521415
 30
0.0
 11
84.21130835323101
 21
139.882850503256
 31
0.0
  0
LINE
  5
585
330
18
100
AcDbEntity
  8
目盛
100
AcDbLine
 10
81.92478352898246
 20
142.2465793527827
 30
0.0
 11
82.66103263435178
 21
140.3870263810062
 31
0.0
  0
LINE
  5
586
330
18
100
AcDbEntity
  8
目盛
100
AcDbLine
 10
80.59872453473321
 20
141.6727423840713
 30
0.0
 11
81.45028311786331
 21
139.8630882791393
 31
0.0
  0
LINE
  5
587
330
18
100
AcDbEntity
  8
目盛
100
AcDbLine
 10
79.31131373639044
 20
141.0167738183618
 30
0.0
 11
80.27482108459384
 21
139.2641604582741
 31
0.0
  0
LINE
  5
588
330
18
100
AcDbEntity
  8
目盛
100
AcDbLine
 10
78.067631956213
 20
140.2812624638992
 30
0.0
 11
79.13928554617104
 21
138.5926066128952
 31
0.0
  0
LINE
  5
589
330
18
100
AcDbEntity
  8
目盛
100
AcDbLine
 10
76.87258743800311
 20
139.4691110479768
 30
0.0
 11
78.63594319488055
 21
137.0420600648519
 31
0.0
  0
LINE
  5
58A
330
18
100
AcDbEntity
  8
目盛
100
AcDbLine
 10
75.73089647651016
 20
138.5835247611961
 30
0.0
 11
77.00574445600745
 21
137.0424982756446
 31
0.0
  0
LINE
  5
58B
330
18
100
AcDbEntity
  8
目盛
100
AcDbLine
 10
74.64706480437024
 20
137.6279986080455
 30
0.0
 11
76.01615901622762
 21
136.1700613532026
 31
0.0
  0
LINE
  5
58C
330
18
100
AcDbEntity
  8
目盛
100
AcDbLine
 10
73.62536981003739
 20
136.6063036137128
 30
0.0
 11
75.08330706488021
 21
135.2372094018554
 31
0.0
  0
LINE
  5
58D
330
18
100
AcDbEntity
  8
目盛
100
AcDbLine
 10
72.66984365688694
 20
135.5224719415728
 30
0.0
 11
74.2108701424383
 21
134.2476239620754
 31
0.0
  0
LINE
  5
58E
330
18
100
AcDbEntity
  8
目盛
100
AcDbLine
 10
71.7842573701061
 20
134.3807809800798
 30
0.0
 11
74.21130835323101
 21
132.6174252232024
 31
0.0
  0
LINE
  5
58F
330
18
100
AcDbEntity
  8
目盛
100
AcDbLine
 10
70.97210595418363
 20
133.1857364618699
 30
0.0
 11
72.66076180518775
 21
132.1140828719119
 31
0.0
  0
LINE
  5
590
330
18
100
AcDbEntity
  8
目盛
100
AcDbLine
 10
70.23659459972117
 20
131.9420546816924
 30
0.0
 11
71.98920795980888
 21
130.978547333489
 31
0.0
  0
LINE
  5
591
330
18
100
AcDbEntity
  8
目盛
100
AcDbLine
 10
69.58062603401157
 20
130.6546438833496
 30
0.0
 11
71.39028013894352
 21
129.8030853002194
 31
0.0
  0
LINE
  5
592
330
18
100
AcDbEntity
  8
目盛
100
AcDbLine
 10
69.0067890653001
 20
129.3285848891005
 30
0.0
 11
70.86634203707666
 21
128.5923357837312
 31
0.0
  0
LINE
  5
593
330
18
100
AcDbEntity
  8
目盛
100
AcDbLine
 10
68.51734836594136
 20
127.9691110479768
 30
0.0
 11
71.37051791482685
 21
127.0420600648519
 31
0.0
  0
LINE
  5
594
330
18
100
AcDbEntity
  8
目盛
100
AcDbLine
 10
68.11423553477147
 20
126.5815875821446
 30
0.0
 11
70.05140185702879
 21
126.0842078078149
 31
0.0
  0
LINE
  5
595
330
18
100
AcDbEntity
  8
目盛
100
AcDbLine
 10
67.79904147397013
 20
125.1714904128246
 30
0.0
 11
69.7636159754274
 21
124.7967277836531
 31
0.0
  0
LINE
  5
596
330
18
100
AcDbEntity
  8
目盛
100
AcDbLine
 10
67.57301011049702
 20
123.7443845493319
 30
0.0
 11
69.55723951312592
 21
123.4937180822033
 31
0.0
  0
LINE
  5
597
330
18
100
AcDbEntity
  8
目盛
100
AcDbLine
 10
67.43703348687967
 20
122.3059021265271
 30
0.0
 11
69.43308694373621
 21
122.1803210874685
 31
0.0
  0
LINE
  5
598
330
18
100
AcDbEntity
  8
目盛
100
AcDbLine
 10
67.43703348687967
 20
119.4175382281787
 30
0.0
 11
69.43308694373621
 21
119.5431192672373
 31
0.0
  0
LINE
  5
599
330
18
100
AcDbEntity
  8
目盛
100
AcDbLine
 10
67.57301011049702
 20
117.979055805374
 30
0.0
 11
69.55723951312592
 21
118.2297222725026
 31
0.0
  0
LINE
  5
59A
330
18
100
AcDbEntity
  8
目盛
100
AcDbLine
 10
67.79904147397013
 20
116.5519499418813
 30
0.0
 11
69.7636159754274
 21
116.9267125710528
 31
0.0
  0
LINE
  5
59B
330
18
100
AcDbEntity
  8
目盛
100
AcDbLine
 10
68.11423553477147
 20
115.1418527725613
 30
0.0
 11
70.05140185702879
 21
115.639232546891
 31
0.0
  0
LINE
  5
59C
330
18
100
AcDbEntity
  8
目盛
100
AcDbLine
 10
68.51734836594158
 20
113.7543293067291
 30
0.0
 11
71.37051791482685
 21
114.681380289854
 31
0.0
  0
LINE
  5
59D
330
18
100
AcDbEntity
  8
目盛
100
AcDbLine
 10
69.0067890653001
 20
112.3948554656053
 30
0.0
 11
70.86634203707666
 21
113.1311045709746
 31
0.0
  0
LINE
  5
59E
330
18
100
AcDbEntity
  8
目盛
100
AcDbLine
 10
69.58062603401157
 20
111.0687964713563
 30
0.0
 11
71.39028013894352
 21
111.9203550544864
 31
0.0
  0
LINE
  5
59F
330
18
100
AcDbEntity
  8
目盛
100
AcDbLine
 10
70.23659459972117
 20
109.7813856730135
 30
0.0
 11
71.98920795980888
 21
110.7448930212169
 31
0.0
  0
LINE
  5
5A0
330
18
100
AcDbEntity
  8
目盛
100
AcDbLine
 10
70.97210595418363
 20
108.537703892836
 30
0.0
 11
72.66076180518775
 21
109.609357482794
 31
0.0
  0
LINE
  5
5A1
330
18
100
AcDbEntity
  8
目盛
100
AcDbLine
 10
71.7842573701061
 20
107.342659374626
 30
0.0
 11
74.21130835323101
 21
109.1060151315035
 31
0.0
  0
LINE
  5
5A2
330
18
100
AcDbEntity
  8
目盛
100
AcDbLine
 10
72.66984365688671
 20
106.2009684131331
 30
0.0
 11
74.2108701424383
 21
107.4758163926305
 31
0.0
  0
LINE
  5
5A3
330
18
100
AcDbEntity
  8
目盛
100
AcDbLine
 10
73.62536981003763
 20
105.117136740993
 30
0.0
 11
75.08330706488044
 21
106.4862309528504
 31
0.0
  0
LINE
  5
5A4
330
18
100
AcDbEntity
  8
目盛
100
AcDbLine
 10
74.64706480437001
 20
104.0954417466604
 30
0.0
 11
76.01615901622739
 21
105.5533790015032
 31
0.0
  0
LINE
  5
5A5
330
18
100
AcDbEntity
  8
目盛
100
AcDbLine
 10
75.73089647651016
 20
103.1399155935097
 30
0.0
 11
77.00574445600745
 21
104.6809420790613
 31
0.0
  0
LINE
  5
5A6
330
18
100
AcDbEntity
  8
目盛
100
AcDbLine
 10
76.87258743800311
 20
102.2543293067291
 30
0.0
 11
78.63594319488055
 21
104.6813802898539
 31
0.0
  0
LINE
  5
5A7
330
18
100
AcDbEntity
  8
目盛
100
AcDbLine
 10
78.067631956213
 20
101.4421778908065
 30
0.0
 11
79.13928554617104
 21
103.1308337418106
 31
0.0
  0
LINE
  5
5A8
330
18
100
AcDbEntity
  8
目盛
100
AcDbLine
 10
79.31131373639067
 20
100.7066665363441
 30
0.0
 11
80.27482108459407
 21
102.4592798964318
 31
0.0
  0
LINE
  5
5A9
330
18
100
AcDbEntity
  8
目盛
100
AcDbLine
 10
80.59872453473344
 20
100.0506979706345
 30
0.0
 11
81.45028311786353
 21
101.8603520755665
 31
0.0
  0
LINE
  5
5AA
330
18
100
AcDbEntity
  8
目盛
100
AcDbLine
 10
81.92478352898246
 20
99.47686100192314
 30
0.0
 11
82.66103263435178
 21
101.3364139736996
 31
0.0
  0
LINE
  5
5AB
330
18
100
AcDbEntity
  8
目盛
100
AcDbLine
 10
83.2842573701061
 20
98.98742030256441
 30
0.0
 11
84.21130835323101
 21
101.8405898514499
 31
0.0
  0
LINE
  5
5AC
330
18
100
AcDbEntity
  8
目盛
100
AcDbLine
 10
84.67178083593848
 20
98.58430747139445
 30
0.0
 11
85.16916061026808
 21
100.5214737936517
 31
0.0
  0
LINE
  5
5AD
330
18
100
AcDbEntity
  8
目盛
100
AcDbLine
 10
86.08187800525838
 20
98.26911341059313
 30
0.0
 11
86.45664063442991
 21
100.2336879120505
 31
0.0
  0
LINE
  5
5AE
330
18
100
AcDbEntity
  8
目盛
100
AcDbLine
 10
87.50898386875105
 20
98.04308204711995
 30
0.0
 11
87.7596503358797
 21
100.0273114497489
 31
0.0
  0
LINE
  5
5AF
330
18
100
AcDbEntity
  8
目盛
100
AcDbLine
 10
88.94746629155582
 20
97.90710542350272
 30
0.0
 11
89.07304733061431
 21
99.90315888035926
 31
0.0
  0
LINE
  5
5B0
330
18
100
AcDbEntity
  8
目盛
100
AcDbLine
 10
91.83583018990423
 20
97.90710542350272
 30
0.0
 11
91.71024915084553
 21
99.90315888035926
 31
0.0
  0
LINE
  5
5B1
330
18
100
AcDbEntity
  8
目盛
100
AcDbLine
 10
93.27431261270902
 20
98.04308204711995
 30
0.0
 11
93.02364614558035
 21
100.0273114497489
 31
0.0
  0
LINE
  5
5B2
330
18
100
AcDbEntity
  8
目盛
100
AcDbLine
 10
94.70141847620169
 20
98.26911341059318
 30
0.0
 11
94.32665584703016
 21
100.2336879120505
 31
0.0
  0
LINE
  5
5B3
330
18
100
AcDbEntity
  8
目盛
100
AcDbLine
 10
96.11151564552159
 20
98.58430747139445
 30
0.0
 11
95.61413587119199
 21
100.5214737936517
 31
0.0
  0
LINE
  5
5B4
330
18
100
AcDbEntity
  8
目盛
100
AcDbLine
 10
97.49903911135374
 20
98.98742030256446
 30
0.0
 11
96.57198812822906
 21
101.8405898514499
 31
0.0
  0
LINE
  5
5B5
330
18
100
AcDbEntity
  8
目盛
100
AcDbLine
 10
98.85851295247761
 20
99.47686100192321
 30
0.0
 11
98.12226384710829
 21
101.3364139736997
 31
0.0
  0
LINE
  5
5B6
330
18
100
AcDbEntity
  8
目盛
100
AcDbLine
 10
100.1845719467266
 20
100.0506979706345
 30
0.0
 11
99.33301336359654
 21
101.8603520755666
 31
0.0
  0
LINE
  5
5B7
330
18
100
AcDbEntity
  8
目盛
100
AcDbLine
 10
101.4719827450694
 20
100.7066665363441
 30
0.0
 11
100.508475396866
 21
102.4592798964319
 31
0.0
  0
LINE
  5
5B8
330
18
100
AcDbEntity
  8
目盛
100
AcDbLine
 10
102.7156645252468
 20
101.4421778908066
 30
0.0
 11
101.644010935289
 21
103.1308337418106
 31
0.0
  0
LINE
  5
5B9
330
18
100
AcDbEntity
  8
目盛
100
AcDbLine
 10
103.9107090434569
 20
102.2543293067292
 30
0.0
 11
102.1473532865793
 21
104.681380289854
 31
0.0
  0
LINE
  5
5BA
330
18
100
AcDbEntity
  8
目盛
100
AcDbLine
 10
105.0524000049499
 20
103.1399155935099
 30
0.0
 11
103.7775520254526
 21
104.6809420790614
 31
0.0
  0
LINE
  5
5BB
330
18
100
AcDbEntity
  8
目盛
100
AcDbLine
 10
106.1362316770898
 20
104.0954417466605
 30
0.0
 11
104.7671374652324
 21
105.5533790015033
 31
0.0
  0
LINE
  5
5BC
330
18
100
AcDbEntity
  8
目盛
100
AcDbLine
 10
107.1579266714224
 20
105.1171367409931
 30
0.0
 11
105.6999894165796
 21
106.4862309528505
 31
0.0
  0
LINE
  5
5BD
330
18
100
AcDbEntity
  8
目盛
100
AcDbLine
 10
108.1134528245731
 20
106.2009684131331
 30
0.0
 11
106.5724263390215
 21
107.4758163926305
 31
0.0
  0
LINE
  5
5BE
330
18
100
AcDbEntity
  8
目盛
100
AcDbLine
 10
108.9990391113537
 20
107.3426593746261
 30
0.0
 11
106.5719881282291
 21
109.1060151315036
 31
0.0
  0
LINE
  5
5BF
330
18
100
AcDbEntity
  8
目盛
100
AcDbLine
 10
109.8111905272764
 20
108.5377038928361
 30
0.0
 11
108.1225346762723
 21
109.6093574827941
 31
0.0
  0
LINE
  5
5C0
330
18
100
AcDbEntity
  8
目盛
100
AcDbLine
 10
110.5467018817389
 20
109.7813856730136
 30
0.0
 11
108.7940885216512
 21
110.744893021217
 31
0.0
  0
LINE
  5
5C1
330
18
100
AcDbEntity
  8
目盛
100
AcDbLine
 10
111.2026704474485
 20
111.0687964713563
 30
0.0
 11
109.3930163425163
 21
111.9203550544864
 31
0.0
  0
LINE
  5
5C2
330
18
100
AcDbEntity
  8
目盛
100
AcDbLine
 10
111.7765074161597
 20
112.3948554656054
 30
0.0
 11
109.9169544443832
 21
113.1311045709747
 31
0.0
  0
LINE
  5
5C3
330
18
100
AcDbEntity
  8
目盛
100
AcDbLine
 10
112.2659481155185
 20
113.7543293067292
 30
0.0
 11
109.412778566633
 21
114.681380289854
 31
0.0
  0
LINE
  5
5C4
330
18
100
AcDbEntity
  8
目盛
100
AcDbLine
 10
112.6690609466884
 20
115.1418527725613
 30
0.0
 11
110.7318946244312
 21
115.639232546891
 31
0.0
  0
LINE
  5
5C5
330
18
100
AcDbEntity
  8
目盛
100
AcDbLine
 10
112.9842550074897
 20
116.5519499418813
 30
0.0
 11
111.0196805060324
 21
116.9267125710528
 31
0.0
  0
LINE
  5
5C6
330
18
100
AcDbEntity
  8
目盛
100
AcDbLine
 10
113.210286370963
 20
117.979055805374
 30
0.0
 11
111.2260569683339
 21
118.2297222725026
 31
0.0
  0
LINE
  5
5C7
330
18
100
AcDbEntity
  8
目盛
100
AcDbLine
 10
113.3462629945801
 20
119.4175382281787
 30
0.0
 11
111.3502095377236
 21
119.5431192672373
 31
0.0
  0
LINE
  5
5C8
330
18
100
AcDbEntity
  8
目盛
100
AcDbLine
 10
113.3462629945801
 20
122.3059021265271
 30
0.0
 11
111.3502095377236
 21
122.1803210874685
 31
0.0
  0
LINE
  5
5C9
330
18
100
AcDbEntity
  8
目盛
100
AcDbLine
 10
113.210286370963
 20
123.744384549332
 30
0.0
 11
111.2260569683339
 21
123.4937180822034
 31
0.0
  0
LINE
  5
5CA
330
18
100
AcDbEntity
  8
目盛
100
AcDbLine
 10
112.9842550074897
 20
125.1714904128245
 30
0.0
 11
111.0196805060324
 21
124.7967277836531
 31
0.0
  0
LINE
  5
5CB
330
18
100
AcDbEntity
  8
目盛
100
AcDbLine
 10
112.6690609466886
 20
126.5815875821445
 30
0.0
 11
110.7318946244312
 21
126.0842078078148
 31
0.0
  0
LINE
  5
5CC
330
18
100
AcDbEntity
  8
目盛
100
AcDbLine
 10
112.2659481155185
 20
127.9691110479767
 30
0.0
 11
109.412778566633
 21
127.0420600648519
 31
0.0
  0
LINE
  5
5CD
330
18
100
AcDbEntity
  8
目盛
100
AcDbLine
 10
111.7765074161597
 20
129.3285848891005
 30
0.0
 11
109.9169544443832
 21
128.5923357837311
 31
0.0
  0
LINE
  5
5CE
330
18
100
AcDbEntity
  8
目盛
100
AcDbLine
 10
111.2026704474485
 20
130.6546438833496
 30
0.0
 11
109.3930163425163
 21
129.8030853002194
 31
0.0
  0
LINE
  5
5CF
330
18
100
AcDbEntity
  8
目盛
100
AcDbLine
 10
110.5467018817389
 20
131.9420546816924
 30
0.0
 11
108.7940885216512
 21
130.9785473334889
 31
0.0
  0
LINE
  5
5D0
330
18
100
AcDbEntity
  8
目盛
100
AcDbLine
 10
109.8111905272764
 20
133.1857364618698
 30
0.0
 11
108.1225346762723
 21
132.1140828719118
 31
0.0
  0
LINE
  5
5D1
330
18
100
AcDbEntity
  8
目盛
100
AcDbLine
 10
108.9990391113537
 20
134.3807809800797
 30
0.0
 11
106.5719881282288
 21
132.6174252232024
 31
0.0
  0
LINE
  5
5D2
330
18
100
AcDbEntity
  8
目盛
100
AcDbLine
 10
108.1134528245731
 20
135.5224719415728
 30
0.0
 11
106.5724263390215
 21
134.2476239620754
 31
0.0
  0
LINE
  5
5D3
330
18
100
AcDbEntity
  8
目盛
100
AcDbLine
 10
107.1579266714224
 20
136.6063036137127
 30
0.0
 11
105.6999894165796
 21
135.2372094018553
 31
0.0
  0
LINE
  5
5D4
330
18
100
AcDbEntity
  8
目盛
100
AcDbLine
 10
106.1362316770898
 20
137.6279986080453
 30
0.0
 11
104.7671374652324
 21
136.1700613532025
 31
0.0
  0
LINE
  5
5D5
330
18
100
AcDbEntity
  8
目盛
100
AcDbLine
 10
105.0524000049499
 20
138.583524761196
 30
0.0
 11
103.7775520254524
 21
137.0424982756444
 31
0.0
  0
LINE
  5
5D6
330
18
100
AcDbEntity
  8
目盛
100
AcDbLine
 10
103.9107090434569
 20
139.4691110479767
 30
0.0
 11
102.1473532865795
 21
137.0420600648519
 31
0.0
  0
LINE
  5
5D7
330
18
100
AcDbEntity
  8
目盛
100
AcDbLine
 10
102.715664525247
 20
140.2812624638992
 30
0.0
 11
101.644010935289
 21
138.5926066128952
 31
0.0
  0
LINE
  5
5D8
330
18
100
AcDbEntity
  8
目盛
100
AcDbLine
 10
101.4719827450696
 20
141.0167738183617
 30
0.0
 11
100.508475396866
 21
139.264160458274
 31
0.0
  0
LINE
  5
5D9
330
18
100
AcDbEntity
  8
目盛
100
AcDbLine
 10
100.1845719467268
 20
141.6727423840713
 30
0.0
 11
99.33301336359654
 21
139.8630882791393
 31
0.0
  0
LINE
  5
5DA
330
18
100
AcDbEntity
  8
目盛
100
AcDbLine
 10
98.85851295247761
 20
142.2465793527827
 30
0.0
 11
98.12226384710829
 21
140.3870263810062
 31
0.0
  0
LINE
  5
5DB
330
18
100
AcDbEntity
  8
目盛
100
AcDbLine
 10
97.49903911135398
 20
142.7360200521414
 30
0.0
 11
96.57198812822906
 21
139.8828505032559
 31
0.0
  0
LINE
  5
5DC
330
18
100
AcDbEntity
  8
目盛
100
AcDbLine
 10
96.11151564552182
 20
143.1391328833114
 30
0.0
 11
95.61413587119199
 21
141.2019665610541
 31
0.0
  0
LINE
  5
5DD
330
18
100
AcDbEntity
  8
目盛
100
AcDbLine
 10
94.70141847620169
 20
143.4543269441127
 30
0.0
 11
94.32665584703039
 21
141.4897524426554
 31
0.0
  0
LINE
  5
5DE
330
18
100
AcDbEntity
  8
目盛
100
AcDbLine
 10
93.27431261270925
 20
143.680358307586
 30
0.0
 11
93.02364614558058
 21
141.6961289049569
 31
0.0
  0
LINE
  5
5DF
330
18
100
AcDbEntity
  8
目盛
100
AcDbLine
 10
91.83583018990447
 20
143.8163349312032
 30
0.0
 11
91.71024915084576
 21
141.8202814743466
 31
0.0
  0
LINE
  5
5E0
330
18
100
AcDbEntity
  8
目盛
100
AcDbLine
 10
110.39164824073
 20
120.8617201773529
 30
0.0
 11
113.39164824073
 21
120.8617201773529
 31
0.0
  0
LINE
  5
5E1
330
18
100
AcDbEntity
  8
目盛
100
AcDbLine
 10
90.39164824073003
 20
100.8617201773529
 30
0.0
 11
90.39164824073003
 21
97.86172017735296
 31
0.0
  0
LINE
  5
5E2
330
18
100
AcDbEntity
  8
目盛
100
AcDbLine
 10
67.39164824073004
 20
120.8617201773529
 30
0.0
 11
70.39164824073004
 21
120.8617201773529
 31
0.0
  0
LINE
  5
5E3
330
18
100
AcDbEntity
  8
目盛
100
AcDbLine
 10
90.39164824073003
 20
143.8617201773529
 30
0.0
 11
90.39164824073003
 21
140.8617201773529
 31
0.0
  0
TEXT
  5
5E4
330
18
100
AcDbEntity
  8
文字
100
AcDbText
 10
89.27155939349422
 20
137.9854453255089
 30
0.0
 40
2.5
  1
0
  7
STYLE3
100
AcDbText
  0
TEXT
  5
5E5
330
18
100
AcDbEntity
  8
文字
100
AcDbText
 10
98.89514486065236
 20
134.3458451261976
 30
0.0
 40
2.5
  1
90
  7
STYLE3
100
AcDbText
  0
TEXT
  5
5E6
330
18
100
AcDbEntity
  8
文字
100
AcDbText
 10
104.9680929125231
 20
125.3702709544766
 30
0.0
 40
2.5
  1
80
  7
STYLE3
100
AcDbText
  0
TEXT
  5
5E7
330
18
100
AcDbEntity
  8
文字
100
AcDbText
 10
104.8066694306619
 20
114.1704283044179
 30
0.0
 40
2.5
  1
70
  7
STYLE3
100
AcDbText
  0
TEXT
  5
5E8
330
18
100
AcDbEntity
  8
文字
100
AcDbText
 10
99.06489717304697
 20
104.942923746613
 30
0.0
 40
2.5
  1
60
  7
STYLE3
100
AcDbText
  0
TEXT
  5
5E9
330
18
100
AcDbEntity
  8
文字
100
AcDbText
 10
88.01342860328913
 20
101.0952684555037
 30
0.0
 40
2.5
  1
50
  7
STYLE3
100
AcDbText
  0
TEXT
  5
5EA
330
18
100
AcDbEntity
  8
文字
100
AcDbText
 10
76.88942758295315
 20
105.0327781367862
 30
0.0
 40
2.5
  1
40
  7
STYLE3
100
AcDbText
  0
TEXT
  5
5EB
330
18
100
AcDbEntity
  8
文字
100
AcDbText
 10
71.00597457692737
 20
113.6365762915162
 30
0.0
 40
2.5
  1
30
  7
STYLE3
100
AcDbText
  0
TEXT
  5
5EC
330
18
100
AcDbEntity
  8
文字
100
AcDbText
 10
71.1674474117628
 20
125.482797698064
 30
0.0
 40
2.5
  1
20
  7
STYLE3
100
AcDbText
  0
TEXT
  5
5ED
330
18
100
AcDbEntity
  8
文字
100
AcDbText
 10
77.42717254562916
 20
134.2347029927465
 30
0.0
 40
2.5
  1
10
  7
STYLE3
100
AcDbText
  0
LINE
  5
5EE
330
18
100
AcDbEntity
  8
中心線
 48
0.2
100
AcDbLine
 10
87.19164824072999
 20
118.6509561845608
 30
0.0
 11
87.19164824072999
 21
102.9613621625252
 31
0.0
  0
CIRCLE
  5
5EF
330
18
100
AcDbEntity
  8
外形線
100
AcDbCircle
 10
87.19164824072999
 20
110.787748765839
 30
0.0
 40
4.75
  0
LINE
  5
5F0
330
18
100
AcDbEntity
  8
中心線
 48
0.2
100
AcDbLine
 10
80.23237305380025
 20
110.787748765839
 30
0.0
 11
94.76036050178043
 21
110.787748765839
 31
0.0
  0
LINE
  5
5F1
330
18
100
AcDbEntity
  8
目盛
100
AcDbLine
 10
87.19164824072999
 20
115.537748765839
 30
0.0
 11
87.19164824072999
 21
115.037748765839
 31
0.0
  0
LINE
  5
5F2
330
18
100
AcDbEntity
  8
目盛
100
AcDbLine
 10
84.39966829234066
 20
114.63057948912
 30
0.0
 11
84.69356091848698
 21
114.2260709919326
 31
0.0
  0
LINE
  5
5F3
330
18
100
AcDbEntity
  8
目盛
100
AcDbLine
 10
82.67412978832789
 20
112.25557948912
 30
0.0
 11
83.14965804647561
 21
112.1010709919326
 31
0.0
  0
LINE
  5
5F4
330
18
100
AcDbEntity
  8
目盛
100
AcDbLine
 10
82.67412978832789
 20
109.319918042558
 30
0.0
 11
83.1496580464754
 21
109.4744265397455
 31
0.0
  0
LINE
  5
5F5
330
18
100
AcDbEntity
  8
目盛
100
AcDbLine
 10
84.39966829234066
 20
106.944918042558
 30
0.0
 11
84.69356091848675
 21
107.3494265397455
 31
0.0
  0
LINE
  5
5F6
330
18
100
AcDbEntity
  8
目盛
100
AcDbLine
 10
87.19164824072999
 20
106.037748765839
 30
0.0
 11
87.19164824072999
 21
106.537748765839
 31
0.0
  0
LINE
  5
5F7
330
18
100
AcDbEntity
  8
目盛
100
AcDbLine
 10
89.98362818911932
 20
106.944918042558
 30
0.0
 11
89.68973556297299
 21
107.3494265397455
 31
0.0
  0
LINE
  5
5F8
330
18
100
AcDbEntity
  8
目盛
100
AcDbLine
 10
91.70916669313186
 20
109.319918042558
 30
0.0
 11
91.23363843498436
 21
109.4744265397455
 31
0.0
  0
LINE
  5
5F9
330
18
100
AcDbEntity
  8
目盛
100
AcDbLine
 10
91.70916669313186
 20
112.25557948912
 30
0.0
 11
91.23363843498436
 21
112.1010709919325
 31
0.0
  0
LINE
  5
5FA
330
18
100
AcDbEntity
  8
目盛
100
AcDbLine
 10
89.98362818911909
 20
114.63057948912
 30
0.0
 11
89.68973556297299
 21
114.2260709919326
 31
0.0
  0
TEXT
  5
5FB
330
18
100
AcDbEntity
  8
文字
100
AcDbText
 10
86.7052718015995
 20
113.8155226943139
 30
0.0
 40
1.0
  1
0
  7
STYLE3
100
AcDbText
  0
TEXT
  5
5FC
330
18
100
AcDbEntity
  8
文字
100
AcDbText
 10
88.80959056519799
 20
113.0432967941434
 30
0.0
 40
1.0
  1
1
  7
STYLE3
100
AcDbText
  0
TEXT
  5
5FD
330
18
100
AcDbEntity
  8
文字
100
AcDbText
 10
90.24023436594047
 20
111.397856693593
 30
0.0
 40
1.0
  1
2
  7
STYLE3
100
AcDbText
  0
TEXT
  5
5FE
330
18
100
AcDbEntity
  8
文字
100
AcDbText
 10
90.19081152006805
 20
108.9852198455425
 30
0.0
 40
1.0
  1
3
  7
STYLE3
100
AcDbText
  0
TEXT
  5
5FF
330
18
100
AcDbEntity
  8
文字
100
AcDbText
 10
88.78249730716829
 20
107.5360054889414
 30
0.0
 40
1.0
  1
4
  7
STYLE3
100
AcDbText
  0
TEXT
  5
600
330
18
100
AcDbEntity
  8
文字
100
AcDbText
 10
86.67369661787796
 20
106.86485605547
 30
0.0
 40
1.0
  1
5
  7
STYLE3
100
AcDbText
  0
TEXT
  5
601
330
18
100
AcDbEntity
  8
文字
100
AcDbText
 10
84.53503444331108
 20
107.4450189444328
 30
0.0
 40
1.0
  1
6
  7
STYLE3
100
AcDbText
  0
TEXT
  5
602
330
18
100
AcDbEntity
  8
文字
100
AcDbText
 10
83.38639595888702
 20
109.0432325531479
 30
0.0
 40
1.0
  1
7
  7
STYLE3
100
AcDbText
  0
TEXT
  5
603
330
18
100
AcDbEntity
  8
文字
100
AcDbText
 10
83.4400462851517
 20
111.2673475021641
 30
0.0
 40
1.0
  1
8
  7
STYLE3
100
AcDbText
  0
TEXT
  5
604
330
18
100
AcDbEntity
  8
文字
100
AcDbText
 10
84.76515802690249
 20
112.9992323910216
 30
0.0
 40
1.0
  1
9
  7
STYLE3
100
AcDbText
  0
LINE
  5
618
330
18
100
AcDbEntity
  8
外形線
  6
Continuous
100
AcDbLine
 10
94.09164824072997
 20
161.3617201773528
 30
0.0
 11
94.09164824072997
 21
153.8617201773528
 31
0.0
  0
LINE
  5
619
330
18
100
AcDbEntity
  8
外形線
  6
Continuous
100
AcDbLine
 10
86.69164824072998
 20
161.3617201773528
 30
0.0
 11
86.69164824072998
 21
153.8617201773528
 31
0.0
  0
LINE
  5
61A
330
18
100
AcDbEntity
  8
外形線
  6
Continuous
100
AcDbLine
 10
86.69164824072998
 20
161.3617201773528
 30
0.0
 11
94.09164824072997
 21
161.3617201773528
 31
0.0
  0
LINE
  5
61B
330
18
100
AcDbEntity
  8
外形線
  6
Continuous
100
AcDbLine
 10
86.39164824073004
 20
153.8617201773528
 30
0.0
 11
94.39164824072992
 21
153.8617201773528
 31
0.0
  0
LINE
  5
61C
330
18
100
AcDbEntity
  8
外形線
  6
Continuous
100
AcDbLine
 10
86.39164824072992
 20
147.8617201773527
 30
0.0
 11
94.39164824072992
 21
147.8617201773527
 31
0.0
  0
LINE
  5
61D
330
18
100
AcDbEntity
  8
外形線
  6
Continuous
100
AcDbLine
 10
94.39164824072992
 20
153.8617201773528
 30
0.0
 11
94.39164824072992
 21
147.8617201773527
 31
0.0
  0
LINE
  5
61E
330
18
100
AcDbEntity
  8
外形線
  6
Continuous
100
AcDbLine
 10
86.39164824073004
 20
153.8617201773528
 30
0.0
 11
86.39164824073004
 21
147.8617201773527
 31
0.0
  0
LINE
  5
61F
330
18
100
AcDbEntity
  8
外形線
  6
Continuous
100
AcDbLine
 10
94.09164824072997
 20
147.8617201773527
 30
0.0
 11
94.09164824072997
 21
147.0011539891248
 31
0.0
  0
LINE
  5
620
330
18
100
AcDbEntity
  8
外形線
  6
Continuous
100
AcDbLine
 10
86.69164824072998
 20
147.8617201773527
 30
0.0
 11
86.69164824072998
 21
147.0011539891248
 31
0.0
  0
ARC
  5
621
330
18
100
AcDbEntity
  8
外形線
  6
Continuous
100
AcDbCircle
 10
90.39164824072992
 20
155.0167201773529
 30
0.0
 40
7.344999999999885
100
AcDbArc
 50
59.75198538337817
 51
120.2480146166212
  0
TEXT
  5
622
330
18
100
AcDbEntity
  8
文字
  6
Continuous
 62
     4
100
AcDbText
 10
89.93358930636162
 20
136.63909523354
 30
0.0
 40
1.0
  1
0
  7
STYLE3
100
AcDbText
  0
TEXT
  5
623
330
18
100
AcDbEntity
  8
文字
  6
Continuous
 62
     4
100
AcDbText
 10
100.2676525724802
 20
132.9545699365547
 30
0.0
 40
1.0
  1
10
  7
STYLE3
100
AcDbText
  0
TEXT
  5
624
330
18
100
AcDbEntity
  8
文字
  6
Continuous
 62
     4
100
AcDbText
 10
105.7925186184852
 20
123.9056659400858
 30
0.0
 40
1.0
  1
20
  7
STYLE3
100
AcDbText
  0
TEXT
  5
625
330
18
100
AcDbEntity
  8
文字
  6
Continuous
 62
     4
100
AcDbText
 10
105.7971052423158
 20
117.2873182882801
 30
0.0
 40
1.0
  1
30
  7
STYLE3
100
AcDbText
  0
TEXT
  5
626
330
18
100
AcDbEntity
  8
文字
  6
Continuous
 62
     4
100
AcDbText
 10
100.6894305666296
 20
108.0626614441827
 30
0.0
 40
1.0
  1
40
  7
STYLE3
100
AcDbText
  0
TEXT
  5
627
330
18
100
AcDbEntity
  8
文字
  6
Continuous
 62
     4
100
AcDbText
 10
89.42065478874217
 20
103.9447181469865
 30
0.0
 40
1.0
  1
50
  7
STYLE3
100
AcDbText
  0
TEXT
  5
628
330
18
100
AcDbEntity
  8
文字
  6
Continuous
 62
     4
100
AcDbText
 10
78.00141547739571
 20
108.1232091804402
 30
0.0
 40
1.0
  1
60
  7
STYLE3
100
AcDbText
  0
TEXT
  5
629
330
18
100
AcDbEntity
  8
文字
  6
Continuous
 62
     4
100
AcDbText
 10
73.18530283888134
 20
116.9731092540933
 30
0.0
 40
1.0
  1
70
  7
STYLE3
100
AcDbText
  0
TEXT
  5
62A
330
18
100
AcDbEntity
  8
文字
  6
Continuous
 62
     4
100
AcDbText
 10
73.06620438096269
 20
124.0575646585009
 30
0.0
 40
1.0
  1
80
  7
STYLE3
100
AcDbText
  0
TEXT
  5
62B
330
18
100
AcDbEntity
  8
文字
  6
Continuous
 62
     4
100
AcDbText
 10
78.33135197171526
 20
132.6949384420744
 30
0.0
 40
1.0
  1
90
  7
STYLE3
100
AcDbText
  0
MTEXT
  5
651
330
18
100
AcDbEntity
  8
DEFPOINTS
  6
Continuous
100
AcDbMText
 10
1003.622173382302
 20
353.0775560069975
 30
0.0
 40
1.0
 41
0.0
 71
     4
 72
     1
  1
\A1;
 73
     1
 44
1.0
  0
POINT
  5
687
330
18
100
AcDbEntity
  8
DEFPOINTS
  6
ByBlock
 62
     0
100
AcDbPoint
 10
90.39164824072992
 20
161.3617201773529
 30
0.0
  0
POINT
  5
688
330
18
100
AcDbEntity
  8
DEFPOINTS
  6
ByBlock
 62
     0
100
AcDbPoint
 10
90.39164824072992
 20
120.8617201773529
 30
0.0
  0
POINT
  5
68F
330
18
100
AcDbEntity
  8
DEFPOINTS
  6
ByBlock
 62
     0
100
AcDbPoint
 10
90.39164824072992
 20
120.8617201773529
 30
0.0
  0
MTEXT
  5
6AB
330
18
100
AcDbEntity
  8
文字
100
AcDbMText
 10
570.7613829403022
 20
379.1555382452316
 30
0.0
 40
1.0
 41
6.927999999999999
 71
     1
 72
     5
  1

  7
STYLE3
 73
     1
 44
1.0
  0
MTEXT
  5
70A
330
18
100
AcDbEntity
  8
DEFPOINTS
  6
Continuous
100
AcDbMText
 10
892.4971925954436
 20
302.4030895326824
 30
0.0
 40
0.35
 41
0.0
 71
     4
 72
     1
  1
\A1;
 73
     1
 44
1.0
  0
LINE
  5
70B
102
{ACAD_REACTORS
330
749
102
}
330
18
100
AcDbEntity
  8
ROGO
 62
     4
100
AcDbLine
 10
83.72427212588815
 20
130.2266868184594
 30
0.0
 11
85.33677043887331
 21
130.2266868184594
 31
0.0
  0
LINE
  5
70C
102
{ACAD_REACTORS
330
748
330
749
102
}
330
18
100
AcDbEntity
  8
ROGO
 62
     4
100
AcDbLine
 10
82.70902158579549
 20
128.1748080335535
 30
0.0
 11
96.59819885281928
 21
128.1748080335535
 31
0.0
  0
LINE
  5
70D
102
{ACAD_REACTORS
330
749
102
}
330
18
100
AcDbEntity
  8
ROGO
 62
     4
100
AcDbLine
 10
83.72427212588815
 20
130.2266868184594
 30
0.0
 11
82.70902158579549
 21
128.1748080335534
 31
0.0
  0
SPLINE
  5
70E
102
{ACAD_REACTORS
330
749
102
}
330
18
100
AcDbEntity
  8
ROGO
 62
     4
100
AcDbSpline
210
0.0
220
0.0
230
1.0
 70
     8
 71
     3
 72
    18
 73
    14
 74
     0
 42
0.0000000001
 43
0.0000000001
 40
0.1087402787915014
 40
0.1087402787915014
 40
0.1087402787915014
 40
0.1087402787915014
 40
0.5992371417938475
 40
1.083176791562496
 40
1.448211145705696
 40
1.714037220764907
 40
2.164002567013297
 40
2.740236056362883
 40
3.395137510199602
 40
4.071816045172726
 40
4.784906178399433
 40
5.506895915094292
 40
6.060470601257719
 40
6.060470601257719
 40
6.060470601257719
 40
6.060470601257719
 10
85.33677043887331
 20
130.2266868184595
 30
0.0
 10
85.38842997650936
 20
130.2077544636118
 30
0.0
 10
85.49001792435985
 20
130.1677285722965
 30
0.0
 10
85.61400315990699
 20
130.0763762625051
 30
0.0
 10
85.68161935383177
 20
129.9709174853323
 30
0.0
 10
85.74665856237487
 20
129.8670067430295
 30
0.0
 10
85.75576068088565
 20
129.7179292088731
 30
0.0
 10
85.74085079583865
 20
129.5294590733013
 30
0.0
 10
85.64459392496251
 20
129.3328099357806
 30
0.0
 10
85.49009598588117
 20
129.1608129049788
 30
0.0
 10
85.2982760127881
 20
129.0231487246371
 30
0.0
 10
85.09599523468086
 20
128.9150858881417
 30
0.0
 10
84.95140487762723
 20
128.9140091675331
 30
0.0
 10
84.88865496073259
 20
128.913541887902
 30
0.0
  0
LINE
  5
70F
102
{ACAD_REACTORS
330
749
102
}
330
18
100
AcDbEntity
  8
ROGO
 62
     4
100
AcDbLine
 10
84.88865496104171
 20
128.913541887902
 30
0.0
 11
83.99704669256044
 21
128.913541887902
 31
0.0
  0
LINE
  5
710
102
{ACAD_REACTORS
330
749
102
}
330
18
100
AcDbEntity
  8
ROGO
 62
     4
100
AcDbLine
 10
84.36140898122806
 20
129.7188899072461
 30
0.0
 11
84.20341118487062
 21
129.3696682223607
 31
0.0
  0
SPLINE
  5
711
102
{ACAD_REACTORS
330
749
102
}
330
18
100
AcDbEntity
  8
ROGO
 62
     4
100
AcDbSpline
210
0.0
220
0.0
230
1.0
 70
     8
 71
     3
 72
    15
 73
    11
 74
     9
 42
0.0000000001
 43
0.0000000001
 44
0.0000000001
 40
0.0
 40
0.0
 40
0.0
 40
0.0
 40
0.1539705029173922
 40
0.2241725832586406
 40
0.3038566179395811
 40
0.3581410872473318
 40
0.4439925384670906
 40
0.4954152125468884
 40
0.5836396705645957
 40
0.6130478420064963
 40
0.6130478420064963
 40
0.6130478420064963
 40
0.6130478420064963
 10
84.76739598032549
 20
129.7188899072461
 30
0.0
 10
84.82522431538461
 20
129.7191547918885
 30
0.0
 10
84.90941919044264
 20
129.7195404493582
 30
0.0
 10
84.95545994680739
 20
129.6153911454287
 30
0.0
 10
84.93482228457379
 20
129.5483352407913
 30
0.0
 10
84.90887906114981
 20
129.4794897265436
 30
0.0
 10
84.86303150960745
 20
129.4327081612742
 30
0.0
 10
84.80149738001221
 20
129.3876496276372
 30
0.0
 10
84.7433446869565
 20
129.3821950903777
 30
0.0
 10
84.70552288798387
 20
129.3721735969235
 30
0.0
 10
84.69606743371462
 20
129.3696682223607
 30
0.0
 11
84.76739598032549
 21
129.7188899072461
 31
0.0
 11
84.91718605125418
 21
129.6832549466062
 31
0.0
 11
84.94571755192925
 21
129.6191122498008
 31
0.0
 11
84.93145200666839
 21
129.5407155687394
 31
0.0
 11
84.91005348370055
 21
129.4908266238435
 31
0.0
 11
84.85299048235054
 21
129.4266839270381
 31
0.0
 11
84.81019343641463
 21
129.3981759585262
 31
0.0
 11
84.72459893438957
 21
129.3767952144887
 31
0.0
 11
84.69606743371462
 21
129.3696682223607
 31
0.0
  0
LINE
  5
712
102
{ACAD_REACTORS
330
749
102
}
330
18
100
AcDbEntity
  8
ROGO
 62
     4
100
AcDbLine
 10
84.76739598032549
 20
129.7188899072461
 30
0.0
 11
84.36140898122806
 21
129.7188899072461
 31
0.0
  0
LINE
  5
713
102
{ACAD_REACTORS
330
749
102
}
330
18
100
AcDbEntity
  8
ROGO
 62
     4
100
AcDbLine
 10
84.69606743371462
 20
129.3696682223607
 30
0.0
 11
84.20341118487062
 21
129.3696682223607
 31
0.0
  0
LINE
  5
714
102
{ACAD_REACTORS
330
749
102
}
330
18
100
AcDbEntity
  8
ROGO
 62
     4
100
AcDbLine
 10
83.99704669256044
 20
128.913541887902
 30
0.0
 11
83.66282254173205
 21
128.1748080335535
 31
0.0
  0
LINE
  5
715
102
{ACAD_REACTORS
330
744
102
}
330
18
100
AcDbEntity
  8
ROGO
 62
     4
100
AcDbLine
 10
86.28939443207896
 20
130.2266868184594
 30
0.0
 11
85.63966253281881
 21
128.913541887902
 31
0.0
  0
LINE
  5
716
102
{ACAD_REACTORS
330
744
102
}
330
18
100
AcDbEntity
  8
ROGO
 62
     4
100
AcDbLine
 10
88.0654775805628
 20
130.2266868184594
 30
0.0
 11
87.91664338482831
 21
129.9258844877674
 31
0.0
  0
LINE
  5
717
102
{ACAD_REACTORS
330
744
102
}
330
18
100
AcDbEntity
  8
ROGO
 62
     4
100
AcDbLine
 10
85.63966253281881
 20
128.913541887902
 30
0.0
 11
87.41574568130266
 21
128.913541887902
 31
0.0
  0
LINE
  5
718
102
{ACAD_REACTORS
330
744
102
}
330
18
100
AcDbEntity
  8
ROGO
 62
     4
100
AcDbLine
 10
86.98317896261022
 20
129.9258844877674
 30
0.0
 11
86.86680911653382
 21
129.6906944445832
 31
0.0
  0
LINE
  5
719
102
{ACAD_REACTORS
330
744
102
}
330
18
100
AcDbEntity
  8
ROGO
 62
     4
100
AcDbLine
 10
86.98317896261022
 20
129.9258844877674
 30
0.0
 11
87.91664338482831
 21
129.9258844877674
 31
0.0
  0
LINE
  5
71A
102
{ACAD_REACTORS
330
744
102
}
330
18
100
AcDbEntity
  8
ROGO
 62
     4
100
AcDbLine
 10
86.86680911653382
 20
129.6906944445832
 30
0.0
 11
87.80027353875169
 21
129.6906944445832
 31
0.0
  0
LINE
  5
71B
102
{ACAD_REACTORS
330
744
102
}
330
18
100
AcDbEntity
  8
ROGO
 62
     4
100
AcDbLine
 10
86.63110796829363
 20
129.214329087902
 30
0.0
 11
87.56457239051149
 21
129.214329087902
 31
0.0
  0
LINE
  5
71C
102
{ACAD_REACTORS
330
744
102
}
330
18
100
AcDbEntity
  8
ROGO
 62
     4
100
AcDbLine
 10
86.74748274091001
 20
129.449529087902
 30
0.0
 11
87.68094716312788
 21
129.449529087902
 31
0.0
  0
LINE
  5
71D
102
{ACAD_REACTORS
330
744
102
}
330
18
100
AcDbEntity
  8
ROGO
 62
     4
100
AcDbLine
 10
87.80027353875169
 20
129.6906944445832
 30
0.0
 11
87.68094716312788
 21
129.449529087902
 31
0.0
  0
LINE
  5
71E
102
{ACAD_REACTORS
330
744
102
}
330
18
100
AcDbEntity
  8
ROGO
 62
     4
100
AcDbLine
 10
87.56457239051149
 20
129.214329087902
 30
0.0
 11
87.41574568130266
 21
128.913541887902
 31
0.0
  0
LINE
  5
71F
102
{ACAD_REACTORS
330
744
102
}
330
18
100
AcDbEntity
  8
ROGO
 62
     4
100
AcDbLine
 10
86.74748274091001
 20
129.449529087902
 30
0.0
 11
86.63110796829363
 21
129.214329087902
 31
0.0
  0
LINE
  5
720
102
{ACAD_REACTORS
330
74D
102
}
330
18
100
AcDbEntity
  8
ROGO
 62
     4
100
AcDbLine
 10
88.57997184576055
 20
130.2266868184594
 30
0.0
 11
87.63303751566144
 21
128.913541887902
 31
0.0
  0
LINE
  5
721
102
{ACAD_REACTORS
330
74D
102
}
330
18
100
AcDbEntity
  8
ROGO
 62
     4
100
AcDbLine
 10
89.05409970239219
 20
129.8756778415077
 30
0.0
 11
88.73073296607897
 21
129.4272545696888
 31
0.0
  0
LINE
  5
722
102
{ACAD_REACTORS
330
74D
102
}
330
18
100
AcDbEntity
  8
ROGO
 62
     4
100
AcDbLine
 10
88.54057520493388
 20
129.1635565579928
 30
0.0
 11
89.37045219371823
 21
129.1635565579928
 31
0.0
  0
LINE
  5
723
102
{ACAD_REACTORS
330
74D
102
}
330
18
100
AcDbEntity
  8
ROGO
 62
     4
100
AcDbLine
 10
88.73073296607897
 20
129.4272545696888
 30
0.0
 11
89.25330708811765
 21
129.4272545696888
 31
0.0
  0
LINE
  5
724
102
{ACAD_REACTORS
330
74D
102
}
330
18
100
AcDbEntity
  8
ROGO
 62
     4
100
AcDbLine
 10
88.54057520493388
 20
129.1635565579928
 30
0.0
 11
88.36028476735299
 21
128.913541887902
 31
0.0
  0
LINE
  5
725
102
{ACAD_REACTORS
330
74D
102
}
330
18
100
AcDbEntity
  8
ROGO
 62
     4
100
AcDbLine
 10
87.63303751566144
 20
128.913541887902
 30
0.0
 11
88.36028476735299
 21
128.913541887902
 31
0.0
  0
LINE
  5
726
102
{ACAD_REACTORS
330
74D
102
}
330
18
100
AcDbEntity
  8
ROGO
 62
     4
100
AcDbLine
 10
88.57997184576055
 20
130.2266868184594
 30
0.0
 11
89.6303753285319
 21
130.2266868184595
 31
0.0
  0
LINE
  5
727
102
{ACAD_REACTORS
330
74D
102
}
330
18
100
AcDbEntity
  8
ROGO
 62
     4
100
AcDbLine
 10
90.21372633891525
 20
128.913541887902
 30
0.0
 11
89.48151861678713
 21
128.913541887902
 31
0.0
  0
LINE
  5
728
102
{ACAD_REACTORS
330
745
102
}
330
18
100
AcDbEntity
  8
ROGO
 62
     4
100
AcDbLine
 10
90.57334575392104
 20
128.913541887902
 30
0.0
 11
91.70437476892567
 21
128.913541887902
 31
0.0
  0
LINE
  5
729
102
{ACAD_REACTORS
330
745
102
}
330
18
100
AcDbEntity
  8
ROGO
 62
     4
100
AcDbLine
 10
92.35915124193496
 20
130.2266868184594
 30
0.0
 11
92.1155319413943
 21
129.7381117662426
 31
0.0
  0
LINE
  5
72A
102
{ACAD_REACTORS
330
745
102
}
330
18
100
AcDbEntity
  8
ROGO
 62
     4
100
AcDbLine
 10
91.29376501804307
 20
129.7381117662426
 30
0.0
 11
92.1155319413943
 21
129.7381117662426
 31
0.0
  0
LINE
  5
72B
102
{ACAD_REACTORS
330
745
102
}
330
18
100
AcDbEntity
  8
ROGO
 62
     4
100
AcDbLine
 10
91.10831046873233
 20
129.4021117662426
 30
0.0
 11
91.94799148960447
 21
129.4021117662426
 31
0.0
  0
SPLINE
  5
72C
102
{ACAD_REACTORS
330
745
102
}
330
18
100
AcDbEntity
  8
ROGO
 62
     4
100
AcDbSpline
210
0.0
220
0.0
230
1.0
 70
     8
 71
     3
 72
    26
 73
    22
 74
    20
 42
0.0000000001
 43
0.0000000001
 44
0.0000000001
 40
0.0
 40
0.0
 40
0.0
 40
0.0
 40
0.2382195346591335
 40
0.397689067265951
 40
0.5126795869787094
 40
0.5985392873135155
 40
0.7099038249249157
 40
0.7911890807494517
 40
0.9379713068542924
 40
1.057449928673026
 40
1.138714535893255
 40
1.218398644003435
 40
1.360938021870289
 40
1.461730374800178
 40
1.516014844107929
 40
1.593124329220422
 40
1.648806818593552
 40
1.729472362005439
 40
1.775122082164228
 40
1.874460993765031
 40
1.919820003751092
 40
1.919820003751092
 40
1.919820003751092
 40
1.919820003751092
 10
91.04411489982856
 20
130.2266868184594
 30
0.0
 10
90.96325950906992
 20
130.2218628471943
 30
0.0
 10
90.82827769500402
 20
130.2138096006977
 30
0.0
 10
90.68006848429233
 20
130.1237740968392
 30
0.0
 10
90.57148173988208
 20
130.0714314114969
 30
0.0
 10
90.49403780545782
 20
130.0002759900773
 30
0.0
 10
90.4372710875903
 20
129.9267776375559
 30
0.0
 10
90.36570598289271
 20
129.8392048894306
 30
0.0
 10
90.30734668498698
 20
129.7372299679659
 30
0.0
 10
90.27762784245368
 20
129.6248358269027
 30
0.0
 10
90.25130317379998
 20
129.5352570443437
 30
0.0
 10
90.23178035882706
 20
129.4354331814513
 30
0.0
 10
90.23674751564
 20
129.327588293329
 30
0.0
 10
90.24386071152443
 20
129.2274274823252
 30
0.0
 10
90.2756194014484
 20
129.1559276593986
 30
0.0
 10
90.31178692383841
 20
129.1050247124692
 30
0.0
 10
90.35607355969336
 20
129.0489607597705
 30
0.0
 10
90.40453282401074
 20
129.0118297854402
 30
0.0
 10
90.44461259112138
 20
128.9445645302996
 30
0.0
 10
90.51477087138382
 20
128.9359809986235
 30
0.0
 10
90.5593662654596
 20
128.9188972087465
 30
0.0
 10
90.57334575392104
 20
128.913541887902
 30
0.0
 11
91.04411489982856
 21
130.2266868184594
 31
0.0
 11
90.80873032687481
 21
130.1900446363657
 31
0.0
 11
90.66607282349986
 21
130.1187749474323
 31
0.0
 11
90.56621277621394
 21
130.0617592427549
 31
0.0
 11
90.50201720731019
 21
130.004743305731
 31
0.0
 11
90.43068866069944
 21
129.9192196325417
 31
0.0
 11
90.38075863705643
 21
129.8550769357363
 31
0.0
 11
90.30942968029235
 21
129.7267913097791
 31
0.0
 11
90.27376561206352
 21
129.6127596680779
 31
0.0
 11
90.25236708909568
 21
129.5343629870164
 31
0.0
 11
90.23810113368147
 21
129.455966305955
 31
0.0
 11
90.23810113368147
 21
129.3134269280882
 31
0.0
 11
90.25236708909568
 21
129.2136492706429
 31
0.0
 11
90.27376561206352
 21
129.1637603257471
 31
0.0
 11
90.31656265799933
 21
129.0996176289416
 31
0.0
 11
90.35222713638148
 21
129.0568556761738
 31
0.0
 11
90.40928972757802
 21
128.9998399714963
 31
0.0
 11
90.43782122825309
 21
128.9642050108564
 31
0.0
 11
90.53054870798524
 21
128.9285702825629
 31
0.0
 11
90.57334575392104
 21
128.913541887902
 31
0.0
  0
SPLINE
  5
72D
102
{ACAD_REACTORS
330
745
102
}
330
18
100
AcDbEntity
  8
ROGO
 62
     4
100
AcDbSpline
210
0.0
220
0.0
230
1.0
 70
     8
 71
     3
 72
    16
 73
    12
 74
    10
 42
0.0000000001
 43
0.0000000001
 44
0.0000000001
 40
0.0
 40
0.0
 40
0.0
 40
0.0
 40
0.1255907025629711
 40
0.1869327038470372
 40
0.2171823804790188
 40
0.2490606136884243
 40
0.2947101524738327
 40
0.3362763310931754
 40
0.3796288870083667
 40
0.4523125795610969
 40
0.5242542460843636
 40
0.5242542460843636
 40
0.5242542460843636
 40
0.5242542460843636
 10
91.29376501804319
 20
129.7381117662426
 30
0.0
 10
91.25123431042174
 20
129.7316276729386
 30
0.0
 10
91.18793041921041
 20
129.7219765676531
 30
0.0
 10
91.13068466781928
 20
129.6766614606774
 30
0.0
 10
91.09840203869522
 20
129.6497019883609
 30
0.0
 10
91.08741934444367
 20
129.6139999941787
 30
0.0
 10
91.05792327658297
 20
129.5865863431431
 30
0.0
 10
91.03361012670573
 20
129.5489111624269
 30
0.0
 10
91.02780469764397
 20
129.4971636914678
 30
0.0
 10
91.03206601549155
 20
129.4245440023304
 30
0.0
 10
91.08298273006065
 20
129.4095635583311
 30
0.0
 10
91.10831046873244
 20
129.4021117662426
 30
0.0
 11
91.29376501804319
 21
129.7381117662426
 31
0.0
 11
91.17250644778943
 21
129.7054103333951
 31
0.0
 11
91.12257642414652
 21
129.6697756051016
 31
0.0
 11
91.10117790117868
 21
129.6483946287176
 31
0.0
 11
91.08691194576449
 21
129.6198866602057
 31
0.0
 11
91.05838044508942
 21
129.5842519319123
 31
0.0
 11
91.03698192212148
 21
129.5486169712724
 31
0.0
 11
91.02984894441437
 21
129.5058552508509
 31
0.0
 11
91.04411489982856
 21
129.4345853295711
 31
0.0
 11
91.10831046873244
 21
129.4021117662426
 31
0.0
  0
LINE
  5
72E
102
{ACAD_REACTORS
330
745
102
}
330
18
100
AcDbEntity
  8
ROGO
 62
     4
100
AcDbLine
 10
91.94799148960447
 20
129.4021117662426
 30
0.0
 11
91.70437476892567
 21
128.913541887902
 31
0.0
  0
LINE
  5
72F
102
{ACAD_REACTORS
330
745
102
}
330
18
100
AcDbEntity
  8
ROGO
 62
     4
100
AcDbLine
 10
91.04411489982902
 20
130.2266868184595
 30
0.0
 11
92.35915124193496
 21
130.2266868184595
 31
0.0
  0
LINE
  5
730
102
{ACAD_REACTORS
330
746
102
}
330
18
100
AcDbEntity
  8
ROGO
 62
     4
100
AcDbLine
 10
94.80441552484894
 20
128.913541887902
 30
0.0
 11
95.93544453985357
 21
128.913541887902
 31
0.0
  0
LINE
  5
731
102
{ACAD_REACTORS
330
746
102
}
330
18
100
AcDbEntity
  8
ROGO
 62
     4
100
AcDbLine
 10
95.2751846707568
 20
130.2266868184594
 30
0.0
 11
96.59022101286275
 21
130.2266868184594
 31
0.0
  0
SPLINE
  5
732
102
{ACAD_REACTORS
330
746
102
}
330
18
100
AcDbEntity
  8
ROGO
 62
     4
100
AcDbSpline
210
0.0
220
0.0
230
1.0
 70
     8
 71
     3
 72
    16
 73
    12
 74
    10
 42
0.0000000001
 43
0.0000000001
 44
0.0000000001
 40
0.0
 40
0.0
 40
0.0
 40
0.0
 40
0.1255907025628614
 40
0.186932703847053
 40
0.217182380478914
 40
0.2490606136883704
 40
0.2947101524737521
 40
0.3362763310930949
 40
0.3796288870082302
 40
0.4523125795610161
 40
0.5242542460841813
 40
0.5242542460841813
 40
0.5242542460841813
 40
0.5242542460841813
 10
95.52483478897096
 20
129.7381117662426
 30
0.0
 10
95.48230408134958
 20
129.7316276729386
 30
0.0
 10
95.41900019013827
 20
129.7219765676531
 30
0.0
 10
95.36175443874709
 20
129.6766614606774
 30
0.0
 10
95.32947180962308
 20
129.6497019883608
 30
0.0
 10
95.31848911537142
 20
129.6139999941787
 30
0.0
 10
95.28899304751089
 20
129.5865863431429
 30
0.0
 10
95.26467989763361
 20
129.5489111624269
 30
0.0
 10
95.25887446857186
 20
129.4971636914677
 30
0.0
 10
95.26313578641943
 20
129.4245440023305
 30
0.0
 10
95.31405250098847
 20
129.4095635583311
 30
0.0
 10
95.33938023966021
 20
129.4021117662425
 30
0.0
 11
95.52483478897096
 21
129.7381117662426
 31
0.0
 11
95.40357621871732
 21
129.7054103333951
 31
0.0
 11
95.35364619507431
 21
129.6697756051016
 31
0.0
 11
95.33224767210658
 21
129.6483946287176
 31
0.0
 11
95.31798171669226
 21
129.6198866602057
 31
0.0
 11
95.28945021601732
 21
129.5842519319122
 31
0.0
 11
95.26805169304935
 21
129.5486169712724
 31
0.0
 11
95.26091871534225
 21
129.5058552508509
 31
0.0
 11
95.27518467075646
 21
129.4345853295711
 31
0.0
 11
95.33938023966021
 21
129.4021117662425
 31
0.0
  0
SPLINE
  5
733
102
{ACAD_REACTORS
330
746
102
}
330
18
100
AcDbEntity
  8
ROGO
 62
     4
100
AcDbSpline
210
0.0
220
0.0
230
1.0
 70
     8
 71
     3
 72
    26
 73
    22
 74
    20
 42
0.0000000001
 43
0.0000000001
 44
0.0000000001
 40
0.0
 40
0.0
 40
0.0
 40
0.0
 40
0.2382195346591335
 40
0.3976890672660527
 40
0.5126795869787123
 40
0.5985392873135185
 40
0.7099038249250352
 40
0.7911890807494564
 40
0.9379713068544022
 40
1.05744992867319
 40
1.138714535893279
 40
1.21839864400348
 40
1.360938021870334
 40
1.461730374800239
 40
1.516014844107997
 40
1.593124329220506
 40
1.648806818593679
 40
1.729472362005526
 40
1.775122082164315
 40
1.874460993765118
 40
1.91982000375118
 40
1.91982000375118
 40
1.91982000375118
 40
1.91982000375118
 10
95.27518467075646
 20
130.2266868184594
 30
0.0
 10
95.19432927999783
 20
130.2218628471943
 30
0.0
 10
95.0593474659319
 20
130.2138096006976
 30
0.0
 10
94.91113825522011
 20
130.1237740968393
 30
0.0
 10
94.8025515108099
 20
130.0714314114968
 30
0.0
 10
94.7251075763857
 20
130.0002759900772
 30
0.0
 10
94.66834085851809
 20
129.9267776375559
 30
0.0
 10
94.59677575382061
 20
129.8392048894305
 30
0.0
 10
94.53841645591474
 20
129.7372299679659
 30
0.0
 10
94.50869761338141
 20
129.6248358269026
 30
0.0
 10
94.48237294472793
 20
129.5352570443436
 30
0.0
 10
94.46285012975478
 20
129.4354331814513
 30
0.0
 10
94.4678172865677
 20
129.327588293329
 30
0.0
 10
94.47493048245242
 20
129.2274274823252
 30
0.0
 10
94.50668917237612
 20
129.1559276593985
 30
0.0
 10
94.54285669476636
 20
129.1050247124692
 30
0.0
 10
94.58714333062118
 20
129.0489607597705
 30
0.0
 10
94.63560259493865
 20
129.0118297854402
 30
0.0
 10
94.67568236204927
 20
128.9445645302996
 30
0.0
 10
94.74584064231171
 20
128.9359809986235
 30
0.0
 10
94.79043603638748
 20
128.9188972087464
 30
0.0
 10
94.80441552484894
 20
128.913541887902
 30
0.0
 11
95.27518467075646
 21
130.2266868184594
 31
0.0
 11
95.03980009780269
 21
130.1900446363657
 31
0.0
 11
94.89714259442763
 21
130.1187749474323
 31
0.0
 11
94.79728254714183
 21
130.0617592427549
 31
0.0
 11
94.73308697823808
 21
130.004743305731
 31
0.0
 11
94.66175843162721
 21
129.9192196325416
 31
0.0
 11
94.61182840798432
 21
129.8550769357363
 31
0.0
 11
94.54049945122012
 21
129.726791309779
 31
0.0
 11
94.50483538299129
 21
129.6127596680777
 31
0.0
 11
94.48343686002358
 21
129.5343629870164
 31
0.0
 11
94.46917090460926
 21
129.455966305955
 31
0.0
 11
94.46917090460926
 21
129.3134269280882
 31
0.0
 11
94.48343686002358
 21
129.2136492706429
 31
0.0
 11
94.50483538299129
 21
129.163760325747
 31
0.0
 11
94.54763242892722
 21
129.0996176289416
 31
0.0
 11
94.58329690730938
 21
129.0568556761737
 31
0.0
 11
94.64035949850591
 21
128.9998399714963
 31
0.0
 11
94.66889099918097
 21
128.9642050108564
 31
0.0
 11
94.76161847891313
 21
128.9285702825629
 31
0.0
 11
94.80441552484894
 21
128.913541887902
 31
0.0
  0
LINE
  5
734
102
{ACAD_REACTORS
330
746
102
}
330
18
100
AcDbEntity
  8
ROGO
 62
     4
100
AcDbLine
 10
96.17906126053236
 20
129.4021117662426
 30
0.0
 11
95.93544453985344
 21
128.913541887902
 31
0.0
  0
LINE
  5
735
102
{ACAD_REACTORS
330
746
102
}
330
18
100
AcDbEntity
  8
ROGO
 62
     4
100
AcDbLine
 10
95.33938023966021
 20
129.4021117662426
 30
0.0
 11
96.17906126053236
 21
129.4021117662426
 31
0.0
  0
LINE
  5
736
102
{ACAD_REACTORS
330
746
102
}
330
18
100
AcDbEntity
  8
ROGO
 62
     4
100
AcDbLine
 10
95.52483478897096
 20
129.7381117662426
 30
0.0
 11
96.34660171232219
 21
129.7381117662426
 31
0.0
  0
LINE
  5
737
102
{ACAD_REACTORS
330
746
102
}
330
18
100
AcDbEntity
  8
ROGO
 62
     4
100
AcDbLine
 10
96.59022101286275
 20
130.2266868184594
 30
0.0
 11
96.34660171232219
 21
129.7381117662426
 31
0.0
  0
LINE
  5
738
102
{ACAD_REACTORS
330
748
102
}
330
18
100
AcDbEntity
  8
ROGO
 62
     4
100
AcDbLine
 10
96.86524814198486
 20
130.2266868184594
 30
0.0
 11
97.62133188448906
 21
130.2266868184594
 31
0.0
  0
LINE
  5
739
102
{ACAD_REACTORS
330
748
102
}
330
18
100
AcDbEntity
  8
ROGO
 62
     4
100
AcDbLine
 10
96.86524814198486
 20
130.2266868184594
 30
0.0
 11
95.84211511031497
 21
128.1748080335535
 31
0.0
  0
LINE
  5
73A
102
{ACAD_REACTORS
330
748
102
}
330
18
100
AcDbEntity
  8
ROGO
 62
     4
100
AcDbLine
 10
97.62133188448906
 20
130.2266868184594
 30
0.0
 11
97.5096265775681
 21
130.0026634096378
 31
0.0
  0
LINE
  5
73B
102
{ACAD_REACTORS
330
748
102
}
330
18
100
AcDbEntity
  8
ROGO
 62
     4
100
AcDbLine
 10
97.5096265775681
 20
130.0026634096378
 30
0.0
 11
97.86363966064692
 21
130.2266868184594
 31
0.0
  0
LINE
  5
73C
102
{ACAD_REACTORS
330
748
102
}
330
18
100
AcDbEntity
  8
ROGO
 62
     4
100
AcDbLine
 10
96.86524814198486
 20
128.710371595673
 30
0.0
 11
97.13229743115057
 21
128.1748080335535
 31
0.0
  0
LINE
  5
73D
102
{ACAD_REACTORS
330
748
102
}
330
18
100
AcDbEntity
  8
ROGO
 62
     4
100
AcDbLine
 10
97.3767981153157
 20
129.2007474260064
 30
0.0
 11
97.88836463115053
 21
128.1748080335535
 31
0.0
  0
LINE
  5
73E
102
{ACAD_REACTORS
330
748
102
}
330
18
100
AcDbEntity
  8
ROGO
 62
     4
100
AcDbLine
 10
96.86524814198486
 20
128.710371595673
 30
0.0
 11
96.59819885281928
 21
128.1748080335535
 31
0.0
  0
LINE
  5
73F
102
{ACAD_REACTORS
330
748
102
}
330
18
100
AcDbEntity
  8
ROGO
 62
     4
100
AcDbLine
 10
97.3767981153157
 20
129.2007474260064
 30
0.0
 11
98.61970686064701
 21
130.2266868184594
 31
0.0
  0
LINE
  5
740
102
{ACAD_REACTORS
330
748
102
}
330
18
100
AcDbEntity
  8
ROGO
 62
     4
100
AcDbLine
 10
97.86363966064692
 20
130.2266868184594
 30
0.0
 11
98.61970686064701
 21
130.2266868184594
 31
0.0
  0
LINE
  5
741
102
{ACAD_REACTORS
330
748
102
}
330
18
100
AcDbEntity
  8
ROGO
 62
     4
100
AcDbLine
 10
97.13229743115057
 20
128.1748080335535
 30
0.0
 11
97.88836463115053
 21
128.1748080335535
 31
0.0
  0
LINE
  5
742
102
{ACAD_REACTORS
330
744
102
}
330
18
100
AcDbEntity
  8
ROGO
 62
     4
100
AcDbLine
 10
86.28939443207896
 20
130.2266868184594
 30
0.0
 11
88.0654775805628
 21
130.2266868184595
 31
0.0
  0
LINE
  5
743
330
18
100
AcDbEntity
  8
ROGO
 62
     4
100
AcDbLine
 10
83.74161013023735
 20
128.3804782398447
 30
0.0
 11
95.94466891770123
 21
128.3804782398447
 31
0.0
  0
HATCH
  5
744
330
18
100
AcDbEntity
  8
ROGO
 62
     4
100
AcDbHatch
 10
0.0
 20
0.0
 30
0.0
210
0.0
220
0.0
230
1.0
  2
SOLID
 70
     1
 71
     1
 91
        1
 92
        1
 93
       12
 72
     1
 10
86.28939443207896
 20
130.2266868184594
 11
88.0654775805628
 21
130.2266868184595
 72
     1
 10
88.0654775805628
 20
130.2266868184594
 11
87.91664338482831
 21
129.9258844877674
 72
     1
 10
87.91664338482831
 20
129.9258844877674
 11
86.98317896261022
 21
129.9258844877674
 72
     1
 10
86.98317896261022
 20
129.9258844877674
 11
86.86680911653382
 21
129.6906944445832
 72
     1
 10
86.86680911653382
 20
129.6906944445832
 11
87.80027353875169
 21
129.6906944445832
 72
     1
 10
87.80027353875169
 20
129.6906944445832
 11
87.68094716312788
 21
129.449529087902
 72
     1
 10
87.68094716312788
 20
129.449529087902
 11
86.74748274091001
 21
129.449529087902
 72
     1
 10
86.74748274091001
 20
129.449529087902
 11
86.63110796829363
 21
129.214329087902
 72
     1
 10
86.63110796829363
 20
129.214329087902
 11
87.56457239051149
 21
129.214329087902
 72
     1
 10
87.56457239051149
 20
129.214329087902
 11
87.41574568130266
 21
128.913541887902
 72
     1
 10
87.41574568130266
 20
128.913541887902
 11
85.63966253281881
 21
128.913541887902
 72
     1
 10
85.63966253281881
 20
128.913541887902
 11
86.28939443207896
 21
130.2266868184594
 97
       12
330
742
330
716
330
719
330
718
330
71A
330
71D
330
71C
330
71F
330
71B
330
71E
330
717
330
715
 75
     0
 76
     1
 98
        1
 10
13.63926545336994
 20
39.42859077034817
450
        0
451
        0
460
0.0
461
0.0
452
        0
462
0.0
453
        0
470

  0
HATCH
  5
745
330
18
100
AcDbEntity
  8
ROGO
 62
     4
100
AcDbHatch
 10
0.0
 20
0.0
 30
0.0
210
0.0
220
0.0
230
1.0
  2
SOLID
 70
     1
 71
     1
 91
        1
 92
        5
 93
        8
 72
     1
 10
92.11553194139428
 20
129.7381117662426
 11
92.35915124193498
 21
130.2266868184595
 72
     1
 10
92.35915124193498
 20
130.2266868184595
 11
91.04411489982878
 21
130.2266868184595
 72
     4
 94
        3
 73
     0
 74
     0
 95
       26
 96
       22
 40
0.0
 40
0.0
 40
0.0
 40
0.0
 40
0.2382195346591335
 40
0.397689067265951
 40
0.5126795869787094
 40
0.5985392873135155
 40
0.7099038249249157
 40
0.7911890807494517
 40
0.9379713068542924
 40
1.057449928673026
 40
1.138714535893255
 40
1.218398644003435
 40
1.360938021870289
 40
1.461730374800178
 40
1.516014844107929
 40
1.593124329220422
 40
1.648806818593552
 40
1.729472362005439
 40
1.775122082164228
 40
1.874460993765031
 40
1.919820003751092
 40
1.919820003751092
 40
1.919820003751092
 40
1.919820003751092
 10
91.04411489982856
 20
130.2266868184594
 10
90.96325950906992
 20
130.2218628471943
 10
90.82827769500402
 20
130.2138096006977
 10
90.68006848429233
 20
130.1237740968392
 10
90.57148173988208
 20
130.0714314114969
 10
90.49403780545782
 20
130.0002759900773
 10
90.4372710875903
 20
129.9267776375559
 10
90.36570598289271
 20
129.8392048894306
 10
90.30734668498698
 20
129.7372299679659
 10
90.27762784245368
 20
129.6248358269027
 10
90.25130317379998
 20
129.5352570443437
 10
90.23178035882706
 20
129.4354331814513
 10
90.23674751564
 20
129.327588293329
 10
90.24386071152443
 20
129.2274274823252
 10
90.2756194014484
 20
129.1559276593986
 10
90.31178692383841
 20
129.1050247124692
 10
90.35607355969336
 20
129.0489607597705
 10
90.40453282401074
 20
129.0118297854402
 10
90.44461259112138
 20
128.9445645302996
 10
90.51477087138382
 20
128.9359809986235
 10
90.5593662654596
 20
128.9188972087465
 10
90.57334575392104
 20
128.913541887902
 72
     1
 10
90.57334575392102
 20
128.913541887902
 11
91.70437476892567
 21
128.913541887902
 72
     1
 10
91.70437476892567
 20
128.913541887902
 11
91.94799148960447
 21
129.4021117662426
 72
     1
 10
91.94799148960447
 20
129.4021117662426
 11
91.10831046873244
 21
129.4021117662426
 72
     4
 94
        3
 73
     0
 74
     0
 95
       16
 96
       12
 40
0.0
 40
0.0
 40
0.0
 40
0.0
 40
0.0719416665232667
 40
0.1446253590759968
 40
0.1879779149911881
 40
0.2295440936105308
 40
0.2751936323959393
 40
0.3070718656053448
 40
0.3373215422373263
 40
0.3986635435213924
 40
0.5242542460843636
 40
0.5242542460843636
 40
0.5242542460843636
 40
0.5242542460843636
 10
91.10831046873244
 20
129.4021117662426
 10
91.08298273006065
 20
129.4095635583311
 10
91.03206601549155
 20
129.4245440023304
 10
91.02780469764397
 20
129.4971636914678
 10
91.03361012670573
 20
129.5489111624269
 10
91.05792327658297
 20
129.5865863431431
 10
91.08741934444367
 20
129.6139999941787
 10
91.09840203869522
 20
129.6497019883609
 10
91.13068466781928
 20
129.6766614606774
 10
91.18793041921041
 20
129.7219765676531
 10
91.25123431042174
 20
129.7316276729386
 10
91.29376501804319
 20
129.7381117662426
 72
     1
 10
91.29376501804321
 20
129.7381117662426
 11
92.11553194139428
 21
129.7381117662426
 97
        8
330
72F
330
72C
330
728
330
72E
330
72B
330
72D
330
72A
330
729
 75
     0
 76
     1
 47
0.0514683685270805
 98
        1
 10
91.50403179703557
 20
129.9343653621125
450
        0
451
        0
460
0.0
461
0.0
452
        0
462
0.0
453
        0
470

  0
HATCH
  5
746
330
18
100
AcDbEntity
  8
ROGO
 62
     4
100
AcDbHatch
 10
0.0
 20
0.0
 30
0.0
210
0.0
220
0.0
230
1.0
  2
SOLID
 70
     1
 71
     1
 91
        1
 92
        5
 93
        8
 72
     4
 94
        3
 73
     0
 74
     0
 95
       26
 96
       22
 40
0.0
 40
0.0
 40
0.0
 40
0.0
 40
0.2382195346591335
 40
0.3976890672660527
 40
0.5126795869787123
 40
0.5985392873135185
 40
0.7099038249250352
 40
0.7911890807494564
 40
0.9379713068544022
 40
1.05744992867319
 40
1.138714535893279
 40
1.21839864400348
 40
1.360938021870334
 40
1.461730374800239
 40
1.516014844107997
 40
1.593124329220506
 40
1.648806818593679
 40
1.729472362005526
 40
1.775122082164315
 40
1.874460993765118
 40
1.91982000375118
 40
1.91982000375118
 40
1.91982000375118
 40
1.91982000375118
 10
95.27518467075646
 20
130.2266868184594
 10
95.19432927999783
 20
130.2218628471943
 10
95.0593474659319
 20
130.2138096006976
 10
94.91113825522011
 20
130.1237740968393
 10
94.8025515108099
 20
130.0714314114968
 10
94.7251075763857
 20
130.0002759900772
 10
94.66834085851809
 20
129.9267776375559
 10
94.59677575382061
 20
129.8392048894305
 10
94.53841645591474
 20
129.7372299679659
 10
94.50869761338141
 20
129.6248358269026
 10
94.48237294472793
 20
129.5352570443436
 10
94.46285012975478
 20
129.4354331814513
 10
94.4678172865677
 20
129.327588293329
 10
94.47493048245242
 20
129.2274274823252
 10
94.50668917237612
 20
129.1559276593985
 10
94.54285669476636
 20
129.1050247124692
 10
94.58714333062118
 20
129.0489607597705
 10
94.63560259493865
 20
129.0118297854402
 10
94.67568236204927
 20
128.9445645302996
 10
94.74584064231171
 20
128.9359809986235
 10
94.79043603638748
 20
128.9188972087464
 10
94.80441552484894
 20
128.913541887902
 72
     1
 10
94.80441552484894
 20
128.913541887902
 11
95.93544453985343
 21
128.913541887902
 72
     1
 10
95.93544453985343
 20
128.913541887902
 11
96.17906126053236
 21
129.4021117662426
 72
     1
 10
96.17906126053236
 20
129.4021117662426
 11
95.33938023966021
 21
129.4021117662426
 72
     4
 94
        3
 73
     0
 74
     0
 95
       16
 96
       12
 40
0.0
 40
0.0
 40
0.0
 40
0.0
 40
0.0719416665231652
 40
0.1446253590759511
 40
0.1879779149910863
 40
0.2295440936104291
 40
0.2751936323958108
 40
0.3070718656052672
 40
0.3373215422371282
 40
0.3986635435213198
 40
0.5242542460841813
 40
0.5242542460841813
 40
0.5242542460841813
 40
0.5242542460841813
 10
95.33938023966021
 20
129.4021117662425
 10
95.31405250098847
 20
129.4095635583311
 10
95.26313578641943
 20
129.4245440023305
 10
95.25887446857186
 20
129.4971636914677
 10
95.26467989763361
 20
129.5489111624269
 10
95.28899304751089
 20
129.5865863431429
 10
95.31848911537142
 20
129.6139999941787
 10
95.32947180962308
 20
129.6497019883608
 10
95.36175443874709
 20
129.6766614606774
 10
95.41900019013827
 20
129.7219765676531
 10
95.48230408134958
 20
129.7316276729386
 10
95.52483478897096
 20
129.7381117662426
 72
     1
 10
95.52483478897098
 20
129.7381117662426
 11
96.34660171232219
 21
129.7381117662426
 72
     1
 10
96.34660171232219
 20
129.7381117662426
 11
96.59022101286275
 21
130.2266868184595
 72
     1
 10
96.59022101286275
 20
130.2266868184595
 11
95.27518467075642
 21
130.2266868184594
 97
        8
330
731
330
733
330
730
330
734
330
735
330
732
330
736
330
737
 75
     0
 76
     1
 47
0.0514683685270805
 98
        1
 10
95.50210210044127
 20
129.9862455152804
450
        0
451
        0
460
0.0
461
0.0
452
        0
462
0.0
453
        0
470

  0
HATCH
  5
747
330
18
100
AcDbEntity
  8
ROGO
 62
     4
100
AcDbHatch
 10
0.0
 20
0.0
 30
0.0
210
0.0
220
0.0
230
1.0
  2
SOLID
 70
     1
 71
     0
 91
        1
 92
        7
 72
     0
 73
     1
 93
        4
 10
83.75587357715403
 20
128.3804782398447
 10
83.66282254173205
 20
128.1748080335535
 10
95.84211511031497
 20
128.1748080335535
 10
95.9446689177011
 20
128.3804782398447
 97
        0
 75
     0
 76
     1
 47
0.0514683685270805
 98
        1
 10
91.45210883804219
 20
128.3260817756399
450
        0
451
        0
460
0.0
461
0.0
452
        0
462
0.0
453
        0
470

  0
HATCH
  5
748
330
18
100
AcDbEntity
  8
ROGO
 62
     4
100
AcDbHatch
 10
0.0
 20
0.0
 30
0.0
210
0.0
220
0.0
230
1.0
  2
SOLID
 70
     1
 71
     1
 91
        1
 92
        7
 72
     0
 73
     1
 93
       11
 10
95.84211511031497
 20
128.1748080335535
 10
96.59819885281928
 20
128.1748080335535
 10
96.86524814198484
 20
128.710371595673
 10
97.13229743115061
 20
128.1748080335535
 10
97.88836463115051
 20
128.1748080335535
 10
97.37679811531572
 20
129.2007474260065
 10
98.61970686064699
 20
130.2266868184594
 10
97.86363966064696
 20
130.2266868184595
 10
97.50962657756808
 20
130.0026634096378
 10
97.62133188448904
 20
130.2266868184594
 10
96.86524814198488
 20
130.2266868184594
 97
       11
330
740
330
73B
330
73A
330
738
330
739
330
70C
330
73E
330
73C
330
741
330
73D
330
73F
 75
     0
 76
     1
 47
0.0514683685270805
 98
        1
 10
96.80017689558106
 20
129.3463908350179
450
        0
451
        0
460
0.0
461
0.0
452
        0
462
0.0
453
        0
470

  0
HATCH
  5
749
330
18
100
AcDbEntity
  8
ROGO
 62
     4
100
AcDbHatch
 10
0.0
 20
0.0
 30
0.0
210
0.0
220
0.0
230
1.0
  2
SOLID
 70
     1
 71
     1
 91
        2
 92
        5
 93
        6
 72
     1
 10
82.70902158579552
 20
128.1748080335535
 11
83.66282254173205
 21
128.1748080335534
 72
     1
 10
83.66282254173205
 20
128.1748080335534
 11
83.99704669256044
 21
128.913541887902
 72
     1
 10
83.99704669256044
 20
128.913541887902
 11
84.88865496073257
 21
128.913541887902
 72
     4
 94
        3
 73
     0
 74
     0
 95
       18
 96
       14
 40
0.108740278791501
 40
0.108740278791501
 40
0.108740278791501
 40
0.108740278791501
 40
0.6623149649549278
 40
1.384304701649787
 40
2.097394834876493
 40
2.774073369849618
 40
3.428974823686337
 40
4.005208313035923
 40
4.455173659284313
 40
4.720999734343524
 40
5.086034088486724
 40
5.569973738255373
 40
6.060470601257719
 40
6.060470601257719
 40
6.060470601257719
 40
6.060470601257719
 10
84.88865496073259
 20
128.913541887902
 10
84.95140487762723
 20
128.9140091675331
 10
85.09599523468086
 20
128.9150858881417
 10
85.2982760127881
 20
129.0231487246371
 10
85.49009598588117
 20
129.1608129049788
 10
85.64459392496251
 20
129.3328099357806
 10
85.74085079583865
 20
129.5294590733013
 10
85.75576068088565
 20
129.7179292088731
 10
85.74665856237487
 20
129.8670067430295
 10
85.68161935383177
 20
129.9709174853323
 10
85.61400315990699
 20
130.0763762625051
 10
85.49001792435985
 20
130.1677285722965
 10
85.38842997650936
 20
130.2077544636118
 10
85.33677043887331
 20
130.2266868184595
 72
     1
 10
85.33677043887342
 20
130.2266868184594
 11
83.72427212588814
 21
130.2266868184594
 72
     1
 10
83.72427212588814
 20
130.2266868184594
 11
82.70902158579552
 21
128.1748080335535
 97
        6
330
70E
330
70B
330
70D
330
70C
330
714
330
70F
 92
       20
 93
        4
 72
     1
 10
84.20341118487064
 20
129.3696682223607
 11
84.36140898122806
 21
129.7188899072461
 72
     1
 10
84.36140898122806
 20
129.7188899072461
 11
84.76739598032551
 21
129.7188899072461
 72
     4
 94
        3
 73
     0
 74
     0
 95
       15
 96
       11
 40
0.0
 40
0.0
 40
0.0
 40
0.0
 40
0.1539705029173922
 40
0.2241725832586406
 40
0.3038566179395811
 40
0.3581410872473318
 40
0.4439925384670906
 40
0.4954152125468884
 40
0.5836396705645957
 40
0.6130478420064963
 40
0.6130478420064963
 40
0.6130478420064963
 40
0.6130478420064963
 10
84.76739598032549
 20
129.7188899072461
 10
84.82522431538461
 20
129.7191547918885
 10
84.90941919044264
 20
129.7195404493582
 10
84.95545994680739
 20
129.6153911454287
 10
84.93482228457379
 20
129.5483352407913
 10
84.90887906114981
 20
129.4794897265436
 10
84.86303150960745
 20
129.4327081612742
 10
84.80149738001221
 20
129.3876496276372
 10
84.7433446869565
 20
129.3821950903777
 10
84.70552288798387
 20
129.3721735969235
 10
84.69606743371462
 20
129.3696682223607
 72
     1
 10
84.69606743371462
 20
129.3696682223607
 11
84.20341118487064
 21
129.3696682223607
 97
        4
330
710
330
712
330
711
330
713
 75
     0
 76
     1
 47
0.0514683685270805
 98
        2
 10
83.73289067919513
 20
129.5884980615705
 10
83.73289067919513
 20
129.5884980615705
450
        0
451
        0
460
0.0
461
0.0
452
        0
462
0.0
453
        0
470

  0
LINE
  5
74A
102
{ACAD_REACTORS
330
74D
102
}
330
18
100
AcDbEntity
  8
ROGO
 62
     4
100
AcDbLine
 10
89.6303753285319
 20
130.2266868184594
 30
0.0
 11
90.21372633891525
 21
128.913541887902
 31
0.0
  0
LINE
  5
74B
102
{ACAD_REACTORS
330
74D
102
}
330
18
100
AcDbEntity
  8
ROGO
 62
     4
100
AcDbLine
 10
89.05409970239219
 20
129.8756778415077
 30
0.0
 11
89.25330708811765
 21
129.4272545696888
 31
0.0
  0
LINE
  5
74C
102
{ACAD_REACTORS
330
74D
102
}
330
18
100
AcDbEntity
  8
ROGO
 62
     4
100
AcDbLine
 10
89.37045219371823
 20
129.1635565579928
 30
0.0
 11
89.48151861678713
 21
128.913541887902
 31
0.0
  0
HATCH
  5
74D
330
18
100
AcDbEntity
  8
ROGO
 62
     4
100
AcDbHatch
 10
0.0
 20
0.0
 30
0.0
210
0.0
220
0.0
230
1.0
  2
SOLID
 70
     1
 71
     1
 91
        2
 92
        7
 72
     0
 73
     1
 93
        8
 10
89.63037532853185
 20
130.2266868184595
 10
88.57997184576056
 20
130.2266868184595
 10
87.63303751566146
 20
128.913541887902
 10
88.36028476735293
 20
128.913541887902
 10
88.54057520493388
 20
129.1635565579928
 10
89.37045219371823
 20
129.1635565579928
 10
89.48151861678711
 20
128.913541887902
 10
90.21372633891521
 20
128.913541887902
 97
        8
330
726
330
720
330
725
330
724
330
722
330
74C
330
727
330
74A
 92
       22
 72
     0
 73
     1
 93
        3
 10
89.25330708811761
 20
129.4272545696888
 10
88.73073296607898
 20
129.4272545696888
 10
89.05409970239219
 20
129.8756778415077
 97
        3
330
723
330
721
330
74B
 75
     0
 76
     1
 47
0.0128389261915577
 98
        2
 10
89.54812043603618
 20
129.9116449016504
 10
89.54812043603618
 20
129.9116449016504
450
        0
451
        0
460
0.0
461
0.0
452
        0
462
0.0
453
        0
470

  0
SPLINE
  5
74E
102
{ACAD_REACTORS
330
755
102
}
330
18
100
AcDbEntity
  8
ROGO
 62
     4
100
AcDbSpline
210
0.0
220
0.0
230
1.0
 70
     8
 71
     3
 72
    38
 73
    34
 74
    32
 42
0.0000000001
 43
0.0000000001
 44
0.0000000001
 40
0.0
 40
0.0
 40
0.0
 40
0.0
 40
0.1807680148264315
 40
0.2375392910068956
 40
0.3104865209606666
 40
0.3712759982447967
 40
0.4225667543873086
 40
0.4906925837206108
 40
0.5255021974951917
 40
0.5647069597052341
 40
0.6224874016818802
 40
0.6879401044675095
 40
0.7303986317550742
 40
0.7765228362185411
 40
0.8277951442290131
 40
0.9056034697002088
 40
0.9795294930264065
 40
1.013897332332966
 40
1.053089255535997
 40
1.099518741889617
 40
1.132570569820712
 40
1.160277520290289
 40
1.199836786293819
 40
1.243305643169098
 40
1.286774258016923
 40
1.324809356515634
 40
1.411916492917604
 40
1.446284332224164
 40
1.515020051661159
 40
1.575779369908333
 40
1.692098529536163
 40
1.835624328519076
 40
2.042896467983821
 40
2.042896467983821
 40
2.042896467983821
 40
2.042896467983821
 10
93.08837656197766
 20
130.2321640376318
 30
0.0
 10
93.028121164352
 20
130.2279074185309
 30
0.0
 10
92.94894219873089
 20
130.2223139827437
 30
0.0
 10
92.84840342622125
 20
130.1947693565388
 30
0.0
 10
92.79359867178028
 20
130.1619548370809
 30
0.0
 10
92.73656337046309
 20
130.1378345923804
 30
0.0
 10
92.6879354640781
 20
130.1021172931312
 30
0.0
 10
92.63874936338227
 20
130.0837125129376
 30
0.0
 10
92.60430775000635
 20
130.0505254045652
 30
0.0
 10
92.56444439187347
 20
130.0302532863901
 30
0.0
 10
92.53270049203818
 20
129.9848783923757
 30
0.0
 10
92.49721981550633
 20
129.9424545107173
 30
0.0
 10
92.45605776709934
 20
129.9114869691397
 30
0.0
 10
92.42227552153989
 20
129.8789619901775
 30
0.0
 10
92.39128500861554
 20
129.8287661749935
 30
0.0
 10
92.37294343604444
 20
129.7620708003079
 30
0.0
 10
92.32124162163508
 20
129.7199617460228
 30
0.0
 10
92.31345694715201
 20
129.6693340983466
 30
0.0
 10
92.28485909695638
 20
129.639464638156
 30
0.0
 10
92.27242375150044
 20
129.6009074561709
 30
0.0
 10
92.26768777337658
 20
129.5655822668502
 30
0.0
 10
92.26200347033403
 20
129.5325909854219
 30
0.0
 10
92.24713441010171
 20
129.4978856146841
 30
0.0
 10
92.25198772266304
 20
129.4550153357492
 30
0.0
 10
92.25060515962091
 20
129.4135026217226
 30
0.0
 10
92.25141879959414
 20
129.3574591651112
 30
0.0
 10
92.24848226024825
 20
129.3028939681917
 30
0.0
 10
92.27190001076307
 20
129.2435140920232
 30
0.0
 10
92.28575785836609
 20
129.1905851473568
 30
0.0
 10
92.32370982830952
 20
129.1172986051052
 30
0.0
 10
92.38917618112754
 20
129.0327417813963
 30
0.0
 10
92.51366592714504
 20
128.9301058181036
 30
0.0
 10
92.63336645770436
 20
128.9196938773863
 30
0.0
 10
92.70409260043454
 20
128.913541887902
 30
0.0
 11
93.08837656197766
 21
130.2321640376318
 31
0.0
 11
92.90891992503038
 21
130.2104294881804
 31
0.0
 11
92.85453913890222
 21
130.1941289391331
 31
0.0
 11
92.78928245189417
 21
130.1615273569834
 31
0.0
 11
92.73490166576602
 21
130.1343595332104
 31
0.0
 11
92.69139720776076
 21
130.1071914674099
 31
0.0
 11
92.63157847119277
 21
130.0745901272878
 31
0.0
 11
92.60438786450704
 21
130.0528558198638
 31
0.0
 11
92.57175930738156
 21
130.0311212704124
 31
0.0
 11
92.53369279981615
 21
129.9876526555646
 31
0.0
 11
92.49018834181077
 21
129.9387505243677
 31
0.0
 11
92.45755978468531
 21
129.9115824585672
 31
0.0
 11
92.42493165480283
 21
129.878981118445
 31
0.0
 11
92.3977410481172
 21
129.8355125035972
 31
0.0
 11
92.36511291823484
 21
129.7648758229489
 31
0.0
 11
92.32160803298638
 21
129.7051064170263
 31
0.0
 11
92.31073213210668
 21
129.6725048348767
 31
0.0
 11
92.288979903104
 21
129.6399034947544
 31
0.0
 11
92.27266562454127
 21
129.5964346378792
 31
0.0
 11
92.26722724685822
 21
129.563833297757
 31
0.0
 11
92.26178929641827
 21
129.5366652319566
 31
0.0
 11
92.25091339553859
 21
129.4986303754853
 31
0.0
 11
92.25091339553859
 21
129.45516151861
 31
0.0
 11
92.25091339553859
 21
129.4116929037622
 31
0.0
 11
92.25091339553859
 21
129.3736578052635
 31
0.0
 11
92.25635134597855
 21
129.2867205755678
 31
0.0
 11
92.26722724685822
 21
129.2541189934182
 31
0.0
 11
92.288979903104
 21
129.1889160711464
 31
0.0
 11
92.31617008254653
 21
129.1345801815729
 31
0.0
 11
92.38686514723742
 21
129.0422094355281
 31
0.0
 11
92.50106466993377
 21
128.955271963805
 31
0.0
 11
92.70409260043454
 21
128.913541887902
 31
0.0
  0
SPLINE
  5
74F
102
{ACAD_REACTORS
330
755
102
}
330
18
100
AcDbEntity
  8
ROGO
 62
     4
100
AcDbSpline
210
0.0
220
0.0
230
1.0
 70
     8
 71
     3
 72
    25
 73
    21
 74
     0
 42
0.0000000001
 43
0.0000000001
 40
0.0
 40
0.0
 40
0.0
 40
0.0
 40
0.4087168505087288
 40
0.6887487002771746
 40
0.9415836120477687
 40
1.17452070575514
 40
1.41154617586699
 40
1.599156012919487
 40
1.80099909059943
 40
2.178735911501585
 40
2.521686161369157
 40
2.762704659361267
 40
3.06256558063785
 40
3.222432137207705
 40
3.399493810628493
 40
3.567459719866414
 40
3.743172740007509
 40
3.995988754699505
 40
4.17170091132118
 40
4.337226830236035
 40
4.337226830236035
 40
4.337226830236035
 40
4.337226830236035
 10
93.83883038516302
 20
130.2321640376318
 30
0.0
 10
93.88805043558859
 20
130.2305826481756
 30
0.0
 10
93.97099354330709
 20
130.2279177716696
 30
0.0
 10
94.06004320192819
 20
130.1583150822941
 30
0.0
 10
94.12818142268765
 20
130.1006091199791
 30
0.0
 10
94.17654677754825
 20
130.030845313645
 30
0.0
 10
94.21894036619068
 20
129.9667012099678
 30
0.0
 10
94.24687452695975
 20
129.8989797953017
 30
0.0
 10
94.28487050463463
 20
129.8177202997649
 30
0.0
 10
94.30059896228176
 20
129.7090071673338
 30
0.0
 10
94.28997251894514
 20
129.5966421142883
 30
0.0
 10
94.26224246344764
 20
129.4970408305848
 30
0.0
 10
94.23315586474762
 20
129.4206290654407
 30
0.0
 10
94.19887384583029
 20
129.3541078834501
 30
0.0
 10
94.15800529852612
 20
129.311035412951
 30
0.0
 10
94.12965234298718
 20
129.2562691866035
 30
0.0
 10
94.07518994227002
 20
129.2114733537301
 30
0.0
 10
94.03103978246333
 20
129.1562015832761
 30
0.0
 10
93.98093854582356
 20
129.1087612349375
 30
0.0
 10
93.95269124651969
 20
129.0794911117158
 30
0.0
 10
93.93779858912598
 20
129.0671843677701
 30
0.0
  0
LINE
  5
750
102
{ACAD_REACTORS
330
755
102
}
330
18
100
AcDbEntity
  8
ROGO
 62
     4
100
AcDbLine
 10
93.08837656197766
 20
130.2321640376318
 30
0.0
 11
93.83883038516302
 21
130.2321640376318
 31
0.0
  0
LINE
  5
751
102
{ACAD_REACTORS
330
755
102
}
330
18
100
AcDbEntity
  8
ROGO
 62
     4
100
AcDbLine
 10
92.70409260043454
 20
128.913541887902
 30
0.0
 11
93.45454642361989
 21
128.913541887902
 31
0.0
  0
SPLINE
  5
752
102
{ACAD_REACTORS
330
755
102
}
330
18
100
AcDbEntity
  8
ROGO
 62
     4
100
AcDbSpline
210
0.0
220
0.0
230
1.0
 70
     8
 71
     3
 72
    11
 73
     7
 74
     0
 42
0.0000000001
 43
0.0000000001
 40
0.1647869275458134
 40
0.1647869275458134
 40
0.1647869275458134
 40
0.1647869275458134
 40
0.2895635144633836
 40
0.5387013147903714
 40
0.7953622617455423
 40
0.8850764140209602
 40
0.8850764140209602
 40
0.8850764140209602
 40
0.8850764140209602
 10
93.70456388223789
 20
128.9428183348106
 30
0.0
 10
93.69058533943706
 20
128.9389274020941
 30
0.0
 10
93.64724432800285
 20
128.9319998123102
 30
0.0
 10
93.5745455608648
 20
128.9224874179368
 30
0.0
 10
93.50544901876839
 20
128.9125608873522
 30
0.0
 10
93.46501832393977
 20
128.913340072259
 30
0.0
 10
93.45454642361989
 20
128.913541887902
 30
0.0
  0
SPLINE
  5
753
102
{ACAD_REACTORS
330
755
102
}
330
18
100
AcDbEntity
  8
ROGO
 62
     4
100
AcDbSpline
210
0.0
220
0.0
230
1.0
 70
     8
 71
     3
 72
     9
 73
     5
 74
     3
 42
0.0000000001
 43
0.0000000001
 44
0.0000000001
 40
0.0
 40
0.0
 40
0.0
 40
0.0
 40
0.1135793343552172
 40
0.2662938392177403
 40
0.2662938392177403
 40
0.2662938392177403
 40
0.2662938392177403
 10
93.70456388223789
 20
128.9428183348106
 30
0.0
 10
93.74104885055588
 20
128.9539806745338
 30
0.0
 10
93.82659013623333
 20
128.9801514767877
 30
0.0
 10
93.89726683347012
 20
129.0354637945622
 30
0.0
 10
93.93779858912598
 20
129.0671843677701
 30
0.0
 11
93.70456388223789
 21
128.9428183348106
 31
0.0
 11
93.81131464646257
 21
128.9816067290803
 31
0.0
 11
93.93779858912598
 21
129.0671843677701
 31
0.0
  0
ELLIPSE
  5
754
102
{ACAD_REACTORS
330
755
102
}
330
18
100
AcDbEntity
  8
ROGO
 62
     4
100
AcDbEllipse
 10
93.26083495660844
 20
129.5544680454128
 30
0.0
 11
0.1782847090673272
 21
0.1567790921840611
 31
0.0
210
0.0
220
0.0
230
1.0
 40
0.6788083417438792
 41
0.0
 42
6.283185307179586
  0
HATCH
  5
755
330
18
100
AcDbEntity
  8
ROGO
 62
     4
100
AcDbHatch
 10
0.0
 20
0.0
 30
0.0
210
0.0
220
0.0
230
1.0
  2
SOLID
 70
     1
 71
     1
 91
        2
 92
        5
 93
        6
 72
     4
 94
        3
 73
     0
 74
     0
 95
       38
 96
       34
 40
0.0
 40
0.0
 40
0.0
 40
0.0
 40
0.1807680148264315
 40
0.2375392910068956
 40
0.3104865209606666
 40
0.3712759982447967
 40
0.4225667543873086
 40
0.4906925837206108
 40
0.5255021974951917
 40
0.5647069597052341
 40
0.6224874016818802
 40
0.6879401044675095
 40
0.7303986317550742
 40
0.7765228362185411
 40
0.8277951442290131
 40
0.9056034697002088
 40
0.9795294930264065
 40
1.013897332332966
 40
1.053089255535997
 40
1.099518741889617
 40
1.132570569820712
 40
1.160277520290289
 40
1.199836786293819
 40
1.243305643169098
 40
1.286774258016923
 40
1.324809356515634
 40
1.411916492917604
 40
1.446284332224164
 40
1.515020051661159
 40
1.575779369908333
 40
1.692098529536163
 40
1.835624328519076
 40
2.042896467983821
 40
2.042896467983821
 40
2.042896467983821
 40
2.042896467983821
 10
93.08837656197766
 20
130.2321640376318
 10
93.028121164352
 20
130.2279074185309
 10
92.94894219873089
 20
130.2223139827437
 10
92.84840342622125
 20
130.1947693565388
 10
92.79359867178028
 20
130.1619548370809
 10
92.73656337046309
 20
130.1378345923804
 10
92.6879354640781
 20
130.1021172931312
 10
92.63874936338227
 20
130.0837125129376
 10
92.60430775000635
 20
130.0505254045652
 10
92.56444439187347
 20
130.0302532863901
 10
92.53270049203818
 20
129.9848783923757
 10
92.49721981550633
 20
129.9424545107173
 10
92.45605776709934
 20
129.9114869691397
 10
92.42227552153989
 20
129.8789619901775
 10
92.39128500861554
 20
129.8287661749935
 10
92.37294343604444
 20
129.7620708003079
 10
92.32124162163508
 20
129.7199617460228
 10
92.31345694715201
 20
129.6693340983466
 10
92.28485909695638
 20
129.639464638156
 10
92.27242375150044
 20
129.6009074561709
 10
92.26768777337658
 20
129.5655822668502
 10
92.26200347033403
 20
129.5325909854219
 10
92.24713441010171
 20
129.4978856146841
 10
92.25198772266304
 20
129.4550153357492
 10
92.25060515962091
 20
129.4135026217226
 10
92.25141879959414
 20
129.3574591651112
 10
92.24848226024825
 20
129.3028939681917
 10
92.27190001076307
 20
129.2435140920232
 10
92.28575785836609
 20
129.1905851473568
 10
92.32370982830952
 20
129.1172986051052
 10
92.38917618112754
 20
129.0327417813963
 10
92.51366592714504
 20
128.9301058181036
 10
92.63336645770436
 20
128.9196938773863
 10
92.70409260043454
 20
128.913541887902
 72
     1
 10
92.7040926004345
 20
128.913541887902
 11
93.45454642362014
 21
128.913541887902
 72
     4
 94
        3
 73
     0
 74
     0
 95
       11
 96
        7
 40
0.1647869275458135
 40
0.1647869275458135
 40
0.1647869275458135
 40
0.1647869275458135
 40
0.2545010798212315
 40
0.5111620267764023
 40
0.7602998271033902
 40
0.8850764140209603
 40
0.8850764140209603
 40
0.8850764140209603
 40
0.8850764140209603
 10
93.45454642361989
 20
128.913541887902
 10
93.46501832393977
 20
128.913340072259
 10
93.50544901876839
 20
128.9125608873522
 10
93.5745455608648
 20
128.9224874179368
 10
93.64724432800285
 20
128.9319998123102
 10
93.69058533943706
 20
128.9389274020941
 10
93.70456388223789
 20
128.9428183348106
 72
     4
 94
        3
 73
     0
 74
     0
 95
        9
 96
        5
 40
0.0
 40
0.0
 40
0.0
 40
0.0
 40
0.1135793343552172
 40
0.2662938392177403
 40
0.2662938392177403
 40
0.2662938392177403
 40
0.2662938392177403
 10
93.70456388223789
 20
128.9428183348106
 10
93.74104885055588
 20
128.9539806745338
 10
93.82659013623333
 20
128.9801514767877
 10
93.89726683347012
 20
129.0354637945622
 10
93.93779858912598
 20
129.0671843677701
 72
     4
 94
        3
 73
     0
 74
     0
 95
       25
 96
       21
 40
0.0
 40
0.0
 40
0.0
 40
0.0
 40
0.165525918914855
 40
0.3412380755365305
 40
0.5940540902285263
 40
0.7697671103696209
 40
0.9377330196075423
 40
1.11479469302833
 40
1.274661249598185
 40
1.574522170874768
 40
1.815540668866877
 40
2.15849091873445
 40
2.536227739636605
 40
2.738070817316548
 40
2.925680654369045
 40
3.162706124480894
 40
3.395643218188267
 40
3.648478129958861
 40
3.928509979727306
 40
4.337226830236035
 40
4.337226830236035
 40
4.337226830236035
 40
4.337226830236035
 10
93.93779858912598
 20
129.0671843677701
 10
93.95269124651969
 20
129.0794911117158
 10
93.98093854582356
 20
129.1087612349375
 10
94.03103978246333
 20
129.1562015832761
 10
94.07518994227002
 20
129.2114733537301
 10
94.12965234298718
 20
129.2562691866035
 10
94.15800529852612
 20
129.311035412951
 10
94.19887384583029
 20
129.3541078834501
 10
94.23315586474762
 20
129.4206290654407
 10
94.26224246344764
 20
129.4970408305848
 10
94.28997251894514
 20
129.5966421142883
 10
94.30059896228176
 20
129.7090071673338
 10
94.28487050463463
 20
129.8177202997649
 10
94.24687452695975
 20
129.8989797953017
 10
94.21894036619068
 20
129.9667012099678
 10
94.17654677754825
 20
130.030845313645
 10
94.12818142268765
 20
130.1006091199791
 10
94.06004320192819
 20
130.1583150822941
 10
93.97099354330709
 20
130.2279177716696
 10
93.88805043558859
 20
130.2305826481756
 10
93.83883038516302
 20
130.2321640376318
 72
     1
 10
93.83883038516302
 20
130.2321640376318
 11
93.0883765619777
 21
130.2321640376318
 97
        6
330
74F
330
750
330
74E
330
751
330
752
330
753
 92
       20
 93
        1
 72
     3
 10
93.26083495660844
 20
129.5544680454128
 11
0.1782847090673273
 21
0.1567790921840611
 40
0.6788083417438792
 50
0.0
 51
360.0
 73
     1
 97
        1
330
754
 75
     0
 76
     1
 47
0.088756267210375
 98
        2
 10
93.31326623237709
 20
129.8679553157368
 10
93.31326623237709
 20
129.8679553157368
450
        0
451
        0
460
0.0
461
0.0
452
        0
462
0.0
453
        0
470

  0
MTEXT
  5
765
330
18
100
AcDbEntity
  8
DEFPOINTS
  6
Continuous
100
AcDbMText
 10
1504.060820754403
 20
528.2907445159992
 30
0.0
 40
1.0
 41
0.0
 71
     4
 72
     1
  1
\A1;
 73
     1
 44
1.0
  0
MTEXT
  5
766
330
18
100
AcDbEntity
  8
文字
100
AcDbMText
 10
1071.200030312402
 20
554.3687267542331
 30
0.0
 40
1.0
 41
6.927999999999999
 71
     1
 72
     5
  1

  7
STYLE3
 73
     1
 44
1.0
  0
MTEXT
  5
767
330
18
100
AcDbEntity
  8
DEFPOINTS
  6
Continuous
100
AcDbMText
 10
1392.935839967544
 20
477.616278041684
 30
0.0
 40
0.35
 41
0.0
 71
     4
 72
     1
  1
\A1;
 73
     1
 44
1.0
  0
TEXT
  5
76A
330
18
100
AcDbEntity
  8
文字
100
AcDbText
 10
94.46441509686469
 20
106.4574688823552
 30
0.0
 40
1.0
  1
S
 50
15.67587255903648
  7
STYLE3
100
AcDbText
  0
TEXT
  5
76B
330
18
100
AcDbEntity
  8
文字
100
AcDbText
 10
95.2959420849765
 20
106.7623191857429
 30
0.0
 40
1.0
  1
H
 50
17.26569417237674
  7
STYLE3
100
AcDbText
  0
TEXT
  5
76C
330
18
100
AcDbEntity
  8
文字
100
AcDbText
 10
96.1818228535505
 20
107.128452814972
 30
0.0
 40
1.0
  1
O
 50
17.43680270337727
  7
STYLE3
100
AcDbText
  0
TEXT
  5
76D
330
18
100
AcDbEntity
  8
文字
100
AcDbText
 10
97.11688974164673
 20
107.5798860864155
 30
0.0
 40
1.0
  1
C
 50
21.36308033772126
  7
STYLE3
100
AcDbText
  0
TEXT
  5
76E
330
18
100
AcDbEntity
  8
文字
100
AcDbText
 10
98.05881453392267
 20
108.0236463800893
 30
0.0
 40
1.0
  1
K
 50
26.82125913374902
  7
STYLE3
100
AcDbText
  0
TEXT
  5
76F
330
18
100
AcDbEntity
  8
文字
100
AcDbText
 10
99.4287265833122
 20
108.9751567062567
 30
0.0
 40
1.0
  1
P
 50
38.91640535989388
  7
STYLE3
100
AcDbText
  0
TEXT
  5
770
330
18
100
AcDbEntity
  8
文字
100
AcDbText
 10
100.1569661126058
 20
109.6592312193899
 30
0.0
 40
1.0
  1
R
 50
41.73785928080957
  7
STYLE3
100
AcDbText
  0
TEXT
  5
771
330
18
100
AcDbEntity
  8
文字
100
AcDbText
 10
100.9171529444212
 20
110.3712715276306
 30
0.0
 40
1.0
  1
O
 50
43.41364999842531
  7
STYLE3
100
AcDbText
  0
TEXT
  5
772
330
18
100
AcDbEntity
  8
文字
100
AcDbText
 10
101.6782406616724
 20
111.1820909650611
 30
0.0
 40
1.0
  1
O
 50
43.32543032787768
  7
STYLE3
100
AcDbText
  0
TEXT
  5
773
330
18
100
AcDbEntity
  8
文字
100
AcDbText
 10
102.4783006832576
 20
111.978383069388
 30
0.0
 40
1.0
  1
F
 50
50.96742182377336
  7
STYLE3
100
AcDbText
  0
CIRCLE
  5
7AA
330
18
100
AcDbEntity
  8
針
100
AcDbCircle
 10
90.39164824073003
 20
120.8617201773529
 30
0.0
 40
1.9
  0
CIRCLE
  5
7AB
330
18
100
AcDbEntity
  8
針
100
AcDbCircle
 10
90.39164824073003
 20
120.8617201773529
 30
0.0
 40
1.5
  0
POINT
  5
7AC
330
18
100
AcDbEntity
  8
DEFPOINTS
  6
ByBlock
 62
     0
100
AcDbPoint
 10
90.39164824073003
 20
120.8617201773529
 30
0.0
  0
POINT
  5
7AD
330
18
100
AcDbEntity
  8
DEFPOINTS
  6
ByBlock
 62
     0
100
AcDbPoint
 10
90.39164824073003
 20
120.8617201773529
 30
0.0
  0
CIRCLE
  5
7AE
330
18
100
AcDbEntity
  8
針
100
AcDbCircle
 10
90.39164824073003
 20
120.8617201773529
 30
0.0
 40
0.475
  0
ARC
  5
7AF
330
18
100
AcDbEntity
  8
針
100
AcDbCircle
 10
85.65776394820346
 20
121.2526671110542
 30
0.0
 40
3.0
100
AcDbArc
 50
6.527720822960354
 51
36.00000000000001
  0
HATCH
  5
7B0
330
18
100
AcDbEntity
  8
針
100
AcDbHatch
 10
0.0
 20
0.0
 30
0.0
210
0.0
220
0.0
230
1.0
  2
SOLID
 70
     1
 71
     0
 91
        2
 92
        7
 72
     1
 73
     1
 93
        5
 10
77.53318421978923
 20
138.7129947263081
 42
0.0
 10
77.46037269029551
 20
138.6600940536019
 42
0.0
 10
77.38756116080179
 20
138.6071933808955
 42
0.0
 10
81.0675618669971
 20
133.2436187916677
 42
-0.0085634322047721
 10
81.49706402598344
 20
133.5556703760413
 42
0.0
 97
        0
 92
        7
 72
     1
 73
     1
 93
        6
 10
81.49706402598344
 20
133.5556703760413
 42
0.0085634322047721
 10
81.0675618669971
 20
133.2436187916677
 42
0.0
 10
88.08481493132848
 20
123.0160228679312
 42
-0.1293106770632391
 10
88.63831485656277
 20
121.5937188412622
 42
-0.2805221108582334
 10
90.23728595401228
 20
122.7554393446107
 42
-0.1293106770632486
 10
89.05563532457852
 20
123.7213651706823
 42
0.0
 97
        0
 75
     0
 76
     1
 47
0.0423559757596284
 98
        2
 10
80.88021853927688
 20
133.8840705629069
 10
83.57230476513171
 20
130.3950796743991
450
        0
451
        0
460
0.0
461
0.0
452
        0
462
0.0
453
        0
470

  0
LINE
  5
7B1
330
18
100
AcDbEntity
  8
針
100
AcDbLine
 10
77.38756116080179
 20
138.6071933808955
 30
0.0
 11
88.08481493132825
 21
123.0160228679316
 31
0.0
  0
ARC
  5
7B2
330
18
100
AcDbEntity
  8
針
100
AcDbCircle
 10
91.48268630770321
 20
125.48472092756
 30
0.0
 40
3.0
100
AcDbArc
 50
216.0
 51
245.4722791770396
  0
LINE
  5
7B3
330
18
100
AcDbEntity
  8
針
100
AcDbLine
 10
77.46037269029551
 20
138.6600940536018
 30
0.0
 11
77.38756116080179
 21
138.6071933808955
 31
0.0
  0
LINE
  5
7B4
330
18
100
AcDbEntity
  8
針
100
AcDbLine
 10
77.46037269029551
 20
138.6600940536019
 30
0.0
 11
77.53318421978923
 21
138.7129947263081
 31
0.0
  0
LINE
  5
7B5
330
18
100
AcDbEntity
  8
針
100
AcDbLine
 10
77.53318421978923
 20
138.7129947263081
 30
0.0
 11
89.05563532457831
 21
123.7213651706826
 31
0.0
  0
POINT
  5
7BC
330
18
100
AcDbEntity
  8
DEFPOINTS
  6
ByBlock
 62
     0
100
AcDbPoint
 10
67.39164824073004
 20
120.8617201773529
 30
0.0
  0
POINT
  5
7BD
330
18
100
AcDbEntity
  8
DEFPOINTS
  6
ByBlock
 62
     0
100
AcDbPoint
 10
113.39164824073
 20
120.8617201773529
 30
0.0
  0
TEXT
  5
7CA
330
18
100
AcDbEntity
  8
文字
100
AcDbText
 10
96.4601835609838
 20
120.3297702719058
 30
0.0
 40
1.0
  1
0.01mm
  7
STYLE3
100
AcDbText
  0
HATCH
  5
7FC
330
18
100
AcDbEntity
  8
針
100
AcDbHatch
 10
0.0
 20
0.0
 30
0.0
210
0.0
220
0.0
230
1.0
  2
SOLID
 70
     1
 71
     0
 91
        2
 92
        7
 72
     1
 73
     1
 93
        5
 10
87.54432253037412
 20
109.7458174603183
 42
0.31735696877887
 10
88.29152108050625
 20
110.7710234460379
 42
0.0
 10
87.93019040322354
 20
111.03773149613
 42
0.0
 10
87.9020559490395
 20
111.0282085087782
 42
-0.4142135623731173
 10
87.43210798366915
 20
110.0773410575295
 42
0.0
 97
        0
 92
        7
 72
     1
 73
     1
 93
        4
 10
87.54432253037412
 20
109.7458174603183
 42
0.0
 10
87.43210798366915
 20
110.0773410575295
 42
-0.4142135623730728
 10
86.48124053242048
 20
110.5472890228998
 42
0.0
 10
86.14971693520937
 20
110.4350744761948
 42
0.4142135623730844
 97
        0
 75
     0
 76
     1
 47
0.0161501285364394
 98
        2
 10
87.85319525255607
 20
110.0914189634354
 10
87.17440018163888
 20
109.8787094214848
450
        0
451
        0
460
0.0
461
0.0
452
        0
462
0.0
453
        0
470

  0
HATCH
  5
7FD
330
18
100
AcDbEntity
  8
針
100
AcDbHatch
 10
0.0
 20
0.0
 30
0.0
210
0.0
220
0.0
230
1.0
  2
SOLID
 70
     1
 71
     0
 91
        4
 92
        7
 72
     1
 73
     1
 93
        4
 10
86.10373079103174
 20
110.9503391180816
 42
0.0
 10
86.44988634320844
 20
110.8986058241863
 42
-0.4142135623730951
 10
87.30250529907705
 20
111.5295106633604
 42
0.0
 10
87.35423859297242
 20
111.8756662155371
 42
0.4142135623730996
 97
        0
 92
        7
 72
     1
 73
     1
 93
        5
 10
86.44988634320844
 20
110.8986058241863
 42
0.0
 10
86.10373079103174
 20
110.9503391180816
 42
0.3173569687788799
 10
86.67402287236035
 20
109.8171489626141
 42
0.0
 10
87.07640088256942
 20
110.0166106863347
 42
0.0
 10
87.08079118238259
 20
110.0459868683175
 42
-0.4142135623730839
 97
        0
 92
        7
 72
     1
 73
     1
 93
        4
 10
87.35423859297242
 20
111.8756662155371
 42
0.0
 10
87.30250529907705
 20
111.5295106633604
 42
-0.4142135623730951
 10
87.93341013825141
 20
110.6768917074918
 42
0.0
 10
88.279565690428
 20
110.6251584135965
 42
0.4142135623730996
 97
        0
 92
        7
 72
     1
 73
     1
 93
        4
 10
87.93341013825141
 20
110.6768917074918
 42
-0.1036385141593389
 10
87.8265183081425
 20
110.3884493825395
 42
0.0
 10
88.27751994602062
 20
110.6120141942578
 42
0.003023315109616
 10
88.279565690428
 20
110.6251584135965
 42
0.0
 97
        0
 75
     0
 76
     1
 47
0.0223982890607777
 98
        4
 10
86.68759273973085
 20
111.6395039539076
 10
86.36023775246821
 20
110.5098647528046
 10
87.61902808992198
 20
111.6589524247143
 10
88.00489954665142
 20
110.6040379780012
450
        0
451
        0
460
0.0
461
0.0
452
        0
462
0.0
453
        0
470

  0
CIRCLE
  5
7FE
330
18
100
AcDbEntity
  8
針
100
AcDbCircle
 10
87.19164824072999
 20
110.787748765839
 30
0.0
 40
1.1
  0
CIRCLE
  5
7FF
330
18
100
AcDbEntity
  8
針
100
AcDbCircle
 10
87.19164824072999
 20
110.787748765839
 30
0.0
 40
0.75
  0
HATCH
  5
800
330
18
100
AcDbEntity
  8
針
100
AcDbHatch
 10
0.0
 20
0.0
 30
0.0
210
0.0
220
0.0
230
1.0
  2
SOLID
 70
     1
 71
     0
 91
        1
 92
        7
 72
     1
 73
     1
 93
        7
 10
87.29164824073
 20
115.4877487658391
 42
0.0
 10
87.19164824072988
 20
115.487748765839
 42
0.0
 10
87.09164824072985
 20
115.487748765839
 42
0.0
 10
87.04673988309156
 20
112.2451181111686
 42
-0.2935495917910092
 10
86.74830670655472
 20
111.7944504515804
 42
-0.2104432563350663
 10
87.63498909528783
 20
111.7944507508772
 42
-0.2935491884945053
 10
87.33655659836831
 20
112.2451181111685
 42
0.0
 97
        0
 75
     0
 76
     1
 47
0.0140573597042523
 98
        1
 10
87.25024995662733
 20
113.6823088111392
450
        0
451
        0
460
0.0
461
0.0
452
        0
462
0.0
453
        0
470

  0
LINE
  5
801
330
18
100
AcDbEntity
  8
針
100
AcDbLine
 10
87.33655659836831
 20
112.2451181111686
 30
0.0
 11
87.2916482407299
 21
115.487748765839
 31
0.0
  0
LINE
  5
802
330
18
100
AcDbEntity
  8
針
100
AcDbLine
 10
87.04673988309156
 20
112.2451181111686
 30
0.0
 11
87.09164824072985
 21
115.487748765839
 31
0.0
  0
CIRCLE
  5
803
330
18
100
AcDbEntity
  8
針
 62
     4
100
AcDbCircle
 10
87.19164824072999
 20
110.787748765839
 30
0.0
 40
0.4
  0
ARC
  5
804
330
18
100
AcDbEntity
  8
針
100
AcDbCircle
 10
87.83650865407542
 20
112.2520421269171
 30
0.0
 40
0.5
100
AcDbArc
 50
180.7934591207347
 51
246.2317787024804
  0
ARC
  5
805
330
18
100
AcDbEntity
  8
針
100
AcDbCircle
 10
86.54678782738432
 20
112.2520421269171
 30
0.0
 40
0.5
100
AcDbArc
 50
293.7682212975196
 51
359.2065408792653
  0
LINE
  5
806
330
18
100
AcDbEntity
  8
文字
100
AcDbLine
 10
87.2916482407299
 20
115.487748765839
 30
0.0
 11
87.09164824072985
 21
115.487748765839
 31
0.0
  0
LINE
  5
807
330
18
100
AcDbEntity
  8
ﾊｯﾁﾝｸ
  6
Continuous
100
AcDbLine
 10
86.39164824073004
 20
153.6282139736506
 30
0.0
 11
86.6251544444322
 21
153.8617201773528
 31
0.0
  0
LINE
  5
808
330
18
100
AcDbEntity
  8
ﾊｯﾁﾝｸ
  6
Continuous
100
AcDbLine
 10
86.39164824073004
 20
151.8604470206842
 30
0.0
 11
88.39292139739853
 21
153.8617201773528
 31
0.0
  0
LINE
  5
809
330
18
100
AcDbEntity
  8
ﾊｯﾁﾝｸ
  6
Continuous
100
AcDbLine
 10
86.39164824073004
 20
150.0926800677178
 30
0.0
 11
90.16068835036497
 21
153.8617201773528
 31
0.0
  0
LINE
  5
80A
330
18
100
AcDbEntity
  8
ﾊｯﾁﾝｸ
  6
Continuous
100
AcDbLine
 10
86.39164824073004
 20
148.3249131147515
 30
0.0
 11
90.39164824073003
 21
152.3249131147515
 31
0.0
  0
LINE
  5
80B
330
18
100
AcDbEntity
  8
ﾊｯﾁﾝｸ
  6
Continuous
100
AcDbLine
 10
87.69622225629763
 20
147.8617201773527
 30
0.0
 11
90.39164824073003
 21
150.5571461617851
 31
0.0
  0
LINE
  5
80C
330
18
100
AcDbEntity
  8
ﾊｯﾁﾝｸ
  6
Continuous
100
AcDbLine
 10
89.46398920926407
 20
147.8617201773527
 30
0.0
 11
90.39164824073003
 21
148.7893792088187
 31
0.0
  0
LINE
  5
80D
330
18
100
AcDbEntity
  8
ﾊｯﾁﾝｸ
  6
Continuous
100
AcDbLine
 10
86.44319388704905
 20
147.8617201773527
 30
0.0
 11
86.39164824073004
 21
147.9132658236717
 31
0.0
  0
LINE
  5
80E
330
18
100
AcDbEntity
  8
ﾊｯﾁﾝｸ
  6
Continuous
100
AcDbLine
 10
88.21096084001528
 20
147.8617201773527
 30
0.0
 11
86.39164824073004
 21
149.6810327766381
 31
0.0
  0
LINE
  5
80F
330
18
100
AcDbEntity
  8
ﾊｯﾁﾝｸ
  6
Continuous
100
AcDbLine
 10
89.97872779298171
 20
147.8617201773527
 30
0.0
 11
86.39164824073004
 21
151.4487997296044
 31
0.0
  0
LINE
  5
810
330
18
100
AcDbEntity
  8
ﾊｯﾁﾝｸ
  6
Continuous
100
AcDbLine
 10
90.39164824073003
 20
149.2165666825707
 30
0.0
 11
86.39164824073004
 21
153.2165666825707
 31
0.0
  0
LINE
  5
811
330
18
100
AcDbEntity
  8
ﾊｯﾁﾝｸ
  6
Continuous
100
AcDbLine
 10
90.39164824073003
 20
150.9843336355372
 30
0.0
 11
87.51426169891436
 21
153.8617201773528
 31
0.0
  0
LINE
  5
812
330
18
100
AcDbEntity
  8
ﾊｯﾁﾝｸ
  6
Continuous
100
AcDbLine
 10
90.39164824073003
 20
152.7521005885035
 30
0.0
 11
89.28202865188081
 21
153.8617201773527
 31
0.0
  0
LINE
  5
11CF
330
18
100
AcDbEntity
  8
中心線
100
AcDbLine
 10
188.7950908730032
 20
165.0319010140314
 30
0.0
 11
188.7950908730032
 21
45.50924331464327
 31
0.0
  0
ARC
  5
1664
330
18
100
AcDbEntity
  8
外形線
  6
Continuous
100
AcDbCircle
 10
279.9617575396696
 20
120.8617201773529
 30
0.0
 40
105.6666666666664
100
AcDbArc
 50
166.3144531747381
 51
193.685546825262
  0
LINE
  5
1665
330
18
100
AcDbEntity
  8
外形線
  6
Continuous
100
AcDbLine
 10
177.2950908730033
 20
145.8617201773529
 30
0.0
 11
177.2950908730033
 21
95.86172017735297
 31
0.0
  0
LINE
  5
1666
330
18
100
AcDbEntity
  8
外形線
  6
Continuous
100
AcDbLine
 10
178.4950908730033
 20
147.2617201773529
 30
0.0
 11
178.4950908730033
 21
94.46172017735298
 31
0.0
  0
LINE
  5
1667
330
18
100
AcDbEntity
  8
外形線
  6
Continuous
100
AcDbLine
 10
182.2950908730033
 20
147.2617201773529
 30
0.0
 11
182.2950908730033
 21
94.46172017735298
 31
0.0
  0
LINE
  5
1668
330
18
100
AcDbEntity
  8
外形線
  6
Continuous
100
AcDbLine
 10
183.7950908730033
 20
145.8617201773529
 30
0.0
 11
183.7950908730033
 21
95.86172017735297
 31
0.0
  0
LINE
  5
1669
330
18
100
AcDbEntity
  8
外形線
  6
Continuous
100
AcDbLine
 10
178.4950908730033
 20
95.36172017735296
 30
0.0
 11
177.2950908730033
 21
95.86172017735297
 31
0.0
  0
LINE
  5
166A
330
18
100
AcDbEntity
  8
外形線
  6
CENTER2
100
AcDbLine
 10
183.7950908730033
 20
95.86172017735297
 30
0.0
 11
182.2950908730033
 21
95.86172017735297
 31
0.0
  0
LINE
  5
166B
330
18
100
AcDbEntity
  8
外形線
  6
Continuous
100
AcDbLine
 10
178.4950908730033
 20
94.46172017735298
 30
0.0
 11
182.2950908730033
 21
94.46172017735298
 31
0.0
  0
LINE
  5
166C
330
18
100
AcDbEntity
  8
外形線
  6
Continuous
 62
     4
100
AcDbLine
 10
178.4950908730033
 20
98.46172017735298
 30
0.0
 11
182.2950908730033
 21
98.46172017735298
 31
0.0
  0
LINE
  5
166D
330
18
100
AcDbEntity
  8
外形線
  6
Continuous
 62
     4
100
AcDbLine
 10
178.4950908730033
 20
97.46172017735299
 30
0.0
 11
182.2950908730033
 21
97.46172017735299
 31
0.0
  0
LINE
  5
166E
330
18
100
AcDbEntity
  8
外形線
  6
Continuous
 62
     4
100
AcDbLine
 10
178.4950908730033
 20
96.46172017735299
 30
0.0
 11
182.2950908730033
 21
96.46172017735299
 31
0.0
  0
LINE
  5
166F
330
18
100
AcDbEntity
  8
外形線
  6
Continuous
 62
     4
100
AcDbLine
 10
178.4950908730033
 20
95.46172017735299
 30
0.0
 11
182.2950908730033
 21
95.46172017735299
 31
0.0
  0
ARC
  5
1670
330
18
100
AcDbEntity
  8
外形線
  6
Continuous
100
AcDbCircle
 10
188.7950908730032
 20
155.0167201773531
 30
0.0
 40
7.344999999999885
100
AcDbArc
 50
59.75198538337879
 51
120.2480146166218
  0
LINE
  5
1671
330
18
100
AcDbEntity
  8
外形線
  6
Continuous
100
AcDbLine
 10
178.4950908730033
 20
146.3617201773529
 30
0.0
 11
177.2950908730033
 21
145.8617201773529
 31
0.0
  0
LINE
  5
1672
330
18
100
AcDbEntity
  8
外形線
  6
Continuous
 62
     4
100
AcDbLine
 10
178.4950908730033
 20
99.461720177353
 30
0.0
 11
182.2950908730033
 21
99.461720177353
 31
0.0
  0
LINE
  5
1673
330
18
100
AcDbEntity
  8
外形線
  6
Continuous
 62
     4
100
AcDbLine
 10
182.2950908730033
 20
118.8617201773529
 30
0.0
 11
178.4950908730033
 21
118.8617201773529
 31
0.0
  0
LINE
  5
1674
330
18
100
AcDbEntity
  8
外形線
  6
Continuous
 62
     4
100
AcDbLine
 10
182.2950908730033
 20
119.8617201773529
 30
0.0
 11
178.4950908730033
 21
119.8617201773529
 31
0.0
  0
LINE
  5
1675
330
18
100
AcDbEntity
  8
外形線
  6
Continuous
 62
     4
100
AcDbLine
 10
182.2950908730033
 20
120.8617201773529
 30
0.0
 11
178.4950908730033
 21
120.8617201773529
 31
0.0
  0
LINE
  5
1676
330
18
100
AcDbEntity
  8
外形線
  6
Continuous
 62
     4
100
AcDbLine
 10
182.2950908730033
 20
121.8617201773529
 30
0.0
 11
178.4950908730033
 21
121.8617201773529
 31
0.0
  0
LINE
  5
1677
330
18
100
AcDbEntity
  8
外形線
  6
Continuous
 62
     4
100
AcDbLine
 10
182.2950908730033
 20
123.8617201773529
 30
0.0
 11
178.4950908730033
 21
123.8617201773529
 31
0.0
  0
LINE
  5
1678
330
18
100
AcDbEntity
  8
外形線
  6
Continuous
 62
     4
100
AcDbLine
 10
182.2950908730033
 20
122.8617201773529
 30
0.0
 11
178.4950908730033
 21
122.8617201773529
 31
0.0
  0
LINE
  5
1679
330
18
100
AcDbEntity
  8
外形線
  6
Continuous
 62
     4
100
AcDbLine
 10
178.4950908730033
 20
142.2617201773529
 30
0.0
 11
182.2950908730033
 21
142.2617201773529
 31
0.0
  0
LINE
  5
167A
330
18
100
AcDbEntity
  8
外形線
  6
Continuous
 62
     4
100
AcDbLine
 10
178.4950908730033
 20
143.2617201773529
 30
0.0
 11
182.2950908730033
 21
143.2617201773529
 31
0.0
  0
LINE
  5
167B
330
18
100
AcDbEntity
  8
外形線
  6
Continuous
 62
     4
100
AcDbLine
 10
178.4950908730033
 20
144.2617201773529
 30
0.0
 11
182.2950908730033
 21
144.2617201773529
 31
0.0
  0
LINE
  5
167C
330
18
100
AcDbEntity
  8
外形線
  6
Continuous
 62
     4
100
AcDbLine
 10
178.4950908730033
 20
145.2617201773529
 30
0.0
 11
182.2950908730033
 21
145.2617201773529
 31
0.0
  0
LINE
  5
167D
330
18
100
AcDbEntity
  8
外形線
  6
Continuous
100
AcDbLine
 10
192.4950908730032
 20
161.3617201773529
 30
0.0
 11
185.0950908730032
 21
161.3617201773529
 31
0.0
  0
LINE
  5
167E
330
18
100
AcDbEntity
  8
外形線
  6
Continuous
100
AcDbLine
 10
192.7950908730032
 20
154.8617201773529
 30
0.0
 11
184.7950908730032
 21
154.8617201773529
 31
0.0
  0
LINE
  5
167F
330
18
100
AcDbEntity
  8
外形線
  6
Continuous
100
AcDbLine
 10
192.7950908730032
 20
148.8617201773529
 30
0.0
 11
184.7950908730032
 21
148.8617201773529
 31
0.0
  0
LINE
  5
1680
330
18
100
AcDbEntity
  8
外形線
  6
Continuous
100
AcDbLine
 10
192.7950908730032
 20
154.8617201773529
 30
0.0
 11
192.7950908730032
 21
148.8617201773529
 31
0.0
  0
LINE
  5
1681
330
18
100
AcDbEntity
  8
外形線
  6
Continuous
100
AcDbLine
 10
192.4950908730032
 20
148.8617201773529
 30
0.0
 11
192.4950908730032
 21
145.3617201773529
 31
0.0
  0
LINE
  5
1682
330
18
100
AcDbEntity
  8
外形線
  6
Continuous
100
AcDbLine
 10
192.4950908730032
 20
161.3617201773529
 30
0.0
 11
192.4950908730032
 21
154.8617201773529
 31
0.0
  0
LINE
  5
1683
330
18
100
AcDbEntity
  8
外形線
  6
Continuous
100
AcDbLine
 10
184.7950908730032
 20
154.8617201773529
 30
0.0
 11
184.7950908730032
 21
148.8617201773529
 31
0.0
  0
LINE
  5
1684
330
18
100
AcDbEntity
  8
外形線
  6
CENTER2
100
AcDbLine
 10
183.7950908730033
 20
145.8617201773529
 30
0.0
 11
182.2950908730033
 21
145.8617201773529
 31
0.0
  0
LINE
  5
1685
330
18
100
AcDbEntity
  8
外形線
  6
Continuous
100
AcDbLine
 10
185.0950908730032
 20
148.8617201773529
 30
0.0
 11
185.0950908730031
 21
145.3617201773529
 31
0.0
  0
LINE
  5
1686
330
18
100
AcDbEntity
  8
外形線
  6
Continuous
 62
     4
100
AcDbLine
 10
178.4950908730033
 20
146.2617201773529
 30
0.0
 11
182.2950908730033
 21
146.2617201773529
 31
0.0
  0
LINE
  5
1687
330
18
100
AcDbEntity
  8
外形線
  6
Continuous
100
AcDbLine
 10
178.4950908730033
 20
147.2617201773529
 30
0.0
 11
182.2950908730033
 21
147.2617201773529
 31
0.0
  0
LINE
  5
1688
330
18
100
AcDbEntity
  8
外形線
  6
Continuous
100
AcDbLine
 10
185.0950908730032
 20
161.3617201773529
 30
0.0
 11
185.0950908730032
 21
154.8617201773529
 31
0.0
  0
MTEXT
  5
1689
330
18
100
AcDbEntity
  8
DEFPOINTS
  6
Continuous
100
AcDbMText
 10
645.4935690273964
 20
340.0454593423085
 30
0.0
 40
1.0
 41
0.0
 71
     4
 72
     1
  1
\A1;
 73
     1
 44
1.0
  0
LINE
  5
168B
330
18
100
AcDbEntity
  8
外形線
100
AcDbLine
 10
183.7950908730033
 20
96.36172017735297
 30
0.0
 11
195.2950908730034
 21
96.36172017735297
 31
0.0
  0
LINE
  5
168C
330
18
100
AcDbEntity
  8
外形線
100
AcDbLine
 10
183.7950908730033
 20
145.3617201773529
 30
0.0
 11
195.2950908730034
 21
145.361720177353
 31
0.0
  0
LINE
  5
16B9
330
18
100
AcDbEntity
  8
中心線
100
AcDbLine
 10
169.4577767628387
 20
120.8617201773529
 30
0.0
 11
199.4086420600813
 21
120.8617201773529
 31
0.0
  0
MTEXT
  5
16E3
330
18
100
AcDbEntity
  8
文字
100
AcDbMText
 10
212.6327785853959
 20
366.1234415805426
 30
0.0
 40
1.0
 41
6.927999999999999
 71
     1
 72
     5
  1

  7
STYLE3
 73
     1
 44
1.0
  0
MTEXT
  5
1742
330
18
100
AcDbEntity
  8
DEFPOINTS
  6
Continuous
100
AcDbMText
 10
534.3685882405374
 20
289.3709928679935
 30
0.0
 40
0.35
 41
0.0
 71
     4
 72
     1
  1
\A1;
 73
     1
 44
1.0
  0
LINE
  5
1796
330
18
100
AcDbEntity
  8
外形線
100
AcDbLine
 10
196.3950908730033
 20
143.8617201773529
 30
0.0
 11
196.3950908730033
 21
97.86172017735296
 31
0.0
  0
LINE
  5
1797
330
18
100
AcDbEntity
  8
外形線
100
AcDbLine
 10
195.2950908730034
 20
143.8617201773529
 30
0.0
 11
196.3950908730033
 21
143.8617201773529
 31
0.0
  0
LINE
  5
1798
330
18
100
AcDbEntity
  8
外形線
100
AcDbLine
 10
195.2950908730034
 20
97.86172017735296
 30
0.0
 11
196.3950908730033
 21
97.86172017735296
 31
0.0
  0
POINT
  5
1799
330
18
100
AcDbEntity
  8
DEFPOINTS
  6
ByBlock
 62
     0
100
AcDbPoint
 10
196.3950908730033
 20
143.8617201773529
 30
0.0
  0
MTEXT
  5
179D
330
18
100
AcDbEntity
  8
DEFPOINTS
  6
Continuous
100
AcDbMText
 10
1145.932216399497
 20
515.2586478513102
 30
0.0
 40
1.0
 41
0.0
 71
     4
 72
     1
  1
\A1;
 73
     1
 44
1.0
  0
MTEXT
  5
179E
330
18
100
AcDbEntity
  8
文字
100
AcDbMText
 10
713.0714259574967
 20
541.3366300895443
 30
0.0
 40
1.0
 41
6.927999999999999
 71
     1
 72
     5
  1

  7
STYLE3
 73
     1
 44
1.0
  0
MTEXT
  5
179F
330
18
100
AcDbEntity
  8
DEFPOINTS
  6
Continuous
100
AcDbMText
 10
1034.807235612638
 20
464.5841813769951
 30
0.0
 40
0.35
 41
0.0
 71
     4
 72
     1
  1
\A1;
 73
     1
 44
1.0
  0
POINT
  5
17B1
330
18
100
AcDbEntity
  8
DEFPOINTS
  6
ByBlock
 62
     0
100
AcDbPoint
 10
174.2950908730032
 20
120.8617201773529
 30
0.0
  0
POINT
  5
17B2
330
18
100
AcDbEntity
  8
DEFPOINTS
  6
ByBlock
 62
     0
100
AcDbPoint
 10
188.7950908730032
 20
162.3617201773529
 30
0.0
  0
LINE
  5
17B4
330
18
100
AcDbEntity
  8
外形線
100
AcDbLine
 10
195.2950908730034
 20
145.361720177353
 30
0.0
 11
195.2950908730034
 21
96.36172017735297
 31
0.0
  0
POINT
  5
17DF
330
18
100
AcDbEntity
  8
DEFPOINTS
  6
ByBlock
 62
     0
100
AcDbPoint
 10
178.4950908730033
 20
94.46172017735298
 30
0.0
  0
POINT
  5
17FD
330
18
100
AcDbEntity
  8
DEFPOINTS
  6
ByBlock
 62
     0
100
AcDbPoint
 10
178.4950908730033
 20
147.2617201773529
 30
0.0
  0
POINT
  5
17FE
330
18
100
AcDbEntity
  8
DEFPOINTS
  6
ByBlock
 62
     0
100
AcDbPoint
 10
178.4950908730033
 20
94.46172017735298
 30
0.0
  0
POINT
  5
185D
330
18
100
AcDbEntity
  8
DEFPOINTS
  6
ByBlock
 62
     0
100
AcDbPoint
 10
188.7950908730032
 20
162.3617201773529
 30
0.0
  0
POINT
  5
185E
330
18
100
AcDbEntity
  8
DEFPOINTS
  6
ByBlock
 62
     0
100
AcDbPoint
 10
196.3950908730033
 20
143.8617201773529
 30
0.0
  0
LINE
  5
1860
330
18
100
AcDbEntity
  8
ﾊｯﾁﾝｸ
  6
Continuous
100
AcDbLine
 10
184.7950908730032
 20
154.6282139736506
 30
0.0
 11
185.0285970767054
 21
154.8617201773529
 31
0.0
  0
LINE
  5
1861
330
18
100
AcDbEntity
  8
ﾊｯﾁﾝｸ
  6
Continuous
100
AcDbLine
 10
184.7950908730032
 20
152.8604470206843
 30
0.0
 11
186.7963640296718
 21
154.8617201773529
 31
0.0
  0
LINE
  5
1862
330
18
100
AcDbEntity
  8
ﾊｯﾁﾝｸ
  6
Continuous
100
AcDbLine
 10
184.7950908730032
 20
151.0926800677179
 30
0.0
 11
188.5641309826382
 21
154.8617201773529
 31
0.0
  0
LINE
  5
1863
330
18
100
AcDbEntity
  8
ﾊｯﾁﾝｸ
  6
Continuous
100
AcDbLine
 10
184.7950908730032
 20
149.3249131147516
 30
0.0
 11
188.7950908730031
 21
153.3249131147516
 31
0.0
  0
LINE
  5
1864
330
18
100
AcDbEntity
  8
ﾊｯﾁﾝｸ
  6
Continuous
100
AcDbLine
 10
186.0996648885708
 20
148.8617201773529
 30
0.0
 11
188.7950908730031
 21
151.5571461617852
 31
0.0
  0
LINE
  5
1865
330
18
100
AcDbEntity
  8
ﾊｯﾁﾝｸ
  6
Continuous
100
AcDbLine
 10
187.8674318415372
 20
148.8617201773529
 30
0.0
 11
188.7950908730032
 21
149.7893792088189
 31
0.0
  0
LINE
  5
1866
330
18
100
AcDbEntity
  8
ﾊｯﾁﾝｸ
  6
Continuous
100
AcDbLine
 10
184.8466365193221
 20
148.8617201773529
 30
0.0
 11
184.7950908730032
 21
148.9132658236719
 31
0.0
  0
LINE
  5
1867
330
18
100
AcDbEntity
  8
ﾊｯﾁﾝｸ
  6
Continuous
100
AcDbLine
 10
186.6144034722886
 20
148.8617201773528
 30
0.0
 11
184.7950908730032
 21
150.6810327766382
 31
0.0
  0
LINE
  5
1868
330
18
100
AcDbEntity
  8
ﾊｯﾁﾝｸ
  6
Continuous
100
AcDbLine
 10
188.3821704252549
 20
148.8617201773529
 30
0.0
 11
184.7950908730033
 21
152.4487997296046
 31
0.0
  0
LINE
  5
1869
330
18
100
AcDbEntity
  8
ﾊｯﾁﾝｸ
  6
Continuous
100
AcDbLine
 10
188.7950908730032
 20
150.216566682571
 30
0.0
 11
184.7950908730032
 21
154.216566682571
 31
0.0
  0
LINE
  5
186A
330
18
100
AcDbEntity
  8
ﾊｯﾁﾝｸ
  6
Continuous
100
AcDbLine
 10
188.7950908730032
 20
151.9843336355373
 30
0.0
 11
185.9177043311877
 21
154.8617201773528
 31
0.0
  0
LINE
  5
186B
330
18
100
AcDbEntity
  8
ﾊｯﾁﾝｸ
  6
Continuous
100
AcDbLine
 10
188.7950908730032
 20
153.7521005885037
 30
0.0
 11
187.685471284154
 21
154.8617201773529
 31
0.0
  0
LINE
  5
186C
330
18
100
AcDbEntity
  8
外形線
 48
0.5
100
AcDbLine
 10
184.7950908730034
 20
96.36172017735297
 30
0.0
 11
184.7950908730034
 21
91.86172017735296
 31
0.0
  0
LINE
  5
186D
330
18
100
AcDbEntity
  8
外形線
 48
0.5
100
AcDbLine
 10
192.7950908730034
 20
96.36172017735297
 30
0.0
 11
192.7950908730034
 21
91.86172017735296
 31
0.0
  0
DIMENSION
  5
18CA
330
18
100
AcDbEntity
  8
外形線
100
AcDbDimension
  2
*D3
 10
125.6241041943306
 20
94.46172017735294
 30
0.0
 11
123.7491041943306
 21
120.8617201773529
 31
0.0
 70
    32
  1
φ53
 71
     5
 42
52.80000000000002
  3
STYLE3
100
AcDbAlignedDimension
 13
90.39164824073003
 23
147.2617201773529
 33
0.0
 14
90.39164824073003
 24
94.46172017735296
 34
0.0
 50
90.0
100
AcDbRotatedDimension
1001
ACAD
1000
DSTYLE
1002
{
1070
   271
1070
     2
1002
}
  0
DIMENSION
  5
18FC
330
18
100
AcDbEntity
  8
外形線
100
AcDbDimension
  2
*D4
 10
43.29900500668919
 20
48.76172017735298
 30
0.0
 11
41.42400500668917
 21
53.81172017735298
 31
0.0
 70
    32
 71
     5
 42
10.09999999999998
  3
STYLE3
100
AcDbAlignedDimension
 13
42.04900500668919
 23
58.86172017735296
 33
0.0
 14
89.89164824073004
 24
48.76172017735296
 34
0.0
 50
90.0
100
AcDbRotatedDimension
1001
ACAD
1000
DSTYLE
1002
{
1070
   271
1070
     2
1002
}
  0
DIMENSION
  5
1926
330
18
100
AcDbEntity
  8
外形線
100
AcDbDimension
  2
*D5
 10
52.20402155593603
 20
120.8617201773529
 30
0.0
 11
50.32902155593601
 21
141.6117201773529
 31
0.0
 70
    32
 71
     5
 42
41.4999999999999
  3
STYLE3
100
AcDbAlignedDimension
 13
90.39164824072992
 23
162.3617201773528
 33
0.0
 14
52.20402155593603
 24
120.8617201773529
 34
0.0
 50
90.0
100
AcDbRotatedDimension
1001
ACAD
1000
DSTYLE
1002
{
1070
   271
1070
     2
1002
}
  0
LINE
  5
1946
330
18
100
AcDbEntity
  8
0
  6
ByBlock
 62
     2
100
AcDbLine
 10
61.22032268641061
 20
120.8617201773529
 30
0.0
 11
50.95402155593603
 21
120.8617201773529
 31
0.0
  0
LINE
  5
1947
330
18
100
AcDbEntity
  8
0
  6
ByBlock
 62
     2
100
AcDbLine
 10
43.29900500668919
 20
58.86172017735296
 30
0.0
 11
60.39164824073001
 21
58.86172017735296
 31
0.0
  0
LINE
  5
1948
330
18
100
AcDbEntity
  8
0
  6
ByBlock
 62
     2
100
AcDbLine
 10
52.20402155593603
 20
118.3617201773529
 30
0.0
 11
52.20402155593603
 21
61.36172017735296
 31
0.0
  0
INSERT
  5
1949
330
18
100
AcDbEntity
  8
0
  6
ByBlock
 62
     2
100
AcDbBlockReference
  2
_OPEN
 10
52.20402155593603
 20
120.8617201773529
 30
0.0
 41
2.5
 42
2.5
 43
2.5
 50
90.0
  0
INSERT
  5
194A
330
18
100
AcDbEntity
  8
0
  6
ByBlock
 62
     2
100
AcDbBlockReference
  2
_OPEN
 10
52.20402155593603
 20
58.86172017735296
 30
0.0
 41
2.5
 42
2.5
 43
2.5
 50
270.0
  0
MTEXT
  5
194B
330
18
100
AcDbEntity
  8
0
  6
ByBlock
 62
     6
100
AcDbMText
 10
50.32902155593603
 20
89.86172017735297
 30
0.0
 40
2.5
 41
0.0
 71
     5
 72
     1
  1
\A1;62
  7
STYLE3
 11
0.0000000000000001
 21
1.0
 31
0.0
 73
     1
 44
1.0
  0
POINT
  5
194C
330
18
100
AcDbEntity
  8
DEFPOINTS
  6
ByBlock
 62
     0
100
AcDbPoint
 10
61.22032268641061
 20
120.8617201773529
 30
0.0
  0
POINT
  5
194D
330
18
100
AcDbEntity
  8
DEFPOINTS
  6
ByBlock
 62
     0
100
AcDbPoint
 10
43.29900500668919
 20
58.86172017735296
 30
0.0
  0
POINT
  5
194E
330
18
100
AcDbEntity
  8
DEFPOINTS
  6
ByBlock
 62
     0
100
AcDbPoint
 10
52.20402155593603
 20
58.86172017735296
 30
0.0
  0
LINE
  5
194F
330
18
100
AcDbEntity
  8
0
  6
ByBlock
 62
     2
100
AcDbLine
 10
50.95402155593603
 20
162.3617201773528
 30
0.0
 11
42.04900500668919
 21
162.3617201773528
 31
0.0
  0
LINE
  5
1950
330
18
100
AcDbEntity
  8
0
  6
ByBlock
 62
     2
100
AcDbLine
 10
42.04900500668919
 20
58.86172017735296
 30
0.0
 11
44.54900500668919
 21
58.86172017735296
 31
0.0
  0
LINE
  5
1951
330
18
100
AcDbEntity
  8
0
  6
ByBlock
 62
     2
100
AcDbLine
 10
43.29900500668919
 20
159.8617201773528
 30
0.0
 11
43.29900500668919
 21
61.36172017735296
 31
0.0
  0
INSERT
  5
1952
330
18
100
AcDbEntity
  8
0
  6
ByBlock
 62
     2
100
AcDbBlockReference
  2
_OPEN
 10
43.29900500668919
 20
162.3617201773528
 30
0.0
 41
2.5
 42
2.5
 43
2.5
 50
90.0
  0
INSERT
  5
1953
330
18
100
AcDbEntity
  8
0
  6
ByBlock
 62
     2
100
AcDbBlockReference
  2
_OPEN
 10
43.29900500668919
 20
58.86172017735296
 30
0.0
 41
2.5
 42
2.5
 43
2.5
 50
270.0
  0
MTEXT
  5
1954
330
18
100
AcDbEntity
  8
0
  6
ByBlock
 62
     6
100
AcDbMText
 10
41.42400500668919
 20
110.6117201773529
 30
0.0
 40
2.5
 41
0.0
 71
     5
 72
     1
  1
\A1;103.5
  7
STYLE3
 11
0.0000000000000001
 21
1.0
 31
0.0
 73
     1
 44
1.0
  0
POINT
  5
1955
330
18
100
AcDbEntity
  8
DEFPOINTS
  6
ByBlock
 62
     0
100
AcDbPoint
 10
50.95402155593603
 20
162.3617201773528
 30
0.0
  0
POINT
  5
1956
330
18
100
AcDbEntity
  8
DEFPOINTS
  6
ByBlock
 62
     0
100
AcDbPoint
 10
42.04900500668919
 20
58.86172017735296
 30
0.0
  0
POINT
  5
1957
330
18
100
AcDbEntity
  8
DEFPOINTS
  6
ByBlock
 62
     0
100
AcDbPoint
 10
43.29900500668919
 20
58.86172017735296
 30
0.0
  0
DIMENSION
  5
1A98
330
18
100
AcDbEntity
  8
外形線
100
AcDbDimension
  2
*D6
 10
120.39164824073
 20
34.75894161220714
 30
0.0
 11
90.39164824072996
 21
36.63394161220714
 31
0.0
 70
    32
 71
     5
 42
60.00000000000003
  3
STYLE3
100
AcDbAlignedDimension
 13
60.39164824072995
 23
58.86172017735296
 33
0.0
 14
120.39164824073
 24
58.86172017735296
 34
0.0
100
AcDbRotatedDimension
1001
ACAD
1000
DSTYLE
1002
{
1070
   271
1070
     2
1002
}
  0
LINE
  5
1A99
330
18
100
AcDbEntity
  8
外形線
100
AcDbLine
 10
98.39164824072993
 20
70.86172017735297
 30
0.0
 11
118.8348904479078
 21
66.21552876663073
 31
0.0
  0
LINE
  5
1A9A
330
18
100
AcDbEntity
  8
外形線
100
AcDbLine
 10
120.39164824073
 20
58.86172017735296
 30
0.0
 11
60.39164824072995
 21
58.86172017735296
 31
0.0
  0
LINE
  5
1A9B
330
18
100
AcDbEntity
  8
外形線
 48
0.5
100
AcDbLine
 10
60.39164824072995
 20
64.26526305504779
 30
0.0
 11
60.39164824072995
 21
58.86172017735296
 31
0.0
  0
INSERT
  5
1AA4
330
18
100
AcDbEntity
  8
0
  6
ByBlock
 62
     2
100
AcDbBlockReference
  2
_OPEN
 10
88.69421166462812
 20
41.19374167676335
 30
0.0
 41
2.5
 42
2.5
 43
2.5
 50
180.0
  0
LINE
  5
1AA5
330
18
100
AcDbEntity
  8
寸法線
100
AcDbLine
 10
82.26909248539488
 20
41.19374167676335
 30
0.0
 11
90.85852482344666
 21
41.19374167676335
 31
0.0
  0
LINE
  5
1AA6
330
18
100
AcDbEntity
  8
寸法線
100
AcDbLine
 10
90.89164824072998
 20
48.76172017735297
 30
0.0
 11
88.44500640268732
 21
40.33547796844402
 31
0.0
  0
LINE
  5
1AA7
330
18
100
AcDbEntity
  8
外形線
100
AcDbLine
 10
87.89164824072992
 20
53.78749824439871
 30
0.0
 11
92.89164824072992
 21
53.78749824439871
 31
0.0
  0
LINE
  5
1AA8
330
18
100
AcDbEntity
  8
外形線
100
AcDbLine
 10
90.89164824072993
 20
48.76172017735294
 30
0.0
 11
89.89164824072991
 21
48.76172017735294
 31
0.0
  0
LINE
  5
1AA9
330
18
100
AcDbEntity
  8
寸法線
100
AcDbLine
 10
89.89164824072998
 20
48.76172017735297
 30
0.0
 11
87.4267115161137
 21
40.33547796844402
 31
0.0
  0
TEXT
  5
1AAA
330
18
100
AcDbEntity
  8
文字
100
AcDbText
 10
78.13581054588309
 20
41.85795639852048
 30
0.0
 40
3.0
  1
φ1
  7
STYLE3
100
AcDbText
  0
INSERT
  5
1AAB
330
18
100
AcDbEntity
  8
0
  6
ByBlock
 62
     2
100
AcDbBlockReference
  2
_OPEN
 10
87.67778022285048
 20
41.19374167676335
 30
0.0
 41
2.5
 42
2.5
 43
2.5
  0
POINT
  5
1AAC
330
18
100
AcDbEntity
  8
DEFPOINTS
  6
ByBlock
 62
     0
100
AcDbPoint
 10
88.69421166462812
 20
41.19374167676335
 30
0.0
  0
POINT
  5
1AAD
330
18
100
AcDbEntity
  8
DEFPOINTS
  6
ByBlock
 62
     0
100
AcDbPoint
 10
87.67778022285048
 20
41.19374167676335
 30
0.0
  0
POINT
  5
1AAE
330
18
100
AcDbEntity
  8
DEFPOINTS
  6
ByBlock
 62
     0
100
AcDbPoint
 10
87.67778022285048
 20
41.19374167676335
 30
0.0
  0
LINE
  5
1AAF
330
18
100
AcDbEntity
  8
外形線
100
AcDbLine
 10
89.89164824072991
 20
48.76172017735294
 30
0.0
 11
87.89164824072992
 21
53.78749824439871
 31
0.0
  0
LINE
  5
1AB0
330
18
100
AcDbEntity
  8
外形線
 48
0.5
100
AcDbLine
 10
87.89164824072992
 20
58.86172017735296
 30
0.0
 11
87.89164824072992
 21
53.78749824439871
 31
0.0
  0
LINE
  5
1AB1
330
18
100
AcDbEntity
  8
寸法線
100
AcDbLine
 10
91.19421166462812
 20
41.19374167676335
 30
0.0
 11
92.30152168760383
 21
41.19374167676335
 31
0.0
  0
LINE
  5
1AB2
330
18
100
AcDbEntity
  8
外形線
100
AcDbLine
 10
90.89164824072993
 20
48.76172017735294
 30
0.0
 11
92.89164824072992
 21
53.78749824439873
 31
0.0
  0
LINE
  5
1AB3
330
18
100
AcDbEntity
  8
外形線
 48
0.5
100
AcDbLine
 10
92.89164824072987
 20
58.86172017735296
 30
0.0
 11
92.89164824072992
 21
53.78749824439873
 31
0.0
  0
CIRCLE
  5
1AB4
330
18
100
AcDbEntity
  8
外形線
100
AcDbCircle
 10
81.89164824072998
 20
86.26172017735296
 30
0.0
 40
8.0
  0
LINE
  5
1AB5
330
18
100
AcDbEntity
  8
中心線
 48
0.5
100
AcDbLine
 10
70.87410031025559
 20
86.26172017735294
 30
0.0
 11
92.68200797481801
 21
86.26172017735298
 31
0.0
  0
LINE
  5
1AB6
330
18
100
AcDbEntity
  8
外形線
100
AcDbLine
 10
82.39164824072991
 20
70.86172017735297
 30
0.0
 11
61.948406033552
 21
66.21552876663071
 31
0.0
  0
ARC
  5
1AB7
330
18
100
AcDbEntity
  8
外形線
 48
0.5
100
AcDbCircle
 10
62.39164824072995
 20
64.26526305504779
 30
0.0
 40
2.0
100
AcDbArc
 50
102.8042660652867
 51
180.0
  0
LINE
  5
1AB8
330
18
100
AcDbEntity
  8
外形線
100
AcDbLine
 10
95.89164824072998
 20
80.66172017735295
 30
0.0
 11
95.89164824072998
 21
70.86172017735297
 31
0.0
  0
LINE
  5
1AB9
330
18
100
AcDbEntity
  8
外形線
100
AcDbLine
 10
84.89164824072998
 20
78.84552169025728
 30
0.0
 11
84.8916482407299
 21
70.86172017735297
 31
0.0
  0
LINE
  5
1ABC
330
18
100
AcDbEntity
  8
外形線
100
AcDbLine
 10
98.39164824072993
 20
70.86172017735297
 30
0.0
 11
82.39164824072991
 21
70.86172017735297
 31
0.0
  0
LINE
  5
1AC3
330
18
100
AcDbEntity
  8
外形線
100
AcDbLine
 10
87.60479098356427
 20
91.86172017735296
 30
0.0
 11
96.39164824072999
 21
91.86172017735296
 31
0.0
  0
LINE
  5
1AC4
330
18
100
AcDbEntity
  8
外形線
100
AcDbLine
 10
87.60479098356427
 20
80.66172017735297
 30
0.0
 11
96.39164824072999
 21
80.66172017735295
 31
0.0
  0
LINE
  5
1AC6
330
18
100
AcDbEntity
  8
中心線
 48
0.5
100
AcDbLine
 10
81.89164824072998
 20
96.38963671019448
 30
0.0
 11
81.89164824072998
 21
76.22629205222193
 31
0.0
  0
LINE
  5
1AC7
330
18
100
AcDbEntity
  8
外形線
100
AcDbLine
 10
86.39164824072997
 20
94.76650988887284
 30
0.0
 11
86.39164824072997
 21
92.87609845501442
 31
0.0
  0
LINE
  5
1AC9
330
18
100
AcDbEntity
  8
外形線
100
AcDbLine
 10
96.39164824072999
 20
91.86172017735296
 30
0.0
 11
96.39164824072999
 21
80.66172017735295
 31
0.0
  0
LINE
  5
1ACA
330
18
100
AcDbEntity
  8
外形線
100
AcDbLine
 10
94.39164824073003
 20
94.76650988887282
 30
0.0
 11
94.39164824073003
 21
91.86172017735296
 31
0.0
  0
LINE
  5
1AD0
330
18
100
AcDbEntity
  8
外形線
100
AcDbLine
 10
181.7950908730031
 20
70.86172017735293
 30
0.0
 11
181.7950908730031
 21
58.86172017735294
 31
0.0
  0
LINE
  5
1AD1
330
18
100
AcDbEntity
  8
外形線
100
AcDbLine
 10
195.7950908730031
 20
70.86172017735293
 30
0.0
 11
195.7950908730031
 21
58.86172017735294
 31
0.0
  0
LINE
  5
1AD2
330
18
100
AcDbEntity
  8
外形線
 48
0.5
100
AcDbLine
 10
120.3916482407299
 20
64.26526305504779
 30
0.0
 11
120.39164824073
 21
58.86172017735296
 31
0.0
  0
DIMENSION
  5
1AD9
330
18
100
AcDbEntity
  8
外形線
100
AcDbDimension
  2
*D7
 10
195.7950908730031
 20
35.73888599388403
 30
0.0
 11
188.7950908730031
 21
37.61388599388403
 31
0.0
 70
    32
 71
     5
 42
14.0
  3
STYLE3
100
AcDbAlignedDimension
 13
181.7950908730031
 23
59.86172017735308
 33
0.0
 14
195.7950908730031
 24
59.86172017735308
 34
0.0
100
AcDbRotatedDimension
1001
ACAD
1000
DSTYLE
1002
{
1070
   271
1070
     2
1002
}
  0
LINE
  5
1ADA
330
18
100
AcDbEntity
  8
外形線
100
AcDbLine
 10
195.7950908730031
 20
58.86172017735294
 30
0.0
 11
181.7950908730031
 21
58.86172017735294
 31
0.0
  0
LINE
  5
1ADB
330
18
100
AcDbEntity
  8
外形線
100
AcDbLine
 10
189.2950908730031
 20
48.76172017735292
 30
0.0
 11
191.2950908730031
 21
53.78749824439871
 31
0.0
  0
LINE
  5
1ADC
330
18
100
AcDbEntity
  8
外形線
100
AcDbLine
 10
188.2950908730031
 20
48.76172017735292
 30
0.0
 11
186.2950908730031
 21
53.78749824439869
 31
0.0
  0
LINE
  5
1ADD
330
18
100
AcDbEntity
  8
外形線
100
AcDbLine
 10
189.2950908730031
 20
48.76172017735292
 30
0.0
 11
188.2950908730031
 21
48.76172017735292
 31
0.0
  0
LINE
  5
1ADE
330
18
100
AcDbEntity
  8
外形線
100
AcDbLine
 10
186.2950908730031
 20
53.78749824439869
 30
0.0
 11
191.2950908730031
 21
53.78749824439869
 31
0.0
  0
LINE
  5
1ADF
330
18
100
AcDbEntity
  8
外形線
 48
0.5
100
AcDbLine
 10
186.2950908730031
 20
58.86172017735294
 30
0.0
 11
186.2950908730031
 21
53.78749824439869
 31
0.0
  0
LINE
  5
1AE0
330
18
100
AcDbEntity
  8
外形線
 48
0.5
100
AcDbLine
 10
191.295090873003
 20
58.86172017735294
 30
0.0
 11
191.2950908730031
 21
53.78749824439871
 31
0.0
  0
LINE
  5
1AE3
330
18
100
AcDbEntity
  8
中心線
100
AcDbLine
 10
200.8644214813442
 20
86.26172017735305
 30
0.0
 11
167.9976615892753
 21
86.26172017735306
 31
0.0
  0
LINE
  5
1AE4
330
18
100
AcDbEntity
  8
外形線
100
AcDbLine
 10
171.7950908730031
 20
78.26172017735349
 30
0.0
 11
175.295090873003
 21
78.26172017735345
 31
0.0
  0
LINE
  5
1AF3
330
18
100
AcDbEntity
  8
外形線
100
AcDbLine
 10
171.7950908730036
 20
94.26172017735355
 30
0.0
 11
175.2950908730035
 21
94.26172017735339
 31
0.0
  0
ARC
  5
1AF5
330
18
100
AcDbEntity
  8
外形線
 48
0.5
100
AcDbCircle
 10
118.3916482407299
 20
64.26526305504779
 30
0.0
 40
2.0
100
AcDbArc
 50
0.0000000000000509
 51
77.19573393471325
  0
LINE
  5
1AF6
330
18
100
AcDbEntity
  8
外形線
100
AcDbLine
 10
171.2950908730031
 20
78.76172017735351
 30
0.0
 11
171.2950908730036
 21
93.76172017735356
 31
0.0
  0
LINE
  5
1AF7
330
18
100
AcDbEntity
  8
外形線
100
AcDbLine
 10
171.7950908730031
 20
78.26172017735349
 30
0.0
 11
171.7950908730036
 21
94.26172017735355
 31
0.0
  0
LINE
  5
1AF8
330
18
100
AcDbEntity
  8
外形線
100
AcDbLine
 10
171.2950908730031
 20
78.76172017735351
 30
0.0
 11
171.7950908730031
 21
78.26172017735349
 31
0.0
  0
LINE
  5
1AFE
330
18
100
AcDbEntity
  8
外形線
100
AcDbLine
 10
171.2950908730036
 20
93.76172017735356
 30
0.0
 11
171.7950908730036
 21
94.26172017735355
 31
0.0
  0
LINE
  5
1B00
330
18
100
AcDbEntity
  8
外形線
100
AcDbLine
 10
183.2950908730031
 20
80.66172017735302
 30
0.0
 11
183.295090873003
 21
70.86172017735299
 31
0.0
  0
LINE
  5
1B01
330
18
100
AcDbEntity
  8
外形線
100
AcDbLine
 10
194.2950908730031
 20
80.66172017735295
 30
0.0
 11
194.2950908730031
 21
70.86172017735299
 31
0.0
  0
LINE
  5
1B05
330
18
100
AcDbEntity
  8
外形線
100
AcDbLine
 10
195.7950908730031
 20
70.86172017735293
 30
0.0
 11
181.7950908730031
 21
70.86172017735293
 31
0.0
  0
LINE
  5
1B06
330
18
100
AcDbEntity
  8
外形線
100
AcDbLine
 10
195.7950908730031
 20
65.86172017735295
 30
0.0
 11
181.7950908730031
 21
65.86172017735295
 31
0.0
  0
LINE
  5
1B0F
330
18
100
AcDbEntity
  8
外形線
100
AcDbLine
 10
194.7950908730031
 20
91.86172017735305
 30
0.0
 11
188.7950908730032
 21
91.86172017735303
 31
0.0
  0
LINE
  5
1B10
330
18
100
AcDbEntity
  8
外形線
100
AcDbLine
 10
194.7950908730031
 20
80.66172017735301
 30
0.0
 11
188.7950908730032
 21
80.66172017735301
 31
0.0
  0
LINE
  5
1B11
330
18
100
AcDbEntity
  8
外形線
100
AcDbLine
 10
182.2950908730033
 20
82.2617201773532
 30
0.0
 11
182.2950908730035
 21
90.26172017735325
 31
0.0
  0
LINE
  5
1B12
330
18
100
AcDbEntity
  8
外形線
100
AcDbLine
 10
175.2950908730031
 20
78.26172017735339
 30
0.0
 11
175.2950908730035
 21
94.26172017735344
 31
0.0
  0
LINE
  5
1B13
330
18
100
AcDbEntity
  8
外形線
100
AcDbLine
 10
175.7950908730034
 20
93.76172017735344
 30
0.0
 11
175.7950908730036
 21
81.76172017735337
 31
0.0
  0
LINE
  5
1B14
330
18
100
AcDbEntity
  8
外形線
100
AcDbLine
 10
182.7950908730031
 20
91.86172017735302
 30
0.0
 11
182.7950908730031
 21
80.66172017735301
 31
0.0
  0
LINE
  5
1B15
330
18
100
AcDbEntity
  8
外形線
100
AcDbLine
 10
188.7950908730032
 20
80.66172017735301
 30
0.0
 11
182.7950908730031
 21
80.66172017735301
 31
0.0
  0
ARC
  5
1B16
330
18
100
AcDbEntity
  8
外形線
100
AcDbCircle
 10
176.7950908730032
 20
81.76172017735344
 30
0.0
 40
1.0
100
AcDbArc
 50
89.99999999999834
 51
179.9999999999979
  0
LINE
  5
1B17
330
18
100
AcDbEntity
  8
外形線
100
AcDbLine
 10
175.795090873003
 20
78.76172017735344
 30
0.0
 11
175.7950908730032
 21
81.76172017735344
 31
0.0
  0
LINE
  5
1B18
330
18
100
AcDbEntity
  8
外形線
100
AcDbLine
 10
175.295090873003
 20
78.26172017735345
 30
0.0
 11
175.795090873003
 21
78.76172017735344
 31
0.0
  0
LINE
  5
1B19
330
18
100
AcDbEntity
  8
外形線
100
AcDbLine
 10
176.7950908730032
 20
82.76172017735341
 30
0.0
 11
181.7950908730032
 21
82.76172017735326
 31
0.0
  0
ARC
  5
1B1A
330
18
100
AcDbEntity
  8
外形線
100
AcDbCircle
 10
181.7950908730033
 20
83.26172017735329
 30
0.0
 40
0.5
100
AcDbArc
 50
269.9999999999984
 51
359.9999999999984
  0
LINE
  5
1B1B
330
18
100
AcDbEntity
  8
外形線
100
AcDbLine
 10
182.2950908730033
 20
82.2617201773532
 30
0.0
 11
182.7950908730032
 21
82.26172017735317
 31
0.0
  0
LINE
  5
1B1C
330
18
100
AcDbEntity
  8
外形線
100
AcDbLine
 10
188.7950908730032
 20
91.86172017735296
 30
0.0
 11
182.7950908730031
 21
91.86172017735302
 31
0.0
  0
LINE
  5
1B1D
330
18
100
AcDbEntity
  8
外形線
100
AcDbLine
 10
176.7950908730034
 20
89.76172017735342
 30
0.0
 11
181.7950908730034
 21
89.76172017735327
 31
0.0
  0
ARC
  5
1B1E
330
18
100
AcDbEntity
  8
外形線
100
AcDbCircle
 10
176.7950908730035
 20
90.76172017735343
 30
0.0
 40
1.0
100
AcDbArc
 50
179.9999999999988
 51
269.9999999999984
  0
ARC
  5
1B1F
330
18
100
AcDbEntity
  8
外形線
100
AcDbCircle
 10
181.7950908730034
 20
89.2617201773533
 30
0.0
 40
0.5
100
AcDbArc
 50
359.9999999999984
 51
89.99999999999834
  0
LINE
  5
1B20
330
18
100
AcDbEntity
  8
外形線
100
AcDbLine
 10
182.2950908730035
 20
90.26172017735325
 30
0.0
 11
182.7950908730034
 21
90.26172017735317
 31
0.0
  0
LINE
  5
1B21
330
18
100
AcDbEntity
  8
外形線
100
AcDbLine
 10
175.2950908730035
 20
94.26172017735339
 30
0.0
 11
175.7950908730036
 21
93.76172017735338
 31
0.0
  0
LINE
  5
1B26
330
18
100
AcDbEntity
  8
外形線
100
AcDbLine
 10
194.7950908730031
 20
91.86172017735305
 30
0.0
 11
194.7950908730031
 21
80.66172017735301
 31
0.0
  0
LINE
  5
1B7F
330
18
100
AcDbEntity
  8
外形線
100
AcDbLine
 10
189.2950908730031
 20
76.86172017735303
 30
0.0
 11
188.2950908730031
 21
76.86172017735303
 31
0.0
  0
LINE
  5
1B80
330
18
100
AcDbEntity
  8
外形線
100
AcDbLine
 10
189.2950908730031
 20
76.86172017735303
 30
0.0
 11
189.2950908730031
 21
80.66172017735301
 31
0.0
  0
LINE
  5
1B81
330
18
100
AcDbEntity
  8
外形線
100
AcDbLine
 10
188.2950908730031
 20
76.86172017735303
 30
0.0
 11
188.2950908730031
 21
80.66172017735301
 31
0.0
  0
INSERT
  5
1CFD
330
18
100
AcDbEntity
  8
外形線
100
AcDbBlockReference
  2
A$C47D905DE
 10
96.55314608732091
 20
118.7568018324737
 30
0.0
  0
LINE
  5
1D6A
330
18
100
AcDbEntity
  8
寸法線
100
AcDbLine
 10
171.7950908730033
 20
87.39968982257227
 30
0.0
 11
175.2950908730033
 21
87.39968982257217
 31
0.0
  0
LINE
  5
1D6C
330
18
100
AcDbEntity
  8
寸法線
100
AcDbLine
 10
171.7950908730033
 20
88.52976195699426
 30
0.0
 11
175.2950908730033
 21
88.52976195699417
 31
0.0
  0
LINE
  5
1D6D
330
18
100
AcDbEntity
  8
寸法線
100
AcDbLine
 10
171.7950908730033
 20
89.67597802234235
 30
0.0
 11
175.2950908730033
 21
89.67597802234225
 31
0.0
  0
LINE
  5
1D6E
330
18
100
AcDbEntity
  8
寸法線
100
AcDbLine
 10
171.7950908730033
 20
90.72533050213445
 30
0.0
 11
175.2950908730033
 21
90.72533050213435
 31
0.0
  0
LINE
  5
1D6F
330
18
100
AcDbEntity
  8
寸法線
100
AcDbLine
 10
171.7950908730033
 20
91.75853955606664
 30
0.0
 11
175.2950908730033
 21
91.75853955606653
 31
0.0
  0
LINE
  5
1D70
330
18
100
AcDbEntity
  8
寸法線
100
AcDbLine
 10
171.7950908730033
 20
92.64645323166513
 30
0.0
 11
175.2950908730033
 21
92.64645323166503
 31
0.0
  0
LINE
  5
1D71
330
18
100
AcDbEntity
  8
寸法線
100
AcDbLine
 10
171.7950908730033
 20
93.4375038267737
 30
0.0
 11
175.2950908730033
 21
93.43750382677361
 31
0.0
  0
LINE
  5
1D72
330
18
100
AcDbEntity
  8
寸法線
100
AcDbLine
 10
171.7950908730033
 20
93.92182023935488
 30
0.0
 11
175.2950908730033
 21
93.92182023935477
 31
0.0
  0
LINE
  5
1D9C
330
18
100
AcDbEntity
  8
外形線
100
AcDbLine
 10
83.55354033460677
 20
185.262222018333
 30
0.0
 11
178.5535403346067
 21
185.262222018333
 31
0.0
  0
LINE
  5
1D9D
330
18
100
AcDbEntity
  8
外形線
100
AcDbLine
 10
83.55354033460677
 20
184.262222018333
 30
0.0
 11
178.5535403346067
 21
184.262222018333
 31
0.0
  0
TEXT
  5
1D9E
330
18
100
AcDbEntity
  8
文字
100
AcDbText
 10
84.17213933460677
 20
187.157137018333
 30
0.0
 40
4.0
  1
Model No.T-2 Dial Depth Gauge
  7
STYLE3
100
AcDbText
  0
TEXT
  5
1D9F
330
18
100
AcDbEntity
  8
0
  6
Continuous
100
AcDbText
 10
217.9510063346068
 20
2.409208018333016
 30
0.0
 40
2.1
  1
OZAKI MFG. CO., LTD.
  7
STYLE3
100
AcDbText
  0
TEXT
  5
1DA0
330
18
100
AcDbEntity
  8
0
  6
Continuous
100
AcDbText
 10
217.0765273346068
 20
6.196847018333016
 30
0.0
 40
3.0
  1
株式会社　尾崎製作所
  7
STYLE3
100
AcDbText
  0
LINE
  5
1DA1
330
18
100
AcDbEntity
  8
外形線
100
AcDbLine
 10
215.7275643346067
 20
10.27584501833302
 30
0.0
 11
215.7275643346067
 21
0.6610670183330168
 31
0.0
  0
TEXT
  5
1DA2
330
18
100
AcDbEntity
  8
0
  6
Continuous
100
AcDbText
 10
177.8333943346067
 20
4.448708018333016
 30
0.0
 40
2.399999999999999
  1
1/1
  7
STYLE3
100
AcDbText
  0
TEXT
  5
1DA3
330
18
100
AcDbEntity
  8
0
  6
Continuous
100
AcDbText
 10
187.5438043346067
 20
5.742293018333016
 30
0.0
 40
3.0
  1
日 付
  7
STYLE3
100
AcDbText
  0
TEXT
  5
1DA4
330
18
100
AcDbEntity
  8
0
  6
Continuous
100
AcDbText
 10
187.9271653346068
 20
2.409209018333016
 30
0.0
 40
2.1
  1
Date
  7
STYLE3
100
AcDbText
  0
TEXT
  5
1DA5
330
18
100
AcDbEntity
  8
0
  6
Continuous
100
AcDbText
 10
167.7508903346067
 20
5.620087018333016
 30
0.0
 40
3.0
  1
尺 度
  7
STYLE3
100
AcDbText
  0
TEXT
  5
1DA6
330
18
100
AcDbEntity
  8
0
  6
Continuous
100
AcDbText
 10
168.2141053346067
 20
2.700565018333016
 30
0.0
 40
2.1
  1
Scale
  7
STYLE3
100
AcDbText
  0
TEXT
  5
1DA7
330
18
100
AcDbEntity
  8
0
  6
Continuous
100
AcDbText
 10
150.4329943346067
 20
5.911445018333016
 30
0.0
 40
3.0
  1
単位
  7
STYLE3
100
AcDbText
  0
TEXT
  5
1DA8
330
18
100
AcDbEntity
  8
0
  6
Continuous
100
AcDbText
 10
150.6047153346067
 20
2.409208018333016
 30
0.0
 40
2.1
  1
Unit
  7
STYLE3
100
AcDbText
  0
TEXT
  5
1DA9
330
18
100
AcDbEntity
  8
0
  6
Continuous
100
AcDbText
 10
158.4750413346067
 20
4.157351018333017
 30
0.0
 40
2.399999999999999
  1
mm
  7
STYLE3
100
AcDbText
  0
LINE
  5
1DAA
330
18
100
AcDbEntity
  8
外形線
100
AcDbLine
 10
148.9755253346068
 20
10.27584501833302
 30
0.0
 11
148.9755253346068
 21
0.6610670183330168
 31
0.0
  0
LINE
  5
1DAB
330
18
100
AcDbEntity
  8
外形線
100
AcDbLine
 10
185.9952143346067
 20
10.27584501833302
 30
0.0
 11
185.9952143346067
 21
0.6610670183330168
 31
0.0
  0
LINE
  5
1DAC
330
18
100
AcDbEntity
  8
外形線
100
AcDbLine
 10
166.4651423346068
 20
10.27584501833302
 30
0.0
 11
166.4651423346068
 21
0.6610670183330168
 31
0.0
  0
TEXT
  5
1DAD
330
18
100
AcDbEntity
  8
0
  6
Continuous
100
AcDbText
 10
117.4942153346067
 20
5.905491018333016
 30
0.0
 40
3.0
  1
三　　角　　法
  7
STYLE3
100
AcDbText
  0
LINE
  5
1DAE
330
18
100
AcDbEntity
  8
外形線
100
AcDbLine
 10
113.7047973346068
 20
0.6610670183330168
 30
0.0
 11
113.7047973346068
 21
21.05605101833301
 31
0.0
  0
TEXT
  5
1DAF
330
18
100
AcDbEntity
  8
0
  6
Continuous
100
AcDbText
 10
114.8707733346068
 20
2.409207018333016
 30
0.0
 40
2.1
  1
3RD Angle Projection
  7
STYLE3
100
AcDbText
  0
LINE
  5
1DB0
330
18
100
AcDbEntity
  8
外形線
100
AcDbLine
 10
113.7047973346068
 20
21.05605101833301
 30
0.0
 11
254.4962153346068
 21
21.05605101833301
 31
0.0
  0
LINE
  5
1DB1
330
18
100
AcDbEntity
  8
外形線
100
AcDbLine
 10
113.7047973346068
 20
10.27584501833302
 30
0.0
 11
254.4962153346068
 21
10.27584501833302
 31
0.0
  0
TEXT
  5
1DB2
330
18
100
AcDbEntity
  8
0
  6
Continuous
100
AcDbText
 10
115.1622643346067
 20
12.17383501833301
 30
0.0
 40
2.1
  1
Design and specifications are subject to change without notice for future improvement.
  7
STYLE3
100
AcDbText
  0
TEXT
  5
1DB3
330
18
100
AcDbEntity
  8
0
  6
Continuous
100
AcDbText
 10
115.4537583346068
 20
16.10298301833301
 30
0.0
 40
3.5
  1
仕様及び外観は予告なく変更される場合がございますのでご了承下さい。
  7
STYLE3
100
AcDbText
  0
TEXT
  5
1DB4
330
18
100
AcDbEntity
  8
0
  6
Continuous
100
AcDbText
 10
196.6719723346067
 20
4.157350018333016
 30
0.0
 40
2.1
  1
2010.06.22
  7
STYLE3
100
AcDbText
  0
VIEWPORT
  5
177
330
15
100
AcDbEntity
 67
     1
  8
0
100
AcDbViewport
 10
127.5041203589828
 20
97.49391214526822
 30
0.0
 40
418.3086347473814
 41
243.0346063651093
 68
     1
 69
     1
 12
127.5041203589828
 22
97.49391214526822
 13
0.0
 23
0.0
 14
10.0
 24
10.0
 15
10.0
 25
10.0
 16
0.0
 26
0.0
 36
1.0
 17
0.0
 27
0.0
 37
0.0
 42
50.0
 43
0.0
 44
0.0
 45
243.0346063651093
 50
0.0
 51
0.0
 72
   100
 90
    32800
  1

281
     0
 71
     1
 74
     0
110
0.0
120
0.0
130
0.0
111
1.0
121
0.0
131
0.0
112
0.0
122
1.0
132
0.0
 79
     0
146
0.0
170
     0
  0
ENDSEC
  0
SECTION
  2
OBJECTS
  0
DICTIONARY
  5
C
330
0
100
AcDbDictionary
281
     1
  3
ACAD_COLOR
350
1D16
  3
ACAD_GROUP
350
D
  3
ACAD_IMAGE_DICT
350
578
  3
ACAD_LAYOUT
350
1D19
  3
ACAD_MATERIAL
350
1D15
  3
ACAD_MLINESTYLE
350
1B
  3
ACAD_PLOTSETTINGS
350
1D1A
  3
ACAD_PLOTSTYLENAME
350
1D13
  3
ACAD_TABLESTYLE
350
1D17
  3
AcDbVariableDictionary
350
1D23
  0
DICTIONARY
  5
1D49
330
18
100
AcDbDictionary
280
     1
281
     1
  3
ACAD_SORTENTS
360
1D4A
  0
DICTIONARY
  5
1D16
102
{ACAD_REACTORS
330
C
102
}
330
C
100
AcDbDictionary
281
     1
  0
DICTIONARY
  5
D
102
{ACAD_REACTORS
330
C
102
}
330
C
100
AcDbDictionary
281
     1
  0
DICTIONARY
  5
578
102
{ACAD_REACTORS
330
C
102
}
330
C
100
AcDbDictionary
281
     1
  3
ROGO01
350
579
  0
DICTIONARY
  5
1D19
102
{ACAD_REACTORS
330
C
102
}
330
C
100
AcDbDictionary
281
     1
  3
Model
350
1D1B
  3
レイアウト1
350
1D1C
  0
DICTIONARY
  5
1D15
102
{ACAD_REACTORS
330
C
102
}
330
C
100
AcDbDictionary
281
     1
  0
DICTIONARY
  5
1B
102
{ACAD_REACTORS
330
C
102
}
330
C
100
AcDbDictionary
281
     1
  3
STANDARD
350
1C
  0
DICTIONARY
  5
1D1A
102
{ACAD_REACTORS
330
C
102
}
330
C
100
AcDbDictionary
281
     1
  0
ACDBDICTIONARYWDFLT
  5
1D13
102
{ACAD_REACTORS
330
C
102
}
330
C
100
AcDbDictionary
281
     1
  3
Normal
350
1D14
100
AcDbDictionaryWithDefault
340
1D14
  0
DICTIONARY
  5
1D17
102
{ACAD_REACTORS
330
C
102
}
330
C
100
AcDbDictionary
281
     1
  3
Standard
350
1D18
  0
DICTIONARY
  5
1D23
102
{ACAD_REACTORS
330
C
102
}
330
C
100
AcDbDictionary
281
     1
  3
CTABLESTYLE
350
1D24
  0
SORTENTSTABLE
  5
1D4A
102
{ACAD_REACTORS
330
1D49
102
}
330
1D49
100
AcDbSortentsTable
330
18
331
1864
  5
1864
331
1666
  5
1666
331
1AC9
  5
1AC9
331
1B10
  5
1B10
331
186C
  5
186C
331
166E
  5
166E
331
1AD1
  5
1AD1
331
5A8
  5
5A8
331
1B18
  5
1B18
331
1A9A
  5
1A9A
331
1676
  5
1676
331
179D
  5
179D
331
189C
  5
189C
331
1AD9
  5
1AD9
331
27A
  5
27A
331
80B
  5
80B
331
72D
  5
72D
331
5B0
  5
5B0
331
1B7F
  5
1B7F
331
1B20
  5
1B20
331
167E
  5
167E
331
282
  5
282
331
5EF
  5
5EF
331
76C
  5
76C
331
5F7
  5
5F7
331
28A
  5
28A
331
581
  5
581
331
5B8
  5
5B8
331
735
  5
735
331
1CB8
  5
1CB8
331
73D
  5
73D
331
5FF
  5
5FF
331
292
  5
292
331
5C0
  5
5C0
331
7AC
  5
7AC
331
1CC0
  5
1CC0
331
7B4
  5
7B4
331
1CC8
  5
1CC8
331
1AAA
  5
1AAA
331
18BC
  5
18BC
331
1686
  5
1686
331
194B
  5
194B
331
1AB2
  5
1AB2
331
1953
  5
1953
331
5C8
  5
5C8
331
17FD
  5
17FD
331
29A
  5
29A
331
589
  5
589
331
70E
  5
70E
331
591
  5
591
331
1B01
  5
1B01
331
18FC
  5
18FC
331
11CF
  5
11CF
331
185D
  5
185D
331
2A2
  5
2A2
331
5D0
  5
5D0
331
745
  5
745
331
7BC
  5
7BC
331
61F
  5
61F
331
599
  5
599
331
26B
  5
26B
331
2AA
  5
2AA
331
5D8
  5
5D8
331
716
  5
716
331
74D
  5
74D
331
1B81
  5
1B81
331
1CD0
  5
1CD0
331
7FC
  5
7FC
331
627
  5
627
331
5A1
  5
5A1
331
273
  5
273
331
5E0
  5
5E0
331
71E
  5
71E
331
755
  5
755
331
1CD8
  5
1CD8
331
1D47
  5
1D47
331
765
  5
765
331
726
  5
726
331
804
  5
804
331
1CE0
  5
1CE0
331
1ACA
  5
1ACA
331
1667
  5
1667
331
1865
  5
1865
331
1B11
  5
1B11
331
186D
  5
186D
331
166F
  5
166F
331
1796
  5
1796
331
1AD2
  5
1AD2
331
5E8
  5
5E8
331
1B19
  5
1B19
331
179E
  5
179E
331
1677
  5
1677
331
1A9B
  5
1A9B
331
1ADA
  5
1ADA
331
27B
  5
27B
331
5A9
  5
5A9
331
72E
  5
72E
331
5B1
  5
5B1
331
1B21
  5
1B21
331
167F
  5
167F
331
283
  5
283
331
5F0
  5
5F0
331
76D
  5
76D
331
80C
  5
80C
331
736
  5
736
331
5B9
  5
5B9
331
28B
  5
28B
331
582
  5
582
331
5F8
  5
5F8
331
687
  5
687
331
68F
  5
68F
331
5C1
  5
5C1
331
293
  5
293
331
73E
  5
73E
331
7AD
  5
7AD
331
1CB9
  5
1CB9
331
7B5
  5
7B5
331
1CC1
  5
1CC1
331
1CC9
  5
1CC9
331
194C
  5
194C
331
1687
  5
1687
331
18BD
  5
18BD
331
1AAB
  5
1AAB
331
1954
  5
1954
331
1AB3
  5
1AB3
331
600
  5
600
331
17FE
  5
17FE
331
196C
  5
196C
331
29B
  5
29B
331
58A
  5
58A
331
5C9
  5
5C9
331
746
  5
746
331
618
  5
618
331
1AC3
  5
1AC3
331
185E
  5
185E
331
1984
  5
1984
331
2A3
  5
2A3
331
592
  5
592
331
5D1
  5
5D1
331
70F
  5
70F
331
7BD
  5
7BD
331
74E
  5
74E
331
5D9
  5
5D9
331
26C
  5
26C
331
2AB
  5
2AB
331
59A
  5
59A
331
620
  5
620
331
717
  5
717
331
1CD1
  5
1CD1
331
1D48
  5
1D48
331
71F
  5
71F
331
5A2
  5
5A2
331
274
  5
274
331
5E1
  5
5E1
331
628
  5
628
331
7FD
  5
7FD
331
1CD9
  5
1CD9
331
805
  5
805
331
727
  5
727
331
766
  5
766
331
1CE1
  5
1CE1
331
198C
  5
198C
331
1866
  5
1866
331
1668
  5
1668
331
1B12
  5
1B12
331
1670
  5
1670
331
1797
  5
1797
331
1AD3
  5
1AD3
331
5AA
  5
5AA
331
1B1A
  5
1B1A
331
1ADB
  5
1ADB
331
1678
  5
1678
331
179F
  5
179F
331
27C
  5
27C
331
5E9
  5
5E9
331
80D
  5
80D
331
72F
  5
72F
331
57B
  5
57B
331
18B6
  5
18B6
331
1AA4
  5
1AA4
331
284
  5
284
331
5B2
  5
5B2
331
5F1
  5
5F1
331
76E
  5
76E
331
5F9
  5
5F9
331
28C
  5
28C
331
583
  5
583
331
5BA
  5
5BA
331
688
  5
688
331
737
  5
737
331
5C2
  5
5C2
331
294
  5
294
331
73F
  5
73F
331
7AE
  5
7AE
331
1CBA
  5
1CBA
331
1CC2
  5
1CC2
331
1CCA
  5
1CCA
331
1680
  5
1680
331
1AAC
  5
1AAC
331
1688
  5
1688
331
194D
  5
194D
331
1AE3
  5
1AE3
331
1AF3
  5
1AF3
331
1955
  5
1955
331
17DF
  5
17DF
331
1AB4
  5
1AB4
331
5CA
  5
5CA
331
29C
  5
29C
331
58B
  5
58B
331
601
  5
601
331
1ABC
  5
1ABC
331
710
  5
710
331
593
  5
593
331
2A4
  5
2A4
331
5D2
  5
5D2
331
619
  5
619
331
747
  5
747
331
1AC4
  5
1AC4
331
621
  5
621
331
2AC
  5
2AC
331
59B
  5
59B
331
5DA
  5
5DA
331
718
  5
718
331
74F
  5
74F
331
7FE
  5
7FE
331
629
  5
629
331
5A3
  5
5A3
331
275
  5
275
331
5E2
  5
5E2
331
720
  5
720
331
1CDA
  5
1CDA
331
767
  5
767
331
806
  5
806
331
1CE2
  5
1CE2
331
1867
  5
1867
331
1669
  5
1669
331
1B13
  5
1B13
331
1AD4
  5
1AD4
331
1926
  5
1926
331
1671
  5
1671
331
1798
  5
1798
331
5EA
  5
5EA
331
27D
  5
27D
331
5AB
  5
5AB
331
651
  5
651
331
728
  5
728
331
1B1B
  5
1B1B
331
1ADC
  5
1ADC
331
1679
  5
1679
331
1946
  5
1946
331
730
  5
730
331
5B3
  5
5B3
331
285
  5
285
331
57C
  5
57C
331
5F2
  5
5F2
331
76F
  5
76F
331
80E
  5
80E
331
1AA5
  5
1AA5
331
18B7
  5
18B7
331
738
  5
738
331
5BB
  5
5BB
331
28D
  5
28D
331
584
  5
584
331
5FA
  5
5FA
331
1CB3
  5
1CB3
331
5C3
  5
5C3
331
295
  5
295
331
7AF
  5
7AF
331
1CC3
  5
1CC3
331
1CCB
  5
1CCB
331
1681
  5
1681
331
1AE4
  5
1AE4
331
1689
  5
1689
331
194E
  5
194E
331
1AAD
  5
1AAD
331
16B9
  5
16B9
331
1956
  5
1956
331
1AB5
  5
1AB5
331
602
  5
602
331
29D
  5
29D
331
58C
  5
58C
331
5CB
  5
5CB
331
740
  5
740
331
748
  5
748
331
5D3
  5
5D3
331
2A5
  5
2A5
331
594
  5
594
331
61A
  5
61A
331
711
  5
711
331
1986
  5
1986
331
750
  5
750
331
5DB
  5
5DB
331
2AD
  5
2AD
331
59C
  5
59C
331
622
  5
622
331
719
  5
719
331
1CD3
  5
1CD3
331
721
  5
721
331
5A4
  5
5A4
331
276
  5
276
331
5E3
  5
5E3
331
62A
  5
62A
331
7FF
  5
7FF
331
1CDB
  5
1CDB
331
807
  5
807
331
1860
  5
1860
331
1868
  5
1868
331
166A
  5
166A
331
1B14
  5
1B14
331
1672
  5
1672
331
1799
  5
1799
331
1AD5
  5
1AD5
331
729
  5
729
331
5AC
  5
5AC
331
27E
  5
27E
331
5EB
  5
5EB
331
1B1C
  5
1B1C
331
1ADD
  5
1ADD
331
167A
  5
167A
331
1947
  5
1947
331
770
  5
770
331
731
  5
731
331
57D
  5
57D
331
286
  5
286
331
5B4
  5
5B4
331
5F3
  5
5F3
331
80F
  5
80F
331
1AA6
  5
1AA6
331
5FB
  5
5FB
331
28E
  5
28E
331
585
  5
585
331
5BC
  5
5BC
331
739
  5
739
331
5C4
  5
5C4
331
7B0
  5
7B0
331
1CBC
  5
1CBC
331
1CC4
  5
1CC4
331
1CCC
  5
1CCC
331
18B8
  5
18B8
331
1682
  5
1682
331
17B1
  5
17B1
331
1AAE
  5
1AAE
331
194F
  5
194F
331
1AF5
  5
1AF5
331
1957
  5
1957
331
1AB6
  5
1AB6
331
70A
  5
70A
331
5CC
  5
5CC
331
29E
  5
29E
331
58D
  5
58D
331
603
  5
603
331
741
  5
741
331
712
  5
712
331
595
  5
595
331
2A6
  5
2A6
331
5D4
  5
5D4
331
61B
  5
61B
331
749
  5
749
331
1B05
  5
1B05
331
1987
  5
1987
331
1AC6
  5
1AC6
331
623
  5
623
331
2AE
  5
2AE
331
59D
  5
59D
331
5DC
  5
5DC
331
71A
  5
71A
331
751
  5
751
331
800
  5
800
331
5E4
  5
5E4
331
5A5
  5
5A5
331
277
  5
277
331
62B
  5
62B
331
722
  5
722
331
1CDC
  5
1CDC
331
1742
  5
1742
331
1861
  5
1861
331
1869
  5
1869
331
166B
  5
166B
331
1B15
  5
1B15
331
1AD6
  5
1AD6
331
1673
  5
1673
331
808
  5
808
331
5EC
  5
5EC
331
27F
  5
27F
331
5AD
  5
5AD
331
72A
  5
72A
331
1B1D
  5
1B1D
331
1ADE
  5
1ADE
331
167B
  5
167B
331
732
  5
732
331
5B5
  5
5B5
331
287
  5
287
331
57E
  5
57E
331
5F4
  5
5F4
331
771
  5
771
331
810
  5
810
331
1AA7
  5
1AA7
331
73A
  5
73A
331
586
  5
586
331
28F
  5
28F
331
5BD
  5
5BD
331
5FC
  5
5FC
331
1CB5
  5
1CB5
331
7B1
  5
7B1
331
6AB
  5
6AB
331
5C5
  5
5C5
331
297
  5
297
331
1CBD
  5
1CBD
331
1CC5
  5
1CC5
331
1CCD
  5
1CCD
331
1948
  5
1948
331
1683
  5
1683
331
17B2
  5
17B2
331
168B
  5
168B
331
1950
  5
1950
331
1AAF
  5
1AAF
331
1AF6
  5
1AF6
331
1AB7
  5
1AB7
331
604
  5
604
331
29F
  5
29F
331
58E
  5
58E
331
5CD
  5
5CD
331
70B
  5
70B
331
742
  5
742
331
1AFE
  5
1AFE
331
16E3
  5
16E3
331
74A
  5
74A
331
5D5
  5
5D5
331
2A7
  5
2A7
331
596
  5
596
331
61C
  5
61C
331
713
  5
713
331
1B06
  5
1B06
331
1AC7
  5
1AC7
331
71B
  5
71B
331
5DD
  5
5DD
331
2AF
  5
2AF
331
59E
  5
59E
331
624
  5
624
331
752
  5
752
331
1CD5
  5
1CD5
331
723
  5
723
331
5A6
  5
5A6
331
5E5
  5
5E5
331
801
  5
801
331
1CDD
  5
1CDD
331
1CFD
  5
1CFD
331
1988
  5
1988
331
1862
  5
1862
331
1664
  5
1664
331
186A
  5
186A
331
166C
  5
166C
331
278
  5
278
331
1B16
  5
1B16
331
1674
  5
1674
331
1A98
  5
1A98
331
1AD7
  5
1AD7
331
809
  5
809
331
72B
  5
72B
331
5AE
  5
5AE
331
280
  5
280
331
5ED
  5
5ED
331
76A
  5
76A
331
1B1E
  5
1B1E
331
1ADF
  5
1ADF
331
167C
  5
167C
331
772
  5
772
331
5F5
  5
5F5
331
57F
  5
57F
331
288
  5
288
331
5B6
  5
5B6
331
733
  5
733
331
811
  5
811
331
1B26
  5
1B26
331
7AA
  5
7AA
331
5FD
  5
5FD
331
290
  5
290
331
587
  5
587
331
5BE
  5
5BE
331
73B
  5
73B
331
1CB6
  5
1CB6
331
5C6
  5
5C6
331
7B2
  5
7B2
331
1CBE
  5
1CBE
331
1CC6
  5
1CC6
331
1CCE
  5
1CCE
331
1AA8
  5
1AA8
331
1684
  5
1684
331
1949
  5
1949
331
1AB0
  5
1AB0
331
18CA
  5
18CA
331
168C
  5
168C
331
1951
  5
1951
331
1AF7
  5
1AF7
331
1AB8
  5
1AB8
331
298
  5
298
331
70C
  5
70C
331
58F
  5
58F
331
2A0
  5
2A0
331
5CE
  5
5CE
331
743
  5
743
331
7CA
  5
7CA
331
714
  5
714
331
597
  5
597
331
2A8
  5
2A8
331
5D6
  5
5D6
331
61D
  5
61D
331
74B
  5
74B
331
1CD6
  5
1CD6
331
625
  5
625
331
2B0
  5
2B0
331
59F
  5
59F
331
5DE
  5
5DE
331
71C
  5
71C
331
753
  5
753
331
1CDE
  5
1CDE
331
802
  5
802
331
5E6
  5
5E6
331
5A7
  5
5A7
331
724
  5
724
331
1989
  5
1989
331
1665
  5
1665
331
1863
  5
1863
331
1B0F
  5
1B0F
331
186B
  5
186B
331
166D
  5
166D
331
1AD0
  5
1AD0
331
1B17
  5
1B17
331
1A99
  5
1A99
331
1675
  5
1675
331
1AD8
  5
1AD8
331
279
  5
279
331
72C
  5
72C
331
5EE
  5
5EE
331
1B1F
  5
1B1F
331
167D
  5
167D
331
281
  5
281
331
5AF
  5
5AF
331
76B
  5
76B
331
80A
  5
80A
331
734
  5
734
331
5B7
  5
5B7
331
289
  5
289
331
580
  5
580
331
5F6
  5
5F6
331
773
  5
773
331
812
  5
812
331
1CB7
  5
1CB7
331
73C
  5
73C
331
5BF
  5
5BF
331
291
  5
291
331
5FE
  5
5FE
331
7AB
  5
7AB
331
1CBF
  5
1CBF
331
7B3
  5
7B3
331
5C7
  5
5C7
331
1CCF
  5
1CCF
331
194A
  5
194A
331
1685
  5
1685
331
17B4
  5
17B4
331
18BB
  5
18BB
331
1AA9
  5
1AA9
331
1AE0
  5
1AE0
331
1952
  5
1952
331
1AB1
  5
1AB1
331
588
  5
588
331
1AF8
  5
1AF8
331
1AB9
  5
1AB9
331
299
  5
299
331
70D
  5
70D
331
1B00
  5
1B00
331
2A1
  5
2A1
331
590
  5
590
331
5CF
  5
5CF
331
744
  5
744
331
1B80
  5
1B80
331
74C
  5
74C
331
5D7
  5
5D7
331
26A
  5
26A
331
2A9
  5
2A9
331
598
  5
598
331
61E
  5
61E
331
715
  5
715
331
1CD7
  5
1CD7
331
71D
  5
71D
331
5A0
  5
5A0
331
5DF
  5
5DF
331
626
  5
626
331
754
  5
754
331
1CDF
  5
1CDF
331
803
  5
803
331
725
  5
725
331
5E7
  5
5E7
  0
IMAGEDEF
  5
579
102
{ACAD_REACTORS
330
578
102
}
330
578
100
AcDbRasterImageDef
 90
        0
  1
D:\ﾃｽﾄ\rogo01.TIF
 10
3388.0
 20
4668.0
 11
0.0635
 21
0.0635
280
     1
281
     5
  0
LAYOUT
  5
1D1B
102
{ACAD_REACTORS
330
1D19
102
}
330
1D19
100
AcDbPlotSettings
  1

  2
A4 EPSON LP-6100.pc3
  4
A4
  6

 40
5.873749732971191
 41
5.873747825622558
 42
5.873748779296875
 43
5.873748779296875
 44
209.9733276367187
 45
297.0106506347656
 46
1.5
 47
25.0
 48
0.0
 49
0.0
140
0.0
141
0.0
142
1.0
143
1.0
 70
 28336
 72
     1
 73
     1
 74
     1
  7
AutoCAD LT 98.ctb
 75
    16
147
1.0
 76
     1
 77
     2
 78
   300
148
0.2256454072593215
149
0.2181385412601458
100
AcDbLayout
  1
Model
 70
     1
 71
     0
 10
0.0
 20
0.0
 11
12.0
 21
9.0
 12
0.0
 22
0.0
 32
0.0
 14
0.0
 24
0.0
 34
0.0
 15
0.0
 25
0.0
 35
0.0
146
0.0
 13
0.0
 23
0.0
 33
0.0
 16
1.0
 26
0.0
 36
0.0
 17
0.0
 27
1.0
 37
0.0
 76
     0
330
18
1001
ACAD_PSEXT
1000
A4 EPSON LP-6100.pc3
1000
EPSON LP-6100
1000
USB002
1000

1070
     0
  0
LAYOUT
  5
1D1C
102
{ACAD_REACTORS
330
1D19
102
}
330
1D19
100
AcDbPlotSettings
  1

  2
WIDR Printer
  4

  6

 40
0.0
 41
0.0
 42
0.0
 43
0.0
 44
0.0
 45
0.0
 46
0.0
 47
0.0
 48
0.0
 49
0.0
140
0.0
141
0.0
142
1.0
143
1.0
 70
   688
 72
     0
 73
     0
 74
     5
  7
AutoCad LT 98.ctb
 75
    16
147
1.0
 76
     0
 77
     2
 78
   300
148
0.0
149
0.0
100
AcDbLayout
  1
レイアウト1
 70
     1
 71
     1
 10
0.0
 20
0.0
 11
420.0
 21
297.0
 12
0.0
 22
0.0
 32
0.0
 14
-0.2
 24
-0.2
 34
0.0
 15
255.2
 25
195.2
 35
0.0
146
0.0
 13
0.0
 23
0.0
 33
0.0
 16
1.0
 26
0.0
 36
0.0
 17
0.0
 27
1.0
 37
0.0
 76
     0
330
15
331
177
  0
MLINESTYLE
  5
1C
102
{ACAD_REACTORS
330
1B
102
}
330
1B
100
AcDbMlineStyle
  2
STANDARD
 70
     0
  3

 62
   256
 51
90.0
 52
90.0
 71
     2
 49
0.5
 62
   256
  6
BYLAYER
 49
-0.5
 62
   256
  6
BYLAYER
  0
ACDBPLACEHOLDER
  5
1D14
102
{ACAD_REACTORS
330
1D13
102
}
330
1D13
  0
ACAD_PROXY_OBJECT
  5
1D18
102
{ACAD_REACTORS
330
1D17
102
}
330
1D17
100
AcDbProxyObject
 90
      499
 91
      504
 95
  2555929
 70
     0
 93
     1849
310
4214DD185B99185C992420000000000000F83F0000000000003E0FC00000000000004901028000000C1008070000C3001FDFF8000000C1003FBFF000000182007F7FE00000030400FEFFC00000060801FDFF8000000C1003FBFF000000182000000000000000C2020B0000001820100E000186003FBFF000000182007F7FE0
310
0000030400FEFFC00000060801FDFF8000000C1003FBFF000000182007F7FE0000003040000000000000012404160000003040201C00030C007F7FE00000030400FEFFC00000060801FDFF8000000C1003FBFF000000182007F7FE00000030400FEFFC000000608000
340
F
340
F
340
F
 94
        0
  0
DICTIONARYVAR
  5
1D24
102
{ACAD_REACTORS
330
1D23
102
}
330
1D23
100
DictionaryVariables
280
     0
  1
STANDARD
  0
ENDSEC
  0
EOF
