  0
SECTION
  2
HEADER
  9
$ACADVER
  1
AC1018
  9
$ACADMAINTVER
 70
     0
  9
$DWGCODEPAGE
  3
ANSI_932
  9
$INSBASE
 10
0.0
 20
0.0
 30
0.0
  9
$EXTMIN
 10
-0.2320538237274832
 20
-0.2226711004567505
 30
-0.000000000000013
  9
$EXTMAX
 10
255.2234841961279
 20
195.2183102100925
 30
0.0000000000000023
  9
$LIMMIN
 10
0.0
 20
0.0
  9
$LIMMAX
 10
420.0
 20
297.0
  9
$ORTHOMODE
 70
     0
  9
$REGENMODE
 70
     1
  9
$FILLMODE
 70
     1
  9
$QTEXTMODE
 70
     0
  9
$MIRRTEXT
 70
     1
  9
$LTSCALE
 40
1.0
  9
$ATTMODE
 70
     1
  9
$TEXTSIZE
 40
2.5
  9
$TRACEWID
 40
1.0
  9
$TEXTSTYLE
  7
STYLE3
  9
$CLAYER
  8
寸法線
  9
$CELTYPE
  6
BYLAYER
  9
$CECOLOR
 62
   256
  9
$CELTSCALE
 40
1.0
  9
$DISPSILH
 70
     0
  9
$DIMSCALE
 40
1.0
  9
$DIMASZ
 40
2.5
  9
$DIMEXO
 40
0.0
  9
$DIMDLI
 40
3.75
  9
$DIMRND
 40
0.0
  9
$DIMDLE
 40
0.0
  9
$DIMEXE
 40
1.25
  9
$DIMTP
 40
0.0
  9
$DIMTM
 40
0.0
  9
$DIMTXT
 40
2.5
  9
$DIMCEN
 40
2.5
  9
$DIMTSZ
 40
0.0
  9
$DIMTOL
 70
     0
  9
$DIMLIM
 70
     0
  9
$DIMTIH
 70
     0
  9
$DIMTOH
 70
     0
  9
$DIMSE1
 70
     0
  9
$DIMSE2
 70
     0
  9
$DIMTAD
 70
     1
  9
$DIMZIN
 70
     8
  9
$DIMBLK
  1

  9
$DIMASO
 70
     1
  9
$DIMSHO
 70
     1
  9
$DIMPOST
  1

  9
$DIMAPOST
  1

  9
$DIMALT
 70
     0
  9
$DIMALTD
 70
     4
  9
$DIMALTF
 40
0.0394
  9
$DIMLFAC
 40
1.0
  9
$DIMTOFL
 70
     1
  9
$DIMTVP
 40
0.0
  9
$DIMTIX
 70
     0
  9
$DIMSOXD
 70
     0
  9
$DIMSAH
 70
     1
  9
$DIMBLK1
  1
OPEN
  9
$DIMBLK2
  1
OPEN
  9
$DIMSTYLE
  2
STYLE3
  9
$DIMCLRD
 70
     2
  9
$DIMCLRE
 70
     2
  9
$DIMCLRT
 70
     6
  9
$DIMTFAC
 40
1.0
  9
$DIMGAP
 40
0.625
  9
$DIMJUST
 70
     0
  9
$DIMSD1
 70
     0
  9
$DIMSD2
 70
     0
  9
$DIMTOLJ
 70
     1
  9
$DIMTZIN
 70
     0
  9
$DIMALTZ
 70
     0
  9
$DIMALTTZ
 70
     0
  9
$DIMUPT
 70
     0
  9
$DIMDEC
 70
     1
  9
$DIMTDEC
 70
     4
  9
$DIMALTU
 70
     8
  9
$DIMALTTD
 70
     4
  9
$DIMTXSTY
  7
STYLE3
  9
$DIMAUNIT
 70
     0
  9
$DIMADEC
 70
     0
  9
$DIMALTRND
 40
0.0
  9
$DIMAZIN
 70
     0
  9
$DIMDSEP
 70
    46
  9
$DIMATFIT
 70
     3
  9
$DIMFRAC
 70
     0
  9
$DIMLDRBLK
  1
OPEN
  9
$DIMLUNIT
 70
     2
  9
$DIMLWD
 70
    -2
  9
$DIMLWE
 70
    -2
  9
$DIMTMOVE
 70
     0
  9
$LUNITS
 70
     2
  9
$LUPREC
 70
     4
  9
$SKETCHINC
 40
1.0
  9
$FILLETRAD
 40
0.0
  9
$AUNITS
 70
     0
  9
$AUPREC
 70
     0
  9
$MENU
  1
.
  9
$ELEVATION
 40
0.0
  9
$PELEVATION
 40
0.0
  9
$THICKNESS
 40
0.0
  9
$LIMCHECK
 70
     0
  9
$CHAMFERA
 40
0.2
  9
$CHAMFERB
 40
0.2
  9
$CHAMFERC
 40
20.0
  9
$CHAMFERD
 40
0.0
  9
$SKPOLY
 70
     0
  9
$TDCREATE
 40
2450717.578556713
  9
$TDUCREATE
 40
2450717.203556713
  9
$TDUPDATE
 40
2455379.571553090
  9
$TDUUPDATE
 40
2455379.196553090
  9
$TDINDWG
 40
1.1467700926
  9
$TDUSRTIMER
 40
1.1467700926
  9
$USRTIMER
 70
     1
  9
$ANGBASE
 50
0.0
  9
$ANGDIR
 70
     0
  9
$PDMODE
 70
     0
  9
$PDSIZE
 40
0.0
  9
$PLINEWID
 40
0.0
  9
$SPLFRAME
 70
     0
  9
$SPLINETYPE
 70
     6
  9
$SPLINESEGS
 70
     8
  9
$HANDSEED
  5
26D7
  9
$SURFTAB1
 70
     6
  9
$SURFTAB2
 70
     6
  9
$SURFTYPE
 70
     6
  9
$SURFU
 70
     6
  9
$SURFV
 70
     6
  9
$UCSBASE
  2

  9
$UCSNAME
  2

  9
$UCSORG
 10
0.0
 20
0.0
 30
0.0
  9
$UCSXDIR
 10
1.0
 20
0.0
 30
0.0
  9
$UCSYDIR
 10
0.0
 20
1.0
 30
0.0
  9
$UCSORTHOREF
  2

  9
$UCSORTHOVIEW
 70
     0
  9
$UCSORGTOP
 10
0.0
 20
0.0
 30
0.0
  9
$UCSORGBOTTOM
 10
0.0
 20
0.0
 30
0.0
  9
$UCSORGLEFT
 10
0.0
 20
0.0
 30
0.0
  9
$UCSORGRIGHT
 10
0.0
 20
0.0
 30
0.0
  9
$UCSORGFRONT
 10
0.0
 20
0.0
 30
0.0
  9
$UCSORGBACK
 10
0.0
 20
0.0
 30
0.0
  9
$PUCSBASE
  2

  9
$PUCSNAME
  2

  9
$PUCSORG
 10
0.0
 20
0.0
 30
0.0
  9
$PUCSXDIR
 10
1.0
 20
0.0
 30
0.0
  9
$PUCSYDIR
 10
0.0
 20
1.0
 30
0.0
  9
$PUCSORTHOREF
  2

  9
$PUCSORTHOVIEW
 70
     0
  9
$PUCSORGTOP
 10
0.0
 20
0.0
 30
0.0
  9
$PUCSORGBOTTOM
 10
0.0
 20
0.0
 30
0.0
  9
$PUCSORGLEFT
 10
0.0
 20
0.0
 30
0.0
  9
$PUCSORGRIGHT
 10
0.0
 20
0.0
 30
0.0
  9
$PUCSORGFRONT
 10
0.0
 20
0.0
 30
0.0
  9
$PUCSORGBACK
 10
0.0
 20
0.0
 30
0.0
  9
$USERI1
 70
     0
  9
$USERI2
 70
     0
  9
$USERI3
 70
     0
  9
$USERI4
 70
     0
  9
$USERI5
 70
     0
  9
$USERR1
 40
0.0
  9
$USERR2
 40
0.0
  9
$USERR3
 40
0.0
  9
$USERR4
 40
0.0
  9
$USERR5
 40
0.0
  9
$WORLDVIEW
 70
     1
  9
$SHADEDGE
 70
     3
  9
$SHADEDIF
 70
    70
  9
$TILEMODE
 70
     1
  9
$MAXACTVP
 70
    48
  9
$PINSBASE
 10
0.0
 20
0.0
 30
0.0
  9
$PLIMCHECK
 70
     0
  9
$PEXTMIN
 10
1.000000000000000E+20
 20
1.000000000000000E+20
 30
1.000000000000000E+20
  9
$PEXTMAX
 10
-1.000000000000000E+20
 20
-1.000000000000000E+20
 30
-1.000000000000000E+20
  9
$PLIMMIN
 10
0.0
 20
0.0
  9
$PLIMMAX
 10
420.0
 20
297.0
  9
$UNITMODE
 70
     0
  9
$VISRETAIN
 70
     1
  9
$PLINEGEN
 70
     0
  9
$PSLTSCALE
 70
     1
  9
$TREEDEPTH
 70
  3020
  9
$CMLSTYLE
  2
STANDARD
  9
$CMLJUST
 70
     0
  9
$CMLSCALE
 40
20.0
  9
$PROXYGRAPHICS
 70
     1
  9
$MEASUREMENT
 70
     1
  9
$CELWEIGHT
370
    -1
  9
$ENDCAPS
280
     0
  9
$JOINSTYLE
280
     0
  9
$LWDISPLAY
290
     0
  9
$INSUNITS
 70
     0
  9
$HYPERLINKBASE
  1

  9
$STYLESHEET
  1
AutoCAD LT 98.ctb
  9
$XEDIT
290
     1
  9
$CEPSNTYPE
380
     0
  9
$PSTYLEMODE
290
     1
  9
$FINGERPRINTGUID
  2
{DC725B3A-2222-49B2-87DA-4CEE2916DF0F}
  9
$VERSIONGUID
  2
{CF541571-96AA-4912-A2C7-8EB219F76C19}
  9
$EXTNAMES
290
     1
  9
$PSVPSCALE
 40
0.0
  9
$OLESTARTUP
290
     0
  9
$SORTENTS
280
    96
  9
$INDEXCTL
280
     0
  9
$HIDETEXT
280
     0
  9
$XCLIPFRAME
290
     0
  9
$HALOGAP
280
     0
  9
$OBSCOLOR
 70
   257
  9
$OBSLTYPE
280
     0
  9
$INTERSECTIONDISPLAY
280
     0
  9
$INTERSECTIONCOLOR
 70
   257
  9
$DIMASSOC
280
     1
  9
$PROJECTNAME
  1

  0
ENDSEC
  0
SECTION
  2
CLASSES
  0
CLASS
  1
HATCH
  2
AcDbHatch
  3
ObjectDBX Classes
 90
        0
 91
        8
280
     0
281
     1
  0
CLASS
  1
LWPOLYLINE
  2
AcDbPolyline
  3
ObjectDBX Classes
 90
        0
 91
        4
280
     0
281
     1
  0
CLASS
  1
IMAGEDEF
  2
AcDbRasterImageDef
  3
ISM
 90
        0
 91
        1
280
     0
281
     0
  0
CLASS
  1
DICTIONARYVAR
  2
AcDbDictionaryVar
  3
ObjectDBX Classes
 90
        0
 91
        2
280
     0
281
     0
  0
CLASS
  1
ACDBDICTIONARYWDFLT
  2
AcDbDictionaryWithDefault
  3
ObjectDBX Classes
 90
        0
 91
        1
280
     0
281
     0
  0
CLASS
  1
TABLESTYLE
  2
AcDbTableStyle
  3
ObjectDBX Classes
 90
     2047
 91
        1
280
     0
281
     0
  0
ENDSEC
  0
SECTION
  2
TABLES
  0
TABLE
  2
VPORT
  5
8
330
0
100
AcDbSymbolTable
 70
     2
  0
VPORT
  5
26D6
330
8
100
AcDbSymbolTableRecord
100
AcDbViewportTableRecord
  2
*Active
 70
     0
 10
0.0
 20
0.0
 11
1.0
 21
1.0
 12
127.4957151862001
 22
97.49781955481791
 13
0.0
 23
0.0
 14
10.0
 24
10.0
 15
10.0
 25
10.0
 16
0.0
 26
0.0
 36
1.0
 17
0.0
 27
0.0
 37
0.0
 40
196.9272245144318
 41
1.530456852791878
 42
50.0
 43
0.0
 44
0.0
 50
0.0
 51
0.0
 71
     0
 72
   100
 73
     1
 74
     1
 75
     0
 76
     0
 77
     0
 78
     0
281
     0
 65
     1
110
0.0
120
0.0
130
0.0
111
1.0
121
0.0
131
0.0
112
0.0
122
1.0
132
0.0
 79
     0
146
0.0
  0
ENDTAB
  0
TABLE
  2
LTYPE
  5
5
330
0
100
AcDbSymbolTable
 70
     2
  0
LTYPE
  5
12
330
5
100
AcDbSymbolTableRecord
100
AcDbLinetypeTableRecord
  2
BYBLOCK
 70
     0
  3

 72
    65
 73
     0
 40
0.0
  0
LTYPE
  5
13
330
5
100
AcDbSymbolTableRecord
100
AcDbLinetypeTableRecord
  2
BYLAYER
 70
     0
  3

 72
    65
 73
     0
 40
0.0
  0
LTYPE
  5
14
330
5
100
AcDbSymbolTableRecord
100
AcDbLinetypeTableRecord
  2
CONTINUOUS
 70
     0
  3
Solid line
 72
    65
 73
     0
 40
0.0
  0
LTYPE
  5
22
330
5
100
AcDbSymbolTableRecord
100
AcDbLinetypeTableRecord
  2
CENTER2
 70
     0
  3
Center (.5x) ___ _ ___ _ ___ _ ___ _ ___ _ ___
 72
    65
 73
     4
 40
28.575
 49
19.05
 74
     0
 49
-3.174999999999999
 74
     0
 49
3.174999999999999
 74
     0
 49
-3.174999999999999
 74
     0
  0
ENDTAB
  0
TABLE
  2
LAYER
  5
2
330
0
100
AcDbSymbolTable
 70
    12
  0
LAYER
  5
E
330
2
100
AcDbSymbolTableRecord
100
AcDbLayerTableRecord
  2
0
 70
     0
 62
     7
  6
CONTINUOUS
370
    -3
390
1F10
  0
LAYER
  5
25
330
2
100
AcDbSymbolTableRecord
100
AcDbLayerTableRecord
  2
外形線
 70
     0
 62
     7
  6
CONTINUOUS
370
    -3
390
1F10
  0
LAYER
  5
27
330
2
100
AcDbSymbolTableRecord
100
AcDbLayerTableRecord
  2
中心線
 70
     0
 62
     4
  6
CENTER2
370
    -3
390
1F10
  0
LAYER
  5
2B
330
2
100
AcDbSymbolTableRecord
100
AcDbLayerTableRecord
  2
文字
 70
     0
 62
     6
  6
CONTINUOUS
370
    -3
390
1F10
  0
LAYER
  5
53
330
2
100
AcDbSymbolTableRecord
100
AcDbLayerTableRecord
  2
DEFPOINTS
 70
     0
 62
     7
  6
CONTINUOUS
290
     0
370
    -3
390
1F10
  0
LAYER
  5
A5
330
2
100
AcDbSymbolTableRecord
100
AcDbLayerTableRecord
  2
C
 70
     0
 62
     7
  6
CONTINUOUS
370
    -3
390
1F10
  0
LAYER
  5
E00
330
2
100
AcDbSymbolTableRecord
100
AcDbLayerTableRecord
  2
ROGO
 70
     0
 62
     6
  6
CONTINUOUS
370
    -3
390
1F10
  0
LAYER
  5
1B1C
330
2
100
AcDbSymbolTableRecord
100
AcDbLayerTableRecord
  2
寸法線
 70
     0
 62
     2
  6
CONTINUOUS
370
    -3
390
1F10
  0
ENDTAB
  0
TABLE
  2
STYLE
  5
3
330
0
100
AcDbSymbolTable
 70
     4
  0
STYLE
  5
F
330
3
100
AcDbSymbolTableRecord
100
AcDbTextStyleTableRecord
  2
STANDARD
 70
     0
 40
0.0
 41
1.0
 50
0.0
 71
     0
 42
2.5
  3
txt
  4

  0
STYLE
  5
3F
330
3
100
AcDbSymbolTableRecord
100
AcDbTextStyleTableRecord
  2
STYLE3
 70
     0
 40
0.0
 41
1.0
 50
0.0
 71
     0
 42
2.5
  3
romans.shx
  4
bigfont.shx
  0
STYLE
  5
1B1D
330
3
100
AcDbSymbolTableRecord
100
AcDbTextStyleTableRecord
  2
STYLE4
 70
     0
 40
0.0
 41
1.0
 50
0.0
 71
     0
 42
5.0
  3
romans.shx
  4
bigfont.shx
  0
ENDTAB
  0
TABLE
  2
VIEW
  5
6
330
0
100
AcDbSymbolTable
 70
     0
  0
ENDTAB
  0
TABLE
  2
UCS
  5
7
330
0
100
AcDbSymbolTable
 70
     0
  0
ENDTAB
  0
TABLE
  2
APPID
  5
9
330
0
100
AcDbSymbolTable
 70
     2
  0
APPID
  5
10
330
9
100
AcDbSymbolTableRecord
100
AcDbRegAppTableRecord
  2
ACAD
 70
     0
  0
APPID
  5
1FD1
330
9
100
AcDbSymbolTableRecord
100
AcDbRegAppTableRecord
  2
ACAD_PSEXT
 70
     0
  0
ENDTAB
  0
TABLE
  2
DIMSTYLE
  5
A
330
0
100
AcDbSymbolTable
 70
     3
100
AcDbDimStyleTable
 71
     1
340
1914
  0
DIMSTYLE
105
1D
330
A
100
AcDbSymbolTableRecord
100
AcDbDimStyleTableRecord
  2
STANDARD
 70
     0
 41
2.5
 42
0.625
 43
3.75
 44
1.25
 73
     0
 74
     0
 77
     1
 78
     8
140
2.5
141
2.5
143
0.0394
147
0.625
171
     4
172
     1
273
     8
274
     4
277
     6
340
F
  0
DIMSTYLE
105
66
102
{ACAD_REACTORS
330
1A5A
330
1A67
330
1AD2
330
1E8C
330
1E99
102
}
330
A
100
AcDbSymbolTableRecord
100
AcDbDimStyleTableRecord
  2
STYLE2
 70
     0
 41
2.5
 42
0.0
 43
3.75
 44
1.25
 73
     0
 74
     0
 77
     1
 78
     8
140
2.5
141
2.5
143
0.0394
147
0.625
171
     4
172
     1
173
     1
176
     2
177
     2
178
     6
271
     1
273
     8
274
     4
340
3F
341
45
343
45
344
45
  0
DIMSTYLE
105
1914
102
{ACAD_REACTORS
330
24A9
330
24D4
330
24F2
102
}
330
A
100
AcDbSymbolTableRecord
100
AcDbDimStyleTableRecord
  2
STYLE3
 70
     0
 41
2.5
 42
0.0
 43
3.75
 44
1.25
 73
     0
 74
     0
 77
     1
 78
     8
140
2.5
141
2.5
143
0.0394
147
0.625
171
     4
172
     1
173
     1
176
     2
177
     2
178
     6
271
     1
273
     8
274
     4
340
3F
341
45
343
45
344
45
  0
ENDTAB
  0
TABLE
  2
BLOCK_RECORD
  5
1
330
0
100
AcDbSymbolTable
 70
    13
  0
BLOCK_RECORD
  5
18
330
1
100
AcDbSymbolTableRecord
100
AcDbBlockTableRecord
  2
*MODEL_SPACE
340
1F17
  0
BLOCK_RECORD
  5
15
330
1
100
AcDbSymbolTableRecord
100
AcDbBlockTableRecord
  2
*PAPER_SPACE
340
1F18
  0
BLOCK_RECORD
  5
45
330
1
100
AcDbSymbolTableRecord
100
AcDbBlockTableRecord
  2
_OPEN
340
0
102
{BLKREFS
331
2682
331
2683
331
268B
331
268C
331
2694
331
2695
331
269D
331
269E
331
26A6
331
26A7
331
26AF
331
26B0
331
26B8
331
26B9
331
26C5
331
26C6
102
}
  0
BLOCK_RECORD
  5
1A4E
330
1
100
AcDbSymbolTableRecord
100
AcDbBlockTableRecord
  2
*D1
340
0
  0
BLOCK_RECORD
  5
1A5B
330
1
100
AcDbSymbolTableRecord
100
AcDbBlockTableRecord
  2
*D2
340
0
  0
BLOCK_RECORD
  5
1AC6
330
1
100
AcDbSymbolTableRecord
100
AcDbBlockTableRecord
  2
*D4
340
0
  0
BLOCK_RECORD
  5
1E80
330
1
100
AcDbSymbolTableRecord
100
AcDbBlockTableRecord
  2
*D5
340
0
  0
BLOCK_RECORD
  5
1E8D
330
1
100
AcDbSymbolTableRecord
100
AcDbBlockTableRecord
  2
*D6
340
0
  0
BLOCK_RECORD
  5
24AA
330
1
100
AcDbSymbolTableRecord
100
AcDbBlockTableRecord
  2
*D8
340
0
  0
BLOCK_RECORD
  5
24D5
330
1
100
AcDbSymbolTableRecord
100
AcDbBlockTableRecord
  2
*D9
340
0
  0
BLOCK_RECORD
  5
24F3
330
1
100
AcDbSymbolTableRecord
100
AcDbBlockTableRecord
  2
*D10
340
0
  0
ENDTAB
  0
ENDSEC
  0
SECTION
  2
BLOCKS
  0
BLOCK
  5
19
330
18
100
AcDbEntity
  8
0
100
AcDbBlockBegin
  2
*MODEL_SPACE
 70
     0
 10
0.0
 20
0.0
 30
0.0
  3
*MODEL_SPACE
  1

  0
ENDBLK
  5
1A
330
18
100
AcDbEntity
  8
0
100
AcDbBlockEnd
  0
BLOCK
  5
16
330
15
100
AcDbEntity
 67
     1
  8
0
100
AcDbBlockBegin
  2
*PAPER_SPACE
 70
     0
 10
0.0
 20
0.0
 30
0.0
  3
*PAPER_SPACE
  1

  0
ENDBLK
  5
17
330
15
100
AcDbEntity
 67
     1
  8
0
100
AcDbBlockEnd
  0
BLOCK
  5
46
330
45
100
AcDbEntity
  8
0
100
AcDbBlockBegin
  2
_OPEN
 70
     0
 10
0.0
 20
0.0
 30
0.0
  3
_OPEN
  1

  0
LINE
  5
47
330
45
100
AcDbEntity
  8
0
  6
ByBlock
 62
     0
100
AcDbLine
 10
-1.0
 20
0.1666666666666666
 30
0.0
 11
0.0
 21
0.0
 31
0.0
  0
LINE
  5
48
330
45
100
AcDbEntity
  8
0
  6
ByBlock
 62
     0
100
AcDbLine
 10
0.0
 20
0.0
 30
0.0
 11
-1.0
 21
-0.1666666666666666
 31
0.0
  0
LINE
  5
49
330
45
100
AcDbEntity
  8
0
  6
ByBlock
 62
     0
100
AcDbLine
 10
0.0
 20
0.0
 30
0.0
 11
-1.0
 21
0.0
 31
0.0
  0
ENDBLK
  5
4A
330
45
100
AcDbEntity
  8
0
100
AcDbBlockEnd
  0
BLOCK
  5
1A4F
330
1A4E
100
AcDbEntity
  8
0
100
AcDbBlockBegin
  2
*D1
 70
     1
 10
0.0
 20
0.0
 30
0.0
  3
*D1
  1

  0
LINE
  5
2691
330
1A4E
100
AcDbEntity
  8
外形線
 62
     2
370
    -2
100
AcDbLine
 10
55.37191088598809
 20
47.20090933387429
 30
0.0
 11
43.84819163058785
 21
47.2009093338743
 31
0.0
  0
LINE
  5
2692
330
1A4E
100
AcDbEntity
  8
外形線
 62
     2
370
    -2
100
AcDbLine
 10
88.31298497864537
 20
37.10090933387429
 30
0.0
 11
43.84819163058785
 21
37.1009093338743
 31
0.0
  0
LINE
  5
2693
330
1A4E
100
AcDbEntity
  8
外形線
 62
     2
370
    -2
100
AcDbLine
 10
45.09819163058785
 20
44.7009093338743
 30
0.0
 11
45.09819163058785
 21
39.6009093338743
 31
0.0
  0
INSERT
  5
2694
330
1A4E
100
AcDbEntity
  8
外形線
 62
     2
370
    -2
100
AcDbBlockReference
  2
_OPEN
 10
45.09819163058785
 20
47.2009093338743
 30
0.0
 41
2.5
 42
2.5
 43
2.5
 50
90.0
  0
INSERT
  5
2695
330
1A4E
100
AcDbEntity
  8
外形線
 62
     2
370
    -2
100
AcDbBlockReference
  2
_OPEN
 10
45.09819163058785
 20
37.1009093338743
 30
0.0
 41
2.5
 42
2.5
 43
2.5
 50
270.0
  0
MTEXT
  5
2696
330
1A4E
100
AcDbEntity
  8
外形線
 62
     6
100
AcDbMText
 10
43.22319163058784
 20
42.15090933387431
 30
0.0
 40
2.5
 41
0.0
 71
     5
 72
     1
  1
\A1;10.1
  7
STYLE3
 11
0.0000000000000001
 21
1.0
 31
0.0
 73
     1
 44
1.0
  0
POINT
  5
2697
330
1A4E
100
AcDbEntity
  8
DEFPOINTS
 62
     0
100
AcDbPoint
 10
55.37191088598809
 20
47.20090933387429
 30
0.0
  0
POINT
  5
2698
330
1A4E
100
AcDbEntity
  8
DEFPOINTS
 62
     0
100
AcDbPoint
 10
88.31298497864537
 20
37.10090933387429
 30
0.0
  0
POINT
  5
2699
330
1A4E
100
AcDbEntity
  8
DEFPOINTS
 62
     0
100
AcDbPoint
 10
45.09819163058785
 20
37.1009093338743
 30
0.0
  0
ENDBLK
  5
1A59
330
1A4E
100
AcDbEntity
  8
0
100
AcDbBlockEnd
  0
BLOCK
  5
1A5C
330
1A5B
100
AcDbEntity
  8
0
100
AcDbBlockBegin
  2
*D2
 70
     1
 10
0.0
 20
0.0
 30
0.0
  3
*D2
  1

  0
LINE
  5
269A
330
1A5B
100
AcDbEntity
  8
外形線
 62
     2
370
    -2
100
AcDbLine
 10
58.31298497864543
 20
47.20090933387429
 30
0.0
 11
58.31298497864543
 21
26.91675652609217
 31
0.0
  0
LINE
  5
269B
330
1A5B
100
AcDbEntity
  8
外形線
 62
     2
370
    -2
100
AcDbLine
 10
118.3129849786453
 20
47.20090933387426
 30
0.0
 11
118.3129849786453
 21
26.91675652609217
 31
0.0
  0
LINE
  5
269C
330
1A5B
100
AcDbEntity
  8
外形線
 62
     2
370
    -2
100
AcDbLine
 10
60.81298497864543
 20
28.16675652609217
 30
0.0
 11
115.8129849786454
 21
28.16675652609217
 31
0.0
  0
INSERT
  5
269D
330
1A5B
100
AcDbEntity
  8
外形線
 62
     2
370
    -2
100
AcDbBlockReference
  2
_OPEN
 10
58.31298497864543
 20
28.16675652609217
 30
0.0
 41
2.5
 42
2.5
 43
2.5
 50
180.0
  0
INSERT
  5
269E
330
1A5B
100
AcDbEntity
  8
外形線
 62
     2
370
    -2
100
AcDbBlockReference
  2
_OPEN
 10
118.3129849786453
 20
28.16675652609217
 30
0.0
 41
2.5
 42
2.5
 43
2.5
  0
MTEXT
  5
269F
330
1A5B
100
AcDbEntity
  8
外形線
 62
     6
100
AcDbMText
 10
88.31298497864541
 20
30.04175652609217
 30
0.0
 40
2.5
 41
0.0
 71
     5
 72
     1
  1
\A1;60
  7
STYLE3
 73
     1
 44
1.0
  0
POINT
  5
26A0
330
1A5B
100
AcDbEntity
  8
DEFPOINTS
 62
     0
100
AcDbPoint
 10
58.31298497864543
 20
47.20090933387429
 30
0.0
  0
POINT
  5
26A1
330
1A5B
100
AcDbEntity
  8
DEFPOINTS
 62
     0
100
AcDbPoint
 10
118.3129849786453
 20
47.20090933387426
 30
0.0
  0
POINT
  5
26A2
330
1A5B
100
AcDbEntity
  8
DEFPOINTS
 62
     0
100
AcDbPoint
 10
118.3129849786453
 20
28.16675652609217
 30
0.0
  0
ENDBLK
  5
1A66
330
1A5B
100
AcDbEntity
  8
0
100
AcDbBlockEnd
  0
BLOCK
  5
1AC7
330
1AC6
100
AcDbEntity
  8
0
100
AcDbBlockBegin
  2
*D4
 70
     1
 10
0.0
 20
0.0
 30
0.0
  3
*D4
  1

  0
LINE
  5
26AC
330
1AC6
100
AcDbEntity
  8
文字
 62
     2
370
    -2
100
AcDbLine
 10
175.9196683324954
 20
58.02622688117972
 30
0.0
 11
175.9196683324954
 21
26.91675652609217
 31
0.0
  0
LINE
  5
26AD
330
1AC6
100
AcDbEntity
  8
文字
 62
     2
370
    -2
100
AcDbLine
 10
189.9196683324954
 20
58.0262268811797
 30
0.0
 11
189.9196683324954
 21
26.91675652609217
 31
0.0
  0
LINE
  5
26AE
330
1AC6
100
AcDbEntity
  8
文字
 62
     2
370
    -2
100
AcDbLine
 10
178.4196683324954
 20
28.16675652609217
 30
0.0
 11
187.4196683324954
 21
28.16675652609217
 31
0.0
  0
INSERT
  5
26AF
330
1AC6
100
AcDbEntity
  8
文字
 62
     2
370
    -2
100
AcDbBlockReference
  2
_OPEN
 10
175.9196683324954
 20
28.16675652609217
 30
0.0
 41
2.5
 42
2.5
 43
2.5
 50
180.0
  0
INSERT
  5
26B0
330
1AC6
100
AcDbEntity
  8
文字
 62
     2
370
    -2
100
AcDbBlockReference
  2
_OPEN
 10
189.9196683324954
 20
28.16675652609217
 30
0.0
 41
2.5
 42
2.5
 43
2.5
  0
MTEXT
  5
26B1
330
1AC6
100
AcDbEntity
  8
文字
 62
     6
100
AcDbMText
 10
182.9196683324954
 20
30.04175652609217
 30
0.0
 40
2.5
 41
0.0
 71
     5
 72
     1
  1
\A1;14
  7
STYLE3
 73
     1
 44
1.0
  0
POINT
  5
26B2
330
1AC6
100
AcDbEntity
  8
DEFPOINTS
 62
     0
100
AcDbPoint
 10
175.9196683324954
 20
58.02622688117972
 30
0.0
  0
POINT
  5
26B3
330
1AC6
100
AcDbEntity
  8
DEFPOINTS
 62
     0
100
AcDbPoint
 10
189.9196683324954
 20
58.0262268811797
 30
0.0
  0
POINT
  5
26B4
330
1AC6
100
AcDbEntity
  8
DEFPOINTS
 62
     0
100
AcDbPoint
 10
189.9196683324954
 20
28.16675652609217
 30
0.0
  0
ENDBLK
  5
1AD1
330
1AC6
100
AcDbEntity
  8
0
100
AcDbBlockEnd
  0
BLOCK
  5
1E81
330
1E80
100
AcDbEntity
  8
0
100
AcDbBlockBegin
  2
*D5
 70
     1
 10
0.0
 20
0.0
 30
0.0
  3
*D5
  1

  0
LINE
  5
26A3
330
1E80
100
AcDbEntity
  8
文字
 62
     2
370
    -2
100
AcDbLine
 10
58.31298497864543
 20
47.20090933387429
 30
0.0
 11
43.84819163058782
 21
47.2009093338743
 31
0.0
  0
LINE
  5
26A4
330
1E80
100
AcDbEntity
  8
文字
 62
     2
370
    -2
100
AcDbLine
 10
54.34880864293956
 20
124.5009093338742
 30
0.0
 11
43.84819163058785
 21
124.5009093338742
 31
0.0
  0
LINE
  5
26A5
330
1E80
100
AcDbEntity
  8
文字
 62
     2
370
    -2
100
AcDbLine
 10
45.09819163058783
 20
49.7009093338743
 30
0.0
 11
45.09819163058785
 21
122.0009093338742
 31
0.0
  0
INSERT
  5
26A6
330
1E80
100
AcDbEntity
  8
文字
 62
     2
370
    -2
100
AcDbBlockReference
  2
_OPEN
 10
45.09819163058782
 20
47.2009093338743
 30
0.0
 41
2.5
 42
2.5
 43
2.5
 50
270.0
  0
INSERT
  5
26A7
330
1E80
100
AcDbEntity
  8
文字
 62
     2
370
    -2
100
AcDbBlockReference
  2
_OPEN
 10
45.09819163058785
 20
124.5009093338742
 30
0.0
 41
2.5
 42
2.5
 43
2.5
 50
90.0
  0
MTEXT
  5
26A8
330
1E80
100
AcDbEntity
  8
文字
 62
     6
100
AcDbMText
 10
43.22319163058782
 20
85.85090933387428
 30
0.0
 40
2.5
 41
0.0
 71
     5
 72
     1
  1
\A1;77.3
  7
STYLE3
 11
0.0000000000000001
 21
1.0
 31
0.0
 73
     1
 44
1.0
  0
POINT
  5
26A9
330
1E80
100
AcDbEntity
  8
DEFPOINTS
 62
     0
100
AcDbPoint
 10
58.31298497864543
 20
47.20090933387429
 30
0.0
  0
POINT
  5
26AA
330
1E80
100
AcDbEntity
  8
DEFPOINTS
 62
     0
100
AcDbPoint
 10
54.34880864293956
 20
124.5009093338742
 30
0.0
  0
POINT
  5
26AB
330
1E80
100
AcDbEntity
  8
DEFPOINTS
 62
     0
100
AcDbPoint
 10
45.09819163058785
 20
124.5009093338742
 30
0.0
  0
ENDBLK
  5
1E8B
330
1E80
100
AcDbEntity
  8
0
100
AcDbBlockEnd
  0
BLOCK
  5
1E8E
330
1E8D
100
AcDbEntity
  8
0
100
AcDbBlockBegin
  2
*D6
 70
     1
 10
0.0
 20
0.0
 30
0.0
  3
*D6
  1

  0
LINE
  5
267F
330
1E8D
100
AcDbEntity
  8
文字
 62
     2
370
    -2
100
AcDbLine
 10
43.84819163058785
 20
37.10090933387429
 30
0.0
 11
36.43129310522871
 21
37.10090933387429
 31
0.0
  0
LINE
  5
2680
330
1E8D
100
AcDbEntity
  8
文字
 62
     2
370
    -2
100
AcDbLine
 10
84.81298497864537
 20
177.9009093338742
 30
0.0
 11
36.43129310522875
 21
177.9009093338743
 31
0.0
  0
LINE
  5
2681
330
1E8D
100
AcDbEntity
  8
文字
 62
     2
370
    -2
100
AcDbLine
 10
37.68129310522871
 20
39.60090933387429
 30
0.0
 11
37.68129310522874
 21
175.4009093338742
 31
0.0
  0
INSERT
  5
2682
330
1E8D
100
AcDbEntity
  8
文字
 62
     2
370
    -2
100
AcDbBlockReference
  2
_OPEN
 10
37.68129310522871
 20
37.10090933387429
 30
0.0
 41
2.5
 42
2.5
 43
2.5
 50
270.0
  0
INSERT
  5
2683
330
1E8D
100
AcDbEntity
  8
文字
 62
     2
370
    -2
100
AcDbBlockReference
  2
_OPEN
 10
37.68129310522875
 20
177.9009093338743
 30
0.0
 41
2.5
 42
2.5
 43
2.5
 50
90.0
  0
MTEXT
  5
2684
330
1E8D
100
AcDbEntity
  8
文字
 62
     6
100
AcDbMText
 10
35.80629310522871
 20
107.5009093338743
 30
0.0
 40
2.5
 41
0.0
 71
     5
 72
     1
  1
\A1;140.8
  7
STYLE3
 11
0.0000000000000001
 21
1.0
 31
0.0
 73
     1
 44
1.0
  0
POINT
  5
2685
330
1E8D
100
AcDbEntity
  8
DEFPOINTS
 62
     0
100
AcDbPoint
 10
43.84819163058785
 20
37.10090933387429
 30
0.0
  0
POINT
  5
2686
330
1E8D
100
AcDbEntity
  8
DEFPOINTS
 62
     0
100
AcDbPoint
 10
84.81298497864537
 20
177.9009093338742
 30
0.0
  0
POINT
  5
2687
330
1E8D
100
AcDbEntity
  8
DEFPOINTS
 62
     0
100
AcDbPoint
 10
37.68129310522875
 20
177.9009093338743
 30
0.0
  0
ENDBLK
  5
1E98
330
1E8D
100
AcDbEntity
  8
0
100
AcDbBlockEnd
  0
BLOCK
  5
24B4
330
24AA
100
AcDbEntity
  8
0
100
AcDbBlockBegin
  2
*D8
 70
     1
 10
0.0
 20
0.0
 30
0.0
  3
*D8
  1

  0
LINE
  5
2688
330
24AA
100
AcDbEntity
  8
寸法線
 62
     2
370
    -2
100
AcDbLine
 10
63.80238399388577
 20
177.9009093338742
 30
0.0
 11
43.84819163058786
 21
177.9009093338742
 31
0.0
  0
LINE
  5
2689
330
24AA
100
AcDbEntity
  8
寸法線
 62
     2
370
    -2
100
AcDbLine
 10
51.22132794268191
 20
124.5009093338742
 30
0.0
 11
43.84819163058785
 21
124.5009093338742
 31
0.0
  0
LINE
  5
268A
330
24AA
100
AcDbEntity
  8
寸法線
 62
     2
370
    -2
100
AcDbLine
 10
45.09819163058785
 20
175.4009093338742
 30
0.0
 11
45.09819163058785
 21
127.0009093338742
 31
0.0
  0
INSERT
  5
268B
330
24AA
100
AcDbEntity
  8
寸法線
 62
     2
370
    -2
100
AcDbBlockReference
  2
_OPEN
 10
45.09819163058786
 20
177.9009093338742
 30
0.0
 41
2.5
 42
2.5
 43
2.5
 50
90.0
  0
INSERT
  5
268C
330
24AA
100
AcDbEntity
  8
寸法線
 62
     2
370
    -2
100
AcDbBlockReference
  2
_OPEN
 10
45.09819163058785
 20
124.5009093338742
 30
0.0
 41
2.5
 42
2.5
 43
2.5
 50
270.0
  0
MTEXT
  5
268D
330
24AA
100
AcDbEntity
  8
寸法線
 62
     6
100
AcDbMText
 10
43.22319163058782
 20
151.2009093338742
 30
0.0
 40
2.5
 41
0.0
 71
     5
 72
     1
  1
\A1;53.4
  7
STYLE3
 11
0.0000000000000001
 21
1.0
 31
0.0
 73
     1
 44
1.0
  0
POINT
  5
268E
330
24AA
100
AcDbEntity
  8
DEFPOINTS
 62
     0
100
AcDbPoint
 10
63.80238399388577
 20
177.9009093338742
 30
0.0
  0
POINT
  5
268F
330
24AA
100
AcDbEntity
  8
DEFPOINTS
 62
     0
100
AcDbPoint
 10
51.22132794268191
 20
124.5009093338742
 30
0.0
  0
POINT
  5
2690
330
24AA
100
AcDbEntity
  8
DEFPOINTS
 62
     0
100
AcDbPoint
 10
45.09819163058785
 20
124.5009093338742
 30
0.0
  0
ENDBLK
  5
24B5
330
24AA
100
AcDbEntity
  8
0
100
AcDbBlockEnd
  0
BLOCK
  5
24E1
330
24D5
100
AcDbEntity
  8
0
100
AcDbBlockBegin
  2
*D9
 70
     1
 10
0.0
 20
0.0
 30
0.0
  3
*D9
  1

  0
LINE
  5
26B5
330
24D5
100
AcDbEntity
  8
寸法線
 62
     2
370
    -2
100
AcDbLine
 10
189.9196683324954
 20
58.0262268811797
 30
0.0
 11
197.2367617335448
 21
70.69980441552435
 31
0.0
  0
LINE
  5
26B6
330
24D5
100
AcDbEntity
  8
寸法線
 62
     2
370
    -2
100
AcDbLine
 10
175.9196683324953
 20
58.02622688117972
 30
0.0
 11
168.6025749314459
 21
70.69980441552431
 31
0.0
  0
ARC
  5
26B7
330
24D5
100
AcDbEntity
  8
寸法線
 62
     2
370
    -2
100
AcDbCircle
 10
182.9196683324954
 20
45.90187122819759
 30
0.0
 40
27.3841868020989
100
AcDbArc
 50
65.23255408267697
 51
114.7674459173232
  0
INSERT
  5
26B8
330
24D5
100
AcDbEntity
  8
寸法線
 62
     2
370
    -2
100
AcDbBlockReference
  2
_OPEN
 10
196.6117617335448
 20
69.61727266079382
 30
0.0
 41
2.5
 42
2.5
 43
2.5
 50
332.6162770413386
  0
INSERT
  5
26B9
330
24D5
100
AcDbEntity
  8
寸法線
 62
     2
370
    -2
100
AcDbBlockReference
  2
_OPEN
 10
169.2275749314459
 20
69.61727266079376
 30
0.0
 41
2.5
 42
2.5
 43
2.5
 50
207.3837229586616
  0
MTEXT
  5
26BA
330
24D5
100
AcDbEntity
  8
寸法線
 62
     6
100
AcDbMText
 10
183.3128240304018
 20
75.15841649446788
 30
0.0
 40
2.5
 41
0.0
 71
     5
 72
     1
  1
\A1;60°
  7
STYLE3
 11
0.9999097194379844
 21
-0.0134370001656465
 31
0.0
 73
     1
 44
1.0
  0
POINT
  5
26BB
330
24D5
100
AcDbEntity
  8
DEFPOINTS
 62
     0
100
AcDbPoint
 10
178.1644541974201
 20
72.87003070083916
 30
0.0
  0
POINT
  5
26BC
330
24D5
100
AcDbEntity
  8
DEFPOINTS
 62
     0
100
AcDbPoint
 10
182.1696683324954
 20
47.20090933387424
 30
0.0
  0
POINT
  5
26BD
330
24D5
100
AcDbEntity
  8
DEFPOINTS
 62
     0
100
AcDbPoint
 10
183.6696683324954
 20
47.20090933387425
 30
0.0
  0
POINT
  5
26BE
330
24D5
100
AcDbEntity
  8
DEFPOINTS
 62
     0
100
AcDbPoint
 10
189.9196683324954
 20
58.0262268811797
 30
0.0
  0
POINT
  5
26BF
330
24D5
100
AcDbEntity
  8
DEFPOINTS
 62
     0
100
AcDbPoint
 10
175.9196683324953
 20
58.02622688117972
 30
0.0
  0
ENDBLK
  5
24E2
330
24D5
100
AcDbEntity
  8
0
100
AcDbBlockEnd
  0
BLOCK
  5
24FF
330
24F3
100
AcDbEntity
  8
0
100
AcDbBlockBegin
  2
*D10
 70
     1
 10
0.0
 20
0.0
 30
0.0
  3
*D10
  1

  0
LINE
  5
26C0
330
24F3
100
AcDbEntity
  8
寸法線
 62
     2
370
    -2
100
AcDbLine
 10
182.1696683324954
 20
47.20090933387425
 30
0.0
 11
184.427517651129
 21
38.77450096089859
 31
0.0
  0
LINE
  5
26C1
330
24F3
100
AcDbEntity
  8
寸法線
 62
     2
370
    -2
100
AcDbLine
 10
183.6696683324954
 20
47.20090933387425
 30
0.0
 11
185.9275176511291
 21
38.77450096089859
 31
0.0
  0
LINE
  5
26C2
330
24F3
100
AcDbEntity
  8
寸法線
 62
     2
370
    -2
100
AcDbLine
 10
181.5925811605902
 20
40.02450096089859
 30
0.0
 11
179.0925811605902
 21
40.02450096089859
 31
0.0
  0
LINE
  5
26C3
330
24F3
100
AcDbEntity
  8
寸法線
 62
     2
370
    -2
100
AcDbLine
 10
188.0925811605902
 20
40.02450096089859
 30
0.0
 11
198.2107545036943
 21
40.02450096089859
 31
0.0
  0
LINE
  5
26C4
330
24F3
100
AcDbEntity
  8
寸法線
 62
     2
370
    -2
100
AcDbLine
 10
184.0925811605902
 20
40.02450096089859
 30
0.0
 11
185.5925811605901
 21
40.02450096089859
 31
0.0
  0
INSERT
  5
26C5
330
24F3
100
AcDbEntity
  8
寸法線
 62
     2
370
    -2
100
AcDbBlockReference
  2
_OPEN
 10
184.0925811605902
 20
40.02450096089859
 30
0.0
 41
2.5
 42
2.5
 43
2.5
  0
INSERT
  5
26C6
330
24F3
100
AcDbEntity
  8
寸法線
 62
     2
370
    -2
100
AcDbBlockReference
  2
_OPEN
 10
185.5925811605901
 20
40.02450096089859
 30
0.0
 41
2.5
 42
2.5
 43
2.5
 50
180.0
  0
MTEXT
  5
26C7
330
24F3
100
AcDbEntity
  8
寸法線
 62
     6
100
AcDbMText
 10
195.1452783132181
 20
41.89950096089859
 30
0.0
 40
2.5
 41
0.0
 71
     5
 72
     1
  1
\A1;1.5
  7
STYLE3
 73
     1
 44
1.0
  0
POINT
  5
26C8
330
24F3
100
AcDbEntity
  8
DEFPOINTS
 62
     0
100
AcDbPoint
 10
182.1696683324954
 20
47.20090933387425
 30
0.0
  0
POINT
  5
26C9
330
24F3
100
AcDbEntity
  8
DEFPOINTS
 62
     0
100
AcDbPoint
 10
183.6696683324954
 20
47.20090933387425
 30
0.0
  0
POINT
  5
26CA
330
24F3
100
AcDbEntity
  8
DEFPOINTS
 62
     0
100
AcDbPoint
 10
185.5925811605901
 20
40.02450096089859
 30
0.0
  0
ENDBLK
  5
2500
330
24F3
100
AcDbEntity
  8
0
100
AcDbBlockEnd
  0
ENDSEC
  0
SECTION
  2
ENTITIES
  0
LINE
  5
245
330
18
100
AcDbEntity
  8
中心線
100
AcDbLine
 10
88.31298497864532
 20
180.144223631829
 30
0.0
 11
88.31298497864537
 21
34.0972139675427
 31
0.0
  0
MTEXT
  5
778
330
18
100
AcDbEntity
  8
DEFPOINTS
  6
Continuous
100
AcDbMText
 10
735.8166661286731
 20
235.565234348894
 30
0.0
 40
1.0
 41
0.0
 71
     4
 72
     1
  1
\A1;
 73
     1
 44
1.0
  0
LINE
  5
789
330
18
100
AcDbEntity
  8
中心線
100
AcDbLine
 10
182.9196683324953
 20
180.6439579413213
 30
0.0
 11
182.9196683324954
 21
34.37142780354549
 31
0.0
  0
MTEXT
  5
887
330
18
100
AcDbEntity
  8
文字
100
AcDbMText
 10
302.9558756866726
 20
261.6432165871282
 30
0.0
 40
1.0
 41
6.927999999999999
 71
     1
 72
     5
  1

  7
STYLE3
 73
     1
 44
1.0
  0
LWPOLYLINE
  5
96E
330
18
100
AcDbEntity
  8
C
100
AcDbPolyline
 90
        5
 70
     0
 43
0.4
 10
0.0
 20
195.0
 10
255.0
 20
195.0
 10
255.0
 20
0.0
 10
0.0
 20
0.0
 10
0.0
 20
195.0
  0
MTEXT
  5
EB4
330
18
100
AcDbEntity
  8
DEFPOINTS
  6
Continuous
100
AcDbMText
 10
624.6916853418142
 20
184.890767874579
 30
0.0
 40
0.35
 41
0.0
 71
     4
 72
     1
  1
\A1;
 73
     1
 44
1.0
  0
MTEXT
  5
13D2
330
18
100
AcDbEntity
  8
DEFPOINTS
  6
Continuous
100
AcDbMText
 10
1236.255313500774
 20
410.7784228578957
 30
0.0
 40
1.0
 41
0.0
 71
     4
 72
     1
  1
\A1;
 73
     1
 44
1.0
  0
MTEXT
  5
142F
330
18
100
AcDbEntity
  8
文字
100
AcDbMText
 10
803.3945230587734
 20
436.8564050961298
 30
0.0
 40
1.0
 41
6.927999999999999
 71
     1
 72
     5
  1

  7
STYLE3
 73
     1
 44
1.0
  0
MTEXT
  5
14AC
330
18
100
AcDbEntity
  8
DEFPOINTS
  6
Continuous
100
AcDbMText
 10
1125.130332713915
 20
360.1039563835807
 30
0.0
 40
0.35
 41
0.0
 71
     4
 72
     1
  1
\A1;
 73
     1
 44
1.0
  0
LINE
  5
18DB
330
18
100
AcDbEntity
  8
外形線
100
AcDbLine
 10
58.31298497864543
 20
47.20090933387429
 30
0.0
 11
85.31298497864538
 21
47.20090933387427
 31
0.0
  0
LINE
  5
18DC
330
18
100
AcDbEntity
  8
外形線
100
AcDbLine
 10
80.31298497864531
 20
64.20090933387426
 30
0.0
 11
96.31298497864548
 21
64.20090933387429
 31
0.0
  0
LINE
  5
18DD
330
18
100
AcDbEntity
  8
外形線
100
AcDbLine
 10
58.31298497864537
 20
59.45512721467664
 30
0.0
 11
58.31298497864543
 21
47.20090933387429
 31
0.0
  0
LINE
  5
18DF
330
18
100
AcDbEntity
  8
外形線
100
AcDbLine
 10
118.3129849786453
 20
59.45512721467661
 30
0.0
 11
118.3129849786453
 21
47.20090933387426
 31
0.0
  0
LINE
  5
18E3
330
18
100
AcDbEntity
  8
外形線
100
AcDbLine
 10
96.31298497864548
 20
64.20090933387429
 30
0.0
 11
116.583211388112
 21
61.4367875507652
 31
0.0
  0
LINE
  5
18E4
330
18
100
AcDbEntity
  8
外形線
100
AcDbLine
 10
80.31298497864531
 20
64.20090933387426
 30
0.0
 11
60.04275856917877
 21
61.43678755076523
 31
0.0
  0
ARC
  5
18E5
330
18
100
AcDbEntity
  8
外形線
100
AcDbCircle
 10
116.3129849786453
 20
59.45512721467661
 30
0.0
 40
2.0
100
AcDbArc
 50
0.0
 51
82.23483398157462
  0
ARC
  5
18E6
330
18
100
AcDbEntity
  8
外形線
100
AcDbCircle
 10
60.31298497864537
 20
59.45512721467664
 30
0.0
 40
2.0
100
AcDbArc
 50
97.76516601842528
 51
180.0
  0
LINE
  5
1903
330
18
100
AcDbEntity
  8
外形線
100
AcDbLine
 10
175.9196683324954
 20
64.20090933387427
 30
0.0
 11
189.9196683324954
 21
64.20090933387427
 31
0.0
  0
LINE
  5
1904
330
18
100
AcDbEntity
  8
外形線
100
AcDbLine
 10
175.9196683324954
 20
60.77033578769206
 30
0.0
 11
189.9196683324954
 21
60.77033578769206
 31
0.0
  0
LINE
  5
1905
330
18
100
AcDbEntity
  8
外形線
100
AcDbLine
 10
182.1696683324954
 20
47.20090933387425
 30
0.0
 11
183.6696683324954
 21
47.20090933387425
 31
0.0
  0
LINE
  5
1907
330
18
100
AcDbEntity
  8
外形線
100
AcDbLine
 10
183.6696683324954
 20
47.20090933387425
 30
0.0
 11
189.9196683324954
 21
58.0262268811797
 31
0.0
  0
LINE
  5
1908
330
18
100
AcDbEntity
  8
外形線
100
AcDbLine
 10
182.1696683324954
 20
47.20090933387425
 30
0.0
 11
175.9196683324954
 21
58.02622688117972
 31
0.0
  0
LINE
  5
1909
330
18
100
AcDbEntity
  8
外形線
100
AcDbLine
 10
189.9196683324954
 20
58.0262268811797
 30
0.0
 11
189.9196683324954
 21
64.20090933387427
 31
0.0
  0
LINE
  5
190A
330
18
100
AcDbEntity
  8
外形線
100
AcDbLine
 10
175.9196683324954
 20
58.02622688117972
 30
0.0
 11
175.9196683324954
 21
64.20090933387427
 31
0.0
  0
LINE
  5
1989
330
18
100
AcDbEntity
  8
外形線
100
AcDbLine
 10
84.31298497864537
 20
93.50090933387427
 30
0.0
 11
84.31298497864537
 21
92.21528761153573
 31
0.0
  0
LINE
  5
1991
330
18
100
AcDbEntity
  8
外形線
100
AcDbLine
 10
92.31298497864539
 20
93.50090933387427
 30
0.0
 11
92.31298497864537
 21
91.20090933387428
 31
0.0
  0
LINE
  5
1999
330
18
100
AcDbEntity
  8
中心線
 48
0.5
100
AcDbLine
 10
191.4250137377365
 20
85.60090933387435
 30
0.0
 11
162.1222390487676
 21
85.60090933387437
 31
0.0
  0
LINE
  5
199A
330
18
100
AcDbEntity
  8
中心線
100
AcDbLine
 10
182.9196683324953
 20
72.43410853266425
 30
0.0
 11
182.9196683324953
 21
89.81157106013446
 31
0.0
  0
LINE
  5
199B
330
18
100
AcDbEntity
  8
外形線
100
AcDbLine
 10
165.4196683324953
 20
78.10090933387481
 30
0.0
 11
165.9196683324954
 21
77.6009093338748
 31
0.0
  0
LINE
  5
199C
330
18
100
AcDbEntity
  8
外形線
100
AcDbLine
 10
169.4196683324952
 20
77.60090933387475
 30
0.0
 11
169.9196683324952
 21
78.10090933387474
 31
0.0
  0
LINE
  5
199D
330
18
100
AcDbEntity
  8
外形線
100
AcDbLine
 10
165.9196683324954
 20
77.6009093338748
 30
0.0
 11
165.9196683324958
 21
93.60090933387487
 31
0.0
  0
LINE
  5
199E
330
18
100
AcDbEntity
  8
外形線
100
AcDbLine
 10
169.4196683324953
 20
77.6009093338747
 30
0.0
 11
169.4196683324958
 21
93.60090933387475
 31
0.0
  0
LINE
  5
19A1
330
18
100
AcDbEntity
  8
外形線
100
AcDbLine
 10
165.9196683324954
 20
77.6009093338748
 30
0.0
 11
169.4196683324952
 21
77.60090933387475
 31
0.0
  0
LINE
  5
19AA
330
18
100
AcDbEntity
  8
外形線
100
AcDbLine
 10
170.9196683324955
 20
82.10090933387471
 30
0.0
 11
175.9196683324955
 21
82.10090933387457
 31
0.0
  0
LINE
  5
19AB
330
18
100
AcDbEntity
  8
外形線
100
AcDbLine
 10
170.9196683324957
 20
89.1009093338747
 30
0.0
 11
175.9196683324957
 21
89.10090933387458
 31
0.0
  0
LINE
  5
19AC
330
18
100
AcDbEntity
  8
外形線
 62
     4
100
AcDbLine
 10
165.9196683324957
 20
88.40191878127864
 30
0.0
 11
169.4196683324958
 21
90.42264472344225
 31
0.0
  0
LINE
  5
19AD
330
18
100
AcDbEntity
  8
外形線
 62
     4
100
AcDbLine
 10
165.9196683324956
 20
89.55661931965789
 30
0.0
 11
169.4196683324958
 21
91.57734526182144
 31
0.0
  0
LINE
  5
19AE
330
18
100
AcDbEntity
  8
外形線
 62
     4
100
AcDbLine
 10
169.4196683324957
 20
89.58518099054947
 30
0.0
 11
165.9196683324958
 21
91.60590693271323
 31
0.0
  0
LINE
  5
19AF
330
18
100
AcDbEntity
  8
外形線
 62
     4
100
AcDbLine
 10
169.4196683324957
 20
88.43048045217033
 30
0.0
 11
165.9196683324958
 21
90.45120639433427
 31
0.0
  0
ARC
  5
19B0
330
18
100
AcDbEntity
  8
外形線
100
AcDbCircle
 10
170.9196683324958
 20
90.10090933387475
 30
0.0
 40
1.0
100
AcDbArc
 50
179.9999999999988
 51
269.9999999999984
  0
LINE
  5
19B1
330
18
100
AcDbEntity
  8
外形線
100
AcDbLine
 10
165.4196683324953
 20
78.10090933387481
 30
0.0
 11
165.4196683324958
 21
93.10090933387487
 31
0.0
  0
LINE
  5
19B2
330
18
100
AcDbEntity
  8
外形線
100
AcDbLine
 10
169.9196683324957
 20
93.10090933387476
 30
0.0
 11
169.9196683324958
 21
81.10090933387468
 31
0.0
  0
LINE
  5
19B3
330
18
100
AcDbEntity
  8
外形線
 62
     4
100
AcDbLine
 10
168.3206292730133
 20
85.60090933387478
 30
0.0
 11
165.9196683324958
 21
86.98710477919648
 31
0.0
  0
LINE
  5
19B4
330
18
100
AcDbEntity
  8
外形線
 62
     4
100
AcDbLine
 10
167.0681776571116
 20
85.60090933387481
 30
0.0
 11
169.4196683324956
 21
86.95854310830457
 31
0.0
  0
LINE
  5
19B5
330
18
100
AcDbEntity
  8
外形線
 62
     4
100
AcDbLine
 10
165.9196683324956
 20
86.09251770452019
 30
0.0
 11
169.4196683324957
 21
88.11324364668376
 31
0.0
  0
LINE
  5
19B6
330
18
100
AcDbEntity
  8
外形線
 62
     4
100
AcDbLine
 10
165.9196683324957
 20
87.2472182428994
 30
0.0
 11
169.4196683324957
 21
89.267944185063
 31
0.0
  0
LINE
  5
19B7
330
18
100
AcDbEntity
  8
外形線
 62
     4
100
AcDbLine
 10
169.4196683324957
 20
87.27577991379108
 30
0.0
 11
165.9196683324956
 21
89.29650585595487
 31
0.0
  0
LINE
  5
19B8
330
18
100
AcDbEntity
  8
外形線
 62
     4
100
AcDbLine
 10
169.4196683324956
 20
86.12107937541184
 30
0.0
 11
165.9196683324957
 21
88.14180531757573
 31
0.0
  0
LINE
  5
19B9
330
18
100
AcDbEntity
  8
外形線
 62
     4
100
AcDbLine
 10
166.3206292730133
 20
85.60090933387483
 30
0.0
 11
165.9196683324956
 21
85.83240424081735
 31
0.0
  0
LINE
  5
19BA
330
18
100
AcDbEntity
  8
外形線
100
AcDbLine
 10
169.9196683324952
 20
78.10090933387474
 30
0.0
 11
169.9196683324955
 21
81.10090933387473
 31
0.0
  0
ARC
  5
19BB
330
18
100
AcDbEntity
  8
外形線
100
AcDbCircle
 10
170.9196683324955
 20
81.10090933387473
 30
0.0
 40
1.0
100
AcDbArc
 50
89.99999999999834
 51
179.9999999999979
  0
LINE
  5
19BC
330
18
100
AcDbEntity
  8
外形線
 62
     4
100
AcDbLine
 10
169.0681776571116
 20
85.60090933387481
 30
0.0
 11
169.4196683324956
 21
85.80384256992532
 31
0.0
  0
LINE
  5
19BD
330
18
100
AcDbEntity
  8
外形線
 62
     4
100
AcDbLine
 10
165.9196683324957
 20
90.71131985803708
 30
0.0
 11
169.4196683324958
 21
92.73204580020069
 31
0.0
  0
LINE
  5
19BE
330
18
100
AcDbEntity
  8
外形線
 62
     4
100
AcDbLine
 10
169.4196683324958
 20
90.73988152892882
 30
0.0
 11
165.9196683324958
 21
92.7606074710926
 31
0.0
  0
LINE
  5
19BF
330
18
100
AcDbEntity
  8
外形線
 62
     4
100
AcDbLine
 10
165.9196683324958
 20
91.86602039641632
 30
0.0
 11
168.9245841176631
 21
93.60090933387475
 31
0.0
  0
LINE
  5
19C0
330
18
100
AcDbEntity
  8
外形線
 62
     4
100
AcDbLine
 10
169.4196683324958
 20
91.89458206730806
 30
0.0
 11
166.4642228124622
 21
93.60090933387489
 31
0.0
  0
LINE
  5
19C1
330
18
100
AcDbEntity
  8
外形線
100
AcDbLine
 10
165.9196683324958
 20
93.60090933387487
 30
0.0
 11
169.4196683324958
 21
93.6009093338747
 31
0.0
  0
LINE
  5
19C2
330
18
100
AcDbEntity
  8
外形線
 62
     4
100
AcDbLine
 10
165.9196683324958
 20
93.02072093479562
 30
0.0
 11
166.9245841176631
 21
93.60090933387487
 31
0.0
  0
LINE
  5
19C3
330
18
100
AcDbEntity
  8
外形線
100
AcDbLine
 10
165.4196683324958
 20
93.10090933387487
 30
0.0
 11
165.9196683324958
 21
93.60090933387487
 31
0.0
  0
LINE
  5
19C4
330
18
100
AcDbEntity
  8
外形線
 62
     4
100
AcDbLine
 10
169.4196683324958
 20
93.04928260568731
 30
0.0
 11
168.464222812462
 21
93.60090933387484
 31
0.0
  0
LINE
  5
19C5
330
18
100
AcDbEntity
  8
外形線
100
AcDbLine
 10
169.4196683324958
 20
93.6009093338747
 30
0.0
 11
169.9196683324958
 21
93.10090933387469
 31
0.0
  0
LINE
  5
19C9
330
18
100
AcDbEntity
  8
外形線
100
AcDbLine
 10
176.9196683324953
 20
91.20090933387432
 30
0.0
 11
176.9196683324953
 21
80.00090933387431
 31
0.0
  0
LINE
  5
19CA
330
18
100
AcDbEntity
  8
外形線
100
AcDbLine
 10
188.9196683324954
 20
91.20090933387436
 30
0.0
 11
188.9196683324954
 21
80.00090933387431
 31
0.0
  0
LINE
  5
19CB
330
18
100
AcDbEntity
  8
外形線
100
AcDbLine
 10
188.9196683324954
 20
80.00090933387431
 30
0.0
 11
182.9196683324955
 21
80.00090933387431
 31
0.0
  0
LINE
  5
19CC
330
18
100
AcDbEntity
  8
外形線
100
AcDbLine
 10
176.4196683324956
 20
81.60090933387449
 30
0.0
 11
176.4196683324958
 21
89.60090933387455
 31
0.0
  0
LINE
  5
19CD
330
18
100
AcDbEntity
  8
外形線
100
AcDbLine
 10
182.9196683324955
 20
80.00090933387431
 30
0.0
 11
176.9196683324953
 21
80.00090933387431
 31
0.0
  0
ARC
  5
19CE
330
18
100
AcDbEntity
  8
外形線
100
AcDbCircle
 10
175.9196683324955
 20
82.60090933387459
 30
0.0
 40
0.5
100
AcDbArc
 50
269.9999999999984
 51
359.9999999999984
  0
LINE
  5
19CF
330
18
100
AcDbEntity
  8
外形線
100
AcDbLine
 10
176.4196683324956
 20
81.60090933387449
 30
0.0
 11
176.9196683324955
 21
81.60090933387447
 31
0.0
  0
ARC
  5
19D0
330
18
100
AcDbEntity
  8
外形線
100
AcDbCircle
 10
175.9196683324957
 20
88.60090933387459
 30
0.0
 40
0.5
100
AcDbArc
 50
359.9999999999984
 51
89.99999999999834
  0
LINE
  5
19D1
330
18
100
AcDbEntity
  8
外形線
100
AcDbLine
 10
176.4196683324958
 20
89.60090933387455
 30
0.0
 11
176.9196683324957
 21
89.60090933387446
 31
0.0
  0
LINE
  5
19D3
330
18
100
AcDbEntity
  8
外形線
100
AcDbLine
 10
188.9196683324954
 20
91.20090933387436
 30
0.0
 11
182.9196683324955
 21
91.20090933387432
 31
0.0
  0
LINE
  5
19D4
330
18
100
AcDbEntity
  8
外形線
100
AcDbLine
 10
182.9196683324955
 20
91.20090933387427
 30
0.0
 11
176.9196683324953
 21
91.20090933387432
 31
0.0
  0
LINE
  5
19E1
330
18
100
AcDbEntity
  8
外形線
100
AcDbLine
 10
118.3129849786453
 20
58.02622688117972
 30
0.0
 11
58.31298497864537
 21
58.02622688117972
 31
0.0
  0
LINE
  5
19FA
330
18
100
AcDbEntity
  8
外形線
100
AcDbLine
 10
88.31298497864537
 20
37.10090933387429
 30
0.0
 11
86.72139658538972
 21
50.23151357823329
 31
0.0
  0
LINE
  5
19FB
330
18
100
AcDbEntity
  8
外形線
100
AcDbLine
 10
88.31298497864537
 20
37.10090933387429
 30
0.0
 11
89.904573371901
 21
50.23151357823327
 31
0.0
  0
ARC
  5
1A11
330
18
100
AcDbEntity
  8
外形線
100
AcDbCircle
 10
89.44543746476021
 20
47.12300362373954
 30
0.0
 40
4.133186766850513
100
AcDbArc
 50
105.9018430867214
 51
178.9199779753293
  0
ARC
  5
1A12
330
18
100
AcDbEntity
  8
外形線
100
AcDbCircle
 10
87.18053249253051
 20
47.12300362373954
 30
0.0
 40
4.133186766850513
100
AcDbArc
 50
1.080022024670622
 51
74.09815691327858
  0
LINE
  5
1A13
330
18
100
AcDbEntity
  8
外形線
100
AcDbLine
 10
91.31298497864532
 20
47.20090933387427
 30
0.0
 11
118.3129849786453
 21
47.20090933387426
 31
0.0
  0
LINE
  5
1A15
330
18
100
AcDbEntity
  8
外形線
100
AcDbLine
 10
182.9196683324954
 20
37.10090933387429
 30
0.0
 11
184.269933827744
 21
48.24059966967528
 31
0.0
  0
LINE
  5
1A16
330
18
100
AcDbEntity
  8
外形線
100
AcDbLine
 10
182.9196683324954
 20
37.10090933387429
 30
0.0
 11
181.5694028372467
 21
48.24059966967536
 31
0.0
  0
DIMENSION
  5
1A5A
330
18
100
AcDbEntity
  8
外形線
100
AcDbDimension
  2
*D1
 10
45.09819163058785
 20
37.1009093338743
 30
0.0
 11
43.22319163058784
 21
42.15090933387431
 31
0.0
 70
    32
 71
     5
 42
10.1
  3
STYLE2
100
AcDbAlignedDimension
 13
55.37191088598809
 23
47.20090933387429
 33
0.0
 14
88.31298497864537
 24
37.10090933387429
 34
0.0
 50
90.0
100
AcDbRotatedDimension
  0
DIMENSION
  5
1A67
330
18
100
AcDbEntity
  8
外形線
100
AcDbDimension
  2
*D2
 10
118.3129849786453
 20
28.16675652609217
 30
0.0
 11
88.31298497864541
 21
30.04175652609217
 31
0.0
 70
    32
 71
     5
 42
59.99999999999994
  3
STYLE2
100
AcDbAlignedDimension
 13
58.31298497864543
 23
47.20090933387429
 33
0.0
 14
118.3129849786453
 24
47.20090933387426
 34
0.0
100
AcDbRotatedDimension
  0
POINT
  5
1AA7
330
18
100
AcDbEntity
  8
DEFPOINTS
  6
ByBlock
 62
     0
100
AcDbPoint
 10
182.1696683324954
 20
47.20090933387425
 30
0.0
  0
POINT
  5
1AA8
330
18
100
AcDbEntity
  8
DEFPOINTS
  6
ByBlock
 62
     0
100
AcDbPoint
 10
183.6696683324954
 20
47.20090933387425
 30
0.0
  0
POINT
  5
1AA9
330
18
100
AcDbEntity
  8
DEFPOINTS
  6
ByBlock
 62
     0
100
AcDbPoint
 10
189.9196683324954
 20
58.0262268811797
 30
0.0
  0
POINT
  5
1AAA
330
18
100
AcDbEntity
  8
DEFPOINTS
  6
ByBlock
 62
     0
100
AcDbPoint
 10
175.9196683324954
 20
58.02622688117972
 30
0.0
  0
POINT
  5
1AC2
330
18
100
AcDbEntity
  8
DEFPOINTS
  6
ByBlock
 62
     0
100
AcDbPoint
 10
182.1696683324954
 20
47.20090933387425
 30
0.0
  0
POINT
  5
1AC3
330
18
100
AcDbEntity
  8
DEFPOINTS
  6
ByBlock
 62
     0
100
AcDbPoint
 10
183.6696683324954
 20
47.20090933387425
 30
0.0
  0
DIMENSION
  5
1AD2
330
18
100
AcDbEntity
  8
文字
100
AcDbDimension
  2
*D4
 10
189.9196683324954
 20
28.16675652609217
 30
0.0
 11
182.9196683324954
 21
30.04175652609217
 31
0.0
 70
    32
 71
     5
 42
14.0
  3
STYLE2
100
AcDbAlignedDimension
 13
175.9196683324954
 23
58.02622688117972
 33
0.0
 14
189.9196683324954
 24
58.0262268811797
 34
0.0
100
AcDbRotatedDimension
  0
LINE
  5
1C90
330
18
100
AcDbEntity
  8
外形線
100
AcDbLine
 10
176.4196683324953
 20
153.9009093338743
 30
0.0
 11
176.4196683324953
 21
95.10090933387422
 31
0.0
  0
LINE
  5
1C91
330
18
100
AcDbEntity
  8
外形線
100
AcDbLine
 10
174.4196683324954
 20
151.0009093338742
 30
0.0
 11
174.4196683324954
 21
94.5009093338742
 31
0.0
  0
LINE
  5
1C92
330
18
100
AcDbEntity
  8
外形線
100
AcDbLine
 10
189.9196683324953
 20
153.9009093338742
 30
0.0
 11
189.9196683324953
 21
95.10090933387429
 31
0.0
  0
LINE
  5
1C93
330
18
100
AcDbEntity
  8
外形線
100
AcDbLine
 10
190.9196683324953
 20
153.9009093338742
 30
0.0
 11
190.9196683324953
 21
95.10090933387429
 31
0.0
  0
LINE
  5
1C94
330
18
100
AcDbEntity
  8
外形線
100
AcDbLine
 10
161.4196683324953
 20
154.5009093338742
 30
0.0
 11
161.4196683324953
 21
94.50090933387427
 31
0.0
  0
LINE
  5
1C95
330
18
100
AcDbEntity
  8
外形線
100
AcDbLine
 10
192.4196683324953
 20
153.9009093338742
 30
0.0
 11
192.4196683324953
 21
95.10090933387429
 31
0.0
  0
ARC
  5
1C96
330
18
100
AcDbEntity
  8
外形線
100
AcDbCircle
 10
88.31298497864537
 20
124.5009093338742
 30
0.0
 40
29.0
100
AcDbArc
 50
0.0
 51
180.0
  0
CIRCLE
  5
1C97
330
18
100
AcDbEntity
  8
外形線
100
AcDbCircle
 10
88.31298497864537
 20
124.5009093338742
 30
0.0
 40
30.0
  0
LINE
  5
1C9A
330
18
100
AcDbEntity
  8
外形線
100
AcDbLine
 10
67.81298497864537
 20
113.0009093338742
 30
0.0
 11
108.8129849786453
 21
113.0009093338742
 31
0.0
  0
LINE
  5
1C9B
330
18
100
AcDbEntity
  8
外形線
100
AcDbLine
 10
67.81298497864537
 20
136.0009093338742
 30
0.0
 11
108.8129849786453
 21
136.0009093338742
 31
0.0
  0
LINE
  5
1C9E
330
18
100
AcDbEntity
  8
中心線
100
AcDbLine
 10
54.34880864293956
 20
124.5009093338742
 30
0.0
 11
122.7799267925449
 21
124.5009093338742
 31
0.0
  0
LINE
  5
1CC1
330
18
100
AcDbEntity
  8
外形線
100
AcDbLine
 10
82.31298497864537
 20
93.50090933387425
 30
0.0
 11
94.31298497864537
 21
93.50090933387425
 31
0.0
  0
POINT
  5
1CC6
330
18
100
AcDbEntity
  8
DEFPOINTS
  6
ByBlock
 62
     0
100
AcDbPoint
 10
82.31298497864537
 20
93.50090933387425
 30
0.0
  0
LINE
  5
1CC7
330
18
100
AcDbEntity
  8
外形線
100
AcDbLine
 10
82.31298497864537
 20
95.10703242047615
 30
0.0
 11
82.31298497864537
 21
93.50090933387425
 31
0.0
  0
LINE
  5
1CCB
330
18
100
AcDbEntity
  8
外形線
100
AcDbLine
 10
94.31298497864537
 20
95.10703242047615
 30
0.0
 11
94.31298497864537
 21
93.50090933387425
 31
0.0
  0
LINE
  5
1CCC
330
18
100
AcDbEntity
  8
外形線
100
AcDbLine
 10
66.31298497864538
 20
134.5009093338742
 30
0.0
 11
66.31298497864538
 21
114.5009093338742
 31
0.0
  0
ARC
  5
1CCD
330
18
100
AcDbEntity
  8
外形線
100
AcDbCircle
 10
67.81298497864537
 20
114.5009093338742
 30
0.0
 40
1.5
100
AcDbArc
 50
180.0
 51
270.0
  0
LINE
  5
1CCE
330
18
100
AcDbEntity
  8
外形線
100
AcDbLine
 10
59.31298497864537
 20
124.5009093338742
 30
0.0
 11
66.31298497864538
 21
124.5009093338742
 31
0.0
  0
ARC
  5
1CCF
330
18
100
AcDbEntity
  8
外形線
100
AcDbCircle
 10
67.81298497864537
 20
134.5009093338742
 30
0.0
 40
1.5
100
AcDbArc
 50
90.0
 51
180.0
  0
LINE
  5
1CDC
102
{ACAD_REACTORS
330
1CDE
102
}
330
18
100
AcDbEntity
  8
ROGO
 62
     4
100
AcDbLine
 10
88.14051210132658
 20
139.9554855371322
 30
0.0
 11
89.59469226347545
 21
139.9554855371322
 31
0.0
  0
SPLINE
  5
1CDD
102
{ACAD_REACTORS
330
1CDE
102
}
330
18
100
AcDbEntity
  8
ROGO
 62
     4
100
AcDbSpline
210
0.0
220
0.0
230
1.0
 70
     8
 71
     3
 72
    26
 73
    22
 74
    20
 42
0.0000000001
 43
0.0000000001
 44
0.0000000001
 40
0.0
 40
0.0
 40
0.0
 40
0.0
 40
0.306282258847545
 40
0.5113145150563467
 40
0.6591594689727181
 40
0.7695505122602936
 40
0.9127334891892449
 40
1.017243103820777
 40
1.205963108812785
 40
1.359578479722587
 40
1.464061546148638
 40
1.566512542290269
 40
1.749777456690453
 40
1.879367624743226
 40
1.949161942424621
 40
2.048302708997833
 40
2.119894481049029
 40
2.223607322578598
 40
2.282299819925661
 40
2.410021277698012
 40
2.468340004823004
 40
2.468340004823004
 40
2.468340004823004
 40
2.468340004823004
 10
88.74578671749356
 20
141.6438147335632
 30
0.0
 10
88.64182978651815
 20
141.6376124847938
 30
0.0
 10
88.46828173986198
 20
141.6272583107266
 30
0.0
 10
88.27772704037533
 20
141.5114983771944
 30
0.0
 10
88.13811551184796
 20
141.4442006388971
 30
0.0
 10
88.03854473901671
 20
141.3527150970718
 30
0.0
 10
87.96555895890142
 20
141.2582172152587
 30
0.0
 10
87.87354668143308
 20
141.1456236819546
 30
0.0
 10
87.79851329841129
 20
141.014513068643
 30
0.0
 10
87.76030335801142
 20
140.8700063158474
 30
0.0
 10
87.72645735545671
 20
140.7548335954144
 30
0.0
 10
87.7013565933486
 20
140.6264886288384
 30
0.0
 10
87.70774293782238
 20
140.4878309155383
 30
0.0
 10
87.71688847538815
 20
140.359052729962
 30
0.0
 10
87.75772107671892
 20
140.2671243861992
 30
0.0
 10
87.80422217693475
 20
140.2016777401472
 30
0.0
 10
87.86116213731954
 20
140.1295955152487
 30
0.0
 10
87.92346690572783
 20
140.08185569111
 30
0.0
 10
87.97499803486994
 20
139.9953717916434
 30
0.0
 10
88.06520153806454
 20
139.9843358223455
 30
0.0
 10
88.12253847330483
 20
139.9623709496465
 30
0.0
 10
88.14051210132669
 20
139.9554855371322
 30
0.0
 11
88.74578671749356
 21
141.6438147335632
 31
0.0
 11
88.44314940941007
 21
141.5967033565855
 31
0.0
 11
88.25973261935649
 21
141.5050708993855
 31
0.0
 11
88.13134112998893
 21
141.4317649933716
 31
0.0
 11
88.04880396996981
 21
141.3584587886268
 31
0.0
 11
87.95709583861315
 21
141.2484997802404
 31
0.0
 11
87.89290009392932
 21
141.1660305986335
 31
0.0
 11
87.80119143523251
 21
141.0010919366885
 31
0.0
 11
87.75533763322409
 21
140.8544798259297
 31
0.0
 11
87.72782524655116
 21
140.7536840931364
 31
0.0
 11
87.70948330387573
 21
140.6528883603432
 31
0.0
 11
87.70948330387573
 21
140.4696234459431
 31
0.0
 11
87.72782524655116
 21
140.3413378863705
 31
0.0
 11
87.75533763322409
 21
140.2771949572187
 31
0.0
 11
87.81036240657016
 21
140.1947257756117
 31
0.0
 11
87.85621673591862
 21
140.139746122053
 31
0.0
 11
87.92958292459998
 21
140.0664402160392
 31
0.0
 11
87.96626628261078
 21
140.0206238380736
 31
0.0
 11
88.08548732798062
 21
139.9748077588391
 31
0.0
 11
88.14051210132669
 21
139.9554855371322
 31
0.0
  0
HATCH
  5
1CDE
330
18
100
AcDbEntity
  8
ROGO
 62
     4
100
AcDbHatch
 10
0.0
 20
0.0
 30
0.0
210
0.0
220
0.0
230
1.0
  2
SOLID
 70
     1
 71
     1
 91
        1
 92
        5
 93
        8
 72
     1
 10
90.12332291379234
 20
141.0156468092845
 11
90.43654772877312
 21
141.6438147335633
 72
     1
 10
90.43654772877312
 20
141.6438147335633
 11
88.74578671749405
 21
141.6438147335633
 72
     4
 94
        3
 73
     0
 74
     0
 95
       26
 96
       22
 40
0.0
 40
0.0
 40
0.0
 40
0.0
 40
0.306282258847545
 40
0.5113145150563467
 40
0.6591594689727181
 40
0.7695505122602936
 40
0.9127334891892449
 40
1.017243103820777
 40
1.205963108812785
 40
1.359578479722587
 40
1.464061546148638
 40
1.566512542290269
 40
1.749777456690453
 40
1.879367624743226
 40
1.949161942424621
 40
2.048302708997833
 40
2.119894481049029
 40
2.223607322578598
 40
2.282299819925661
 40
2.410021277698012
 40
2.468340004823004
 40
2.468340004823004
 40
2.468340004823004
 40
2.468340004823004
 10
88.74578671749356
 20
141.6438147335632
 10
88.64182978651815
 20
141.6376124847938
 10
88.46828173986198
 20
141.6272583107266
 10
88.27772704037533
 20
141.5114983771944
 10
88.13811551184796
 20
141.4442006388971
 10
88.03854473901671
 20
141.3527150970718
 10
87.96555895890142
 20
141.2582172152587
 10
87.87354668143308
 20
141.1456236819546
 10
87.79851329841129
 20
141.014513068643
 10
87.76030335801142
 20
140.8700063158474
 10
87.72645735545671
 20
140.7548335954144
 10
87.7013565933486
 20
140.6264886288384
 10
87.70774293782238
 20
140.4878309155383
 10
87.71688847538815
 20
140.359052729962
 10
87.75772107671892
 20
140.2671243861992
 10
87.80422217693475
 20
140.2016777401472
 10
87.86116213731954
 20
140.1295955152487
 10
87.92346690572783
 20
140.08185569111
 10
87.97499803486994
 20
139.9953717916434
 10
88.06520153806454
 20
139.9843358223455
 10
88.12253847330483
 20
139.9623709496465
 10
88.14051210132669
 20
139.9554855371322
 72
     1
 10
88.14051210132667
 20
139.9554855371322
 11
89.59469226347545
 21
139.9554855371322
 72
     1
 10
89.59469226347545
 20
139.9554855371322
 11
89.90791376149111
 21
140.5836468092844
 72
     1
 10
89.90791376149111
 20
140.5836468092844
 11
88.82832387751268
 21
140.5836468092843
 72
     4
 94
        3
 73
     0
 74
     0
 95
       16
 96
       12
 40
0.0
 40
0.0
 40
0.0
 40
0.0
 40
0.092496428386945
 40
0.1859468902404647
 40
0.2416858907028242
 40
0.2951281203562815
 40
0.3538203845089407
 40
0.3948066843496557
 40
0.4336991257336609
 40
0.512567413098898
 40
0.6740411735369377
 40
0.6740411735369377
 40
0.6740411735369377
 40
0.6740411735369377
 10
88.82832387751268
 20
140.5836468092843
 10
88.79575964207761
 20
140.5932276848268
 10
88.73029529477461
 20
140.6124882556831
 10
88.72481645754167
 20
140.705856427431
 10
88.73228058062137
 20
140.7723888900929
 10
88.76354034474903
 20
140.8208284081565
 10
88.80146386057015
 20
140.8560745309165
 10
88.81558446746465
 20
140.9019770948651
 10
88.85709070491019
 20
140.9366392735577
 10
88.93069238526999
 20
140.9949015539551
 10
89.01208310254176
 20
141.0073101178935
 10
89.06676544091221
 20
141.0156468092844
 72
     1
 10
89.06676544091222
 20
141.0156468092844
 11
90.12332291379234
 21
141.0156468092845
 97
        8
330
1D10
330
1CDD
330
1CDC
330
1D0F
330
1D0D
330
1D0E
330
1D0C
330
1D0B
 75
     0
 76
     1
 47
0.0514683685270805
 98
        1
 10
89.33710844247395
 20
141.2679728611171
450
        0
451
        0
460
0.0
461
0.0
452
        0
462
0.0
453
        0
470

  0
LINE
  5
1CDF
102
{ACAD_REACTORS
330
1D07
330
1CE6
102
}
330
18
100
AcDbEntity
  8
ROGO
 62
     4
100
AcDbLine
 10
78.02923817087952
 20
139.0056848672555
 30
0.0
 11
95.88675179991009
 21
139.0056848672555
 31
0.0
  0
LINE
  5
1CE0
330
18
100
AcDbEntity
  8
ROGO
 62
     4
100
AcDbLine
 10
79.35685201373321
 20
139.27011798963
 30
0.0
 11
95.04649902618684
 21
139.27011798963
 31
0.0
  0
HATCH
  5
1CE1
330
18
100
AcDbEntity
  8
ROGO
 62
     4
100
AcDbHatch
 10
0.0
 20
0.0
 30
0.0
210
0.0
220
0.0
230
1.0
  2
SOLID
 70
     1
 71
     0
 91
        1
 92
        7
 72
     0
 73
     1
 93
        4
 10
79.37519073119759
 20
139.27011798963
 10
79.255553685655
 20
139.0056848672555
 10
94.91464413097611
 20
139.0056848672555
 10
95.04649902618686
 20
139.27011798963
 97
        0
 75
     0
 76
     1
 47
0.0514683685270805
 98
        1
 10
89.27035035233968
 20
139.2001796785096
450
        0
451
        0
460
0.0
461
0.0
452
        0
462
0.0
453
        0
470

  0
LINE
  5
1CE2
102
{ACAD_REACTORS
330
1CE6
102
}
330
18
100
AcDbEntity
  8
ROGO
 62
     4
100
AcDbLine
 10
80.83162393905315
 20
139.9554855371322
 30
0.0
 11
79.68527045100592
 21
139.9554855371322
 31
0.0
  0
LINE
  5
1CE3
102
{ACAD_REACTORS
330
1CE6
102
}
330
18
100
AcDbEntity
  8
ROGO
 62
     4
100
AcDbLine
 10
80.15373625072134
 20
140.9909329905746
 30
0.0
 11
79.95059622683317
 21
140.5419336814363
 31
0.0
  0
LINE
  5
1CE4
102
{ACAD_REACTORS
330
1CE6
102
}
330
18
100
AcDbEntity
  8
ROGO
 62
     4
100
AcDbLine
 10
80.5840114039185
 20
140.5419336814361
 30
0.0
 11
79.95059622683317
 21
140.5419336814363
 31
0.0
  0
LINE
  5
1CE5
102
{ACAD_REACTORS
330
1CE6
102
}
330
18
100
AcDbEntity
  8
ROGO
 62
     4
100
AcDbLine
 10
79.33456029385587
 20
141.6438147335632
 30
0.0
 11
81.40777241055099
 21
141.6438147335632
 31
0.0
  0
HATCH
  5
1CE6
330
18
100
AcDbEntity
  8
ROGO
 62
     4
100
AcDbHatch
 10
0.0
 20
0.0
 30
0.0
210
0.0
220
0.0
230
1.0
  2
SOLID
 70
     1
 71
     1
 91
        2
 92
        5
 93
        6
 72
     1
 10
78.02923817087954
 20
139.0056848672555
 11
79.25555368565501
 21
139.0056848672555
 72
     1
 10
79.25555368565501
 20
139.0056848672555
 11
79.68527045100592
 21
139.9554855371322
 72
     1
 10
79.68527045100592
 20
139.9554855371322
 11
80.83162393865574
 21
139.9554855371322
 72
     4
 94
        3
 73
     0
 74
     0
 95
       18
 96
       14
 40
0.108740278791501
 40
0.108740278791501
 40
0.108740278791501
 40
0.108740278791501
 40
0.6623149649549278
 40
1.384304701649787
 40
2.097394834876493
 40
2.774073369849618
 40
3.428974823686337
 40
4.005208313035923
 40
4.455173659284313
 40
4.720999734343524
 40
5.086034088486724
 40
5.569973738255373
 40
6.060470601257719
 40
6.060470601257719
 40
6.060470601257719
 40
6.060470601257719
 10
80.83162393865581
 20
139.9554855371322
 10
80.91230240323472
 20
139.9560863252293
 10
81.098204290875
 20
139.9574706802976
 10
81.35827957701286
 20
140.0964086129345
 10
81.60490525670395
 20
140.273405416231
 10
81.80354546409427
 20
140.4945444558333
 10
81.9273042980779
 20
140.7473790612171
 10
81.94647415028128
 20
140.9896978069521
 10
81.93477142648152
 20
141.1813689222962
 10
81.85114958692617
 20
141.3149684481141
 10
81.76421448045147
 20
141.4505583044791
 10
81.60480489189087
 20
141.5680112742109
 10
81.47419181608308
 20
141.6194731344733
 10
81.40777241055099
 20
141.6438147335633
 72
     1
 10
81.40777241055115
 20
141.6438147335632
 11
79.33456029385587
 21
141.6438147335632
 72
     1
 10
79.33456029385587
 20
141.6438147335632
 11
78.02923817087954
 21
139.0056848672555
 97
        6
330
1CF6
330
1CE5
330
1CE7
330
1CDF
330
1CE8
330
1CE2
 92
       20
 93
        4
 72
     1
 10
79.95059622683317
 20
140.5419336814362
 11
80.15373625072134
 21
140.9909329905746
 72
     1
 10
80.15373625072134
 20
140.9909329905746
 11
80.67571953527517
 21
140.9909329905746
 72
     4
 94
        3
 73
     0
 74
     0
 95
       15
 96
       11
 40
0.0
 40
0.0
 40
0.0
 40
0.0
 40
0.1979620751796092
 40
0.2882218927611821
 40
0.390672794493828
 40
0.4604671121752228
 40
0.570847549457819
 40
0.6369624161317818
 40
0.7503938621545029
 40
0.7882043682941406
 40
0.7882043682941406
 40
0.7882043682941406
 40
0.7882043682941406
 10
80.67571953527517
 20
140.9909329905746
 10
80.75007025177981
 20
140.9912735565434
 10
80.85832080542591
 20
140.9917694018615
 10
80.91751606360906
 20
140.8578631539524
 10
80.89098192645156
 20
140.7716484194184
 10
80.85762635347789
 20
140.6831327582428
 10
80.79867950149481
 20
140.6229850314679
 10
80.71956419201532
 20
140.5650526310773
 10
80.64479644380078
 20
140.558039654601
 10
80.59616841655032
 20
140.5451548773027
 10
80.5840114039184
 20
140.5419336814363
 72
     1
 10
80.58401140391815
 20
140.5419336814361
 11
79.95059622683317
 21
140.5419336814362
 97
        4
330
1CE3
330
1CF5
330
1CF4
330
1CE4
 75
     0
 76
     1
 47
0.0514683685270805
 98
        2
 10
79.34564129096469
 20
140.8232863318489
 10
79.34564129096469
 20
140.8232863318489
450
        0
451
        0
460
0.0
461
0.0
452
        0
462
0.0
453
        0
470

  0
LINE
  5
1CE7
102
{ACAD_REACTORS
330
1CE6
102
}
330
18
100
AcDbEntity
  8
ROGO
 62
     4
100
AcDbLine
 10
79.33456029385587
 20
141.6438147335632
 30
0.0
 11
78.02923817087952
 21
139.0056848672555
 31
0.0
  0
LINE
  5
1CE8
102
{ACAD_REACTORS
330
1CE6
102
}
330
18
100
AcDbEntity
  8
ROGO
 62
     4
100
AcDbLine
 10
79.68527045100592
 20
139.9554855371322
 30
0.0
 11
79.255553685655
 21
139.0056848672555
 31
0.0
  0
LINE
  5
1CE9
102
{ACAD_REACTORS
330
1CEF
102
}
330
18
100
AcDbEntity
  8
ROGO
 62
     4
100
AcDbLine
 10
83.52458336964133
 20
141.2570688798162
 30
0.0
 11
84.7247519124931
 21
141.2570688798162
 31
0.0
  0
LINE
  5
1CEA
102
{ACAD_REACTORS
330
1CEF
102
}
330
18
100
AcDbEntity
  8
ROGO
 62
     4
100
AcDbLine
 10
83.37496499611445
 20
140.9546816814366
 30
0.0
 11
84.5751335389661
 21
140.9546816814366
 31
0.0
  0
LINE
  5
1CEB
102
{ACAD_REACTORS
330
1CEF
102
}
330
18
100
AcDbEntity
  8
ROGO
 62
     4
100
AcDbLine
 10
83.07192066266276
 20
140.3422119371321
 30
0.0
 11
84.27208920551441
 21
140.3422119371321
 31
0.0
  0
LINE
  5
1CEC
102
{ACAD_REACTORS
330
1CEF
102
}
330
18
100
AcDbEntity
  8
ROGO
 62
     4
100
AcDbLine
 10
83.22154537031241
 20
140.6446119371322
 30
0.0
 11
84.42171391316406
 21
140.6446119371323
 31
0.0
  0
LINE
  5
1CED
102
{ACAD_REACTORS
330
1CEF
102
}
330
18
100
AcDbEntity
  8
ROGO
 62
     4
100
AcDbLine
 10
84.27208920551441
 20
140.3422119371321
 30
0.0
 11
84.08074057938875
 21
139.9554855371322
 31
0.0
  0
LINE
  5
1CEE
102
{ACAD_REACTORS
330
1CEF
102
}
330
18
100
AcDbEntity
  8
ROGO
 62
     4
100
AcDbLine
 10
82.63257468752959
 20
141.6438147335632
 30
0.0
 11
84.91611016415181
 21
141.6438147335633
 31
0.0
  0
HATCH
  5
1CEF
330
18
100
AcDbEntity
  8
ROGO
 62
     4
100
AcDbHatch
 10
0.0
 20
0.0
 30
0.0
210
0.0
220
0.0
230
1.0
  2
SOLID
 70
     1
 71
     1
 91
        1
 92
        1
 93
       12
 72
     1
 10
82.63257468752959
 20
141.6438147335632
 11
84.91611016415181
 21
141.6438147335633
 72
     1
 10
84.91611016415181
 20
141.6438147335632
 11
84.7247519124931
 21
141.2570688798162
 72
     1
 10
84.7247519124931
 20
141.2570688798162
 11
83.52458336964133
 21
141.2570688798162
 72
     1
 10
83.52458336964133
 20
141.2570688798162
 11
83.37496499611445
 21
140.9546816814366
 72
     1
 10
83.37496499611445
 20
140.9546816814366
 11
84.5751335389661
 21
140.9546816814366
 72
     1
 10
84.5751335389661
 20
140.9546816814366
 11
84.42171391316406
 21
140.6446119371322
 72
     1
 10
84.42171391316406
 20
140.6446119371323
 11
83.22154537031241
 21
140.6446119371322
 72
     1
 10
83.22154537031241
 20
140.6446119371322
 11
83.07192066266276
 21
140.3422119371321
 72
     1
 10
83.07192066266276
 20
140.3422119371321
 11
84.27208920551441
 21
140.3422119371321
 72
     1
 10
84.27208920551441
 20
140.3422119371321
 11
84.08074057938875
 21
139.9554855371322
 72
     1
 10
84.08074057938875
 20
139.9554855371322
 11
81.79720510276666
 21
139.9554855371322
 72
     1
 10
81.79720510276666
 20
139.9554855371322
 11
82.63257468752959
 21
141.6438147335632
 97
       12
330
1CEE
330
1CF7
330
1CE9
330
1CF2
330
1CEA
330
1CF8
330
1CEC
330
1CF3
330
1CEB
330
1CED
330
1CF1
330
1CF0
 75
     0
 76
     1
 98
        1
 10
-10.77473399938191
 20
24.9034055288487
450
        0
451
        0
460
0.0
461
0.0
452
        0
462
0.0
453
        0
470

  0
LINE
  5
1CF0
102
{ACAD_REACTORS
330
1CEF
102
}
330
18
100
AcDbEntity
  8
ROGO
 62
     4
100
AcDbLine
 10
82.63257468752959
 20
141.6438147335632
 30
0.0
 11
81.79720510276666
 21
139.9554855371322
 31
0.0
  0
LINE
  5
1CF1
102
{ACAD_REACTORS
330
1CEF
102
}
330
18
100
AcDbEntity
  8
ROGO
 62
     4
100
AcDbLine
 10
81.79720510276666
 20
139.9554855371322
 30
0.0
 11
84.08074057938875
 21
139.9554855371322
 31
0.0
  0
LINE
  5
1CF2
102
{ACAD_REACTORS
330
1CEF
102
}
330
18
100
AcDbEntity
  8
ROGO
 62
     4
100
AcDbLine
 10
83.52458336964133
 20
141.2570688798162
 30
0.0
 11
83.37496499611445
 21
140.9546816814366
 31
0.0
  0
LINE
  5
1CF3
102
{ACAD_REACTORS
330
1CEF
102
}
330
18
100
AcDbEntity
  8
ROGO
 62
     4
100
AcDbLine
 10
83.22154537031241
 20
140.6446119371322
 30
0.0
 11
83.07192066266276
 21
140.3422119371321
 31
0.0
  0
SPLINE
  5
1CF4
102
{ACAD_REACTORS
330
1CE6
102
}
330
18
100
AcDbEntity
  8
ROGO
 62
     4
100
AcDbSpline
210
0.0
220
0.0
230
1.0
 70
     8
 71
     3
 72
    15
 73
    11
 74
     9
 42
0.0000000001
 43
0.0000000001
 44
0.0000000001
 40
0.0
 40
0.0
 40
0.0
 40
0.0
 40
0.1979620751796092
 40
0.2882218927611821
 40
0.390672794493828
 40
0.4604671121752228
 40
0.570847549457819
 40
0.6369624161317818
 40
0.7503938621545029
 40
0.7882043682941406
 40
0.7882043682941406
 40
0.7882043682941406
 40
0.7882043682941406
 10
80.67571953527517
 20
140.9909329905746
 30
0.0
 10
80.75007025177981
 20
140.9912735565434
 30
0.0
 10
80.85832080542591
 20
140.9917694018615
 30
0.0
 10
80.91751606360906
 20
140.8578631539524
 30
0.0
 10
80.89098192645156
 20
140.7716484194184
 30
0.0
 10
80.85762635347789
 20
140.6831327582428
 30
0.0
 10
80.79867950149481
 20
140.6229850314679
 30
0.0
 10
80.71956419201532
 20
140.5650526310773
 30
0.0
 10
80.64479644380078
 20
140.558039654601
 30
0.0
 10
80.59616841655032
 20
140.5451548773027
 30
0.0
 10
80.5840114039184
 20
140.5419336814363
 30
0.0
 11
80.67571953527517
 21
140.9909329905746
 31
0.0
 11
80.86830676932647
 21
140.945116612609
 31
0.0
 11
80.90499012733715
 21
140.8626474310021
 31
0.0
 11
80.88664871200178
 21
140.7618516982088
 31
0.0
 11
80.85913632532884
 21
140.697708769057
 31
0.0
 11
80.78576960930735
 21
140.6152395874501
 31
0.0
 11
80.73074483596128
 21
140.5785864850776
 31
0.0
 11
80.62069476192908
 21
140.5510969570294
 31
0.0
 11
80.5840114039184
 21
140.5419336814363
 31
0.0
  0
LINE
  5
1CF5
102
{ACAD_REACTORS
330
1CE6
102
}
330
18
100
AcDbEntity
  8
ROGO
 62
     4
100
AcDbLine
 10
80.67571953527517
 20
140.9909329905746
 30
0.0
 11
80.15373625072134
 21
140.9909329905746
 31
0.0
  0
SPLINE
  5
1CF6
102
{ACAD_REACTORS
330
1CE6
102
}
330
18
100
AcDbEntity
  8
ROGO
 62
     4
100
AcDbSpline
210
0.0
220
0.0
230
1.0
 70
     8
 71
     3
 72
    18
 73
    14
 74
     0
 42
0.0000000001
 43
0.0000000001
 40
0.1087402787915014
 40
0.1087402787915014
 40
0.1087402787915014
 40
0.1087402787915014
 40
0.5992371417938475
 40
1.083176791562496
 40
1.448211145705696
 40
1.714037220764907
 40
2.164002567013297
 40
2.740236056362883
 40
3.395137510199602
 40
4.071816045172726
 40
4.784906178399433
 40
5.506895915094292
 40
6.060470601257719
 40
6.060470601257719
 40
6.060470601257719
 40
6.060470601257719
 10
81.40777241055099
 20
141.6438147335633
 30
0.0
 10
81.47419181608308
 20
141.6194731344733
 30
0.0
 10
81.60480489189087
 20
141.5680112742109
 30
0.0
 10
81.76421448045147
 20
141.4505583044791
 30
0.0
 10
81.85114958692617
 20
141.3149684481141
 30
0.0
 10
81.93477142648152
 20
141.1813689222962
 30
0.0
 10
81.94647415028128
 20
140.9896978069521
 30
0.0
 10
81.9273042980779
 20
140.7473790612171
 30
0.0
 10
81.80354546409427
 20
140.4945444558333
 30
0.0
 10
81.60490525670395
 20
140.273405416231
 30
0.0
 10
81.35827957701286
 20
140.0964086129345
 30
0.0
 10
81.098204290875
 20
139.9574706802976
 30
0.0
 10
80.91230240323472
 20
139.9560863252293
 30
0.0
 10
80.83162393865581
 20
139.9554855371322
 30
0.0
  0
LINE
  5
1CF7
102
{ACAD_REACTORS
330
1CEF
102
}
330
18
100
AcDbEntity
  8
ROGO
 62
     4
100
AcDbLine
 10
84.91611016415181
 20
141.6438147335632
 30
0.0
 11
84.7247519124931
 21
141.2570688798162
 31
0.0
  0
LINE
  5
1CF8
102
{ACAD_REACTORS
330
1CEF
102
}
330
18
100
AcDbEntity
  8
ROGO
 62
     4
100
AcDbLine
 10
84.5751335389661
 20
140.9546816814366
 30
0.0
 11
84.42171391316406
 21
140.6446119371322
 31
0.0
  0
LINE
  5
1CF9
102
{ACAD_REACTORS
330
1D04
102
}
330
18
100
AcDbEntity
  8
ROGO
 62
     4
100
AcDbLine
 10
85.57760279083453
 20
141.6438147335632
 30
0.0
 11
84.36011579499274
 21
139.9554855371322
 31
0.0
  0
LINE
  5
1CFA
102
{ACAD_REACTORS
330
1D04
102
}
330
18
100
AcDbEntity
  8
ROGO
 62
     4
100
AcDbLine
 10
86.18719574936092
 20
141.1925174774824
 30
0.0
 11
85.7714385169582
 21
140.6159732708581
 31
0.0
  0
LINE
  5
1CFB
102
{ACAD_REACTORS
330
1D04
102
}
330
18
100
AcDbEntity
  8
ROGO
 62
     4
100
AcDbLine
 10
85.52694996691451
 20
140.276932970106
 30
0.0
 11
86.59393466678006
 21
140.276932970106
 31
0.0
  0
LINE
  5
1CFC
102
{ACAD_REACTORS
330
1D04
102
}
330
18
100
AcDbEntity
  8
ROGO
 62
     4
100
AcDbLine
 10
85.77143851695831
 20
140.6159732708581
 30
0.0
 11
86.44331953100794
 21
140.6159732708581
 31
0.0
  0
LINE
  5
1CFD
102
{ACAD_REACTORS
330
1D04
102
}
330
18
100
AcDbEntity
  8
ROGO
 62
     4
100
AcDbLine
 10
85.52694996691451
 20
140.276932970106
 30
0.0
 11
85.29514797573909
 21
139.9554855371323
 31
0.0
  0
LINE
  5
1CFE
102
{ACAD_REACTORS
330
1D04
102
}
330
18
100
AcDbEntity
  8
ROGO
 62
     4
100
AcDbLine
 10
84.36011579499274
 20
139.9554855371322
 30
0.0
 11
85.29514797573909
 21
139.9554855371322
 31
0.0
  0
LINE
  5
1CFF
102
{ACAD_REACTORS
330
1D04
102
}
330
18
100
AcDbEntity
  8
ROGO
 62
     4
100
AcDbLine
 10
85.57760279083453
 20
141.6438147335632
 30
0.0
 11
86.92812155439781
 21
141.6438147335632
 31
0.0
  0
LINE
  5
1D00
102
{ACAD_REACTORS
330
1D04
102
}
330
18
100
AcDbEntity
  8
ROGO
 62
     4
100
AcDbLine
 10
87.67814428203354
 20
139.9554855371323
 30
0.0
 11
86.73673435358301
 21
139.9554855371322
 31
0.0
  0
LINE
  5
1D01
102
{ACAD_REACTORS
330
1D04
102
}
330
18
100
AcDbEntity
  8
ROGO
 62
     4
100
AcDbLine
 10
86.92812155439781
 20
141.6438147335632
 30
0.0
 11
87.67814428203354
 21
139.9554855371322
 31
0.0
  0
LINE
  5
1D02
102
{ACAD_REACTORS
330
1D04
102
}
330
18
100
AcDbEntity
  8
ROGO
 62
     4
100
AcDbLine
 10
86.18719574936102
 20
141.1925174774824
 30
0.0
 11
86.44331953100794
 21
140.6159732708581
 31
0.0
  0
LINE
  5
1D03
102
{ACAD_REACTORS
330
1D04
102
}
330
18
100
AcDbEntity
  8
ROGO
 62
     4
100
AcDbLine
 10
86.59393466678006
 20
140.276932970106
 30
0.0
 11
86.73673435358301
 21
139.9554855371322
 31
0.0
  0
HATCH
  5
1D04
330
18
100
AcDbEntity
  8
ROGO
 62
     4
100
AcDbHatch
 10
0.0
 20
0.0
 30
0.0
210
0.0
220
0.0
230
1.0
  2
SOLID
 70
     1
 71
     1
 91
        2
 92
        7
 72
     0
 73
     1
 93
        8
 10
86.9281215543978
 20
141.6438147335632
 10
85.57760279083455
 20
141.6438147335632
 10
84.36011579499274
 20
139.9554855371322
 10
85.29514797573902
 20
139.9554855371322
 10
85.5269499669145
 20
140.276932970106
 10
86.59393466678004
 20
140.276932970106
 10
86.73673435358301
 20
139.9554855371322
 10
87.67814428203349
 20
139.9554855371323
 97
        8
330
1CFF
330
1CF9
330
1CFE
330
1CFD
330
1CFB
330
1D03
330
1D00
330
1D01
 92
       22
 72
     0
 73
     1
 93
        3
 10
86.44331953100794
 20
140.6159732708581
 10
85.7714385169582
 20
140.6159732708582
 10
86.18719574936097
 20
141.1925174774825
 97
        3
330
1CFC
330
1CFA
330
1D02
 75
     0
 76
     1
 47
0.0128389261915577
 98
        2
 10
86.82236526404613
 20
141.238760840523
 10
86.82236526404613
 20
141.238760840523
450
        0
451
        0
460
0.0
461
0.0
452
        0
462
0.0
453
        0
470

  0
LINE
  5
1D05
102
{ACAD_REACTORS
330
1D07
102
}
330
18
100
AcDbEntity
  8
ROGO
 62
     4
100
AcDbLine
 10
96.23010088598022
 20
141.6438147335632
 30
0.0
 11
97.20220855491419
 21
141.6438147335632
 31
0.0
  0
LINE
  5
1D06
102
{ACAD_REACTORS
330
1D07
102
}
330
18
100
AcDbEntity
  8
ROGO
 62
     4
100
AcDbLine
 10
96.23010088598022
 20
139.6942665899807
 30
0.0
 11
96.57344997205036
 21
139.0056848672555
 31
0.0
  0
HATCH
  5
1D07
330
18
100
AcDbEntity
  8
ROGO
 62
     4
100
AcDbHatch
 10
0.0
 20
0.0
 30
0.0
210
0.0
220
0.0
230
1.0
  2
SOLID
 70
     1
 71
     1
 91
        1
 92
        7
 72
     0
 73
     1
 93
       11
 10
96.96504060722617
 20
141.1681777779989
 10
97.20220855491419
 20
141.6438147335632
 10
96.23010088598022
 20
141.6438147335632
 10
94.91464413097611
 20
139.0056848672555
 10
95.8867517999101
 20
139.0056848672555
 10
96.23010088598023
 20
139.6942665899807
 10
96.57344997205036
 20
139.0056848672554
 10
97.54553637205034
 20
139.0056848672555
 10
96.88780799454828
 20
140.3247498004093
 10
98.48583352425993
 20
141.6438147335632
 10
97.51374712425997
 20
141.6438147335632
 97
       11
330
1D24
330
1D26
330
1D21
330
1D05
330
1D1E
330
1CDF
330
1D1F
330
1D06
330
1D25
330
1D22
330
1D23
 75
     0
 76
     1
 47
0.015942268611278
 98
        1
 10
96.75485176776994
 20
140.7879546577694
450
        0
451
        0
460
0.0
461
0.0
452
        0
462
0.0
453
        0
470

  0
SPLINE
  5
1D08
102
{ACAD_REACTORS
330
1D0A
102
}
330
18
100
AcDbEntity
  8
ROGO
 62
     4
100
AcDbSpline
210
0.0
220
0.0
230
1.0
 70
     8
 71
     3
 72
    25
 73
    21
 74
     0
 42
0.0000000001
 43
0.0000000001
 40
0.0
 40
0.0
 40
0.0
 40
0.0
 40
0.4087168505087288
 40
0.6887487002771746
 40
0.9415836120477687
 40
1.17452070575514
 40
1.41154617586699
 40
1.599156012919487
 40
1.80099909059943
 40
2.178735911501585
 40
2.521686161369157
 40
2.762704659361267
 40
3.06256558063785
 40
3.222432137207705
 40
3.399493810628493
 40
3.567459719866414
 40
3.743172740007509
 40
3.995988754699505
 40
4.17170091132118
 40
4.337226830236035
 40
4.337226830236035
 40
4.337226830236035
 40
4.337226830236035
 10
92.33899234149493
 20
141.650856872499
 30
0.0
 10
92.40227526347059
 20
141.648823657484
 30
0.0
 10
92.5089164019659
 20
141.6453973876907
 30
0.0
 10
92.623408820193
 20
141.5559082156363
 30
0.0
 10
92.71101510402644
 20
141.4817148355171
 30
0.0
 10
92.77319913170442
 20
141.3920185130875
 30
0.0
 10
92.82770517424461
 20
141.3095475226454
 30
0.0
 10
92.86362052380509
 20
141.2224771323605
 30
0.0
 10
92.91247249510121
 20
141.1180006380987
 30
0.0
 10
92.93269479779047
 20
140.9782266106875
 30
0.0
 10
92.9190322277862
 20
140.8337572567717
 30
0.0
 10
92.88337929928941
 20
140.7056984634387
 30
0.0
 10
92.84598224381801
 20
140.6074547653963
 30
0.0
 10
92.80190536235279
 20
140.5219275314083
 30
0.0
 10
92.74936008724745
 20
140.4665486407667
 30
0.0
 10
92.71290628726882
 20
140.396134921177
 30
0.0
 10
92.64288320063242
 20
140.3385402789112
 30
0.0
 10
92.58611870945236
 20
140.2674765740418
 30
0.0
 10
92.52170283377285
 20
140.2064818404635
 30
0.0
 10
92.48538487752496
 20
140.1688488248927
 30
0.0
 10
92.46623717516156
 20
140.1530258683912
 30
0.0
  0
SPLINE
  5
1D09
102
{ACAD_REACTORS
330
1D0A
102
}
330
18
100
AcDbEntity
  8
ROGO
 62
     4
100
AcDbSpline
210
0.0
220
0.0
230
1.0
 70
     8
 71
     3
 72
     9
 73
     5
 74
     3
 42
0.0000000001
 43
0.0000000001
 44
0.0000000001
 40
0.0
 40
0.0
 40
0.0
 40
0.0
 40
0.146030572742497
 40
0.3423777932799819
 40
0.3423777932799819
 40
0.3423777932799819
 40
0.3423777932799819
 10
92.16636398059113
 20
139.9931266831575
 30
0.0
 10
92.21327322557144
 20
140.0074782628016
 30
0.0
 10
92.32325487858531
 20
140.0411264371281
 30
0.0
 10
92.41412491788976
 20
140.1122422742667
 30
0.0
 10
92.46623717516156
 20
140.1530258683912
 30
0.0
 11
92.16636398059113
 21
139.9931266831575
 31
0.0
 11
92.30361496316579
 21
140.04299747579
 31
0.0
 11
92.46623717516156
 21
140.1530258683912
 31
0.0
  0
HATCH
  5
1D0A
330
18
100
AcDbEntity
  8
ROGO
 62
     4
100
AcDbHatch
 10
0.0
 20
0.0
 30
0.0
210
0.0
220
0.0
230
1.0
  2
SOLID
 70
     1
 71
     1
 91
        2
 92
        5
 93
        6
 72
     4
 94
        3
 73
     0
 74
     0
 95
       38
 96
       34
 40
0.0
 40
0.0
 40
0.0
 40
0.0
 40
0.2324160190625641
 40
0.3054076598660179
 40
0.3991969555208118
 40
0.4773548548861183
 40
0.5433001127836845
 40
0.6308904647837286
 40
0.6756456824938584
 40
0.7260518053353911
 40
0.8003409450195571
 40
0.884494420029689
 40
0.9390839551137702
 40
0.9983865037096219
 40
1.064308042580248
 40
1.164347318186099
 40
1.259395062462607
 40
1.303582284428296
 40
1.353971899974848
 40
1.413666953858189
 40
1.456162161198055
 40
1.491785383230425
 40
1.542647296663551
 40
1.598535826931799
 40
1.654424046021893
 40
1.703326315520178
 40
1.815321205179844
 40
1.859508427145426
 40
1.947882923564461
 40
2.026002047025105
 40
2.175555252260891
 40
2.360088422381767
 40
2.626581173122162
 40
2.626581173122162
 40
2.626581173122162
 40
2.626581173122162
 10
91.37412314025658
 20
141.650856872499
 10
91.29665191473788
 20
141.6453840765123
 10
91.19485038751072
 20
141.6381925162145
 10
91.06558625142689
 20
141.6027779968081
 10
90.99512299571713
 20
141.5605879003623
 10
90.92179189402356
 20
141.5295761571758
 10
90.85927030009997
 20
141.4836539152839
 10
90.79603102777658
 20
141.459990626464
 10
90.75174895343639
 20
141.4173214871275
 10
90.70049606440829
 20
141.3912573351884
 10
90.65968247890575
 20
141.3329181857413
 10
90.61406446622211
 20
141.2783731950376
 10
90.56114183255591
 20
141.2385577844379
 10
90.51770751683653
 20
141.1967399543435
 10
90.47786257164817
 20
141.1322024776785
 10
90.45428054977099
 20
141.0464512816541
 10
90.38780678838753
 20
140.9923110690018
 10
90.37779792119497
 20
140.9272183791325
 10
90.34102925665768
 20
140.8888147874588
 10
90.3250409553572
 20
140.8392412677638
 10
90.31895184062658
 20
140.7938231672086
 10
90.31164345100055
 20
140.7514058053722
 10
90.2925260878445
 20
140.7067846144235
 10
90.29876606113772
 20
140.6516656843643
 10
90.29698848008349
 20
140.5982921949016
 10
90.29803458862058
 20
140.5262363221155
 10
90.29425903803277
 20
140.4560810689333
 10
90.32436757440931
 20
140.3797355138596
 10
90.3421848070416
 20
140.311684013574
 10
90.39098019696899
 20
140.2174584592507
 10
90.47515122202074
 20
140.1087425430536
 10
90.63520946690028
 20
139.97678201882
 10
90.78911014904802
 20
139.9633952378977
 10
90.88004376112968
 20
139.9554855371322
 72
     1
 10
90.88004376112971
 20
139.9554855371322
 11
91.84491296236791
 21
139.9554855371322
 72
     4
 94
        3
 73
     0
 74
     0
 95
       11
 96
        7
 40
0.1647869275458135
 40
0.1647869275458135
 40
0.1647869275458135
 40
0.1647869275458135
 40
0.2545010798212315
 40
0.5111620267764023
 40
0.7602998271033902
 40
0.8850764140209603
 40
0.8850764140209603
 40
0.8850764140209603
 40
0.8850764140209603
 10
91.84491296236803
 20
139.9554855371322
 10
91.85837683420794
 20
139.9552260598769
 10
91.91035915613037
 20
139.954224250711
 10
91.99919756739717
 20
139.9669869328912
 10
92.09266741086043
 20
139.9792171542284
 10
92.14839156841861
 20
139.9881240553792
 10
92.16636398059113
 20
139.9931266831575
 72
     4
 94
        3
 73
     0
 74
     0
 95
        9
 96
        5
 40
0.0
 40
0.0
 40
0.0
 40
0.0
 40
0.146030572742497
 40
0.3423777932799819
 40
0.3423777932799819
 40
0.3423777932799819
 40
0.3423777932799819
 10
92.16636398059113
 20
139.9931266831575
 10
92.21327322557144
 20
140.0074782628016
 10
92.32325487858531
 20
140.0411264371281
 10
92.41412491788976
 20
140.1122422742667
 10
92.46623717516156
 20
140.1530258683912
 72
     4
 94
        3
 73
     0
 74
     0
 95
       25
 96
       21
 40
0.0
 40
0.0
 40
0.0
 40
0.0
 40
0.165525918914855
 40
0.3412380755365305
 40
0.5940540902285263
 40
0.7697671103696209
 40
0.9377330196075423
 40
1.11479469302833
 40
1.274661249598185
 40
1.574522170874768
 40
1.815540668866877
 40
2.15849091873445
 40
2.536227739636605
 40
2.738070817316548
 40
2.925680654369045
 40
3.162706124480894
 40
3.395643218188267
 40
3.648478129958861
 40
3.928509979727306
 40
4.337226830236035
 40
4.337226830236035
 40
4.337226830236035
 40
4.337226830236035
 10
92.46623717516156
 20
140.1530258683912
 10
92.48538487752496
 20
140.1688488248927
 10
92.52170283377285
 20
140.2064818404635
 10
92.58611870945236
 20
140.2674765740418
 10
92.64288320063242
 20
140.3385402789112
 10
92.71290628726882
 20
140.396134921177
 10
92.74936008724745
 20
140.4665486407667
 10
92.80190536235279
 20
140.5219275314083
 10
92.84598224381801
 20
140.6074547653963
 10
92.88337929928941
 20
140.7056984634387
 10
92.9190322277862
 20
140.8337572567717
 10
92.93269479779047
 20
140.9782266106875
 10
92.91247249510121
 20
141.1180006380987
 10
92.86362052380509
 20
141.2224771323605
 10
92.82770517424461
 20
141.3095475226454
 10
92.77319913170442
 20
141.3920185130875
 10
92.71101510402644
 20
141.4817148355171
 10
92.623408820193
 20
141.5559082156363
 10
92.5089164019659
 20
141.6453973876907
 10
92.40227526347059
 20
141.648823657484
 10
92.33899234149493
 20
141.650856872499
 72
     1
 10
92.33899234149495
 20
141.650856872499
 11
91.37412314025658
 21
141.6508568724991
 97
        6
330
1D08
330
1D15
330
1D11
330
1D12
330
1D13
330
1D09
 92
       20
 93
        1
 72
     3
 10
91.59585536192464
 20
140.7795334539318
 11
0.2292231973722778
 21
0.2015731185223643
 40
0.6788083417438792
 50
0.0
 51
360.0
 73
     1
 97
        1
330
1D14
 75
     0
 76
     1
 47
0.088756267210375
 98
        2
 10
91.66326700219867
 20
141.182588515777
 10
91.66326700219867
 20
141.182588515777
450
        0
451
        0
460
0.0
461
0.0
452
        0
462
0.0
453
        0
470

  0
LINE
  5
1D0B
102
{ACAD_REACTORS
330
1CDE
102
}
330
18
100
AcDbEntity
  8
ROGO
 62
     4
100
AcDbLine
 10
90.43654772877307
 20
141.6438147335632
 30
0.0
 11
90.12332291379227
 21
141.0156468092844
 31
0.0
  0
LINE
  5
1D0C
102
{ACAD_REACTORS
330
1CDE
102
}
330
18
100
AcDbEntity
  8
ROGO
 62
     4
100
AcDbLine
 10
89.06676544091221
 20
141.0156468092844
 30
0.0
 11
90.12332291379227
 21
141.0156468092845
 31
0.0
  0
LINE
  5
1D0D
102
{ACAD_REACTORS
330
1CDE
102
}
330
18
100
AcDbEntity
  8
ROGO
 62
     4
100
AcDbLine
 10
88.82832387751255
 20
140.5836468092843
 30
0.0
 11
89.90791376149109
 21
140.5836468092843
 31
0.0
  0
SPLINE
  5
1D0E
102
{ACAD_REACTORS
330
1CDE
102
}
330
18
100
AcDbEntity
  8
ROGO
 62
     4
100
AcDbSpline
210
0.0
220
0.0
230
1.0
 70
     8
 71
     3
 72
    16
 73
    12
 74
    10
 42
0.0000000001
 43
0.0000000001
 44
0.0000000001
 40
0.0
 40
0.0
 40
0.0
 40
0.0
 40
0.1614737604380397
 40
0.2403420478032769
 40
0.279234489187282
 40
0.320220789027997
 40
0.3789130531806562
 40
0.4323552828341136
 40
0.488094283296473
 40
0.5815447451499928
 40
0.6740411735369377
 40
0.6740411735369377
 40
0.6740411735369377
 40
0.6740411735369377
 10
89.06676544091221
 20
141.0156468092844
 30
0.0
 10
89.01208310254176
 20
141.0073101178935
 30
0.0
 10
88.93069238526999
 20
140.9949015539551
 30
0.0
 10
88.85709070491019
 20
140.9366392735577
 30
0.0
 10
88.81558446746465
 20
140.9019770948651
 30
0.0
 10
88.80146386057015
 20
140.8560745309165
 30
0.0
 10
88.76354034474903
 20
140.8208284081565
 30
0.0
 10
88.73228058062137
 20
140.7723888900929
 30
0.0
 10
88.72481645754167
 20
140.705856427431
 30
0.0
 10
88.73029529477461
 20
140.6124882556831
 30
0.0
 10
88.79575964207761
 20
140.5932276848268
 30
0.0
 10
88.82832387751268
 20
140.5836468092843
 30
0.0
 11
89.06676544091221
 21
141.0156468092844
 31
0.0
 11
88.91086156487171
 21
140.9736021099092
 31
0.0
 11
88.84666582018798
 21
140.9277860306746
 31
0.0
 11
88.81915343351494
 21
140.9002962038952
 31
0.0
 11
88.80081149083963
 21
140.8636431015227
 31
0.0
 11
88.76412813282883
 21
140.8178270222883
 31
0.0
 11
88.7366157461558
 21
140.7720106443227
 31
0.0
 11
88.72744477481802
 21
140.717031289495
 31
0.0
 11
88.74578671749356
 21
140.625398533564
 31
0.0
 11
88.82832387751268
 21
140.5836468092843
 31
0.0
  0
LINE
  5
1D0F
102
{ACAD_REACTORS
330
1CDE
102
}
330
18
100
AcDbEntity
  8
ROGO
 62
     4
100
AcDbLine
 10
89.90791376149109
 20
140.5836468092843
 30
0.0
 11
89.59469226347545
 21
139.9554855371322
 31
0.0
  0
LINE
  5
1D10
102
{ACAD_REACTORS
330
1CDE
102
}
330
18
100
AcDbEntity
  8
ROGO
 62
     4
100
AcDbLine
 10
88.74578671749402
 20
141.6438147335633
 30
0.0
 11
90.43654772877307
 21
141.6438147335633
 31
0.0
  0
SPLINE
  5
1D11
102
{ACAD_REACTORS
330
1D0A
102
}
330
18
100
AcDbEntity
  8
ROGO
 62
     4
100
AcDbSpline
210
0.0
220
0.0
230
1.0
 70
     8
 71
     3
 72
    38
 73
    34
 74
    32
 42
0.0000000001
 43
0.0000000001
 44
0.0000000001
 40
0.0
 40
0.0
 40
0.0
 40
0.0
 40
0.2324160190625641
 40
0.3054076598660179
 40
0.3991969555208118
 40
0.4773548548861183
 40
0.5433001127836845
 40
0.6308904647837286
 40
0.6756456824938584
 40
0.7260518053353911
 40
0.8003409450195571
 40
0.884494420029689
 40
0.9390839551137702
 40
0.9983865037096219
 40
1.064308042580248
 40
1.164347318186099
 40
1.259395062462607
 40
1.303582284428296
 40
1.353971899974848
 40
1.413666953858189
 40
1.456162161198055
 40
1.491785383230425
 40
1.542647296663551
 40
1.598535826931799
 40
1.654424046021893
 40
1.703326315520178
 40
1.815321205179844
 40
1.859508427145426
 40
1.947882923564461
 40
2.026002047025105
 40
2.175555252260891
 40
2.360088422381767
 40
2.626581173122162
 40
2.626581173122162
 40
2.626581173122162
 40
2.626581173122162
 10
91.37412314025658
 20
141.650856872499
 30
0.0
 10
91.29665191473788
 20
141.6453840765123
 30
0.0
 10
91.19485038751072
 20
141.6381925162145
 30
0.0
 10
91.06558625142689
 20
141.6027779968081
 30
0.0
 10
90.99512299571713
 20
141.5605879003623
 30
0.0
 10
90.92179189402356
 20
141.5295761571758
 30
0.0
 10
90.85927030009997
 20
141.4836539152839
 30
0.0
 10
90.79603102777658
 20
141.459990626464
 30
0.0
 10
90.75174895343639
 20
141.4173214871275
 30
0.0
 10
90.70049606440829
 20
141.3912573351884
 30
0.0
 10
90.65968247890575
 20
141.3329181857413
 30
0.0
 10
90.61406446622211
 20
141.2783731950376
 30
0.0
 10
90.56114183255591
 20
141.2385577844379
 30
0.0
 10
90.51770751683653
 20
141.1967399543435
 30
0.0
 10
90.47786257164817
 20
141.1322024776785
 30
0.0
 10
90.45428054977099
 20
141.0464512816541
 30
0.0
 10
90.38780678838753
 20
140.9923110690018
 30
0.0
 10
90.37779792119497
 20
140.9272183791325
 30
0.0
 10
90.34102925665768
 20
140.8888147874588
 30
0.0
 10
90.3250409553572
 20
140.8392412677638
 30
0.0
 10
90.31895184062658
 20
140.7938231672086
 30
0.0
 10
90.31164345100055
 20
140.7514058053722
 30
0.0
 10
90.2925260878445
 20
140.7067846144235
 30
0.0
 10
90.29876606113772
 20
140.6516656843643
 30
0.0
 10
90.29698848008349
 20
140.5982921949016
 30
0.0
 10
90.29803458862058
 20
140.5262363221155
 30
0.0
 10
90.29425903803277
 20
140.4560810689333
 30
0.0
 10
90.32436757440931
 20
140.3797355138596
 30
0.0
 10
90.3421848070416
 20
140.311684013574
 30
0.0
 10
90.39098019696899
 20
140.2174584592507
 30
0.0
 10
90.47515122202074
 20
140.1087425430536
 30
0.0
 10
90.63520946690028
 20
139.97678201882
 30
0.0
 10
90.78911014904802
 20
139.9633952378977
 30
0.0
 10
90.88004376112968
 20
139.9554855371322
 30
0.0
 11
91.37412314025658
 21
141.650856872499
 31
0.0
 11
91.14339317846718
 21
141.6229124517758
 31
0.0
 11
91.07347502487385
 21
141.6019546030008
 31
0.0
 11
90.98957357014928
 21
141.5600382830941
 31
0.0
 11
90.91965541655595
 21
141.5251082239573
 31
0.0
 11
90.86372111340626
 21
141.4901778536424
 31
0.0
 11
90.7868113092473
 21
141.448261844914
 31
0.0
 11
90.75185195779438
 21
141.4203177353688
 31
0.0
 11
90.70990095577583
 21
141.3923733146456
 31
0.0
 11
90.66095830319175
 21
141.3364850955557
 31
0.0
 11
90.60502400004208
 21
141.2736109268738
 31
0.0
 11
90.56307299802353
 21
141.2386805565589
 31
0.0
 11
90.52112254531749
 21
141.1967645478304
 31
0.0
 11
90.48616319386457
 21
141.1408763287403
 31
0.0
 11
90.44421274115865
 21
141.0500577393353
 31
0.0
 11
90.38827788869634
 21
140.973211360292
 31
0.0
 11
90.3742945875652
 21
140.9312950403853
 31
0.0
 11
90.34632743599042
 21
140.8893790316569
 31
0.0
 11
90.32535193498114
 21
140.8334905013886
 31
0.0
 11
90.318359735103
 21
140.7915744926602
 31
0.0
 11
90.31136808453737
 21
140.7566441223453
 31
0.0
 11
90.29738478340624
 21
140.707742164025
 31
0.0
 11
90.29738478340624
 21
140.6518536337568
 31
0.0
 11
90.29738478340624
 21
140.5959654146667
 31
0.0
 11
90.29738478340624
 21
140.5470631451684
 31
0.0
 11
90.30437643397187
 21
140.4352867069882
 31
0.0
 11
90.318359735103
 21
140.3933703870816
 31
0.0
 11
90.34632743599042
 21
140.3095380584465
 31
0.0
 11
90.38128623813083
 21
140.2396776289949
 31
0.0
 11
90.47217989273343
 21
140.120915241223
 31
0.0
 11
90.61900785048583
 21
140.0091384918646
 31
0.0
 11
90.88004376112968
 21
139.9554855371322
 31
0.0
  0
LINE
  5
1D12
102
{ACAD_REACTORS
330
1D0A
102
}
330
18
100
AcDbEntity
  8
ROGO
 62
     4
100
AcDbLine
 10
90.88004376112968
 20
139.9554855371322
 30
0.0
 11
91.84491296236803
 21
139.9554855371322
 31
0.0
  0
SPLINE
  5
1D13
102
{ACAD_REACTORS
330
1D0A
102
}
330
18
100
AcDbEntity
  8
ROGO
 62
     4
100
AcDbSpline
210
0.0
220
0.0
230
1.0
 70
     8
 71
     3
 72
    11
 73
     7
 74
     0
 42
0.0000000001
 43
0.0000000001
 40
0.1647869275458134
 40
0.1647869275458134
 40
0.1647869275458134
 40
0.1647869275458134
 40
0.2895635144633836
 40
0.5387013147903714
 40
0.7953622617455423
 40
0.8850764140209602
 40
0.8850764140209602
 40
0.8850764140209602
 40
0.8850764140209602
 10
92.16636398059113
 20
139.9931266831575
 30
0.0
 10
92.14839156841861
 20
139.9881240553792
 30
0.0
 10
92.09266741086043
 20
139.9792171542284
 30
0.0
 10
91.99919756739717
 20
139.9669869328912
 30
0.0
 10
91.91035915613037
 20
139.954224250711
 30
0.0
 10
91.85837683420794
 20
139.9552260598769
 30
0.0
 10
91.84491296236803
 20
139.9554855371322
 30
0.0
  0
ELLIPSE
  5
1D14
102
{ACAD_REACTORS
330
1D0A
102
}
330
18
100
AcDbEntity
  8
ROGO
 62
     4
100
AcDbEllipse
 10
91.59585536192464
 20
140.7795334539318
 30
0.0
 11
0.2292231973722778
 21
0.2015731185223643
 31
0.0
210
0.0
220
0.0
230
1.0
 40
0.6788083417438792
 41
0.0
 42
6.283185307179586
  0
LINE
  5
1D15
102
{ACAD_REACTORS
330
1D0A
102
}
330
18
100
AcDbEntity
  8
ROGO
 62
     4
100
AcDbLine
 10
91.37412314025658
 20
141.650856872499
 30
0.0
 11
92.33899234149493
 21
141.650856872499
 31
0.0
  0
LINE
  5
1D16
102
{ACAD_REACTORS
330
1D20
102
}
330
18
100
AcDbEntity
  8
ROGO
 62
     4
100
AcDbLine
 10
93.58045894966238
 20
139.9554855371322
 30
0.0
 11
95.03463911181126
 21
139.9554855371322
 31
0.0
  0
LINE
  5
1D17
102
{ACAD_REACTORS
330
1D20
102
}
330
18
100
AcDbEntity
  8
ROGO
 62
     4
100
AcDbLine
 10
94.18573356582982
 20
141.6438147335632
 30
0.0
 11
95.87649457710886
 21
141.6438147335632
 31
0.0
  0
SPLINE
  5
1D18
102
{ACAD_REACTORS
330
1D20
102
}
330
18
100
AcDbEntity
  8
ROGO
 62
     4
100
AcDbSpline
210
0.0
220
0.0
230
1.0
 70
     8
 71
     3
 72
    16
 73
    12
 74
    10
 42
0.0000000001
 43
0.0000000001
 44
0.0000000001
 40
0.0
 40
0.0
 40
0.0
 40
0.0
 40
0.1614737604380397
 40
0.2403420478033429
 40
0.2792344891871872
 40
0.320220789028004
 40
0.3789130531806808
 40
0.4323552828340408
 40
0.4880942832964002
 40
0.5815447451500316
 40
0.6740411735369252
 40
0.6740411735369252
 40
0.6740411735369252
 40
0.6740411735369252
 10
94.50671228924802
 20
141.0156468092844
 30
0.0
 10
94.45202995087758
 20
141.0073101178936
 30
0.0
 10
94.37063923360577
 20
140.9949015539551
 30
0.0
 10
94.29703755324601
 20
140.9366392735576
 30
0.0
 10
94.25553131580061
 20
140.9019770948651
 30
0.0
 10
94.2414107089057
 20
140.8560745309165
 30
0.0
 10
94.20348719308496
 20
140.8208284081563
 30
0.0
 10
94.1722274289571
 20
140.7723888900928
 30
0.0
 10
94.16476330587753
 20
140.705856427431
 30
0.0
 10
94.17024214311036
 20
140.612488255683
 30
0.0
 10
94.23570649041341
 20
140.5932276848268
 30
0.0
 10
94.26827072584847
 20
140.5836468092843
 30
0.0
 11
94.50671228924802
 21
141.0156468092844
 31
0.0
 11
94.35080841320752
 21
140.9736021099092
 31
0.0
 11
94.28661266852378
 21
140.9277860306745
 31
0.0
 11
94.25910028185086
 21
140.9002962038952
 31
0.0
 11
94.24075833917532
 21
140.8636431015227
 31
0.0
 11
94.20407498116464
 21
140.8178270222881
 31
0.0
 11
94.17656259449159
 21
140.7720106443227
 31
0.0
 11
94.16739162315383
 21
140.717031289495
 31
0.0
 11
94.18573356582937
 21
140.6253985335638
 31
0.0
 11
94.26827072584847
 21
140.5836468092843
 31
0.0
  0
SPLINE
  5
1D19
102
{ACAD_REACTORS
330
1D20
102
}
330
18
100
AcDbEntity
  8
ROGO
 62
     4
100
AcDbSpline
210
0.0
220
0.0
230
1.0
 70
     8
 71
     3
 72
    26
 73
    22
 74
    20
 42
0.0000000001
 43
0.0000000001
 44
0.0000000001
 40
0.0
 40
0.0
 40
0.0
 40
0.0
 40
0.306282258847545
 40
0.5113145150563467
 40
0.6591594689727181
 40
0.7695505122602936
 40
0.9127334891893321
 40
1.017243103820775
 40
1.205963108812882
 40
1.359578479722684
 40
1.464061546148625
 40
1.566512542290257
 40
1.74977745669044
 40
1.879367624743214
 40
1.949161942424609
 40
2.048302708997821
 40
2.119894481049017
 40
2.223607322578586
 40
2.282299819925649
 40
2.41002127769804
 40
2.468340004822995
 40
2.468340004822995
 40
2.468340004822995
 40
2.468340004822995
 10
94.18573356582937
 20
141.6438147335632
 30
0.0
 10
94.08177663485394
 20
141.6376124847938
 30
0.0
 10
93.90822858819777
 20
141.6272583107266
 30
0.0
 10
93.71767388871118
 20
141.5114983771944
 30
0.0
 10
93.57806236018374
 20
141.4442006388971
 30
0.0
 10
93.47849158735252
 20
141.3527150970719
 30
0.0
 10
93.4055058072373
 20
141.2582172152586
 30
0.0
 10
93.31349352976882
 20
141.1456236819546
 30
0.0
 10
93.23846014674714
 20
141.0145130686429
 30
0.0
 10
93.20025020634721
 20
140.8700063158472
 30
0.0
 10
93.1664042037925
 20
140.7548335954144
 30
0.0
 10
93.14130344168443
 20
140.6264886288384
 30
0.0
 10
93.14768978615818
 20
140.4878309155384
 30
0.0
 10
93.15683532372394
 20
140.359052729962
 30
0.0
 10
93.19766792505474
 20
140.2671243861992
 30
0.0
 10
93.24416902527055
 20
140.2016777401472
 30
0.0
 10
93.30110898565534
 20
140.1295955152488
 30
0.0
 10
93.36341375406362
 20
140.08185569111
 30
0.0
 10
93.41494488320577
 20
139.9953717916434
 30
0.0
 10
93.50514838640028
 20
139.9843358223453
 30
0.0
 10
93.56248532164064
 20
139.9623709496465
 30
0.0
 10
93.58045894966251
 20
139.9554855371322
 30
0.0
 11
94.18573356582937
 21
141.6438147335632
 31
0.0
 11
93.88309625774587
 21
141.5967033565855
 31
0.0
 11
93.6996794676923
 21
141.5050708993855
 31
0.0
 11
93.57128797832473
 21
141.4317649933716
 31
0.0
 11
93.48875081830561
 21
141.3584587886268
 31
0.0
 11
93.39704268694896
 21
141.2484997802403
 31
0.0
 11
93.33284694226511
 21
141.1660305986335
 31
0.0
 11
93.24113828356832
 21
141.0010919366883
 31
0.0
 11
93.1952844815599
 21
140.8544798259296
 31
0.0
 11
93.16777209488696
 21
140.7536840931364
 31
0.0
 11
93.14943015221155
 21
140.6528883603432
 31
0.0
 11
93.14943015221155
 21
140.4696234459431
 31
0.0
 11
93.16777209488696
 21
140.3413378863705
 31
0.0
 11
93.1952844815599
 21
140.2771949572187
 31
0.0
 11
93.25030925490597
 21
140.1947257756117
 31
0.0
 11
93.29616358425443
 21
140.139746122053
 31
0.0
 11
93.36952977293577
 21
140.0664402160392
 31
0.0
 11
93.40621313094658
 21
140.0206238380736
 31
0.0
 11
93.52543417631641
 21
139.974807758839
 31
0.0
 11
93.58045894966251
 21
139.9554855371322
 31
0.0
  0
LINE
  5
1D1A
102
{ACAD_REACTORS
330
1D20
102
}
330
18
100
AcDbEntity
  8
ROGO
 62
     4
100
AcDbLine
 10
95.34786060982691
 20
140.5836468092843
 30
0.0
 11
95.03463911181126
 21
139.9554855371322
 31
0.0
  0
LINE
  5
1D1B
102
{ACAD_REACTORS
330
1D20
102
}
330
18
100
AcDbEntity
  8
ROGO
 62
     4
100
AcDbLine
 10
94.26827072584837
 20
140.5836468092843
 30
0.0
 11
95.34786060982691
 21
140.5836468092843
 31
0.0
  0
LINE
  5
1D1C
102
{ACAD_REACTORS
330
1D20
102
}
330
18
100
AcDbEntity
  8
ROGO
 62
     4
100
AcDbLine
 10
94.5067122892479
 20
141.0156468092844
 30
0.0
 11
95.56326976212806
 21
141.0156468092844
 31
0.0
  0
LINE
  5
1D1D
102
{ACAD_REACTORS
330
1D20
102
}
330
18
100
AcDbEntity
  8
ROGO
 62
     4
100
AcDbLine
 10
95.87649457710886
 20
141.6438147335632
 30
0.0
 11
95.56326976212806
 21
141.0156468092844
 31
0.0
  0
LINE
  5
1D1E
102
{ACAD_REACTORS
330
1D07
102
}
330
18
100
AcDbEntity
  8
ROGO
 62
     4
100
AcDbLine
 10
96.23010088598022
 20
141.6438147335632
 30
0.0
 11
94.91464413097611
 21
139.0056848672555
 31
0.0
  0
LINE
  5
1D1F
102
{ACAD_REACTORS
330
1D07
102
}
330
18
100
AcDbEntity
  8
ROGO
 62
     4
100
AcDbLine
 10
96.23010088598022
 20
139.6942665899807
 30
0.0
 11
95.88675179991009
 21
139.0056848672555
 31
0.0
  0
HATCH
  5
1D20
330
18
100
AcDbEntity
  8
ROGO
 62
     4
100
AcDbHatch
 10
0.0
 20
0.0
 30
0.0
210
0.0
220
0.0
230
1.0
  2
SOLID
 70
     1
 71
     1
 91
        1
 92
        5
 93
        8
 72
     4
 94
        3
 73
     0
 74
     0
 95
       26
 96
       22
 40
0.0
 40
0.0
 40
0.0
 40
0.0
 40
0.306282258847545
 40
0.5113145150563467
 40
0.6591594689727181
 40
0.7695505122602936
 40
0.9127334891893321
 40
1.017243103820775
 40
1.205963108812882
 40
1.359578479722684
 40
1.464061546148625
 40
1.566512542290257
 40
1.74977745669044
 40
1.879367624743214
 40
1.949161942424609
 40
2.048302708997821
 40
2.119894481049017
 40
2.223607322578586
 40
2.282299819925649
 40
2.41002127769804
 40
2.468340004822995
 40
2.468340004822995
 40
2.468340004822995
 40
2.468340004822995
 10
94.18573356582937
 20
141.6438147335632
 10
94.08177663485394
 20
141.6376124847938
 10
93.90822858819777
 20
141.6272583107266
 10
93.71767388871118
 20
141.5114983771944
 10
93.57806236018374
 20
141.4442006388971
 10
93.47849158735252
 20
141.3527150970719
 10
93.4055058072373
 20
141.2582172152586
 10
93.31349352976882
 20
141.1456236819546
 10
93.23846014674714
 20
141.0145130686429
 10
93.20025020634721
 20
140.8700063158472
 10
93.1664042037925
 20
140.7548335954144
 10
93.14130344168443
 20
140.6264886288384
 10
93.14768978615818
 20
140.4878309155384
 10
93.15683532372394
 20
140.359052729962
 10
93.19766792505474
 20
140.2671243861992
 10
93.24416902527055
 20
140.2016777401472
 10
93.30110898565534
 20
140.1295955152488
 10
93.36341375406362
 20
140.08185569111
 10
93.41494488320577
 20
139.9953717916434
 10
93.50514838640028
 20
139.9843358223453
 10
93.56248532164064
 20
139.9623709496465
 10
93.58045894966251
 20
139.9554855371322
 72
     1
 10
93.58045894966247
 20
139.9554855371322
 11
95.03463911181126
 21
139.9554855371322
 72
     1
 10
95.03463911181126
 20
139.9554855371322
 11
95.34786060982691
 21
140.5836468092843
 72
     1
 10
95.34786060982691
 20
140.5836468092843
 11
94.26827072584847
 21
140.5836468092843
 72
     4
 94
        3
 73
     0
 74
     0
 95
       16
 96
       12
 40
0.0
 40
0.0
 40
0.0
 40
0.0
 40
0.0924964283868937
 40
0.185946890240525
 40
0.2416858907028844
 40
0.2951281203562444
 40
0.3538203845089212
 40
0.3948066843497379
 40
0.4336991257335823
 40
0.5125674130988856
 40
0.6740411735369252
 40
0.6740411735369252
 40
0.6740411735369252
 40
0.6740411735369252
 10
94.26827072584847
 20
140.5836468092843
 10
94.23570649041341
 20
140.5932276848268
 10
94.17024214311036
 20
140.612488255683
 10
94.16476330587753
 20
140.705856427431
 10
94.1722274289571
 20
140.7723888900928
 10
94.20348719308496
 20
140.8208284081563
 10
94.2414107089057
 20
140.8560745309165
 10
94.25553131580061
 20
140.9019770948651
 10
94.29703755324601
 20
140.9366392735576
 10
94.37063923360577
 20
140.9949015539551
 10
94.45202995087758
 20
141.0073101178936
 10
94.50671228924802
 20
141.0156468092844
 72
     1
 10
94.50671228924802
 20
141.0156468092844
 11
95.56326976212806
 21
141.0156468092843
 72
     1
 10
95.56326976212806
 20
141.0156468092843
 11
95.87649457710886
 21
141.6438147335632
 72
     1
 10
95.87649457710886
 20
141.6438147335632
 11
94.18573356582937
 21
141.6438147335632
 97
        8
330
1D17
330
1D19
330
1D16
330
1D1A
330
1D1B
330
1D18
330
1D1C
330
1D1D
 75
     0
 76
     1
 47
0.0514683685270805
 98
        1
 10
94.47748454685273
 20
141.3346759151901
450
        0
451
        0
460
0.0
461
0.0
452
        0
462
0.0
453
        0
470

  0
LINE
  5
1D21
102
{ACAD_REACTORS
330
1D07
102
}
330
18
100
AcDbEntity
  8
ROGO
 62
     4
100
AcDbLine
 10
97.20220855491419
 20
141.6438147335632
 30
0.0
 11
96.96504060722629
 21
141.1681777779991
 31
0.0
  0
LINE
  5
1D22
102
{ACAD_REACTORS
330
1D07
102
}
330
18
100
AcDbEntity
  8
ROGO
 62
     4
100
AcDbLine
 10
96.88780799454827
 20
140.3247498004093
 30
0.0
 11
97.54553637205033
 21
139.0056848672555
 31
0.0
  0
LINE
  5
1D23
102
{ACAD_REACTORS
330
1D07
102
}
330
18
100
AcDbEntity
  8
ROGO
 62
     4
100
AcDbLine
 10
96.88780799454827
 20
140.3247498004093
 30
0.0
 11
98.48583352425993
 21
141.6438147335632
 31
0.0
  0
LINE
  5
1D24
102
{ACAD_REACTORS
330
1D07
102
}
330
18
100
AcDbEntity
  8
ROGO
 62
     4
100
AcDbLine
 10
97.51374712425997
 20
141.6438147335632
 30
0.0
 11
98.48583352425993
 21
141.6438147335632
 31
0.0
  0
LINE
  5
1D25
102
{ACAD_REACTORS
330
1D07
102
}
330
18
100
AcDbEntity
  8
ROGO
 62
     4
100
AcDbLine
 10
96.57344997205036
 20
139.0056848672555
 30
0.0
 11
97.54553637205033
 21
139.0056848672555
 31
0.0
  0
LINE
  5
1D26
102
{ACAD_REACTORS
330
1D07
102
}
330
18
100
AcDbEntity
  8
ROGO
 62
     4
100
AcDbLine
 10
96.96504060722629
 20
141.1681777779991
 30
0.0
 11
97.51374712425997
 21
141.6438147335632
 31
0.0
  0
LINE
  5
1D32
330
18
100
AcDbEntity
  8
外形線
100
AcDbLine
 10
167.9196683324953
 20
97.00090933387421
 30
0.0
 11
173.4196683324956
 21
97.00090933387427
 31
0.0
  0
LINE
  5
1D33
330
18
100
AcDbEntity
  8
外形線
100
AcDbLine
 10
161.4196683324953
 20
94.50090933387427
 30
0.0
 11
174.4196683324956
 21
94.50090933387427
 31
0.0
  0
LINE
  5
1D34
330
18
100
AcDbEntity
  8
中心線
100
AcDbLine
 10
155.5603749804868
 20
124.5009093338742
 30
0.0
 11
197.8899488857827
 21
124.5009093338742
 31
0.0
  0
ARC
  5
1D46
330
18
100
AcDbEntity
  8
外形線
100
AcDbCircle
 10
340.0369225728218
 20
129.0117159916758
 30
0.0
 40
181.9206400838717
100
AcDbArc
 50
188.3793987252573
 51
190.9354250164132
  0
LINE
  5
1D53
330
18
100
AcDbEntity
  8
外形線
100
AcDbLine
 10
167.9196683324953
 20
97.00090933387421
 30
0.0
 11
167.9196683324954
 21
94.5009093338742
 31
0.0
  0
LINE
  5
1D54
330
18
100
AcDbEntity
  8
外形線
100
AcDbLine
 10
110.3129849786453
 20
134.5009093338742
 30
0.0
 11
110.3129849786453
 21
114.5009093338742
 31
0.0
  0
ARC
  5
1D55
330
18
100
AcDbEntity
  8
外形線
100
AcDbCircle
 10
108.8129849786453
 20
114.5009093338742
 30
0.0
 40
1.5
100
AcDbArc
 50
270.0
 51
0.0
  0
LINE
  5
1D56
330
18
100
AcDbEntity
  8
外形線
100
AcDbLine
 10
110.3129849786453
 20
124.5009093338742
 30
0.0
 11
117.3129849786453
 21
124.5009093338742
 31
0.0
  0
ARC
  5
1D57
330
18
100
AcDbEntity
  8
外形線
100
AcDbCircle
 10
108.8129849786453
 20
134.5009093338742
 30
0.0
 40
1.5
100
AcDbArc
 50
0.0
 51
90.0
  0
LINE
  5
1D58
330
18
100
AcDbEntity
  8
外形線
100
AcDbLine
 10
160.4196683324953
 20
124.5009093338742
 30
0.0
 11
160.4196683324953
 21
113.0009093338742
 31
0.0
  0
ARC
  5
1D59
330
18
100
AcDbEntity
  8
外形線
100
AcDbCircle
 10
340.0369225728218
 20
129.0117159916758
 30
0.0
 40
181.9206400838717
100
AcDbArc
 50
185.0491250177036
 51
187.1079812663738
  0
LINE
  5
1D5A
330
18
100
AcDbEntity
  8
外形線
100
AcDbLine
 10
159.8222063969767
 20
106.5009093338742
 30
0.0
 11
160.8222063969767
 21
102.5009093338742
 31
0.0
  0
LINE
  5
1D5B
330
18
100
AcDbEntity
  8
外形線
100
AcDbLine
 10
158.8222063969767
 20
106.5009093338742
 30
0.0
 11
158.8222063969767
 21
102.5009093338742
 31
0.0
  0
LINE
  5
1D5C
330
18
100
AcDbEntity
  8
外形線
100
AcDbLine
 10
158.8222063969767
 20
102.5009093338742
 30
0.0
 11
160.8222063969767
 21
102.5009093338742
 31
0.0
  0
LINE
  5
1D5D
330
18
100
AcDbEntity
  8
外形線
100
AcDbLine
 10
158.8222063969767
 20
106.5009093338742
 30
0.0
 11
159.8222063969767
 21
106.5009093338742
 31
0.0
  0
LINE
  5
1D5E
330
18
100
AcDbEntity
  8
外形線
100
AcDbLine
 10
158.8196683324953
 20
113.0009093338742
 30
0.0
 11
160.4196683324953
 21
113.0009093338742
 31
0.0
  0
LINE
  5
1D5F
330
18
100
AcDbEntity
  8
外形線
100
AcDbLine
 10
160.4196683324953
 20
124.5009093338742
 30
0.0
 11
161.4196683324953
 21
124.5009093338742
 31
0.0
  0
LINE
  5
1D6A
330
18
100
AcDbEntity
  8
外形線
100
AcDbLine
 10
176.9196683324953
 20
93.50090933387425
 30
0.0
 11
188.9196683324953
 21
93.50090933387425
 31
0.0
  0
LINE
  5
1D6B
330
18
100
AcDbEntity
  8
外形線
100
AcDbLine
 10
176.4196683324953
 20
95.10090933387422
 30
0.0
 11
192.4196683324953
 21
95.10090933387429
 31
0.0
  0
LINE
  5
1D7D
330
18
100
AcDbEntity
  8
外形線
100
AcDbLine
 10
176.9196683324953
 20
95.10090933387417
 30
0.0
 11
176.9196683324953
 21
93.50090933387425
 31
0.0
  0
LINE
  5
1D7E
330
18
100
AcDbEntity
  8
外形線
100
AcDbLine
 10
174.4196683324956
 20
94.50090933387427
 30
0.0
 11
176.4196683324953
 21
95.10090933387422
 31
0.0
  0
LINE
  5
1D7F
330
18
100
AcDbEntity
  8
外形線
100
AcDbLine
 10
173.4196683324956
 20
97.00090933387427
 30
0.0
 11
173.4196683324954
 21
94.5009093338742
 31
0.0
  0
LINE
  5
1D81
330
18
100
AcDbEntity
  8
外形線
 48
0.5
100
AcDbLine
 10
178.9196683324955
 20
93.50090933387427
 30
0.0
 11
178.9196683324955
 21
91.20090933387425
 31
0.0
  0
LINE
  5
1D84
330
18
100
AcDbEntity
  8
外形線
 48
0.5
100
AcDbLine
 10
186.9196683324955
 20
93.50090933387425
 30
0.0
 11
186.9196683324955
 21
91.20090933387427
 31
0.0
  0
LINE
  5
1D85
330
18
100
AcDbEntity
  8
外形線
100
AcDbLine
 10
188.9196683324953
 20
95.10090933387422
 30
0.0
 11
188.9196683324953
 21
93.50090933387425
 31
0.0
  0
LINE
  5
1D88
330
18
100
AcDbEntity
  8
外形線
100
AcDbLine
 10
83.31298497864537
 20
168.8009093338743
 30
0.0
 11
83.31298497864537
 21
161.8009093338742
 31
0.0
  0
LINE
  5
1D89
330
18
100
AcDbEntity
  8
外形線
100
AcDbLine
 10
93.31298497864537
 20
168.8009093338743
 30
0.0
 11
93.31298497864537
 21
161.8009093338742
 31
0.0
  0
TEXT
  5
1D8A
330
18
100
AcDbEntity
  8
文字
100
AcDbText
 10
83.42597904087989
 20
143.8441289046859
 30
0.0
 40
2.0
  1
T3-127
 51
10.0
  7
STYLE3
100
AcDbText
  0
LINE
  5
1D8B
330
18
100
AcDbEntity
  8
外形線
100
AcDbLine
 10
83.31298497864537
 20
161.8009093338743
 30
0.0
 11
93.31298497864537
 21
161.8009093338742
 31
0.0
  0
LINE
  5
1D8C
330
18
100
AcDbEntity
  8
外形線
100
AcDbLine
 10
82.31298497864537
 20
160.3009093338744
 30
0.0
 11
94.31298497864537
 21
160.3009093338743
 31
0.0
  0
LINE
  5
1D8D
330
18
100
AcDbEntity
  8
外形線
100
AcDbLine
 10
83.31298497864537
 20
161.3009093338743
 30
0.0
 11
93.31298497864537
 21
161.3009093338743
 31
0.0
  0
ARC
  5
1D8E
330
18
100
AcDbEntity
  8
外形線
100
AcDbCircle
 10
88.31298497864537
 20
124.5009093338742
 30
0.0
 40
31.0
100
AcDbArc
 50
69.21644040415431
 51
110.7835595958456
  0
LINE
  5
1D8F
330
18
100
AcDbEntity
  8
外形線
100
AcDbLine
 10
82.31298497864537
 20
160.3009093338743
 30
0.0
 11
82.31298497864537
 21
154.9147219853653
 31
0.0
  0
LINE
  5
1D90
330
18
100
AcDbEntity
  8
外形線
100
AcDbLine
 10
77.31298497864537
 20
153.4836628262531
 30
0.0
 11
77.31298497864537
 21
152.41148080778
 31
0.0
  0
LINE
  5
1D91
330
18
100
AcDbEntity
  8
外形線
100
AcDbLine
 10
82.31298497864537
 20
160.3009093338743
 30
0.0
 11
83.31298497864537
 21
161.3009093338743
 31
0.0
  0
POINT
  5
1D92
330
18
100
AcDbEntity
  8
DEFPOINTS
  6
ByBlock
 62
     0
100
AcDbPoint
 10
83.31298497864537
 20
161.3009093338743
 30
0.0
  0
LINE
  5
1D93
330
18
100
AcDbEntity
  8
外形線
100
AcDbLine
 10
84.31298497864537
 20
161.8009093338742
 30
0.0
 11
84.31298497864537
 21
161.3009093338743
 31
0.0
  0
LINE
  5
1D94
330
18
100
AcDbEntity
  8
外形線
100
AcDbLine
 10
94.31298497864537
 20
160.3009093338743
 30
0.0
 11
94.31298497864537
 21
154.9147219853654
 31
0.0
  0
LINE
  5
1D95
330
18
100
AcDbEntity
  8
外形線
100
AcDbLine
 10
99.31298497864538
 20
153.4836628262531
 30
0.0
 11
99.31298497864538
 21
152.4114808077799
 31
0.0
  0
LINE
  5
1D96
330
18
100
AcDbEntity
  8
外形線
100
AcDbLine
 10
93.31298497864537
 20
161.3009093338743
 30
0.0
 11
94.31298497864537
 21
160.3009093338743
 31
0.0
  0
LINE
  5
1D97
330
18
100
AcDbEntity
  8
外形線
100
AcDbLine
 10
92.31298497864537
 20
161.8009093338742
 30
0.0
 11
92.31298497864537
 21
161.3009093338743
 31
0.0
  0
LINE
  5
1D98
330
18
100
AcDbEntity
  8
外形線
100
AcDbLine
 10
83.31298497864537
 20
174.9009093338743
 30
0.0
 11
93.31298497864537
 21
174.9009093338743
 31
0.0
  0
LINE
  5
1D99
330
18
100
AcDbEntity
  8
外形線
100
AcDbLine
 10
83.31298497864537
 20
173.9009093338743
 30
0.0
 11
93.31298497864537
 21
173.9009093338743
 31
0.0
  0
LINE
  5
1D9A
330
18
100
AcDbEntity
  8
外形線
100
AcDbLine
 10
83.31298497864537
 20
172.6009093338743
 30
0.0
 11
93.31298497864537
 21
172.6009093338743
 31
0.0
  0
LINE
  5
1D9B
330
18
100
AcDbEntity
  8
外形線
100
AcDbLine
 10
83.31298497864537
 20
171.6009093338743
 30
0.0
 11
93.31298497864537
 21
171.6009093338743
 31
0.0
  0
LINE
  5
1D9C
330
18
100
AcDbEntity
  8
外形線
100
AcDbLine
 10
83.31298497864537
 20
170.3009093338743
 30
0.0
 11
93.31298497864537
 21
170.3009093338742
 31
0.0
  0
LINE
  5
1D9D
330
18
100
AcDbEntity
  8
外形線
100
AcDbLine
 10
83.31298497864537
 20
168.8009093338743
 30
0.0
 11
93.31298497864537
 21
168.8009093338743
 31
0.0
  0
LINE
  5
1D9E
330
18
100
AcDbEntity
  8
外形線
100
AcDbLine
 10
84.81298497864537
 20
177.9009093338742
 30
0.0
 11
91.81298497864537
 21
177.9009093338742
 31
0.0
  0
LINE
  5
1D9F
330
18
100
AcDbEntity
  8
外形線
100
AcDbLine
 10
83.31298497864537
 20
173.9009093338743
 30
0.0
 11
83.31298497864537
 21
172.6009093338743
 31
0.0
  0
LINE
  5
1DA0
330
18
100
AcDbEntity
  8
外形線
100
AcDbLine
 10
83.31298497864537
 20
171.6009093338743
 30
0.0
 11
83.31298497864537
 21
170.3009093338743
 31
0.0
  0
LINE
  5
1DA1
330
18
100
AcDbEntity
  8
外形線
100
AcDbLine
 10
84.31298497864526
 20
172.6009093338742
 30
0.0
 11
84.31298497864537
 21
171.6009093338743
 31
0.0
  0
LINE
  5
1DA2
330
18
100
AcDbEntity
  8
外形線
100
AcDbLine
 10
84.31298497864537
 20
170.3009093338743
 30
0.0
 11
84.31298497864537
 21
168.8009093338743
 31
0.0
  0
ARC
  5
1DA3
330
18
100
AcDbEntity
  8
外形線
100
AcDbCircle
 10
84.81298497864537
 20
176.4009093338742
 30
0.0
 40
1.5
100
AcDbArc
 50
90.0
 51
180.0
  0
LINE
  5
1DA4
330
18
100
AcDbEntity
  8
外形線
100
AcDbLine
 10
83.31298497864537
 20
176.4009093338742
 30
0.0
 11
83.31298497864537
 21
174.9009093338743
 31
0.0
  0
LINE
  5
1DA5
330
18
100
AcDbEntity
  8
外形線
100
AcDbLine
 10
84.31298497864526
 20
174.9009093338743
 30
0.0
 11
84.31298497864526
 21
173.9009093338743
 31
0.0
  0
LINE
  5
1DA6
330
18
100
AcDbEntity
  8
外形線
100
AcDbLine
 10
93.31298497864537
 20
173.9009093338742
 30
0.0
 11
93.31298497864537
 21
172.6009093338742
 31
0.0
  0
LINE
  5
1DA7
330
18
100
AcDbEntity
  8
外形線
100
AcDbLine
 10
92.31298497864537
 20
172.6009093338743
 30
0.0
 11
92.31298497864537
 21
171.6009093338742
 31
0.0
  0
LINE
  5
1DA8
330
18
100
AcDbEntity
  8
外形線
100
AcDbLine
 10
92.31298497864537
 20
170.3009093338742
 30
0.0
 11
92.31298497864537
 21
168.8009093338742
 31
0.0
  0
LINE
  5
1DA9
330
18
100
AcDbEntity
  8
外形線
100
AcDbLine
 10
93.31298497864537
 20
171.6009093338743
 30
0.0
 11
93.31298497864537
 21
170.3009093338742
 31
0.0
  0
ARC
  5
1DAA
330
18
100
AcDbEntity
  8
外形線
100
AcDbCircle
 10
91.81298497864537
 20
176.4009093338742
 30
0.0
 40
1.5
100
AcDbArc
 50
0.0
 51
90.0
  0
LINE
  5
1DAB
330
18
100
AcDbEntity
  8
外形線
100
AcDbLine
 10
92.31298497864537
 20
174.9009093338742
 30
0.0
 11
92.31298497864537
 21
173.9009093338743
 31
0.0
  0
LINE
  5
1DAC
330
18
100
AcDbEntity
  8
外形線
100
AcDbLine
 10
93.31298497864537
 20
176.4009093338742
 30
0.0
 11
93.31298497864537
 21
174.9009093338742
 31
0.0
  0
LINE
  5
1DAD
330
18
100
AcDbEntity
  8
外形線
100
AcDbLine
 10
168.9196683324953
 20
151.0009093338743
 30
0.0
 11
174.4196683324954
 21
151.0009093338742
 31
0.0
  0
LINE
  5
1DAE
330
18
100
AcDbEntity
  8
外形線
100
AcDbLine
 10
168.9196683324953
 20
152.0009093338742
 30
0.0
 11
174.4196683324953
 21
152.0009093338742
 31
0.0
  0
LINE
  5
1DAF
330
18
100
AcDbEntity
  8
外形線
100
AcDbLine
 10
168.9196683324953
 20
155.5009093338742
 30
0.0
 11
174.4196683324953
 21
155.5009093338742
 31
0.0
  0
LINE
  5
1DB0
330
18
100
AcDbEntity
  8
外形線
100
AcDbLine
 10
168.9196683324953
 20
155.5009093338742
 30
0.0
 11
168.9196683324953
 21
151.0009093338743
 31
0.0
  0
LINE
  5
1DB1
330
18
100
AcDbEntity
  8
外形線
100
AcDbLine
 10
161.4196683324953
 20
154.5009093338742
 30
0.0
 11
168.9196683324953
 21
154.5009093338742
 31
0.0
  0
LINE
  5
1DB2
330
18
100
AcDbEntity
  8
外形線
100
AcDbLine
 10
187.9196683324953
 20
168.8009093338743
 30
0.0
 11
187.9196683324953
 21
161.8009093338742
 31
0.0
  0
LINE
  5
1DB3
330
18
100
AcDbEntity
  8
外形線
100
AcDbLine
 10
177.9196683324953
 20
168.8009093338743
 30
0.0
 11
177.9196683324953
 21
161.8009093338742
 31
0.0
  0
LINE
  5
1DB4
330
18
100
AcDbEntity
  8
外形線
100
AcDbLine
 10
177.9196683324953
 20
161.3009093338743
 30
0.0
 11
187.9196683324953
 21
161.3009093338743
 31
0.0
  0
LINE
  5
1DB5
330
18
100
AcDbEntity
  8
外形線
100
AcDbLine
 10
176.9196683324953
 20
160.3009093338744
 30
0.0
 11
188.9196683324953
 21
160.3009093338743
 31
0.0
  0
LINE
  5
1DB6
330
18
100
AcDbEntity
  8
外形線
100
AcDbLine
 10
177.9196683324953
 20
161.8009093338743
 30
0.0
 11
187.9196683324953
 21
161.8009093338742
 31
0.0
  0
LINE
  5
1DB7
330
18
100
AcDbEntity
  8
外形線
100
AcDbLine
 10
176.4196683324953
 20
153.9009093338743
 30
0.0
 11
192.4196683324953
 21
153.9009093338742
 31
0.0
  0
LINE
  5
1DB8
330
18
100
AcDbEntity
  8
外形線
100
AcDbLine
 10
176.9196683324953
 20
160.3009093338743
 30
0.0
 11
176.9196683324953
 21
153.9009093338743
 31
0.0
  0
LINE
  5
1DB9
330
18
100
AcDbEntity
  8
外形線
100
AcDbLine
 10
174.4196683324953
 20
155.5009093338742
 30
0.0
 11
174.4196683324954
 21
151.0009093338742
 31
0.0
  0
LINE
  5
1DBA
330
18
100
AcDbEntity
  8
外形線
100
AcDbLine
 10
176.4196683324953
 20
153.9009093338743
 30
0.0
 11
174.4196683324953
 21
154.5009093338742
 31
0.0
  0
LINE
  5
1DBB
330
18
100
AcDbEntity
  8
外形線
100
AcDbLine
 10
176.9196683324953
 20
160.3009093338743
 30
0.0
 11
177.9196683324953
 21
161.3009093338743
 31
0.0
  0
LINE
  5
1DBC
330
18
100
AcDbEntity
  8
外形線
100
AcDbLine
 10
178.9196683324953
 20
161.8009093338742
 30
0.0
 11
178.9196683324953
 21
161.3009093338743
 31
0.0
  0
LINE
  5
1DBD
330
18
100
AcDbEntity
  8
外形線
100
AcDbLine
 10
188.9196683324953
 20
160.3009093338743
 30
0.0
 11
188.9196683324953
 21
153.9009093338742
 31
0.0
  0
LINE
  5
1DBE
330
18
100
AcDbEntity
  8
外形線
100
AcDbLine
 10
187.9196683324953
 20
161.3009093338743
 30
0.0
 11
188.9196683324953
 21
160.3009093338743
 31
0.0
  0
LINE
  5
1DBF
330
18
100
AcDbEntity
  8
外形線
100
AcDbLine
 10
186.9196683324953
 20
161.8009093338742
 30
0.0
 11
186.9196683324953
 21
161.3009093338743
 31
0.0
  0
LINE
  5
1DC0
330
18
100
AcDbEntity
  8
外形線
100
AcDbLine
 10
179.4196683324953
 20
177.9009093338742
 30
0.0
 11
186.4196683324953
 21
177.9009093338742
 31
0.0
  0
LINE
  5
1DC1
330
18
100
AcDbEntity
  8
外形線
100
AcDbLine
 10
177.9196683324953
 20
168.8009093338743
 30
0.0
 11
187.9196683324953
 21
168.8009093338743
 31
0.0
  0
LINE
  5
1DC2
330
18
100
AcDbEntity
  8
外形線
100
AcDbLine
 10
177.9196683324953
 20
170.3009093338743
 30
0.0
 11
187.9196683324953
 21
170.3009093338742
 31
0.0
  0
LINE
  5
1DC3
330
18
100
AcDbEntity
  8
外形線
100
AcDbLine
 10
177.9196683324953
 20
171.6009093338743
 30
0.0
 11
187.9196683324953
 21
171.6009093338743
 31
0.0
  0
LINE
  5
1DC4
330
18
100
AcDbEntity
  8
外形線
100
AcDbLine
 10
177.9196683324953
 20
172.6009093338743
 30
0.0
 11
187.9196683324953
 21
172.6009093338743
 31
0.0
  0
LINE
  5
1DC5
330
18
100
AcDbEntity
  8
外形線
100
AcDbLine
 10
177.9196683324953
 20
173.9009093338743
 30
0.0
 11
187.9196683324953
 21
173.9009093338743
 31
0.0
  0
LINE
  5
1DC6
330
18
100
AcDbEntity
  8
外形線
100
AcDbLine
 10
177.9196683324953
 20
174.9009093338743
 30
0.0
 11
187.9196683324953
 21
174.9009093338743
 31
0.0
  0
LINE
  5
1DC7
330
18
100
AcDbEntity
  8
外形線
100
AcDbLine
 10
177.9196683324953
 20
173.9009093338743
 30
0.0
 11
177.9196683324953
 21
172.6009093338743
 31
0.0
  0
LINE
  5
1DC8
330
18
100
AcDbEntity
  8
外形線
100
AcDbLine
 10
177.9196683324953
 20
171.6009093338743
 30
0.0
 11
177.9196683324953
 21
170.3009093338743
 31
0.0
  0
LINE
  5
1DC9
330
18
100
AcDbEntity
  8
外形線
100
AcDbLine
 10
178.9196683324952
 20
172.6009093338742
 30
0.0
 11
178.9196683324953
 21
171.6009093338743
 31
0.0
  0
LINE
  5
1DCA
330
18
100
AcDbEntity
  8
外形線
100
AcDbLine
 10
178.9196683324953
 20
170.3009093338743
 30
0.0
 11
178.9196683324953
 21
168.8009093338743
 31
0.0
  0
ARC
  5
1DCB
330
18
100
AcDbEntity
  8
外形線
100
AcDbCircle
 10
179.4196683324953
 20
176.4009093338742
 30
0.0
 40
1.5
100
AcDbArc
 50
90.0
 51
180.0
  0
LINE
  5
1DCC
330
18
100
AcDbEntity
  8
外形線
100
AcDbLine
 10
178.9196683324952
 20
174.9009093338743
 30
0.0
 11
178.9196683324952
 21
173.9009093338743
 31
0.0
  0
LINE
  5
1DCD
330
18
100
AcDbEntity
  8
外形線
100
AcDbLine
 10
177.9196683324953
 20
176.4009093338742
 30
0.0
 11
177.9196683324953
 21
174.9009093338743
 31
0.0
  0
LINE
  5
1DCE
330
18
100
AcDbEntity
  8
外形線
100
AcDbLine
 10
187.9196683324953
 20
173.9009093338742
 30
0.0
 11
187.9196683324953
 21
172.6009093338742
 31
0.0
  0
LINE
  5
1DCF
330
18
100
AcDbEntity
  8
外形線
100
AcDbLine
 10
187.9196683324953
 20
171.6009093338743
 30
0.0
 11
187.9196683324953
 21
170.3009093338742
 31
0.0
  0
LINE
  5
1DD0
330
18
100
AcDbEntity
  8
外形線
100
AcDbLine
 10
186.9196683324953
 20
172.6009093338743
 30
0.0
 11
186.9196683324953
 21
171.6009093338742
 31
0.0
  0
LINE
  5
1DD1
330
18
100
AcDbEntity
  8
外形線
100
AcDbLine
 10
186.9196683324953
 20
170.3009093338742
 30
0.0
 11
186.9196683324953
 21
168.8009093338742
 31
0.0
  0
ARC
  5
1DD2
330
18
100
AcDbEntity
  8
外形線
100
AcDbCircle
 10
186.4196683324953
 20
176.4009093338742
 30
0.0
 40
1.5
100
AcDbArc
 50
0.0
 51
90.0
  0
LINE
  5
1DD3
330
18
100
AcDbEntity
  8
外形線
100
AcDbLine
 10
186.9196683324953
 20
174.9009093338742
 30
0.0
 11
186.9196683324953
 21
173.9009093338743
 31
0.0
  0
LINE
  5
1DD4
330
18
100
AcDbEntity
  8
外形線
100
AcDbLine
 10
187.9196683324953
 20
176.4009093338742
 30
0.0
 11
187.9196683324953
 21
174.9009093338742
 31
0.0
  0
DIMENSION
  5
1E8C
330
18
100
AcDbEntity
  8
文字
100
AcDbDimension
  2
*D5
 10
45.09819163058785
 20
124.5009093338742
 30
0.0
 11
43.22319163058782
 21
85.85090933387428
 31
0.0
 70
    32
 71
     5
 42
77.29999999999996
  3
STYLE2
100
AcDbAlignedDimension
 13
58.31298497864543
 23
47.20090933387429
 33
0.0
 14
54.34880864293956
 24
124.5009093338742
 34
0.0
 50
90.0
100
AcDbRotatedDimension
  0
DIMENSION
  5
1E99
330
18
100
AcDbEntity
  8
文字
100
AcDbDimension
  2
*D6
 10
37.68129310522875
 20
177.9009093338743
 30
0.0
 11
35.80629310522871
 21
107.5009093338743
 31
0.0
 70
    32
 71
     5
 42
140.7999999999999
  3
STYLE2
100
AcDbAlignedDimension
 13
43.84819163058785
 23
37.10090933387429
 33
0.0
 14
84.81298497864537
 24
177.9009093338742
 34
0.0
 50
90.0
100
AcDbRotatedDimension
  0
LINE
  5
1EEB
330
18
100
AcDbEntity
  8
外形線
100
AcDbLine
 10
85.52612772147965
 20
80.00090933387427
 30
0.0
 11
94.31298497864537
 21
80.00090933387424
 31
0.0
  0
LINE
  5
1EEC
330
18
100
AcDbEntity
  8
外形線
100
AcDbLine
 10
85.52612772147963
 20
91.20090933387427
 30
0.0
 11
94.31298497864537
 21
91.20090933387427
 31
0.0
  0
LINE
  5
1EED
330
18
100
AcDbEntity
  8
中心線
 48
0.5
100
AcDbLine
 10
68.79543704817097
 20
85.60090933387424
 30
0.0
 11
90.60334471273337
 21
85.60090933387426
 31
0.0
  0
LINE
  5
1EEE
330
18
100
AcDbEntity
  8
外形線
100
AcDbLine
 10
93.81298497864536
 20
69.20090933387424
 30
0.0
 11
88.31298497864533
 21
69.20090933387424
 31
0.0
  0
LINE
  5
1EEF
330
18
100
AcDbEntity
  8
外形線
100
AcDbLine
 10
88.31298497864539
 20
68.20090933387426
 30
0.0
 11
94.81298497864534
 21
68.20090933387423
 31
0.0
  0
CIRCLE
  5
1EF1
330
18
100
AcDbEntity
  8
外形線
100
AcDbCircle
 10
79.81298497864536
 20
85.60090933387426
 30
0.0
 40
8.0
  0
LINE
  5
1EF3
330
18
100
AcDbEntity
  8
中心線
 48
0.5
100
AcDbLine
 10
79.81298497864536
 20
95.72882586671578
 30
0.0
 11
79.81298497864536
 21
75.56548120874324
 31
0.0
  0
LINE
  5
1EF4
330
18
100
AcDbEntity
  8
外形線
100
AcDbLine
 10
82.81298497864536
 20
78.18471084677859
 30
0.0
 11
82.81298497864536
 21
69.20090933387422
 31
0.0
  0
LINE
  5
1EF5
330
18
100
AcDbEntity
  8
外形線
100
AcDbLine
 10
88.31298497864533
 20
68.20090933387426
 30
0.0
 11
81.81298497864538
 21
68.20090933387423
 31
0.0
  0
LINE
  5
1EF6
330
18
100
AcDbEntity
  8
外形線
100
AcDbLine
 10
82.81298497864536
 20
69.2009093338742
 30
0.0
 11
81.81298497864537
 21
68.20090933387423
 31
0.0
  0
LINE
  5
1EF8
330
18
100
AcDbEntity
  8
外形線
100
AcDbLine
 10
81.81298497864537
 20
68.20090933387423
 30
0.0
 11
81.81298497864537
 21
64.20090933387425
 31
0.0
  0
LINE
  5
1EF9
330
18
100
AcDbEntity
  8
外形線
100
AcDbLine
 10
82.81298497864536
 20
69.20090933387424
 30
0.0
 11
88.31298497864539
 21
69.20090933387424
 31
0.0
  0
LINE
  5
1EFB
330
18
100
AcDbEntity
  8
外形線
100
AcDbLine
 10
93.81298497864536
 20
80.00090933387426
 30
0.0
 11
93.81298497864536
 21
69.20090933387422
 31
0.0
  0
LINE
  5
1EFC
330
18
100
AcDbEntity
  8
外形線
100
AcDbLine
 10
94.81298497864536
 20
68.20090933387423
 30
0.0
 11
94.81298497864536
 21
64.20090933387425
 31
0.0
  0
LINE
  5
1EFD
330
18
100
AcDbEntity
  8
外形線
100
AcDbLine
 10
93.81298497864536
 20
69.2009093338742
 30
0.0
 11
94.81298497864536
 21
68.20090933387423
 31
0.0
  0
LINE
  5
1EFE
330
18
100
AcDbEntity
  8
外形線
100
AcDbLine
 10
94.31298497864537
 20
91.20090933387427
 30
0.0
 11
94.31298497864537
 21
80.00090933387424
 31
0.0
  0
LINE
  5
1F03
330
18
100
AcDbEntity
  8
外形線
100
AcDbLine
 10
188.4196683324954
 20
80.00090933387429
 30
0.0
 11
188.4196683324954
 21
69.20090933387425
 31
0.0
  0
LINE
  5
1F04
330
18
100
AcDbEntity
  8
外形線
100
AcDbLine
 10
189.4196683324954
 20
68.20090933387426
 30
0.0
 11
189.4196683324954
 21
64.20090933387427
 31
0.0
  0
LINE
  5
1F05
330
18
100
AcDbEntity
  8
外形線
100
AcDbLine
 10
188.4196683324954
 20
69.20090933387426
 30
0.0
 11
182.9196683324953
 21
69.20090933387426
 31
0.0
  0
LINE
  5
1F06
330
18
100
AcDbEntity
  8
外形線
100
AcDbLine
 10
182.9196683324954
 20
68.20090933387429
 30
0.0
 11
189.4196683324953
 21
68.20090933387426
 31
0.0
  0
LINE
  5
1F07
330
18
100
AcDbEntity
  8
外形線
100
AcDbLine
 10
188.4196683324954
 20
69.20090933387424
 30
0.0
 11
189.4196683324954
 21
68.20090933387426
 31
0.0
  0
LINE
  5
1F08
330
18
100
AcDbEntity
  8
外形線
100
AcDbLine
 10
177.4196683324954
 20
80.00090933387431
 30
0.0
 11
177.4196683324954
 21
69.20090933387425
 31
0.0
  0
LINE
  5
1F09
330
18
100
AcDbEntity
  8
外形線
100
AcDbLine
 10
182.9196683324953
 20
68.20090933387429
 30
0.0
 11
176.4196683324954
 21
68.20090933387426
 31
0.0
  0
LINE
  5
1F0A
330
18
100
AcDbEntity
  8
外形線
100
AcDbLine
 10
177.4196683324954
 20
69.20090933387426
 30
0.0
 11
182.9196683324954
 21
69.20090933387426
 31
0.0
  0
LINE
  5
1F0B
330
18
100
AcDbEntity
  8
外形線
100
AcDbLine
 10
176.4196683324954
 20
68.20090933387426
 30
0.0
 11
176.4196683324954
 21
64.20090933387427
 31
0.0
  0
LINE
  5
1F0C
330
18
100
AcDbEntity
  8
外形線
100
AcDbLine
 10
177.4196683324954
 20
69.20090933387424
 30
0.0
 11
176.4196683324954
 21
68.20090933387426
 31
0.0
  0
DIMENSION
  5
24A9
330
18
100
AcDbEntity
  8
寸法線
100
AcDbDimension
  2
*D8
 10
45.09819163058785
 20
124.5009093338742
 30
0.0
 11
43.22319163058782
 21
151.2009093338742
 31
0.0
 70
    32
 71
     5
 42
53.39999999999996
  3
STYLE3
100
AcDbAlignedDimension
 13
63.80238399388577
 23
177.9009093338742
 33
0.0
 14
51.22132794268191
 24
124.5009093338742
 34
0.0
 50
90.0
100
AcDbRotatedDimension
  0
TEXT
  5
24BF
330
18
100
AcDbEntity
  8
寸法線
100
AcDbText
 10
78.37165283831296
 20
109.6114019310271
 30
0.0
 40
1.199999999999999
  1
MODE
  7
STYLE4
100
AcDbText
  0
TEXT
  5
24C0
330
18
100
AcDbEntity
  8
寸法線
100
AcDbText
 10
92.57734039850021
 20
109.6114019310271
 30
0.0
 40
1.199999999999999
  1
ON/OFF
  7
STYLE4
100
AcDbText
  0
LINE
  5
24C1
330
18
100
AcDbEntity
  8
外形線
100
AcDbLine
 10
72.31298497864537
 20
111.0009093338742
 30
0.0
 11
72.31298497864537
 21
100.8577284988005
 31
0.0
  0
LINE
  5
24C2
330
18
100
AcDbEntity
  8
外形線
100
AcDbLine
 10
104.3129849786454
 20
111.0009093338742
 30
0.0
 11
104.3129849786454
 21
100.8577284988005
 31
0.0
  0
LINE
  5
24C3
330
18
100
AcDbEntity
  8
外形線
100
AcDbLine
 10
73.31298497864537
 20
112.0009093338742
 30
0.0
 11
103.3129849786454
 21
112.0009093338742
 31
0.0
  0
ARC
  5
24C4
330
18
100
AcDbEntity
  8
外形線
100
AcDbCircle
 10
88.31298497864537
 20
124.5009093338742
 30
0.0
 40
29.0
100
AcDbArc
 50
237.6076345141536
 51
302.3923654858464
  0
ARC
  5
24C5
330
18
100
AcDbEntity
  8
外形線
100
AcDbCircle
 10
73.31298497864537
 20
111.0009093338742
 30
0.0
 40
1.0
100
AcDbArc
 50
90.0
 51
180.0
  0
ARC
  5
24C6
330
18
100
AcDbEntity
  8
外形線
100
AcDbCircle
 10
103.3129849786454
 20
111.0009093338742
 30
0.0
 40
1.0
100
AcDbArc
 50
0.0
 51
90.0
  0
ARC
  5
24C7
330
18
100
AcDbEntity
  8
外形線
100
AcDbCircle
 10
103.3129849786454
 20
100.8577284988005
 30
0.0
 40
1.0
100
AcDbArc
 50
302.3923654858423
 51
0.0
  0
ARC
  5
24C8
330
18
100
AcDbEntity
  8
外形線
100
AcDbCircle
 10
73.31298497864537
 20
100.8577284988005
 30
0.0
 40
1.0
100
AcDbArc
 50
180.0
 51
237.6076345141574
  0
ELLIPSE
  5
24C9
330
18
100
AcDbEntity
  8
外形線
100
AcDbEllipse
 10
96.16176686625415
 20
104.592625860695
 30
0.0
 11
-4.089143464216689
 21
0.0
 31
0.0
210
0.0
220
0.0
230
1.0
 40
0.6358299782710266
 41
0.0
 42
6.283185307179586
  0
ELLIPSE
  5
24CA
330
18
100
AcDbEntity
  8
外形線
100
AcDbEllipse
 10
80.98557116924514
 20
104.592625860695
 30
0.0
 11
-4.089143464216689
 21
0.0
 31
0.0
210
0.0
220
0.0
230
1.0
 40
0.6358299782710266
 41
0.0
 42
6.283185307179586
  0
TEXT
  5
24CB
330
18
100
AcDbEntity
  8
寸法線
100
AcDbText
 10
94.46748128734345
 20
98.45817816843581
 30
0.0
 40
1.199999999999999
  1
SET
  7
STYLE4
100
AcDbText
  0
ELLIPSE
  5
24CC
330
18
100
AcDbEntity
  8
外形線
100
AcDbEllipse
 10
96.16176686625415
 20
104.592625860695
 30
0.0
 11
-5.473687379191062
 21
0.0
 31
0.0
210
0.0
220
0.0
230
1.0
 40
0.7307688077339824
 41
0.0
 42
6.283185307179586
  0
ELLIPSE
  5
24CD
330
18
100
AcDbEntity
  8
外形線
100
AcDbEllipse
 10
80.98557116924514
 20
104.592625860695
 30
0.0
 11
-5.473687379191062
 21
0.0
 31
0.0
210
0.0
220
0.0
230
1.0
 40
0.7307688077339824
 41
0.0
 42
6.283185307179586
  0
LINE
  5
24CE
330
18
100
AcDbEntity
  8
中心線
 48
0.3
100
AcDbLine
 10
74.01598307167893
 20
104.592625860695
 30
0.0
 11
87.9551592668111
 21
104.592625860695
 31
0.0
  0
LINE
  5
24CF
330
18
100
AcDbEntity
  8
中心線
 48
0.3
100
AcDbLine
 10
80.98557116924514
 20
109.9102358444854
 30
0.0
 11
80.98557116924514
 21
99.31138710424527
 31
0.0
  0
LINE
  5
24D0
330
18
100
AcDbEntity
  8
中心線
 48
0.3
100
AcDbLine
 10
96.16176686625415
 20
109.9102358444854
 30
0.0
 11
96.16176686625415
 21
99.31138710424527
 31
0.0
  0
LINE
  5
24D1
330
18
100
AcDbEntity
  8
中心線
 48
0.3
100
AcDbLine
 10
89.19217876868794
 20
104.592625860695
 30
0.0
 11
103.1313549638201
 21
104.592625860695
 31
0.0
  0
DIMENSION
  5
24D4
330
18
100
AcDbEntity
  8
寸法線
100
AcDbDimension
  2
*D9
 10
175.9196683324954
 20
58.02622688117972
 30
0.0
 11
183.2876296550913
 21
73.28358577052165
 31
0.0
 70
   162
 71
     5
 42
1.047197551196598
  3
STYLE3
100
AcDb2LineAngularDimension
 13
183.6696683324954
 23
47.20090933387425
 33
0.0
 14
189.9196683324954
 24
58.0262268811797
 34
0.0
 15
182.1696683324954
 25
47.20090933387425
 35
0.0
 16
178.1644541974201
 26
72.87003070083916
 36
0.0
  0
DIMENSION
  5
24F2
330
18
100
AcDbEntity
  8
寸法線
100
AcDbDimension
  2
*D10
 10
185.5925811605901
 20
40.02450096089859
 30
0.0
 11
195.1452783132181
 21
40.02450096089859
 31
0.0
 70
   160
 71
     5
 42
1.5
  3
STYLE3
100
AcDbAlignedDimension
 13
182.1696683324954
 23
47.20090933387425
 33
0.0
 14
183.6696683324954
 24
47.20090933387425
 34
0.0
100
AcDbRotatedDimension
  0
CIRCLE
  5
25A2
330
18
100
AcDbEntity
  8
外形線
100
AcDbCircle
 10
79.81298497864536
 20
85.60090933387426
 30
0.0
 40
7.500000000000611
  0
LINE
  5
260E
330
18
100
AcDbEntity
  8
外形線
100
AcDbLine
 10
86.04541570699053
 20
186.4626531184693
 30
0.0
 11
185.0454157069905
 21
186.4626531184693
 31
0.0
  0
LINE
  5
260F
330
18
100
AcDbEntity
  8
外形線
100
AcDbLine
 10
86.04541570699053
 20
185.4626531184693
 30
0.0
 11
185.0454157069905
 21
185.4626531184693
 31
0.0
  0
TEXT
  5
2610
330
18
100
AcDbEntity
  8
文字
100
AcDbText
 10
86.27927570699055
 20
188.7474451184693
 30
0.0
 40
3.5
  1
Model No.T3-127 Digital Depth Gauge
  7
STYLE3
100
AcDbText
  0
LINE
  5
2612
330
18
100
AcDbEntity
  8
外形線
100
AcDbLine
 10
113.5616627069905
 20
21.05153211846934
 30
0.0
 11
254.3530807069906
 21
21.05153211846934
 31
0.0
  0
LINE
  5
2613
330
18
100
AcDbEntity
  8
外形線
100
AcDbLine
 10
113.5616627069905
 20
10.27132611846933
 30
0.0
 11
254.3530807069906
 21
10.27132611846933
 31
0.0
  0
TEXT
  5
2614
330
18
100
AcDbEntity
  8
0
  6
Continuous
100
AcDbText
 10
115.0191297069905
 20
12.16931611846933
 30
0.0
 40
2.1
  1
Design and specifications are subject to change without notice for future improvement.
  7
STYLE3
100
AcDbText
  0
TEXT
  5
2615
330
18
100
AcDbEntity
  8
0
  6
Continuous
100
AcDbText
 10
115.3106237069905
 20
16.09846411846934
 30
0.0
 40
3.5
  1
仕様及び外観は予告なく変更される場合がございますのでご了承下さい。
  7
STYLE3
100
AcDbText
  0
TEXT
  5
2616
330
18
100
AcDbEntity
  8
0
  6
Continuous
100
AcDbText
 10
114.7276387069905
 20
2.404688118469338
 30
0.0
 40
2.1
  1
3RD Angle Projection
  7
STYLE3
100
AcDbText
  0
TEXT
  5
2617
330
18
100
AcDbEntity
  8
0
  6
Continuous
100
AcDbText
 10
117.3510817069905
 20
5.900971118469338
 30
0.0
 40
3.0
  1
三　　角　　法
  7
STYLE3
100
AcDbText
  0
LINE
  5
2618
330
18
100
AcDbEntity
  8
外形線
100
AcDbLine
 10
113.5616627069905
 20
0.6565481184693386
 30
0.0
 11
113.5616627069905
 21
21.05153211846934
 31
0.0
  0
LINE
  5
2619
330
18
100
AcDbEntity
  8
外形線
100
AcDbLine
 10
215.5844297069905
 20
10.27132611846933
 30
0.0
 11
215.5844297069905
 21
0.6565481184693386
 31
0.0
  0
LINE
  5
261A
330
18
100
AcDbEntity
  8
外形線
100
AcDbLine
 10
185.8520797069905
 20
10.27132611846933
 30
0.0
 11
185.8520797069905
 21
0.6565481184693386
 31
0.0
  0
LINE
  5
261B
330
18
100
AcDbEntity
  8
外形線
100
AcDbLine
 10
166.3220077069905
 20
10.27132611846933
 30
0.0
 11
166.3220077069905
 21
0.6565481184693386
 31
0.0
  0
LINE
  5
261C
330
18
100
AcDbEntity
  8
外形線
100
AcDbLine
 10
148.8323907069905
 20
10.27132611846933
 30
0.0
 11
148.8323907069905
 21
0.6565481184693386
 31
0.0
  0
TEXT
  5
261D
330
18
100
AcDbEntity
  8
0
  6
Continuous
100
AcDbText
 10
150.2898597069905
 20
5.906926118469337
 30
0.0
 40
3.0
  1
単位
  7
STYLE3
100
AcDbText
  0
TEXT
  5
261E
330
18
100
AcDbEntity
  8
0
  6
Continuous
100
AcDbText
 10
150.4615807069905
 20
2.404689118469338
 30
0.0
 40
2.1
  1
Unit
  7
STYLE3
100
AcDbText
  0
TEXT
  5
261F
330
18
100
AcDbEntity
  8
0
  6
Continuous
100
AcDbText
 10
167.6077557069905
 20
5.615568118469338
 30
0.0
 40
3.0
  1
尺 度
  7
STYLE3
100
AcDbText
  0
TEXT
  5
2620
330
18
100
AcDbEntity
  8
0
  6
Continuous
100
AcDbText
 10
158.3319077069905
 20
4.152832118469338
 30
0.0
 40
2.399999999999999
  1
mm
  7
STYLE3
100
AcDbText
  0
TEXT
  5
2621
330
18
100
AcDbEntity
  8
0
  6
Continuous
100
AcDbText
 10
168.0709707069905
 20
2.696046118469338
 30
0.0
 40
2.1
  1
Scale
  7
STYLE3
100
AcDbText
  0
TEXT
  5
2622
330
18
100
AcDbEntity
  8
0
  6
Continuous
100
AcDbText
 10
177.6902597069905
 20
4.444189118469338
 30
0.0
 40
2.399999999999999
  1
1/1
  7
STYLE3
100
AcDbText
  0
TEXT
  5
2623
330
18
100
AcDbEntity
  8
0
  6
Continuous
100
AcDbText
 10
187.7840307069905
 20
2.404690118469338
 30
0.0
 40
2.1
  1
Date
  7
STYLE3
100
AcDbText
  0
TEXT
  5
2624
330
18
100
AcDbEntity
  8
0
  6
Continuous
100
AcDbText
 10
187.4006697069905
 20
5.737773118469338
 30
0.0
 40
3.0
  1
日 付
  7
STYLE3
100
AcDbText
  0
TEXT
  5
2625
330
18
100
AcDbEntity
  8
0
  6
Continuous
100
AcDbText
 10
196.5288387069905
 20
4.152831118469338
 30
0.0
 40
2.1
  1
2010.07.01
  7
STYLE3
100
AcDbText
  0
TEXT
  5
2626
330
18
100
AcDbEntity
  8
0
  6
Continuous
100
AcDbText
 10
216.9333927069906
 20
6.192328118469338
 30
0.0
 40
3.0
  1
株式会社　尾崎製作所
  7
STYLE3
100
AcDbText
  0
TEXT
  5
2627
330
18
100
AcDbEntity
  8
0
  6
Continuous
100
AcDbText
 10
217.8078717069905
 20
2.404689118469338
 30
0.0
 40
2.1
  1
OZAKI MFG. CO., LTD.
  7
STYLE3
100
AcDbText
  0
ENDSEC
  0
SECTION
  2
OBJECTS
  0
DICTIONARY
  5
C
330
0
100
AcDbDictionary
281
     1
  3
ACAD_COLOR
350
1F12
  3
ACAD_GROUP
350
D
  3
ACAD_IMAGE_DICT
350
E58
  3
ACAD_LAYOUT
350
1F15
  3
ACAD_MATERIAL
350
1F11
  3
ACAD_MLINESTYLE
350
1B
  3
ACAD_PLOTSETTINGS
350
1F16
  3
ACAD_PLOTSTYLENAME
350
1F0F
  3
ACAD_TABLESTYLE
350
1F13
  3
ACDBVARIABLEDICTIONARY
350
101E
  0
DICTIONARY
  5
1F12
102
{ACAD_REACTORS
330
C
102
}
330
C
100
AcDbDictionary
281
     1
  0
DICTIONARY
  5
D
102
{ACAD_REACTORS
330
C
102
}
330
C
100
AcDbDictionary
281
     1
  0
DICTIONARY
  5
E58
102
{ACAD_REACTORS
330
C
102
}
330
C
100
AcDbDictionary
281
     1
  3
ROGO01
350
E59
  0
DICTIONARY
  5
1F15
102
{ACAD_REACTORS
330
C
102
}
330
C
100
AcDbDictionary
281
     1
  3
Model
350
1F17
  3
レイアウト1
350
1F18
  0
DICTIONARY
  5
1F11
102
{ACAD_REACTORS
330
C
102
}
330
C
100
AcDbDictionary
281
     1
  0
DICTIONARY
  5
1B
102
{ACAD_REACTORS
330
C
102
}
330
C
100
AcDbDictionary
281
     1
  3
STANDARD
350
1C
  0
DICTIONARY
  5
1F16
102
{ACAD_REACTORS
330
C
102
}
330
C
100
AcDbDictionary
281
     1
  0
ACDBDICTIONARYWDFLT
  5
1F0F
102
{ACAD_REACTORS
330
C
102
}
330
C
100
AcDbDictionary
281
     1
  3
Normal
350
1F10
100
AcDbDictionaryWithDefault
340
1F10
  0
DICTIONARY
  5
1F13
102
{ACAD_REACTORS
330
C
102
}
330
C
100
AcDbDictionary
281
     1
  3
Standard
350
1F14
  0
DICTIONARY
  5
101E
102
{ACAD_REACTORS
330
C
102
}
330
C
100
AcDbDictionary
281
     1
  3
CTABLESTYLE
350
2574
  3
SORTENTS
350
101F
  0
IMAGEDEF
  5
E59
102
{ACAD_REACTORS
330
E58
102
}
330
E58
100
AcDbRasterImageDef
 90
        0
  1
D:\ﾃｽﾄ\rogo01.TIF
 10
3388.0
 20
4668.0
 11
0.0635
 21
0.0635
280
     1
281
     5
  0
LAYOUT
  5
1F17
102
{ACAD_REACTORS
330
1F15
102
}
330
1F15
100
AcDbPlotSettings
  1

  2
A4 EPSON LP-6100.pc3
  4
A4
  6

 40
5.873749732971191
 41
5.873747825622558
 42
5.873748779296875
 43
5.873748779296875
 44
209.9733276367187
 45
297.0106506347656
 46
0.8
 47
25.0
 48
0.0
 49
0.0
140
0.0
141
0.0
142
1.0
143
1.0
 70
 28336
 72
     1
 73
     1
 74
     1
  7
AutoCAD LT 98.ctb
 75
    16
147
1.0
 76
     1
 77
     2
 78
   300
148
0.2192307289083146
149
0.2136015531452813
100
AcDbLayout
  1
Model
 70
     1
 71
     0
 10
0.0
 20
0.0
 11
12.0
 21
9.0
 12
0.0
 22
0.0
 32
0.0
 14
0.0
 24
0.0
 34
0.0
 15
0.0
 25
0.0
 35
0.0
146
0.0
 13
0.0
 23
0.0
 33
0.0
 16
1.0
 26
0.0
 36
0.0
 17
0.0
 27
1.0
 37
0.0
 76
     0
330
18
1001
ACAD_PSEXT
1000
A4 EPSON LP-6100.pc3
1000
EPSON LP-6100
1000
\\SATO-MATE2
1000

1070
     0
  0
LAYOUT
  5
1F18
102
{ACAD_REACTORS
330
1F15
102
}
330
1F15
100
AcDbPlotSettings
  1

  2
WIDR Printer
  4

  6

 40
0.0
 41
0.0
 42
0.0
 43
0.0
 44
0.0
 45
0.0
 46
0.0
 47
0.0
 48
0.0
 49
0.0
140
0.0
141
0.0
142
1.0
143
1.0
 70
   688
 72
     0
 73
     0
 74
     5
  7
AutoCad LT 98.ctb
 75
    16
147
1.0
 76
     0
 77
     2
 78
   300
148
0.0
149
0.0
100
AcDbLayout
  1
レイアウト1
 70
     1
 71
     1
 10
0.0
 20
0.0
 11
420.0
 21
297.0
 12
0.0
 22
0.0
 32
0.0
 14
1.000000000000000E+20
 24
1.000000000000000E+20
 34
1.000000000000000E+20
 15
-1.000000000000000E+20
 25
-1.000000000000000E+20
 35
-1.000000000000000E+20
146
0.0
 13
0.0
 23
0.0
 33
0.0
 16
1.0
 26
0.0
 36
0.0
 17
0.0
 27
1.0
 37
0.0
 76
     0
330
15
  0
MLINESTYLE
  5
1C
102
{ACAD_REACTORS
330
1B
102
}
330
1B
100
AcDbMlineStyle
  2
STANDARD
 70
     0
  3

 62
   256
 51
90.0
 52
90.0
 71
     2
 49
0.5
 62
   256
  6
BYLAYER
 49
-0.5
 62
   256
  6
BYLAYER
  0
ACDBPLACEHOLDER
  5
1F10
102
{ACAD_REACTORS
330
1F0F
102
}
330
1F0F
  0
ACAD_PROXY_OBJECT
  5
1F14
102
{ACAD_REACTORS
330
1F13
102
}
330
1F13
100
AcDbProxyObject
 90
      499
 91
      505
 95
  2555929
 70
     0
 93
     1849
310
4214DD185B99185C992420000000000000F83F0000000000003E0FC00000000000004901028000000C1008070000C3001FDFF8000000C1003FBFF000000182007F7FE00000030400FEFFC00000060801FDFF8000000C1003FBFF000000182000000000000000C2020B0000001820100E000186003FBFF000000182007F7FE0
310
0000030400FEFFC00000060801FDFF8000000C1003FBFF000000182007F7FE0000003040000000000000012404160000003040201C00030C007F7FE00000030400FEFFC00000060801FDFF8000000C1003FBFF000000182007F7FE00000030400FEFFC000000608000
340
F
340
F
340
F
 94
        0
  0
DICTIONARYVAR
  5
2574
102
{ACAD_REACTORS
330
101E
102
}
330
101E
100
DictionaryVariables
280
     0
  1
STANDARD
  0
DICTIONARYVAR
  5
101F
102
{ACAD_REACTORS
330
101E
102
}
330
101E
100
DictionaryVariables
280
     0
  1
96
  0
ENDSEC
  0
EOF
