  0
SECTION
  2
HEADER
  9
$ACADVER
  1
AC1018
  9
$ACADMAINTVER
 70
     0
  9
$DWGCODEPAGE
  3
ANSI_932
  9
$INSBASE
 10
0.0
 20
0.0
 30
0.0
  9
$EXTMIN
 10
115.7601939837451
 20
-0.4045353325730048
 30
-0.0000610400456509
  9
$EXTMAX
 10
377.907715772637
 20
195.9424538700252
 30
0.0000152620489651
  9
$LIMMIN
 10
0.0
 20
0.0
  9
$LIMMAX
 10
420.0
 20
297.0
  9
$ORTHOMODE
 70
     0
  9
$REGENMODE
 70
     1
  9
$FILLMODE
 70
     1
  9
$QTEXTMODE
 70
     0
  9
$MIRRTEXT
 70
     1
  9
$LTSCALE
 40
1.0
  9
$ATTMODE
 70
     1
  9
$TEXTSIZE
 40
3.0
  9
$TRACEWID
 40
1.0
  9
$TEXTSTYLE
  7
STYLE3
  9
$CLAYER
  8
寸法線
  9
$CELTYPE
  6
BYLAYER
  9
$CECOLOR
 62
   256
  9
$CELTSCALE
 40
1.0
  9
$DISPSILH
 70
     0
  9
$DIMSCALE
 40
1.0
  9
$DIMASZ
 40
2.5
  9
$DIMEXO
 40
0.0
  9
$DIMDLI
 40
3.75
  9
$DIMRND
 40
0.0
  9
$DIMDLE
 40
0.0
  9
$DIMEXE
 40
1.25
  9
$DIMTP
 40
0.0
  9
$DIMTM
 40
0.0
  9
$DIMTXT
 40
2.5
  9
$DIMCEN
 40
2.5
  9
$DIMTSZ
 40
0.0
  9
$DIMTOL
 70
     0
  9
$DIMLIM
 70
     0
  9
$DIMTIH
 70
     0
  9
$DIMTOH
 70
     0
  9
$DIMSE1
 70
     0
  9
$DIMSE2
 70
     0
  9
$DIMTAD
 70
     1
  9
$DIMZIN
 70
     8
  9
$DIMBLK
  1

  9
$DIMASO
 70
     1
  9
$DIMSHO
 70
     1
  9
$DIMPOST
  1

  9
$DIMAPOST
  1

  9
$DIMALT
 70
     0
  9
$DIMALTD
 70
     4
  9
$DIMALTF
 40
0.0394
  9
$DIMLFAC
 40
1.0
  9
$DIMTOFL
 70
     1
  9
$DIMTVP
 40
0.0
  9
$DIMTIX
 70
     0
  9
$DIMSOXD
 70
     0
  9
$DIMSAH
 70
     1
  9
$DIMBLK1
  1
OPEN
  9
$DIMBLK2
  1
OPEN
  9
$DIMSTYLE
  2
STYLE3
  9
$DIMCLRD
 70
     2
  9
$DIMCLRE
 70
     2
  9
$DIMCLRT
 70
     6
  9
$DIMTFAC
 40
1.0
  9
$DIMGAP
 40
0.625
  9
$DIMJUST
 70
     0
  9
$DIMSD1
 70
     0
  9
$DIMSD2
 70
     0
  9
$DIMTOLJ
 70
     1
  9
$DIMTZIN
 70
     0
  9
$DIMALTZ
 70
     0
  9
$DIMALTTZ
 70
     0
  9
$DIMUPT
 70
     0
  9
$DIMDEC
 70
     2
  9
$DIMTDEC
 70
     4
  9
$DIMALTU
 70
     8
  9
$DIMALTTD
 70
     4
  9
$DIMTXSTY
  7
STYLE3
  9
$DIMAUNIT
 70
     0
  9
$DIMADEC
 70
     0
  9
$DIMALTRND
 40
0.0
  9
$DIMAZIN
 70
     0
  9
$DIMDSEP
 70
    46
  9
$DIMATFIT
 70
     3
  9
$DIMFRAC
 70
     0
  9
$DIMLDRBLK
  1

  9
$DIMLUNIT
 70
     2
  9
$DIMLWD
 70
    -2
  9
$DIMLWE
 70
    -2
  9
$DIMTMOVE
 70
     0
  9
$LUNITS
 70
     2
  9
$LUPREC
 70
     4
  9
$SKETCHINC
 40
1.0
  9
$FILLETRAD
 40
0.0
  9
$AUNITS
 70
     0
  9
$AUPREC
 70
     0
  9
$MENU
  1
.
  9
$ELEVATION
 40
0.0
  9
$PELEVATION
 40
0.0
  9
$THICKNESS
 40
0.0
  9
$LIMCHECK
 70
     0
  9
$CHAMFERA
 40
0.4
  9
$CHAMFERB
 40
0.4
  9
$CHAMFERC
 40
20.0
  9
$CHAMFERD
 40
0.0
  9
$SKPOLY
 70
     0
  9
$TDCREATE
 40
2451324.632665393
  9
$TDUCREATE
 40
2451324.257665393
  9
$TDUPDATE
 40
2455364.461060648
  9
$TDUUPDATE
 40
2455364.086060648
  9
$TDINDWG
 40
0.8211319213
  9
$TDUSRTIMER
 40
0.8211319213
  9
$USRTIMER
 70
     1
  9
$ANGBASE
 50
0.0
  9
$ANGDIR
 70
     0
  9
$PDMODE
 70
     0
  9
$PDSIZE
 40
0.0
  9
$PLINEWID
 40
0.0
  9
$SPLFRAME
 70
     0
  9
$SPLINETYPE
 70
     6
  9
$SPLINESEGS
 70
     8
  9
$HANDSEED
  5
1DB0
  9
$SURFTAB1
 70
     6
  9
$SURFTAB2
 70
     6
  9
$SURFTYPE
 70
     6
  9
$SURFU
 70
     6
  9
$SURFV
 70
     6
  9
$UCSBASE
  2

  9
$UCSNAME
  2

  9
$UCSORG
 10
0.0
 20
0.0
 30
0.0
  9
$UCSXDIR
 10
1.0
 20
0.0
 30
0.0
  9
$UCSYDIR
 10
0.0
 20
1.0
 30
0.0
  9
$UCSORTHOREF
  2

  9
$UCSORTHOVIEW
 70
     0
  9
$UCSORGTOP
 10
0.0
 20
0.0
 30
0.0
  9
$UCSORGBOTTOM
 10
0.0
 20
0.0
 30
0.0
  9
$UCSORGLEFT
 10
0.0
 20
0.0
 30
0.0
  9
$UCSORGRIGHT
 10
0.0
 20
0.0
 30
0.0
  9
$UCSORGFRONT
 10
0.0
 20
0.0
 30
0.0
  9
$UCSORGBACK
 10
0.0
 20
0.0
 30
0.0
  9
$PUCSBASE
  2

  9
$PUCSNAME
  2

  9
$PUCSORG
 10
0.0
 20
0.0
 30
0.0
  9
$PUCSXDIR
 10
1.0
 20
0.0
 30
0.0
  9
$PUCSYDIR
 10
0.0
 20
1.0
 30
0.0
  9
$PUCSORTHOREF
  2

  9
$PUCSORTHOVIEW
 70
     0
  9
$PUCSORGTOP
 10
0.0
 20
0.0
 30
0.0
  9
$PUCSORGBOTTOM
 10
0.0
 20
0.0
 30
0.0
  9
$PUCSORGLEFT
 10
0.0
 20
0.0
 30
0.0
  9
$PUCSORGRIGHT
 10
0.0
 20
0.0
 30
0.0
  9
$PUCSORGFRONT
 10
0.0
 20
0.0
 30
0.0
  9
$PUCSORGBACK
 10
0.0
 20
0.0
 30
0.0
  9
$USERI1
 70
     0
  9
$USERI2
 70
     0
  9
$USERI3
 70
     0
  9
$USERI4
 70
     0
  9
$USERI5
 70
     0
  9
$USERR1
 40
0.0
  9
$USERR2
 40
0.0
  9
$USERR3
 40
0.0
  9
$USERR4
 40
0.0
  9
$USERR5
 40
0.0
  9
$WORLDVIEW
 70
     1
  9
$SHADEDGE
 70
     3
  9
$SHADEDIF
 70
    70
  9
$TILEMODE
 70
     1
  9
$MAXACTVP
 70
    48
  9
$PINSBASE
 10
0.0
 20
0.0
 30
0.0
  9
$PLIMCHECK
 70
     0
  9
$PEXTMIN
 10
1.000000000000000E+20
 20
1.000000000000000E+20
 30
1.000000000000000E+20
  9
$PEXTMAX
 10
-1.000000000000000E+20
 20
-1.000000000000000E+20
 30
-1.000000000000000E+20
  9
$PLIMMIN
 10
0.0
 20
0.0
  9
$PLIMMAX
 10
420.0
 20
297.0
  9
$UNITMODE
 70
     0
  9
$VISRETAIN
 70
     1
  9
$PLINEGEN
 70
     0
  9
$PSLTSCALE
 70
     1
  9
$TREEDEPTH
 70
  3020
  9
$CMLSTYLE
  2
STANDARD
  9
$CMLJUST
 70
     0
  9
$CMLSCALE
 40
20.0
  9
$PROXYGRAPHICS
 70
     1
  9
$MEASUREMENT
 70
     1
  9
$CELWEIGHT
370
    -1
  9
$ENDCAPS
280
     0
  9
$JOINSTYLE
280
     0
  9
$LWDISPLAY
290
     0
  9
$INSUNITS
 70
     0
  9
$HYPERLINKBASE
  1

  9
$STYLESHEET
  1
monochrome.ctb
  9
$XEDIT
290
     1
  9
$CEPSNTYPE
380
     0
  9
$PSTYLEMODE
290
     1
  9
$FINGERPRINTGUID
  2
{2D62A584-AA96-4DD0-8230-3F10C0D0E06C}
  9
$VERSIONGUID
  2
{3004FEEC-F9EF-4853-B482-35D098866D35}
  9
$EXTNAMES
290
     1
  9
$PSVPSCALE
 40
0.0
  9
$OLESTARTUP
290
     0
  9
$SORTENTS
280
    96
  9
$INDEXCTL
280
     0
  9
$HIDETEXT
280
     0
  9
$XCLIPFRAME
290
     0
  9
$HALOGAP
280
     0
  9
$OBSCOLOR
 70
   257
  9
$OBSLTYPE
280
     0
  9
$INTERSECTIONDISPLAY
280
     0
  9
$INTERSECTIONCOLOR
 70
   257
  9
$DIMASSOC
280
     1
  9
$PROJECTNAME
  1

  0
ENDSEC
  0
SECTION
  2
CLASSES
  0
CLASS
  1
HATCH
  2
AcDbHatch
  3
ObjectDBX Classes
 90
        0
 91
       14
280
     0
281
     1
  0
CLASS
  1
LWPOLYLINE
  2
AcDbPolyline
  3
ObjectDBX Classes
 90
        0
 91
        1
280
     0
281
     1
  0
CLASS
  1
DICTIONARYVAR
  2
AcDbDictionaryVar
  3
ObjectDBX Classes
 90
        0
 91
        2
280
     0
281
     0
  0
CLASS
  1
ACDBDICTIONARYWDFLT
  2
AcDbDictionaryWithDefault
  3
ObjectDBX Classes
 90
        0
 91
        1
280
     0
281
     0
  0
CLASS
  1
TABLESTYLE
  2
AcDbTableStyle
  3
ObjectDBX Classes
 90
     2047
 91
        1
280
     0
281
     0
  0
ENDSEC
  0
SECTION
  2
TABLES
  0
TABLE
  2
VPORT
  5
8
330
0
100
AcDbSymbolTable
 70
     2
  0
VPORT
  5
1DAF
330
8
100
AcDbSymbolTableRecord
100
AcDbViewportTableRecord
  2
*Active
 70
     0
 10
0.0
 20
0.0
 11
1.0
 21
1.0
 12
246.833954878191
 22
97.76895926872612
 13
0.0
 23
0.0
 14
10.0
 24
10.0
 15
10.0
 25
10.0
 16
0.0
 26
0.0
 36
1.0
 17
0.0
 27
0.0
 37
0.0
 40
197.8401222003366
 41
1.530456852791878
 42
50.0
 43
0.0
 44
0.0
 50
0.0
 51
0.0
 71
     0
 72
   100
 73
     1
 74
     1
 75
     0
 76
     0
 77
     0
 78
     0
281
     0
 65
     1
110
0.0
120
0.0
130
0.0
111
1.0
121
0.0
131
0.0
112
0.0
122
1.0
132
0.0
 79
     0
146
0.0
  0
ENDTAB
  0
TABLE
  2
LTYPE
  5
5
330
0
100
AcDbSymbolTable
 70
     3
  0
LTYPE
  5
12
330
5
100
AcDbSymbolTableRecord
100
AcDbLinetypeTableRecord
  2
BYBLOCK
 70
     0
  3

 72
    65
 73
     0
 40
0.0
  0
LTYPE
  5
13
330
5
100
AcDbSymbolTableRecord
100
AcDbLinetypeTableRecord
  2
BYLAYER
 70
     0
  3

 72
    65
 73
     0
 40
0.0
  0
LTYPE
  5
14
330
5
100
AcDbSymbolTableRecord
100
AcDbLinetypeTableRecord
  2
CONTINUOUS
 70
     0
  3
Solid line
 72
    65
 73
     0
 40
0.0
  0
LTYPE
  5
22
330
5
100
AcDbSymbolTableRecord
100
AcDbLinetypeTableRecord
  2
CENTER2
 70
     0
  3
Center (.5x) ___ _ ___ _ ___ _ ___ _ ___ _ ___
 72
    65
 73
     4
 40
28.575
 49
19.05
 74
     0
 49
-3.174999999999999
 74
     0
 49
3.174999999999999
 74
     0
 49
-3.174999999999999
 74
     0
  0
LTYPE
  5
23
330
5
100
AcDbSymbolTableRecord
100
AcDbLinetypeTableRecord
  2
HIDDEN2
 70
     0
  3
Hidden (.5x) _ _ _ _ _ _ _ _ _ _ _ _ _ _ _ _ _
 72
    65
 73
     2
 40
4.762499999999999
 49
3.174999999999999
 74
     0
 49
-1.587499999999999
 74
     0
  0
ENDTAB
  0
TABLE
  2
LAYER
  5
2
330
0
100
AcDbSymbolTable
 70
    12
  0
LAYER
  5
E
330
2
100
AcDbSymbolTableRecord
100
AcDbLayerTableRecord
  2
0
 70
     0
 62
     7
  6
CONTINUOUS
370
    -3
390
11C8
  0
LAYER
  5
25
330
2
100
AcDbSymbolTableRecord
100
AcDbLayerTableRecord
  2
外形線
 70
     0
 62
     7
  6
CONTINUOUS
370
    -3
390
11C8
  0
LAYER
  5
26
330
2
100
AcDbSymbolTableRecord
100
AcDbLayerTableRecord
  2
寸法線
 70
     0
 62
     2
  6
CONTINUOUS
370
    -3
390
11C8
  0
LAYER
  5
27
330
2
100
AcDbSymbolTableRecord
100
AcDbLayerTableRecord
  2
中心線
 70
     0
 62
     4
  6
CENTER2
370
    -3
390
11C8
  0
LAYER
  5
2A
330
2
100
AcDbSymbolTableRecord
100
AcDbLayerTableRecord
  2
ﾊｯﾁﾝｸ
 70
     0
 62
     6
  6
CONTINUOUS
370
    -3
390
11C8
  0
LAYER
  5
2B
330
2
100
AcDbSymbolTableRecord
100
AcDbLayerTableRecord
  2
文字
 70
     0
 62
     6
  6
CONTINUOUS
370
    -3
390
11C8
  0
LAYER
  5
2C
330
2
100
AcDbSymbolTableRecord
100
AcDbLayerTableRecord
  2
目盛
 70
     0
 62
    72
  6
CONTINUOUS
370
    -3
390
11C8
  0
LAYER
  5
2D
330
2
100
AcDbSymbolTableRecord
100
AcDbLayerTableRecord
  2
針
 70
     0
 62
     5
  6
CONTINUOUS
370
    -3
390
11C8
  0
LAYER
  5
53
330
2
100
AcDbSymbolTableRecord
100
AcDbLayerTableRecord
  2
DEFPOINTS
 70
     0
 62
     7
  6
CONTINUOUS
290
     0
370
    -3
390
11C8
  0
LAYER
  5
A5
330
2
100
AcDbSymbolTableRecord
100
AcDbLayerTableRecord
  2
C
 70
     0
 62
     7
  6
CONTINUOUS
370
    -3
390
11C8
  0
LAYER
  5
1FE
330
2
100
AcDbSymbolTableRecord
100
AcDbLayerTableRecord
  2
隠れ線2
 70
     0
 62
     1
  6
HIDDEN2
370
    -3
390
11C8
  0
LAYER
  5
295
330
2
100
AcDbSymbolTableRecord
100
AcDbLayerTableRecord
  2
ROGO
 70
     0
 62
     6
  6
CONTINUOUS
370
    -3
390
11C8
  0
ENDTAB
  0
TABLE
  2
STYLE
  5
3
330
0
100
AcDbSymbolTable
 70
     3
  0
STYLE
  5
F
330
3
100
AcDbSymbolTableRecord
100
AcDbTextStyleTableRecord
  2
STANDARD
 70
     0
 40
0.0
 41
1.0
 50
0.0
 71
     0
 42
2.5
  3
txt
  4

  0
STYLE
  5
3F
330
3
100
AcDbSymbolTableRecord
100
AcDbTextStyleTableRecord
  2
STYLE3
 70
     0
 40
0.0
 41
1.0
 50
0.0
 71
     0
 42
3.0
  3
romans.shx
  4
bigfont.shx
  0
ENDTAB
  0
TABLE
  2
VIEW
  5
6
330
0
100
AcDbSymbolTable
 70
     0
  0
ENDTAB
  0
TABLE
  2
UCS
  5
7
330
0
100
AcDbSymbolTable
 70
     0
  0
ENDTAB
  0
TABLE
  2
APPID
  5
9
330
0
100
AcDbSymbolTable
 70
     2
  0
APPID
  5
10
330
9
100
AcDbSymbolTableRecord
100
AcDbRegAppTableRecord
  2
ACAD
 70
     0
  0
APPID
  5
1D0A
330
9
100
AcDbSymbolTableRecord
100
AcDbRegAppTableRecord
  2
ACAD_PSEXT
 70
     0
  0
ENDTAB
  0
TABLE
  2
DIMSTYLE
  5
A
330
0
100
AcDbSymbolTable
 70
     2
100
AcDbDimStyleTable
 71
     1
340
8F
  0
DIMSTYLE
105
1D
330
A
100
AcDbSymbolTableRecord
100
AcDbDimStyleTableRecord
  2
STANDARD
 70
     0
 41
2.5
 42
0.625
 43
3.75
 44
1.25
 73
     0
 74
     0
 77
     1
 78
     8
140
2.5
141
2.5
143
0.0394
147
0.625
171
     4
172
     1
273
     8
274
     4
277
     6
340
F
  0
DIMSTYLE
105
8F
102
{ACAD_REACTORS
330
F25
330
FBC
330
FC8
330
FD5
330
1045
330
1052
330
1061
330
1087
330
11A5
102
}
330
A
100
AcDbSymbolTableRecord
100
AcDbDimStyleTableRecord
  2
STYLE3
 70
     0
 41
2.5
 42
0.0
 43
3.75
 44
1.25
 73
     0
 74
     0
 77
     1
 78
     8
140
2.5
141
2.5
143
0.0394
147
0.625
171
     4
172
     1
173
     1
176
     2
177
     2
178
     6
271
     1
273
     8
274
     4
340
3F
341
45
343
45
344
45
  0
ENDTAB
  0
TABLE
  2
BLOCK_RECORD
  5
1
330
0
100
AcDbSymbolTable
 70
    13
  0
BLOCK_RECORD
  5
18
330
1
100
AcDbSymbolTableRecord
100
AcDbBlockTableRecord
  2
*MODEL_SPACE
340
11CF
  0
BLOCK_RECORD
  5
15
330
1
100
AcDbSymbolTableRecord
100
AcDbBlockTableRecord
  2
*PAPER_SPACE
340
11D0
  0
BLOCK_RECORD
  5
45
330
1
100
AcDbSymbolTableRecord
100
AcDbBlockTableRecord
  2
_OPEN
340
0
102
{BLKREFS
331
AF1
331
B2B
331
B34
331
C25
331
C26
331
176E
331
176F
331
1D55
331
1D56
331
1D5E
331
1D5F
331
1D67
331
1D68
331
1D70
331
1D71
331
1D79
331
1D7A
331
1D82
331
1D83
331
1D8B
331
1D8C
331
1D96
331
1D97
331
1D9E
331
1D9F
102
}
  0
BLOCK_RECORD
  5
F19
330
1
100
AcDbSymbolTableRecord
100
AcDbBlockTableRecord
  2
*D3
340
0
  0
BLOCK_RECORD
  5
FB0
330
1
100
AcDbSymbolTableRecord
100
AcDbBlockTableRecord
  2
*D4
340
0
  0
BLOCK_RECORD
  5
FBD
330
1
100
AcDbSymbolTableRecord
100
AcDbBlockTableRecord
  2
*D5
340
0
  0
BLOCK_RECORD
  5
FC9
330
1
100
AcDbSymbolTableRecord
100
AcDbBlockTableRecord
  2
*D6
340
0
  0
BLOCK_RECORD
  5
1039
330
1
100
AcDbSymbolTableRecord
100
AcDbBlockTableRecord
  2
*D7
340
0
  0
BLOCK_RECORD
  5
1046
330
1
100
AcDbSymbolTableRecord
100
AcDbBlockTableRecord
  2
*D8
340
0
  0
BLOCK_RECORD
  5
1053
330
1
100
AcDbSymbolTableRecord
100
AcDbBlockTableRecord
  2
*D9
340
0
  0
BLOCK_RECORD
  5
107B
330
1
100
AcDbSymbolTableRecord
100
AcDbBlockTableRecord
  2
*D10
340
0
  0
BLOCK_RECORD
  5
1199
330
1
100
AcDbSymbolTableRecord
100
AcDbBlockTableRecord
  2
*D11
340
0
  0
ENDTAB
  0
ENDSEC
  0
SECTION
  2
BLOCKS
  0
BLOCK
  5
19
330
18
100
AcDbEntity
  8
0
100
AcDbBlockBegin
  2
*MODEL_SPACE
 70
     0
 10
0.0
 20
0.0
 30
0.0
  3
*MODEL_SPACE
  1

  0
ENDBLK
  5
1A
330
18
100
AcDbEntity
  8
0
100
AcDbBlockEnd
  0
BLOCK
  5
16
330
15
100
AcDbEntity
 67
     1
  8
0
100
AcDbBlockBegin
  2
*PAPER_SPACE
 70
     0
 10
0.0
 20
0.0
 30
0.0
  3
*PAPER_SPACE
  1

  0
ENDBLK
  5
17
330
15
100
AcDbEntity
 67
     1
  8
0
100
AcDbBlockEnd
  0
BLOCK
  5
46
330
45
100
AcDbEntity
  8
0
100
AcDbBlockBegin
  2
_OPEN
 70
     0
 10
0.0
 20
0.0
 30
0.0
  3
_OPEN
  1

  0
LINE
  5
47
330
45
100
AcDbEntity
  8
0
  6
ByBlock
 62
     0
100
AcDbLine
 10
-1.0
 20
0.1666666666666666
 30
0.0
 11
0.0
 21
0.0
 31
0.0
  0
LINE
  5
48
330
45
100
AcDbEntity
  8
0
  6
ByBlock
 62
     0
100
AcDbLine
 10
0.0
 20
0.0
 30
0.0
 11
-1.0
 21
-0.1666666666666666
 31
0.0
  0
LINE
  5
49
330
45
100
AcDbEntity
  8
0
  6
ByBlock
 62
     0
100
AcDbLine
 10
0.0
 20
0.0
 30
0.0
 11
-1.0
 21
0.0
 31
0.0
  0
ENDBLK
  5
4A
330
45
100
AcDbEntity
  8
0
100
AcDbBlockEnd
  0
BLOCK
  5
116F
330
F19
100
AcDbEntity
  8
0
100
AcDbBlockBegin
  2
*D3
 70
     1
 10
0.0
 20
0.0
 30
0.0
  3
*D3
  1

  0
LINE
  5
1D64
330
F19
100
AcDbEntity
  8
寸法線
 62
     2
370
    -2
100
AcDbLine
 10
247.1828641985998
 20
139.0741750329273
 30
0.0
 11
247.1828641985998
 21
165.7967002871611
 31
0.0
  0
LINE
  5
1D65
330
F19
100
AcDbEntity
  8
寸法線
 62
     2
370
    -2
100
AcDbLine
 10
278.1828641985998
 20
139.0741750329273
 30
0.0
 11
278.1828641985998
 21
165.7967002871611
 31
0.0
  0
LINE
  5
1D66
330
F19
100
AcDbEntity
  8
寸法線
 62
     2
370
    -2
100
AcDbLine
 10
249.6828641985998
 20
164.5467002871611
 30
0.0
 11
275.6828641985998
 21
164.5467002871611
 31
0.0
  0
INSERT
  5
1D67
330
F19
100
AcDbEntity
  8
寸法線
 62
     2
370
    -2
100
AcDbBlockReference
  2
_OPEN
 10
247.1828641985998
 20
164.5467002871611
 30
0.0
 41
2.5
 42
2.5
 43
2.5
 50
180.0
  0
INSERT
  5
1D68
330
F19
100
AcDbEntity
  8
寸法線
 62
     2
370
    -2
100
AcDbBlockReference
  2
_OPEN
 10
278.1828641985998
 20
164.5467002871611
 30
0.0
 41
2.5
 42
2.5
 43
2.5
  0
MTEXT
  5
1D69
330
F19
100
AcDbEntity
  8
寸法線
 62
     6
100
AcDbMText
 10
262.6828641985998
 20
166.4217002871611
 30
0.0
 40
2.5
 41
0.0
 71
     5
 72
     1
  1
\A1;φ31
  7
STYLE3
 73
     1
 44
1.0
  0
POINT
  5
1D6A
330
F19
100
AcDbEntity
  8
DEFPOINTS
 62
     0
100
AcDbPoint
 10
247.1828641985998
 20
139.0741750329273
 30
0.0
  0
POINT
  5
1D6B
330
F19
100
AcDbEntity
  8
DEFPOINTS
 62
     0
100
AcDbPoint
 10
278.1828641985998
 20
139.0741750329273
 30
0.0
  0
POINT
  5
1D6C
330
F19
100
AcDbEntity
  8
DEFPOINTS
 62
     0
100
AcDbPoint
 10
278.1828641985998
 20
164.5467002871611
 30
0.0
  0
ENDBLK
  5
1179
330
F19
100
AcDbEntity
  8
0
100
AcDbBlockEnd
  0
BLOCK
  5
1147
330
FB0
100
AcDbEntity
  8
0
100
AcDbBlockBegin
  2
*D4
 70
     1
 10
0.0
 20
0.0
 30
0.0
  3
*D4
  1

  0
LINE
  5
1D5B
330
FB0
100
AcDbEntity
  8
寸法線
 62
     2
370
    -2
100
AcDbLine
 10
226.6828641985997
 20
135.5741750329273
 30
0.0
 11
226.6828641985997
 21
107.9646432003898
 31
0.0
  0
LINE
  5
1D5C
330
FB0
100
AcDbEntity
  8
寸法線
 62
     2
370
    -2
100
AcDbLine
 10
262.6828641985998
 20
117.6352896091768
 30
0.0
 11
262.6828641985998
 21
107.9646432003898
 31
0.0
  0
LINE
  5
1D5D
330
FB0
100
AcDbEntity
  8
寸法線
 62
     2
370
    -2
100
AcDbLine
 10
229.1828641985997
 20
109.2146432003898
 30
0.0
 11
260.1828641985997
 21
109.2146432003898
 31
0.0
  0
INSERT
  5
1D5E
330
FB0
100
AcDbEntity
  8
寸法線
 62
     2
370
    -2
100
AcDbBlockReference
  2
_OPEN
 10
226.6828641985997
 20
109.2146432003898
 30
0.0
 41
2.5
 42
2.5
 43
2.5
 50
180.0
  0
INSERT
  5
1D5F
330
FB0
100
AcDbEntity
  8
寸法線
 62
     2
370
    -2
100
AcDbBlockReference
  2
_OPEN
 10
262.6828641985998
 20
109.2146432003898
 30
0.0
 41
2.5
 42
2.5
 43
2.5
  0
MTEXT
  5
1D60
330
FB0
100
AcDbEntity
  8
寸法線
 62
     6
100
AcDbMText
 10
244.6828641985998
 20
111.0896432003898
 30
0.0
 40
2.5
 41
0.0
 71
     5
 72
     1
  1
\A1;36
  7
STYLE3
 73
     1
 44
1.0
  0
POINT
  5
1D61
330
FB0
100
AcDbEntity
  8
DEFPOINTS
 62
     0
100
AcDbPoint
 10
226.6828641985997
 20
135.5741750329273
 30
0.0
  0
POINT
  5
1D62
330
FB0
100
AcDbEntity
  8
DEFPOINTS
 62
     0
100
AcDbPoint
 10
262.6828641985998
 20
117.6352896091768
 30
0.0
  0
POINT
  5
1D63
330
FB0
100
AcDbEntity
  8
DEFPOINTS
 62
     0
100
AcDbPoint
 10
262.6828641985998
 20
109.2146432003898
 30
0.0
  0
ENDBLK
  5
1151
330
FB0
100
AcDbEntity
  8
0
100
AcDbBlockEnd
  0
BLOCK
  5
FBE
330
FBD
100
AcDbEntity
  8
0
100
AcDbBlockBegin
  2
*D5
 70
     1
 10
0.0
 20
0.0
 30
0.0
  3
*D5
  1

  0
LINE
  5
1D9C
330
FBD
100
AcDbEntity
  8
寸法線
 62
     2
370
    -2
100
AcDbLine
 10
289.6828641985998
 20
118.3870876051288
 30
0.0
 11
289.6828641985998
 21
107.9646432003898
 31
0.0
  0
LINE
  5
1D9D
330
FBD
100
AcDbEntity
  8
寸法線
 62
     2
370
    -2
100
AcDbLine
 10
265.1828641985998
 20
109.2146432003898
 30
0.0
 11
287.1828641985998
 21
109.2146432003898
 31
0.0
  0
INSERT
  5
1D9E
330
FBD
100
AcDbEntity
  8
寸法線
 62
     2
370
    -2
100
AcDbBlockReference
  2
_OPEN
 10
262.6828641985998
 20
109.2146432003898
 30
0.0
 41
2.5
 42
2.5
 43
2.5
 50
180.0
  0
INSERT
  5
1D9F
330
FBD
100
AcDbEntity
  8
寸法線
 62
     2
370
    -2
100
AcDbBlockReference
  2
_OPEN
 10
289.6828641985998
 20
109.2146432003898
 30
0.0
 41
2.5
 42
2.5
 43
2.5
  0
MTEXT
  5
1DA0
330
FBD
100
AcDbEntity
  8
寸法線
 62
     6
100
AcDbMText
 10
276.1828641985998
 20
111.0896432003898
 30
0.0
 40
2.5
 41
0.0
 71
     5
 72
     1
  1
\A1;27
  7
STYLE3
 73
     1
 44
1.0
  0
POINT
  5
1DA1
330
FBD
100
AcDbEntity
  8
DEFPOINTS
 62
     0
100
AcDbPoint
 10
262.6828641985998
 20
117.6352896091768
 30
0.0
  0
POINT
  5
1DA2
330
FBD
100
AcDbEntity
  8
DEFPOINTS
 62
     0
100
AcDbPoint
 10
289.6828641985998
 20
118.3870876051288
 30
0.0
  0
POINT
  5
1DA3
330
FBD
100
AcDbEntity
  8
DEFPOINTS
 62
     0
100
AcDbPoint
 10
289.6828641985998
 20
109.2146432003898
 30
0.0
  0
ENDBLK
  5
FC7
330
FBD
100
AcDbEntity
  8
0
100
AcDbBlockEnd
  0
BLOCK
  5
11A8
330
FC9
100
AcDbEntity
  8
0
100
AcDbBlockBegin
  2
*D6
 70
     1
 10
0.0
 20
0.0
 30
0.0
  3
*D6
  1

  0
LINE
  5
1D52
330
FC9
100
AcDbEntity
  8
寸法線
 62
     2
370
    -2
100
AcDbLine
 10
209.5828641985998
 20
123.0741750329273
 30
0.0
 11
209.5828641985998
 21
101.2528392342315
 31
0.0
  0
LINE
  5
1D53
330
FC9
100
AcDbEntity
  8
寸法線
 62
     2
370
    -2
100
AcDbLine
 10
289.6828641985998
 20
107.9646432003898
 30
0.0
 11
289.6828641985998
 21
101.2528392342315
 31
0.0
  0
LINE
  5
1D54
330
FC9
100
AcDbEntity
  8
寸法線
 62
     2
370
    -2
100
AcDbLine
 10
212.0828641985998
 20
102.5028392342315
 30
0.0
 11
287.1828641985998
 21
102.5028392342315
 31
0.0
  0
INSERT
  5
1D55
330
FC9
100
AcDbEntity
  8
寸法線
 62
     2
370
    -2
100
AcDbBlockReference
  2
_OPEN
 10
209.5828641985998
 20
102.5028392342315
 30
0.0
 41
2.5
 42
2.5
 43
2.5
 50
180.0
  0
INSERT
  5
1D56
330
FC9
100
AcDbEntity
  8
寸法線
 62
     2
370
    -2
100
AcDbBlockReference
  2
_OPEN
 10
289.6828641985998
 20
102.5028392342315
 30
0.0
 41
2.5
 42
2.5
 43
2.5
  0
MTEXT
  5
1D57
330
FC9
100
AcDbEntity
  8
寸法線
 62
     6
100
AcDbMText
 10
249.6328641985998
 20
104.3778392342315
 30
0.0
 40
2.5
 41
0.0
 71
     5
 72
     1
  1
\A1;66～80
  7
STYLE3
 73
     1
 44
1.0
  0
POINT
  5
1D58
330
FC9
100
AcDbEntity
  8
DEFPOINTS
 62
     0
100
AcDbPoint
 10
209.5828641985998
 20
123.0741750329273
 30
0.0
  0
POINT
  5
1D59
330
FC9
100
AcDbEntity
  8
DEFPOINTS
 62
     0
100
AcDbPoint
 10
289.6828641985998
 20
107.9646432003898
 30
0.0
  0
POINT
  5
1D5A
330
FC9
100
AcDbEntity
  8
DEFPOINTS
 62
     0
100
AcDbPoint
 10
289.6828641985998
 20
102.5028392342315
 30
0.0
  0
ENDBLK
  5
11B2
330
FC9
100
AcDbEntity
  8
0
100
AcDbBlockEnd
  0
BLOCK
  5
10A9
330
1039
100
AcDbEntity
  8
0
100
AcDbBlockBegin
  2
*D7
 70
     1
 10
0.0
 20
0.0
 30
0.0
  3
*D7
  1

  0
LINE
  5
1D7F
330
1039
100
AcDbEntity
  8
寸法線
 62
     2
370
    -2
100
AcDbLine
 10
231.0828641985998
 20
43.49089732663503
 30
0.0
 11
195.6202031524109
 21
43.49089732663504
 31
0.0
  0
LINE
  5
1D80
330
1039
100
AcDbEntity
  8
寸法線
 62
     2
370
    -2
100
AcDbLine
 10
231.0828641985998
 20
81.49089732663501
 30
0.0
 11
195.6202031524109
 21
81.49089732663503
 31
0.0
  0
LINE
  5
1D81
330
1039
100
AcDbEntity
  8
寸法線
 62
     2
370
    -2
100
AcDbLine
 10
196.8702031524109
 20
45.99089732663504
 30
0.0
 11
196.8702031524109
 21
78.99089732663502
 31
0.0
  0
INSERT
  5
1D82
330
1039
100
AcDbEntity
  8
寸法線
 62
     2
370
    -2
100
AcDbBlockReference
  2
_OPEN
 10
196.8702031524109
 20
43.49089732663504
 30
0.0
 41
2.5
 42
2.5
 43
2.5
 50
270.0
  0
INSERT
  5
1D83
330
1039
100
AcDbEntity
  8
寸法線
 62
     2
370
    -2
100
AcDbBlockReference
  2
_OPEN
 10
196.8702031524109
 20
81.49089732663503
 30
0.0
 41
2.5
 42
2.5
 43
2.5
 50
90.0
  0
MTEXT
  5
1D84
330
1039
100
AcDbEntity
  8
寸法線
 62
     6
100
AcDbMText
 10
194.9952031524109
 20
62.49089732663506
 30
0.0
 40
2.5
 41
0.0
 71
     5
 72
     1
  1
\A1;φ38
  7
STYLE3
 11
0.0000000000000001
 21
1.0
 31
0.0
 73
     1
 44
1.0
  0
POINT
  5
1D85
330
1039
100
AcDbEntity
  8
DEFPOINTS
 62
     0
100
AcDbPoint
 10
231.0828641985998
 20
43.49089732663503
 30
0.0
  0
POINT
  5
1D86
330
1039
100
AcDbEntity
  8
DEFPOINTS
 62
     0
100
AcDbPoint
 10
231.0828641985998
 20
81.49089732663501
 30
0.0
  0
POINT
  5
1D87
330
1039
100
AcDbEntity
  8
DEFPOINTS
 62
     0
100
AcDbPoint
 10
196.8702031524109
 20
81.49089732663503
 30
0.0
  0
ENDBLK
  5
10B3
330
1039
100
AcDbEntity
  8
0
100
AcDbBlockEnd
  0
BLOCK
  5
10B4
330
1046
100
AcDbEntity
  8
0
100
AcDbBlockBegin
  2
*D8
 70
     1
 10
0.0
 20
0.0
 30
0.0
  3
*D8
  1

  0
LINE
  5
1D76
330
1046
100
AcDbEntity
  8
寸法線
 62
     2
370
    -2
100
AcDbLine
 10
209.5828641985998
 20
78.49089732663504
 30
0.0
 11
202.1299663758787
 21
78.49089732663504
 31
0.0
  0
LINE
  5
1D77
330
1046
100
AcDbEntity
  8
寸法線
 62
     2
370
    -2
100
AcDbLine
 10
209.5828641985998
 20
46.49089732663504
 30
0.0
 11
202.1299663758787
 21
46.49089732663504
 31
0.0
  0
LINE
  5
1D78
330
1046
100
AcDbEntity
  8
寸法線
 62
     2
370
    -2
100
AcDbLine
 10
203.3799663758787
 20
75.99089732663504
 30
0.0
 11
203.3799663758787
 21
48.99089732663505
 31
0.0
  0
INSERT
  5
1D79
330
1046
100
AcDbEntity
  8
寸法線
 62
     2
370
    -2
100
AcDbBlockReference
  2
_OPEN
 10
203.3799663758787
 20
78.49089732663504
 30
0.0
 41
2.5
 42
2.5
 43
2.5
 50
90.0
  0
INSERT
  5
1D7A
330
1046
100
AcDbEntity
  8
寸法線
 62
     2
370
    -2
100
AcDbBlockReference
  2
_OPEN
 10
203.3799663758787
 20
46.49089732663504
 30
0.0
 41
2.5
 42
2.5
 43
2.5
 50
270.0
  0
MTEXT
  5
1D7B
330
1046
100
AcDbEntity
  8
寸法線
 62
     6
100
AcDbMText
 10
201.5049663758787
 20
62.49089732663506
 30
0.0
 40
2.5
 41
0.0
 71
     5
 72
     1
  1
\A1;φ32
  7
STYLE3
 11
0.0000000000000001
 21
1.0
 31
0.0
 73
     1
 44
1.0
  0
POINT
  5
1D7C
330
1046
100
AcDbEntity
  8
DEFPOINTS
 62
     0
100
AcDbPoint
 10
209.5828641985998
 20
78.49089732663504
 30
0.0
  0
POINT
  5
1D7D
330
1046
100
AcDbEntity
  8
DEFPOINTS
 62
     0
100
AcDbPoint
 10
209.5828641985998
 20
46.49089732663504
 30
0.0
  0
POINT
  5
1D7E
330
1046
100
AcDbEntity
  8
DEFPOINTS
 62
     0
100
AcDbPoint
 10
203.3799663758787
 20
46.49089732663504
 30
0.0
  0
ENDBLK
  5
10BE
330
1046
100
AcDbEntity
  8
0
100
AcDbBlockEnd
  0
BLOCK
  5
118C
330
1053
100
AcDbEntity
  8
0
100
AcDbBlockBegin
  2
*D9
 70
     1
 10
0.0
 20
0.0
 30
0.0
  3
*D9
  1

  0
LINE
  5
1D91
330
1053
100
AcDbEntity
  8
寸法線
 62
     2
370
    -2
100
AcDbLine
 10
233.6828641985998
 20
43.49089732663503
 30
0.0
 11
233.6828641985998
 21
35.15589234830247
 31
0.0
  0
LINE
  5
1D92
330
1053
100
AcDbEntity
  8
寸法線
 62
     2
370
    -2
100
AcDbLine
 10
230.5828641985999
 20
48.49089732663504
 30
0.0
 11
230.5828641985999
 21
35.15589234830247
 31
0.0
  0
LINE
  5
1D93
330
1053
100
AcDbEntity
  8
寸法線
 62
     2
370
    -2
100
AcDbLine
 10
236.1828641985998
 20
36.40589234830247
 30
0.0
 11
238.6828641985998
 21
36.40589234830247
 31
0.0
  0
LINE
  5
1D94
330
1053
100
AcDbEntity
  8
寸法線
 62
     2
370
    -2
100
AcDbLine
 10
228.0828641985999
 20
36.40589234830247
 30
0.0
 11
225.5828641985999
 21
36.40589234830247
 31
0.0
  0
LINE
  5
1D95
330
1053
100
AcDbEntity
  8
寸法線
 62
     2
370
    -2
100
AcDbLine
 10
233.6828641985998
 20
36.40589234830247
 30
0.0
 11
230.5828641985999
 21
36.40589234830247
 31
0.0
  0
INSERT
  5
1D96
330
1053
100
AcDbEntity
  8
寸法線
 62
     2
370
    -2
100
AcDbBlockReference
  2
_OPEN
 10
233.6828641985998
 20
36.40589234830247
 30
0.0
 41
2.5
 42
2.5
 43
2.5
 50
180.0
  0
INSERT
  5
1D97
330
1053
100
AcDbEntity
  8
寸法線
 62
     2
370
    -2
100
AcDbBlockReference
  2
_OPEN
 10
230.5828641985999
 20
36.40589234830247
 30
0.0
 41
2.5
 42
2.5
 43
2.5
  0
MTEXT
  5
1D98
330
1053
100
AcDbEntity
  8
寸法線
 62
     6
100
AcDbMText
 10
232.1328641985998
 20
38.28089234830247
 30
0.0
 40
2.5
 41
0.0
 71
     5
 72
     1
  1
\A1;3
  7
STYLE3
 73
     1
 44
1.0
  0
POINT
  5
1D99
330
1053
100
AcDbEntity
  8
DEFPOINTS
 62
     0
100
AcDbPoint
 10
233.6828641985998
 20
43.49089732663503
 30
0.0
  0
POINT
  5
1D9A
330
1053
100
AcDbEntity
  8
DEFPOINTS
 62
     0
100
AcDbPoint
 10
230.5828641985999
 20
48.49089732663504
 30
0.0
  0
POINT
  5
1D9B
330
1053
100
AcDbEntity
  8
DEFPOINTS
 62
     0
100
AcDbPoint
 10
230.5828641985999
 20
36.40589234830247
 30
0.0
  0
ENDBLK
  5
1198
330
1053
100
AcDbEntity
  8
0
100
AcDbBlockEnd
  0
BLOCK
  5
1181
330
107B
100
AcDbEntity
  8
0
100
AcDbBlockBegin
  2
*D10
 70
     1
 10
0.0
 20
0.0
 30
0.0
  3
*D10
  1

  0
LINE
  5
1D88
330
107B
100
AcDbEntity
  8
寸法線
 62
     2
370
    -2
100
AcDbLine
 10
209.5828641985998
 20
46.49089732663504
 30
0.0
 11
209.5828641985998
 21
35.15589234830247
 31
0.0
  0
LINE
  5
1D89
330
107B
100
AcDbEntity
  8
寸法線
 62
     2
370
    -2
100
AcDbLine
 10
230.5828641985999
 20
38.01818016598821
 30
0.0
 11
230.5828641985999
 21
35.15589234830247
 31
0.0
  0
LINE
  5
1D8A
330
107B
100
AcDbEntity
  8
寸法線
 62
     2
370
    -2
100
AcDbLine
 10
212.0828641985998
 20
36.40589234830247
 30
0.0
 11
228.0828641985999
 21
36.40589234830247
 31
0.0
  0
INSERT
  5
1D8B
330
107B
100
AcDbEntity
  8
寸法線
 62
     2
370
    -2
100
AcDbBlockReference
  2
_OPEN
 10
209.5828641985998
 20
36.40589234830247
 30
0.0
 41
2.5
 42
2.5
 43
2.5
 50
180.0
  0
INSERT
  5
1D8C
330
107B
100
AcDbEntity
  8
寸法線
 62
     2
370
    -2
100
AcDbBlockReference
  2
_OPEN
 10
230.5828641985999
 20
36.40589234830247
 30
0.0
 41
2.5
 42
2.5
 43
2.5
  0
MTEXT
  5
1D8D
330
107B
100
AcDbEntity
  8
寸法線
 62
     6
100
AcDbMText
 10
220.0828641985998
 20
38.28089234830247
 30
0.0
 40
2.5
 41
0.0
 71
     5
 72
     1
  1
\A1;21
  7
STYLE3
 73
     1
 44
1.0
  0
POINT
  5
1D8E
330
107B
100
AcDbEntity
  8
DEFPOINTS
 62
     0
100
AcDbPoint
 10
209.5828641985998
 20
46.49089732663504
 30
0.0
  0
POINT
  5
1D8F
330
107B
100
AcDbEntity
  8
DEFPOINTS
 62
     0
100
AcDbPoint
 10
230.5828641985999
 20
38.01818016598821
 30
0.0
  0
POINT
  5
1D90
330
107B
100
AcDbEntity
  8
DEFPOINTS
 62
     0
100
AcDbPoint
 10
230.5828641985999
 20
36.40589234830247
 30
0.0
  0
ENDBLK
  5
118B
330
107B
100
AcDbEntity
  8
0
100
AcDbBlockEnd
  0
BLOCK
  5
119A
330
1199
100
AcDbEntity
  8
0
100
AcDbBlockBegin
  2
*D11
 70
     1
 10
0.0
 20
0.0
 30
0.0
  3
*D11
  1

  0
LINE
  5
1D6D
330
1199
100
AcDbEntity
  8
寸法線
 62
     2
370
    -2
100
AcDbLine
 10
230.5828641985999
 20
153.0741750329272
 30
0.0
 11
230.5828641985999
 21
165.5697673173367
 31
0.0
  0
LINE
  5
1D6E
330
1199
100
AcDbEntity
  8
寸法線
 62
     2
370
    -2
100
AcDbLine
 10
215.5828641985998
 20
143.0741750329273
 30
0.0
 11
215.5828641985998
 21
165.5697673173367
 31
0.0
  0
LINE
  5
1D6F
330
1199
100
AcDbEntity
  8
寸法線
 62
     2
370
    -2
100
AcDbLine
 10
228.0828641985999
 20
164.3197673173367
 30
0.0
 11
218.0828641985998
 21
164.3197673173367
 31
0.0
  0
INSERT
  5
1D70
330
1199
100
AcDbEntity
  8
寸法線
 62
     2
370
    -2
100
AcDbBlockReference
  2
_OPEN
 10
230.5828641985999
 20
164.3197673173367
 30
0.0
 41
2.5
 42
2.5
 43
2.5
  0
INSERT
  5
1D71
330
1199
100
AcDbEntity
  8
寸法線
 62
     2
370
    -2
100
AcDbBlockReference
  2
_OPEN
 10
215.5828641985998
 20
164.3197673173367
 30
0.0
 41
2.5
 42
2.5
 43
2.5
 50
180.0
  0
MTEXT
  5
1D72
330
1199
100
AcDbEntity
  8
寸法線
 62
     6
100
AcDbMText
 10
223.0828641985998
 20
166.1947673173367
 30
0.0
 40
2.5
 41
0.0
 71
     5
 72
     1
  1
\A1;15
  7
STYLE3
 73
     1
 44
1.0
  0
POINT
  5
1D73
330
1199
100
AcDbEntity
  8
DEFPOINTS
 62
     0
100
AcDbPoint
 10
230.5828641985999
 20
153.0741750329272
 30
0.0
  0
POINT
  5
1D74
330
1199
100
AcDbEntity
  8
DEFPOINTS
 62
     0
100
AcDbPoint
 10
215.5828641985998
 20
143.0741750329273
 30
0.0
  0
POINT
  5
1D75
330
1199
100
AcDbEntity
  8
DEFPOINTS
 62
     0
100
AcDbPoint
 10
215.5828641985998
 20
164.3197673173367
 30
0.0
  0
ENDBLK
  5
11A4
330
1199
100
AcDbEntity
  8
0
100
AcDbBlockEnd
  0
ENDSEC
  0
SECTION
  2
ENTITIES
  0
LWPOLYLINE
  5
1A0
330
18
100
AcDbEntity
  8
C
100
AcDbPolyline
 90
        5
 70
     0
 43
0.8
 10
116.1783451412682
 20
195.5341464693471
 10
377.4999999999999
 20
195.5341464693471
 10
377.4999999999999
 20
0.0
 10
116.1783451412682
 20
0.0
 10
116.1783451412682
 20
195.5341464693471
  0
LINE
  5
224
330
18
100
AcDbEntity
  8
外形線
100
AcDbLine
 10
209.5828641985998
 20
155.0741750329273
 30
0.0
 11
209.5828641985998
 21
123.0741750329273
 31
0.0
  0
LINE
  5
225
330
18
100
AcDbEntity
  8
中心線
 48
0.5
100
AcDbLine
 10
262.6828641985998
 20
159.6690581791943
 30
0.0
 11
262.6828641985998
 21
117.6352896091768
 31
0.0
  0
LINE
  5
227
330
18
100
AcDbEntity
  8
中心線
 48
0.5
100
AcDbLine
 10
207.068268916214
 20
139.0741750329273
 30
0.0
 11
293.3679541666122
 21
139.0741750329272
 31
0.0
  0
CIRCLE
  5
228
330
18
100
AcDbEntity
  8
外形線
100
AcDbCircle
 10
262.6828641985998
 20
139.0741750329272
 30
0.0
 40
18.0
  0
LINE
  5
229
330
18
100
AcDbEntity
  8
外形線
100
AcDbLine
 10
231.0828641985998
 20
158.0741750329272
 30
0.0
 11
233.5828641985998
 21
158.0741750329273
 31
0.0
  0
LINE
  5
22A
330
18
100
AcDbEntity
  8
外形線
100
AcDbLine
 10
231.0828641985998
 20
120.0741750329273
 30
0.0
 11
233.5828641985998
 21
120.0741750329272
 31
0.0
  0
LINE
  5
22B
330
18
100
AcDbEntity
  8
外形線
100
AcDbLine
 10
230.5828641985998
 20
153.0741750329272
 30
0.0
 11
230.5828641985998
 21
125.0741750329272
 31
0.0
  0
LINE
  5
22C
330
18
100
AcDbEntity
  8
外形線
100
AcDbLine
 10
233.5828641985998
 20
158.0741750329273
 30
0.0
 11
233.5828641985998
 21
120.0741750329272
 31
0.0
  0
LINE
  5
22D
330
18
100
AcDbEntity
  8
外形線
100
AcDbLine
 10
231.0828641985998
 20
158.0741750329273
 30
0.0
 11
231.0828641985998
 21
120.0741750329273
 31
0.0
  0
LINE
  5
22E
330
18
100
AcDbEntity
  8
外形線
100
AcDbLine
 10
209.5828641985998
 20
155.0741750329273
 30
0.0
 11
228.5828641985998
 21
155.0741750329272
 31
0.0
  0
LINE
  5
22F
330
18
100
AcDbEntity
  8
外形線
100
AcDbLine
 10
209.5828641985998
 20
123.0741750329273
 30
0.0
 11
228.5828641985998
 21
123.0741750329272
 31
0.0
  0
ARC
  5
266
330
18
100
AcDbEntity
  8
外形線
100
AcDbCircle
 10
228.5828641985998
 20
153.0741750329272
 30
0.0
 40
2.0
100
AcDbArc
 50
0.0
 51
89.99999999999998
  0
ARC
  5
267
330
18
100
AcDbEntity
  8
外形線
100
AcDbCircle
 10
228.5828641985998
 20
125.0741750329272
 30
0.0
 40
2.0
100
AcDbArc
 50
270.0
 51
0.0
  0
LINE
  5
26A
330
18
100
AcDbEntity
  8
外形線
100
AcDbLine
 10
285.1828641985997
 20
142.5741750329272
 30
0.0
 11
285.1828641985997
 21
128.5741750329272
 31
0.0
  0
LINE
  5
26B
330
18
100
AcDbEntity
  8
外形線
100
AcDbLine
 10
286.1828641985998
 20
142.5741750329272
 30
0.0
 11
286.1828641985998
 21
128.5741750329272
 31
0.0
  0
LINE
  5
26D
330
18
100
AcDbEntity
  8
外形線
100
AcDbLine
 10
285.1828641985997
 20
128.5741750329272
 30
0.0
 11
286.1828641985998
 21
128.5741750329272
 31
0.0
  0
LINE
  5
26F
330
18
100
AcDbEntity
  8
外形線
100
AcDbLine
 10
285.1828641985997
 20
142.5741750329272
 30
0.0
 11
286.1828641985998
 21
142.5741750329272
 31
0.0
  0
ARC
  5
273
330
18
100
AcDbEntity
  8
外形線
100
AcDbCircle
 10
230.5828641985998
 20
146.5741750329272
 30
0.0
 40
0.5
100
AcDbArc
 50
270.0
 51
0.0000000000000127
  0
ARC
  5
274
330
18
100
AcDbEntity
  8
外形線
100
AcDbCircle
 10
230.5828641985998
 20
131.5741750329272
 30
0.0
 40
0.5
100
AcDbArc
 50
0.0
 51
89.99999999999998
  0
LINE
  5
275
330
18
100
AcDbEntity
  8
外形線
100
AcDbLine
 10
280.5975927759464
 20
140.8241750329272
 30
0.0
 11
285.1828641985997
 21
140.8241750329272
 31
0.0
  0
LINE
  5
276
330
18
100
AcDbEntity
  8
外形線
100
AcDbLine
 10
280.5975927759464
 20
137.3241750329272
 30
0.0
 11
285.1828641985997
 21
137.3241750329272
 31
0.0
  0
LINE
  5
277
330
18
100
AcDbEntity
  8
外形線
100
AcDbLine
 10
287.6828641985998
 20
141.3241750329272
 30
0.0
 11
287.6828641985998
 21
136.8241750329272
 31
0.0
  0
LINE
  5
278
330
18
100
AcDbEntity
  8
外形線
100
AcDbLine
 10
288.6828641985998
 20
140.3741750329272
 30
0.0
 11
288.6828641985998
 21
137.7741750329272
 31
0.0
  0
LINE
  5
279
330
18
100
AcDbEntity
  8
外形線
100
AcDbLine
 10
286.1828641985997
 20
141.3241750329272
 30
0.0
 11
287.6828641985998
 21
141.3241750329272
 31
0.0
  0
LINE
  5
27A
330
18
100
AcDbEntity
  8
外形線
100
AcDbLine
 10
286.1828641985997
 20
136.8241750329272
 30
0.0
 11
287.6828641985998
 21
136.8241750329272
 31
0.0
  0
LINE
  5
27D
330
18
100
AcDbEntity
  8
外形線
100
AcDbLine
 10
287.6828641985998
 20
141.3241750329272
 30
0.0
 11
288.6828641985998
 21
140.3741750329272
 31
0.0
  0
LINE
  5
27E
330
18
100
AcDbEntity
  8
外形線
100
AcDbLine
 10
287.6828641985998
 20
136.8241750329272
 30
0.0
 11
288.6828641985998
 21
137.7741750329272
 31
0.0
  0
ARC
  5
27F
330
18
100
AcDbEntity
  8
外形線
100
AcDbCircle
 10
288.4828641985998
 20
139.0741750329272
 30
0.0
 40
1.199999999999999
100
AcDbArc
 50
279.5940682268597
 51
80.40593177314011
  0
LINE
  5
284
330
18
100
AcDbEntity
  8
0
  6
ByBlock
 62
     2
100
AcDbLine
 10
286.1828641985997
 20
140.8241750329272
 30
0.0
 11
287.6828641985998
 21
140.8241750329272
 31
0.0
  0
LINE
  5
285
330
18
100
AcDbEntity
  8
0
  6
ByBlock
 62
     2
100
AcDbLine
 10
286.1828641985997
 20
140.2241750329272
 30
0.0
 11
287.6828641985998
 21
140.2241750329272
 31
0.0
  0
LINE
  5
286
330
18
100
AcDbEntity
  8
0
  6
ByBlock
 62
     2
100
AcDbLine
 10
286.1828641985997
 20
139.5241750329272
 30
0.0
 11
287.6828641985998
 21
139.5241750329272
 31
0.0
  0
LINE
  5
287
330
18
100
AcDbEntity
  8
0
  6
ByBlock
 62
     2
100
AcDbLine
 10
286.1828641985997
 20
138.6241750329272
 30
0.0
 11
287.6828641985998
 21
138.6241750329272
 31
0.0
  0
LINE
  5
288
330
18
100
AcDbEntity
  8
0
  6
ByBlock
 62
     2
100
AcDbLine
 10
286.1828641985997
 20
137.9241750329272
 30
0.0
 11
287.6828641985998
 21
137.9241750329272
 31
0.0
  0
LINE
  5
289
330
18
100
AcDbEntity
  8
0
  6
ByBlock
 62
     2
100
AcDbLine
 10
286.1828641985997
 20
137.3241750329272
 30
0.0
 11
287.6828641985998
 21
137.3241750329272
 31
0.0
  0
CIRCLE
  5
28A
330
18
100
AcDbEntity
  8
外形線
100
AcDbCircle
 10
262.6828641985998
 20
139.0741750329273
 30
0.0
 40
15.5
  0
LINE
  5
535
330
18
100
AcDbEntity
  8
外形線
100
AcDbLine
 10
244.6828641985997
 20
67.84089732663506
 30
0.0
 11
262.6828641985998
 21
67.840897326635
 31
0.0
  0
LINE
  5
536
330
18
100
AcDbEntity
  8
外形線
100
AcDbLine
 10
244.6828641985997
 20
71.54089732663499
 30
0.0
 11
262.6828641985998
 21
71.54089732663499
 31
0.0
  0
LINE
  5
537
330
18
100
AcDbEntity
  8
外形線
100
AcDbLine
 10
245.6828641985997
 20
72.54089732663499
 30
0.0
 11
262.6828641985998
 21
72.54089732663499
 31
0.0
  0
LINE
  5
538
330
18
100
AcDbEntity
  8
外形線
100
AcDbLine
 10
245.1828641985997
 20
67.34089732663505
 30
0.0
 11
262.6828641985998
 21
67.340897326635
 31
0.0
  0
LINE
  5
545
330
18
100
AcDbEntity
  8
中心線
 48
0.5
100
AcDbLine
 10
292.5100990449447
 20
62.49089732663503
 30
0.0
 11
205.9130150811762
 21
62.49089732663503
 31
0.0
  0
LINE
  5
546
330
18
100
AcDbEntity
  8
外形線
100
AcDbLine
 10
278.6828641985997
 20
56.69089732663502
 30
0.0
 11
246.6828641985997
 21
56.69089732663502
 31
0.0
  0
ARC
  5
547
330
18
100
AcDbEntity
  8
外形線
100
AcDbCircle
 10
262.6828641985998
 20
30.58166778962648
 30
0.0
 40
44.90631295641367
100
AcDbArc
 50
69.12702348699953
 51
110.8729765130005
  0
LINE
  5
559
330
18
100
AcDbEntity
  8
外形線
100
AcDbLine
 10
246.6828641985997
 20
67.34089732663505
 30
0.0
 11
246.6828641985997
 21
56.69089732663502
 31
0.0
  0
LINE
  5
608
330
18
100
AcDbEntity
  8
ﾊｯﾁﾝｸ
100
AcDbLine
 10
248.8828641985998
 20
71.54089732663499
 30
0.0
 11
248.8828641985998
 21
67.840897326635
 31
0.0
  0
LINE
  5
609
330
18
100
AcDbEntity
  8
ﾊｯﾁﾝｸ
100
AcDbLine
 10
247.6828641985997
 20
71.54089732663499
 30
0.0
 11
247.6828641985997
 21
67.840897326635
 31
0.0
  0
LINE
  5
60A
330
18
100
AcDbEntity
  8
ﾊｯﾁﾝｸ
100
AcDbLine
 10
246.5828641985998
 20
71.54089732663499
 30
0.0
 11
246.5828641985998
 21
67.840897326635
 31
0.0
  0
LINE
  5
60B
330
18
100
AcDbEntity
  8
ﾊｯﾁﾝｸ
100
AcDbLine
 10
245.5828641985998
 20
71.54089732663499
 30
0.0
 11
245.5828641985998
 21
67.84089732663506
 31
0.0
  0
LINE
  5
60C
330
18
100
AcDbEntity
  8
外形線
100
AcDbLine
 10
244.6828641985997
 20
71.54089732663499
 30
0.0
 11
244.6828641985997
 21
67.84089732663506
 31
0.0
  0
LINE
  5
60D
330
18
100
AcDbEntity
  8
外形線
100
AcDbLine
 10
245.6828641985997
 20
72.54089732663499
 30
0.0
 11
244.6828641985997
 21
71.54089732663499
 31
0.0
  0
POINT
  5
611
330
18
100
AcDbEntity
  8
DEFPOINTS
  6
ByBlock
 62
     0
100
AcDbPoint
 10
244.6828641985997
 20
71.54089732663499
 30
0.0
  0
POINT
  5
612
330
18
100
AcDbEntity
  8
DEFPOINTS
  6
ByBlock
 62
     0
100
AcDbPoint
 10
244.6828641985997
 20
71.54089732663499
 30
0.0
  0
LINE
  5
613
330
18
100
AcDbEntity
  8
外形線
100
AcDbLine
 10
245.1828641985997
 20
67.34089732663505
 30
0.0
 11
244.6828641985997
 21
67.84089732663506
 31
0.0
  0
POINT
  5
64D
330
18
100
AcDbEntity
  8
DEFPOINTS
  6
ByBlock
 62
     0
100
AcDbPoint
 10
246.6828641985997
 20
56.69089732663502
 30
0.0
  0
LINE
  5
660
330
18
100
AcDbEntity
  8
外形線
100
AcDbLine
 10
278.6828641985998
 20
67.340897326635
 30
0.0
 11
278.6828641985997
 21
56.69089732663502
 31
0.0
  0
LINE
  5
661
330
18
100
AcDbEntity
  8
中心線
 48
0.5
100
AcDbLine
 10
262.6828641985998
 20
78.70576139601064
 30
0.0
 11
262.6828641985997
 21
54.02987401099039
 31
0.0
  0
HATCH
  5
67C
330
18
100
AcDbEntity
  8
ROGO
 62
     4
100
AcDbHatch
 10
0.0
 20
0.0
 30
0.0
210
0.0
220
0.0
230
1.0
  2
SOLID
 70
     1
 71
     1
 91
        2
 92
        5
 93
        6
 72
     1
 10
256.8636884398095
 20
144.17216169197
 11
257.5440423851486
 21
144.17216169197
 72
     1
 10
257.5440423851486
 20
144.17216169197
 11
257.7824471783379
 21
144.6991065322256
 72
     1
 10
257.7824471783379
 20
144.6991065322256
 11
258.4184385758852
 21
144.6991065322256
 72
     4
 94
        3
 73
     0
 74
     0
 95
       18
 96
       14
 40
0.108740278791501
 40
0.108740278791501
 40
0.108740278791501
 40
0.108740278791501
 40
0.6623149649549278
 40
1.384304701649787
 40
2.097394834876493
 40
2.774073369849618
 40
3.428974823686337
 40
4.005208313035923
 40
4.455173659284313
 40
4.720999734343524
 40
5.086034088486724
 40
5.569973738255373
 40
6.060470601257719
 40
6.060470601257719
 40
6.060470601257719
 40
6.060470601257719
 10
258.4184385758852
 20
144.6991065322256
 10
258.463198599728
 20
144.6994398465703
 10
258.5663360722447
 20
144.7002078800992
 10
258.7106245892513
 20
144.7772899764177
 10
258.8474513293341
 20
144.8754869510008
 10
258.9576559603387
 20
144.9981738258297
 10
259.0263167657814
 20
145.1384452480033
 10
259.0369521075193
 20
145.2728825218566
 10
259.0304594926804
 20
145.3792207341361
 10
258.9840664985672
 20
145.4533411080453
 10
258.9358353199139
 20
145.5285657077624
 10
258.847395647419
 20
145.5937280500683
 10
258.7749321416017
 20
145.6222788424558
 10
258.7380829750892
 20
145.6357834444748
 72
     1
 10
258.7380829750892
 20
145.6357834444748
 11
257.5878748711195
 21
145.6357834444748
 72
     1
 10
257.5878748711195
 20
145.6357834444748
 11
256.8636884398095
 21
144.17216169197
 97
        6
330
6D9
330
6F8
330
67F
330
680
330
6E8
330
6E7
 92
       20
 93
        4
 72
     1
 10
257.9296486417535
 20
145.0244651401098
 11
258.0423497492934
 21
145.2735677957855
 72
     1
 10
258.0423497492934
 20
145.2735677957855
 11
258.3319435632576
 21
145.2735677957855
 72
     4
 94
        3
 73
     0
 74
     0
 95
       15
 96
       11
 40
0.0
 40
0.0
 40
0.0
 40
0.0
 40
0.1098284065179782
 40
0.1599041188915469
 40
0.2167433860764834
 40
0.2554649376059976
 40
0.3167034729491553
 40
0.3533836827689055
 40
0.4163149030766253
 40
0.437291989900869
 40
0.437291989900869
 40
0.437291989900869
 40
0.437291989900869
 10
258.3319435632577
 20
145.2735677957855
 10
258.3731929829244
 20
145.2737567401458
 10
258.4332498690772
 20
145.2740318327418
 10
258.4660911134103
 20
145.1997412908927
 10
258.4513701018241
 20
145.1519097711249
 10
258.4328645904788
 20
145.1028017083307
 10
258.4001611607097
 20
145.069432039007
 10
258.3562683677927
 20
145.0372914220992
 10
258.3147875809405
 20
145.0334006565034
 10
258.2878089854688
 20
145.0262522440729
 10
258.2810643333723
 20
145.0244651401098
 72
     1
 10
258.2810643333723
 20
145.0244651401098
 11
257.9296486417535
 21
145.0244651401098
 97
        4
330
6D7
330
6F9
330
6D8
330
6E6
 75
     0
 76
     1
 47
0.0514683685270805
 98
        2
 10
257.5940225549826
 20
145.180558236408
 10
257.5940225549826
 20
145.180558236408
450
        0
451
        0
460
0.0
461
0.0
452
        0
462
0.0
453
        0
470

  0
HATCH
  5
67D
330
18
100
AcDbEntity
  8
針
100
AcDbHatch
 10
0.0
 20
0.0
 30
0.0
210
0.0
220
0.0
230
1.0
  2
SOLID
 70
     1
 71
     0
 91
        1
 92
        7
 72
     1
 73
     1
 93
        7
 10
271.3758935119336
 20
150.92851880884
 42
0.0
 10
271.3233074072992
 20
150.966724850239
 42
0.0
 10
271.2707213026649
 20
151.0049308916381
 42
0.0
 10
263.4731996281001
 20
140.6331150986601
 42
-0.1443545616784134
 10
263.2462557860919
 20
140.4643512516647
 42
-0.1222437615213236
 10
263.8309027752056
 20
140.0395803502034
 42
-0.1443545616783651
 10
263.9212772276564
 20
140.3075676667359
 42
0.0
 97
        0
 75
     0
 76
     1
 47
0.0443407669343012
 98
        1
 10
264.345564809284
 20
141.2200818846694
450
        0
451
        0
460
0.0
461
0.0
452
        0
462
0.0
453
        0
470

  0
LINE
  5
67F
102
{ACAD_REACTORS
330
67C
102
}
330
18
100
AcDbEntity
  8
ROGO
 62
     4
100
AcDbLine
 10
257.5878748711195
 20
145.6357834444748
 30
0.0
 11
256.8636884398094
 21
144.1721616919699
 31
0.0
  0
LINE
  5
680
102
{ACAD_REACTORS
330
67C
330
6FF
102
}
330
18
100
AcDbEntity
  8
ROGO
 62
     4
100
AcDbLine
 10
256.8636884398094
 20
144.17216169197
 30
0.0
 11
266.7709510529579
 21
144.17216169197
 31
0.0
  0
LINE
  5
681
330
18
100
AcDbEntity
  8
針
100
AcDbLine
 10
263.4731996281001
 20
140.63311509866
 30
0.0
 11
271.2707213026649
 21
151.004930891638
 31
0.0
  0
LINE
  5
682
330
18
100
AcDbEntity
  8
針
100
AcDbLine
 10
263.9212772276564
 20
140.3075676667359
 30
0.0
 11
271.3758935119336
 21
150.92851880884
 31
0.0
  0
LINE
  5
6A8
330
18
100
AcDbEntity
  8
針
100
AcDbLine
 10
271.3233074072992
 20
150.966724850239
 30
0.0
 11
271.2707213026649
 21
151.004930891638
 31
0.0
  0
LINE
  5
6A9
330
18
100
AcDbEntity
  8
針
100
AcDbLine
 10
271.3233074072992
 20
150.966724850239
 30
0.0
 11
271.3758935119336
 21
150.92851880884
 31
0.0
  0
CIRCLE
  5
6AA
330
18
100
AcDbEntity
  8
針
100
AcDbCircle
 10
262.6828641985998
 20
139.0741750329273
 30
0.0
 40
1.5
  0
CIRCLE
  5
6AB
330
18
100
AcDbEntity
  8
針
100
AcDbCircle
 10
262.6828641985998
 20
139.0741750329273
 30
0.0
 40
1.299999999999999
  0
CIRCLE
  5
6C0
330
18
100
AcDbEntity
  8
針
100
AcDbCircle
 10
262.6828641985998
 20
139.0741750329273
 30
0.0
 40
0.3
  0
HATCH
  5
6C2
330
18
100
AcDbEntity
  8
ROGO
 62
     4
100
AcDbHatch
 10
0.0
 20
0.0
 30
0.0
210
0.0
220
0.0
230
1.0
  2
SOLID
 70
     1
 71
     0
 91
        1
 92
        7
 72
     0
 73
     1
 93
        4
 10
257.6104164422023
 20
144.3188679155463
 10
257.5440423851486
 20
144.17216169197
 10
266.2316303969888
 20
144.17216169197
 10
266.3047828582339
 20
144.3188679155463
 97
        0
 75
     0
 76
     1
 47
0.0514683685270805
 98
        1
 10
263.1002033745951
 20
144.2800664771499
450
        0
451
        0
460
0.0
461
0.0
452
        0
462
0.0
453
        0
470

  0
SPLINE
  5
6C5
102
{ACAD_REACTORS
330
6FE
102
}
330
18
100
AcDbEntity
  8
ROGO
 62
     4
100
AcDbSpline
210
0.0
220
0.0
230
1.0
 70
     8
 71
     3
 72
    26
 73
    22
 74
    20
 42
0.0000000001
 43
0.0000000001
 44
0.0000000001
 40
0.0
 40
0.0
 40
0.0
 40
0.0
 40
0.169923923071684
 40
0.2836748319958191
 40
0.3656985008505316
 40
0.426942920354356
 40
0.5063801468146631
 40
0.5643615780072894
 40
0.6690625284671952
 40
0.7542875968970452
 40
0.8122542992729588
 40
0.8690936188356241
 40
0.9707681112905712
 40
1.04266411280859
 40
1.081385664338052
 40
1.136388484468192
 40
1.176107255030999
 40
1.233646640341432
 40
1.266208955382537
 40
1.337068205431096
 40
1.369423154551981
 40
1.369423154551981
 40
1.369423154551981
 40
1.369423154551981
 10
265.827234323693
 20
145.6357834444748
 30
0.0
 10
265.7695595187327
 20
145.632342466709
 30
0.0
 10
265.6732758977348
 20
145.6265980207711
 30
0.0
 10
265.5675570675998
 20
145.5623749668002
 30
0.0
 10
265.4901012635231
 20
145.5250385054969
 30
0.0
 10
265.4348598779909
 20
145.4742827672123
 30
0.0
 10
265.3943677184632
 20
145.4218557972008
 30
0.0
 10
265.3433197497793
 20
145.3593894468365
 30
0.0
 10
265.3016915900144
 20
145.2866499096068
 30
0.0
 10
265.2804928989851
 20
145.206478258667
 30
0.0
 10
265.2617152996687
 20
145.1425809876973
 30
0.0
 10
265.2477895176609
 20
145.0713758179654
 30
0.0
 10
265.2513326308375
 20
144.9944491859863
 30
0.0
 10
265.2564065310616
 20
144.9230036684381
 30
0.0
 10
265.2790602617526
 20
144.8720022657698
 30
0.0
 10
265.3048588483424
 20
144.8356927815349
 30
0.0
 10
265.3364488643118
 20
144.7957019100932
 30
0.0
 10
265.3710152499517
 20
144.7692160854327
 30
0.0
 10
265.3996044723804
 20
144.7212352342558
 30
0.0
 10
265.4496489418032
 20
144.7151125316056
 30
0.0
 10
265.4814591975119
 20
144.7029265259491
 30
0.0
 10
265.4914308798312
 20
144.6991065322256
 30
0.0
 11
265.827234323693
 21
145.6357834444748
 31
0.0
 11
265.659332601762
 21
145.6096462792747
 31
0.0
 11
265.5575738494256
 21
145.5588090330473
 31
0.0
 11
265.486342869073
 21
145.5181392692123
 31
0.0
 11
265.4405516499458
 21
145.4774693396425
 31
0.0
 11
265.3896724200604
 21
145.4164646110227
 31
0.0
 11
265.3540569298841
 21
145.3707111059915
 31
0.0
 11
265.303177407433
 21
145.2792039301944
 31
0.0
 11
265.2777379387732
 21
145.1978642367897
 31
0.0
 11
265.2624741990642
 21
145.141943249366
 31
0.0
 11
265.2522981775476
 21
145.0860222619423
 31
0.0
 11
265.2522981775476
 21
144.9843477694874
 31
0.0
 11
265.2624741990642
 21
144.9131755584751
 31
0.0
 11
265.2777379387732
 21
144.8775893701018
 31
0.0
 11
265.3082654181912
 21
144.8318358650704
 31
0.0
 11
265.3337051794169
 21
144.8013334178932
 31
0.0
 11
265.3744083877856
 21
144.7606636540582
 31
0.0
 11
265.394760138253
 21
144.7352449480771
 31
0.0
 11
265.4609034004131
 21
144.7098264078308
 31
0.0
 11
265.4914308798312
 21
144.6991065322256
 31
0.0
  0
LINE
  5
6C6
330
18
100
AcDbEntity
  8
ROGO
 62
     4
100
AcDbLine
 10
257.6002422100174
 20
144.3188679155463
 30
0.0
 11
266.304782858234
 21
144.3188679155463
 31
0.0
  0
HATCH
  5
6C8
330
18
100
AcDbEntity
  8
ROGO
 62
     4
100
AcDbHatch
 10
0.0
 20
0.0
 30
0.0
210
0.0
220
0.0
230
1.0
  2
SOLID
 70
     1
 71
     1
 91
        2
 92
        5
 93
        6
 72
     4
 94
        3
 73
     0
 74
     0
 95
       38
 96
       34
 40
0.0
 40
0.0
 40
0.0
 40
0.0
 40
0.1289432887572924
 40
0.1694386997662278
 40
0.2214725495874597
 40
0.2648341759812058
 40
0.3014202876682181
 40
0.3500149933853041
 40
0.3748449727639675
 40
0.4028100471116744
 40
0.4440253042547587
 40
0.4907132471595681
 40
0.5209992584847614
 40
0.5539000270224685
 40
0.5904729795074081
 40
0.6459742881243522
 40
0.6987063191840686
 40
0.7232211772574128
 40
0.7511770934373995
 40
0.7842956220194898
 40
0.8078717585222513
 40
0.8276353506511089
 40
0.8558532954253623
 40
0.8868599830266534
 40
0.917866497987717
 40
0.9449972417387188
 40
1.007131467490311
 40
1.031646325563656
 40
1.08067607083041
 40
1.124016184538856
 40
1.20698758300394
 40
1.309365697628525
 40
1.457214593109345
 40
1.457214593109345
 40
1.457214593109345
 40
1.457214593109345
 10
264.2673663918701
 20
145.6396903892626
 10
264.2243857288214
 20
145.6366541083896
 10
264.1679067314867
 20
145.6326642653493
 10
264.0961916109358
 20
145.613016460433
 10
264.0570989358079
 20
145.5896095979858
 10
264.0164151935309
 20
145.5724044321254
 10
263.9817285141387
 20
145.5469269933477
 10
263.9466436702244
 20
145.5337987146017
 10
263.92207618851
 20
145.5101260814647
 10
263.8936413323576
 20
145.4956658154155
 10
263.8709981515566
 20
145.4632995360888
 10
263.8456894976792
 20
145.4330382377713
 10
263.8163282752379
 20
145.4109488396024
 10
263.7922311259263
 20
145.3877485087351
 10
263.7701253421095
 20
145.3519434273005
 10
263.7570421498724
 20
145.3043690764667
 10
263.7201628269951
 20
145.2743323470642
 10
263.7146099556494
 20
145.2382192360159
 10
263.6942108775317
 20
145.2169131081918
 10
263.6853406449219
 20
145.1894099580624
 10
263.6819624333763
 20
145.1642122144718
 10
263.6779077739871
 20
145.1406792662798
 10
263.66730155292
 20
145.1159236443033
 10
263.6707634600701
 20
145.085343927194
 10
263.6697772666567
 20
145.0557325721267
 10
263.6703576426381
 20
145.0157563207099
 10
263.6682629853438
 20
144.9768345239019
 10
263.684967056413
 20
144.9344783773982
 10
263.694851971323
 20
144.8967237325718
 10
263.7219234188025
 20
144.8444478485409
 10
263.7686210983858
 20
144.7841327814846
 10
263.8574206422847
 20
144.7109217177661
 10
263.9428040000159
 20
144.703494796141
 10
263.9932535303352
 20
144.6991065322256
 72
     1
 10
263.9932535303353
 20
144.6991065322256
 11
264.5285583192658
 21
144.6991065322256
 72
     4
 94
        3
 73
     0
 74
     0
 95
       11
 96
        7
 40
0.1647869275458135
 40
0.1647869275458135
 40
0.1647869275458135
 40
0.1647869275458135
 40
0.2545010798212315
 40
0.5111620267764023
 40
0.7602998271033902
 40
0.8850764140209603
 40
0.8850764140209603
 40
0.8850764140209603
 40
0.8850764140209603
 10
264.5285583192655
 20
144.6991065322256
 10
264.5360280105606
 20
144.6989625754932
 10
264.5648675525722
 20
144.6984067765897
 10
264.6141546755636
 20
144.7054874512365
 10
264.6660112948465
 20
144.7122727191703
 10
264.6969267892594
 20
144.7172142250598
 10
264.7068977970315
 20
144.7199896588736
 72
     4
 94
        3
 73
     0
 74
     0
 95
        9
 96
        5
 40
0.0
 40
0.0
 40
0.0
 40
0.0
 40
0.0810170589120836
 40
0.1899495518469247
 40
0.1899495518469247
 40
0.1899495518469247
 40
0.1899495518469247
 10
264.7068977970315
 20
144.7199896588736
 10
264.7329228203722
 20
144.7279518461859
 10
264.7939401121224
 20
144.7466196913536
 10
264.844354372571
 20
144.7860744155175
 10
264.8732660020891
 20
144.8087009572462
 72
     4
 94
        3
 73
     0
 74
     0
 95
       25
 96
       21
 40
0.0
 40
0.0
 40
0.0
 40
0.0
 40
0.165525918914855
 40
0.3412380755365305
 40
0.5940540902285263
 40
0.7697671103696209
 40
0.9377330196075423
 40
1.11479469302833
 40
1.274661249598185
 40
1.574522170874768
 40
1.815540668866877
 40
2.15849091873445
 40
2.536227739636605
 40
2.738070817316548
 40
2.925680654369045
 40
3.162706124480894
 40
3.395643218188267
 40
3.648478129958861
 40
3.928509979727306
 40
4.337226830236035
 40
4.337226830236035
 40
4.337226830236035
 40
4.337226830236035
 10
264.8732660020891
 20
144.8087009572462
 10
264.8838890552022
 20
144.8174794573574
 10
264.9040380825302
 20
144.8383580732683
 10
264.9397757003236
 20
144.8721976578898
 10
264.9712683668226
 20
144.9116234593216
 10
265.0101168382673
 20
144.9435766896476
 10
265.0303412310434
 20
144.9826418823746
 10
265.0594930967713
 20
145.0133658243639
 10
265.0839467384661
 20
145.0608159221377
 10
265.1046944448495
 20
145.1153210529646
 10
265.1244745179819
 20
145.1863674551586
 10
265.1320544460624
 20
145.2665183573799
 10
265.1208352098603
 20
145.3440643150551
 10
265.0937323713098
 20
145.4020273712259
 10
265.0738067082344
 20
145.4503336046862
 10
265.0435670181707
 20
145.4960881132504
 10
265.0090676189068
 20
145.5458512012258
 10
264.9604640742851
 20
145.5870133314232
 10
264.8969442317049
 20
145.6366614933673
 10
264.8377802413317
 20
145.6385623713581
 10
264.8026711808004
 20
145.6396903892626
 72
     1
 10
264.8026711808005
 20
145.6396903892626
 11
264.2673663918701
 21
145.6396903892626
 97
        6
330
6D5
330
6FA
330
6D6
330
6EB
330
6EA
330
6E9
 92
       20
 93
        1
 72
     3
 10
264.3903823612541
 20
145.1562843503222
 11
0.1271719266505756
 21
0.111831795984511
 40
0.678808341743879
 50
0.0
 51
360.0
 73
     1
 97
        1
330
6CC
 75
     0
 76
     1
 47
0.088756267210375
 98
        2
 10
264.4277820148257
 20
145.3798973587294
 10
264.4277820148257
 20
145.3798973587294
450
        0
451
        0
460
0.0
461
0.0
452
        0
462
0.0
453
        0
470

  0
HATCH
  5
6C9
330
18
100
AcDbEntity
  8
ROGO
 62
     4
100
AcDbHatch
 10
0.0
 20
0.0
 30
0.0
210
0.0
220
0.0
230
1.0
  2
SOLID
 70
     1
 71
     1
 91
        1
 92
        1
 93
       12
 72
     1
 10
259.4175973833819
 20
145.6357834444748
 11
260.6844918751525
 21
145.6357834444748
 72
     1
 10
260.6844918751525
 20
145.6357834444748
 11
260.5783272381398
 21
145.4212187062243
 72
     1
 10
260.5783272381398
 20
145.4212187062243
 11
259.9124795069785
 21
145.4212187062243
 72
     1
 10
259.9124795069785
 20
145.4212187062243
 11
259.8294719534592
 21
145.2534557439533
 72
     1
 10
259.8294719534592
 20
145.2534557439533
 11
260.4953196846205
 21
145.2534557439533
 72
     1
 10
260.4953196846205
 20
145.2534557439533
 11
260.4102032146343
 21
145.0814305421793
 72
     1
 10
260.4102032146343
 20
145.0814305421793
 11
259.7443554834731
 21
145.0814305421793
 72
     1
 10
259.7443554834731
 20
145.0814305421793
 11
259.661344415813
 21
144.913660477631
 72
     1
 10
259.6613444158131
 20
144.913660477631
 11
260.3271921469743
 21
144.913660477631
 72
     1
 10
260.3271921469743
 20
144.913660477631
 11
260.2210328501609
 21
144.6991065322256
 72
     1
 10
260.2210328501609
 20
144.6991065322256
 11
258.9541383583904
 21
144.6991065322256
 72
     1
 10
258.9541383583904
 20
144.6991065322256
 11
259.4175973833819
 21
145.6357834444748
 97
       12
330
6F5
330
6F7
330
6F6
330
6D3
330
6E3
330
6E0
330
6E1
330
6DE
330
6E2
330
6DF
330
6E4
330
6D4
 75
     0
 76
     1
 98
        1
 10
207.5956720933886
 20
80.86876628944933
450
        0
451
        0
460
0.0
461
0.0
452
        0
462
0.0
453
        0
470

  0
HATCH
  5
6CA
330
18
100
AcDbEntity
  8
ROGO
 62
     4
100
AcDbHatch
 10
0.0
 20
0.0
 30
0.0
210
0.0
220
0.0
230
1.0
  2
SOLID
 70
     1
 71
     1
 91
        2
 92
        7
 72
     0
 73
     1
 93
        8
 10
261.8007461106474
 20
145.6357834444748
 10
261.0514848006712
 20
145.6357834444748
 10
260.3760288751447
 20
144.6991065322256
 10
260.8947802287115
 20
144.6991065322256
 10
261.0233828577524
 20
144.8774440209126
 10
261.6153408338391
 20
144.8774440209126
 10
261.6945654127822
 20
144.6991065322256
 10
262.2168551100793
 20
144.6991065322256
 97
        8
330
6F4
330
6D2
330
6E5
330
6DD
330
6DB
330
6EE
330
6EF
330
6D0
 92
       22
 72
     0
 73
     1
 93
        3
 10
261.3896840400899
 20
145.3854058988954
 10
261.5317802814235
 20
145.0655419479684
 10
261.1590239285931
 20
145.0655419479684
 97
        3
330
6DA
330
6D1
330
6CF
 75
     0
 76
     1
 47
0.0128389261915577
 98
        2
 10
261.7420730297654
 20
145.411061494141
 10
261.7420730297654
 20
145.411061494141
450
        0
451
        0
460
0.0
461
0.0
452
        0
462
0.0
453
        0
470

  0
HATCH
  5
6CB
330
18
100
AcDbEntity
  8
ROGO
 62
     4
100
AcDbHatch
 10
0.0
 20
0.0
 30
0.0
210
0.0
220
0.0
230
1.0
  2
SOLID
 70
     1
 71
     1
 91
        1
 92
        5
 93
        8
 72
     1
 10
263.5734284463308
 20
145.2872789034579
 11
263.7472040661308
 21
145.6357834444748
 72
     1
 10
263.7472040661308
 20
145.6357834444748
 11
262.8091779947079
 21
145.6357834444748
 72
     4
 94
        3
 73
     0
 74
     0
 95
       26
 96
       22
 40
0.0
 40
0.0
 40
0.0
 40
0.0
 40
0.169923923071684
 40
0.2836748319958191
 40
0.3656985008506303
 40
0.4269429203543698
 40
0.5063801468146404
 40
0.5643615780073365
 40
0.6690625284672147
 40
0.7542875968970275
 40
0.812254299272981
 40
0.869093618835636
 40
0.9707681112905831
 40
1.042664112808594
 40
1.081385664337981
 40
1.136388484468232
 40
1.17610725503093
 40
1.233646640341443
 40
1.266208955382583
 40
1.337068205431089
 40
1.369423154551975
 40
1.369423154551975
 40
1.369423154551975
 40
1.369423154551975
 10
262.809177994708
 20
145.6357834444748
 10
262.7515031897476
 20
145.632342466709
 10
262.6552195687497
 20
145.6265980207712
 10
262.5495007386147
 20
145.5623749668002
 10
262.472044934538
 20
145.525038505497
 10
262.4168035490058
 20
145.4742827672123
 10
262.3763113894784
 20
145.4218557972008
 10
262.3252634207942
 20
145.3593894468366
 10
262.2836352610295
 20
145.2866499096068
 10
262.2624365700001
 20
145.206478258667
 10
262.2436589706836
 20
145.1425809876973
 10
262.2297331886761
 20
145.0713758179654
 10
262.2332763018526
 20
144.9944491859863
 10
262.2383502020765
 20
144.9230036684381
 10
262.2610039327675
 20
144.8720022657698
 10
262.2868025193574
 20
144.8356927815349
 10
262.3183925353266
 20
144.7957019100931
 10
262.3529589209669
 20
144.7692160854328
 10
262.3815481433953
 20
144.7212352342558
 10
262.4315926128182
 20
144.7151125316056
 10
262.4634028685268
 20
144.7029265259491
 10
262.4733745508462
 20
144.6991065322256
 72
     1
 10
262.4733745508462
 20
144.6991065322256
 11
263.2801467058353
 21
144.6991065322256
 72
     1
 10
263.2801467058353
 20
144.6991065322256
 11
263.4539204853987
 21
145.0476073826746
 72
     1
 10
263.4539204853987
 20
145.0476073826746
 11
262.8549692138351
 21
145.0476073826746
 72
     4
 94
        3
 73
     0
 74
     0
 95
       16
 96
       12
 40
0.0
 40
0.0
 40
0.0
 40
0.0
 40
0.0513165732836104
 40
0.1031624397428017
 40
0.1340861689273908
 40
0.1637356607215318
 40
0.1962978463875485
 40
0.2190368482720252
 40
0.2406141875624815
 40
0.2843699337995687
 40
0.373954798917159
 40
0.373954798917159
 40
0.373954798917159
 40
0.373954798917159
 10
262.8549692138351
 20
145.0476073826746
 10
262.8369027327474
 20
145.0529228063128
 10
262.8005834279437
 20
145.0636084783227
 10
262.7975437954166
 20
145.1154086906273
 10
262.8016848549763
 20
145.1523205806912
 10
262.8190276216611
 20
145.1791945921734
 10
262.8400674057126
 20
145.1987489714411
 10
262.8479014504554
 20
145.2242154929906
 10
262.8709289112205
 20
145.2434459029002
 10
262.9117627692392
 20
145.2757695356481
 10
262.9569179474479
 20
145.2826537471988
 10
262.9872554455896
 20
145.287278903458
 72
     1
 10
262.9872554455896
 20
145.287278903458
 11
263.5734284463308
 21
145.2872789034579
 97
        8
330
6FB
330
6CE
330
6F2
330
6EC
330
6F3
330
6CD
330
6FC
330
6FD
 75
     0
 76
     1
 47
0.0514683685270805
 98
        1
 10
263.1372404416948
 20
145.4272681825692
450
        0
451
        0
460
0.0
461
0.0
452
        0
462
0.0
453
        0
470

  0
ELLIPSE
  5
6CC
102
{ACAD_REACTORS
330
6C8
102
}
330
18
100
AcDbEntity
  8
ROGO
 62
     4
100
AcDbEllipse
 10
264.3903823612541
 20
145.1562843503222
 30
0.0
 11
0.1271719266505756
 21
0.111831795984511
 31
0.0
210
0.0
220
0.0
230
1.0
 40
0.678808341743879
 41
0.0
 42
6.283185307179586
  0
SPLINE
  5
6CD
102
{ACAD_REACTORS
330
6CB
102
}
330
18
100
AcDbEntity
  8
ROGO
 62
     4
100
AcDbSpline
210
0.0
220
0.0
230
1.0
 70
     8
 71
     3
 72
    16
 73
    12
 74
    10
 42
0.0000000001
 43
0.0000000001
 44
0.0000000001
 40
0.0
 40
0.0
 40
0.0
 40
0.0
 40
0.0895848651175904
 40
0.1333406113546774
 40
0.1549179506451338
 40
0.1776569525296104
 40
0.2102191381956272
 40
0.2398686299897681
 40
0.2707923591743572
 40
0.3226382256335486
 40
0.373954798917159
 40
0.373954798917159
 40
0.373954798917159
 40
0.373954798917159
 10
262.9872554455896
 20
145.287278903458
 30
0.0
 10
262.9569179474479
 20
145.2826537471988
 30
0.0
 10
262.9117627692392
 20
145.2757695356481
 30
0.0
 10
262.8709289112205
 20
145.2434459029002
 30
0.0
 10
262.8479014504554
 20
145.2242154929906
 30
0.0
 10
262.8400674057126
 20
145.1987489714411
 30
0.0
 10
262.8190276216611
 20
145.1791945921734
 30
0.0
 10
262.8016848549763
 20
145.1523205806912
 30
0.0
 10
262.7975437954166
 20
145.1154086906273
 30
0.0
 10
262.8005834279437
 20
145.0636084783227
 30
0.0
 10
262.8369027327474
 20
145.0529228063128
 30
0.0
 10
262.8549692138351
 20
145.0476073826746
 30
0.0
 11
262.9872554455896
 21
145.287278903458
 31
0.0
 11
262.9007607255279
 21
145.2639527066058
 31
0.0
 11
262.8651452353516
 21
145.2385341663593
 31
0.0
 11
262.8498814956426
 21
145.2232829427707
 31
0.0
 11
262.839705474126
 21
145.2029479779859
 31
0.0
 11
262.8193537236587
 21
145.1775294377394
 31
0.0
 11
262.8040899839497
 21
145.1521107317585
 31
0.0
 11
262.7990019731914
 21
145.1216084503158
 31
0.0
 11
262.809177994708
 21
145.0707710383538
 31
0.0
 11
262.8549692138351
 21
145.0476073826746
 31
0.0
  0
SPLINE
  5
6CE
102
{ACAD_REACTORS
330
6CB
102
}
330
18
100
AcDbEntity
  8
ROGO
 62
     4
100
AcDbSpline
210
0.0
220
0.0
230
1.0
 70
     8
 71
     3
 72
    26
 73
    22
 74
    20
 42
0.0000000001
 43
0.0000000001
 44
0.0000000001
 40
0.0
 40
0.0
 40
0.0
 40
0.0
 40
0.169923923071684
 40
0.2836748319958191
 40
0.3656985008506303
 40
0.4269429203543698
 40
0.5063801468146404
 40
0.5643615780073365
 40
0.6690625284672147
 40
0.7542875968970275
 40
0.812254299272981
 40
0.869093618835636
 40
0.9707681112905831
 40
1.042664112808594
 40
1.081385664337981
 40
1.136388484468232
 40
1.17610725503093
 40
1.233646640341443
 40
1.266208955382583
 40
1.337068205431089
 40
1.369423154551975
 40
1.369423154551975
 40
1.369423154551975
 40
1.369423154551975
 10
262.809177994708
 20
145.6357834444748
 30
0.0
 10
262.7515031897476
 20
145.632342466709
 30
0.0
 10
262.6552195687497
 20
145.6265980207712
 30
0.0
 10
262.5495007386147
 20
145.5623749668002
 30
0.0
 10
262.472044934538
 20
145.525038505497
 30
0.0
 10
262.4168035490058
 20
145.4742827672123
 30
0.0
 10
262.3763113894784
 20
145.4218557972008
 30
0.0
 10
262.3252634207942
 20
145.3593894468366
 30
0.0
 10
262.2836352610295
 20
145.2866499096068
 30
0.0
 10
262.2624365700001
 20
145.206478258667
 30
0.0
 10
262.2436589706836
 20
145.1425809876973
 30
0.0
 10
262.2297331886761
 20
145.0713758179654
 30
0.0
 10
262.2332763018526
 20
144.9944491859863
 30
0.0
 10
262.2383502020765
 20
144.9230036684381
 30
0.0
 10
262.2610039327675
 20
144.8720022657698
 30
0.0
 10
262.2868025193574
 20
144.8356927815349
 30
0.0
 10
262.3183925353266
 20
144.7957019100931
 30
0.0
 10
262.3529589209669
 20
144.7692160854328
 30
0.0
 10
262.3815481433953
 20
144.7212352342558
 30
0.0
 10
262.4315926128182
 20
144.7151125316056
 30
0.0
 10
262.4634028685268
 20
144.7029265259491
 30
0.0
 10
262.4733745508462
 20
144.6991065322256
 30
0.0
 11
262.809177994708
 21
145.6357834444748
 31
0.0
 11
262.641276272777
 21
145.6096462792747
 31
0.0
 11
262.5395175204405
 21
145.5588090330473
 31
0.0
 11
262.4682865400878
 21
145.5181392692123
 31
0.0
 11
262.4224953209608
 21
145.4774693396425
 31
0.0
 11
262.3716160910754
 21
145.4164646110227
 31
0.0
 11
262.336000600899
 21
145.3707111059915
 31
0.0
 11
262.2851210784479
 21
145.2792039301944
 31
0.0
 11
262.259681609788
 21
145.1978642367897
 31
0.0
 11
262.2444178700791
 21
145.141943249366
 31
0.0
 11
262.2342418485626
 21
145.0860222619423
 31
0.0
 11
262.2342418485626
 21
144.9843477694874
 31
0.0
 11
262.2444178700791
 21
144.9131755584751
 31
0.0
 11
262.259681609788
 21
144.8775893701018
 31
0.0
 11
262.2902090892062
 21
144.8318358650704
 31
0.0
 11
262.3156488504317
 21
144.8013334178932
 31
0.0
 11
262.3563520588005
 21
144.7606636540582
 31
0.0
 11
262.376703809268
 21
144.7352449480771
 31
0.0
 11
262.442847071428
 21
144.7098264078308
 31
0.0
 11
262.4733745508462
 21
144.6991065322256
 31
0.0
  0
LINE
  5
6CF
102
{ACAD_REACTORS
330
6CA
102
}
330
18
100
AcDbEntity
  8
ROGO
 62
     4
100
AcDbLine
 10
261.3896840400899
 20
145.3854058988954
 30
0.0
 11
261.5317802814235
 21
145.0655419479684
 31
0.0
  0
LINE
  5
6D0
102
{ACAD_REACTORS
330
6CA
102
}
330
18
100
AcDbEntity
  8
ROGO
 62
     4
100
AcDbLine
 10
261.8007461106474
 20
145.6357834444748
 30
0.0
 11
262.2168551100793
 21
144.6991065322256
 31
0.0
  0
LINE
  5
6D1
102
{ACAD_REACTORS
330
6CA
102
}
330
18
100
AcDbEntity
  8
ROGO
 62
     4
100
AcDbLine
 10
261.3896840400899
 20
145.3854058988954
 30
0.0
 11
261.159023928593
 21
145.0655419479684
 31
0.0
  0
LINE
  5
6D2
102
{ACAD_REACTORS
330
6CA
102
}
330
18
100
AcDbEntity
  8
ROGO
 62
     4
100
AcDbLine
 10
261.0514848006711
 20
145.6357834444748
 30
0.0
 11
260.3760288751447
 21
144.6991065322256
 31
0.0
  0
LINE
  5
6D3
102
{ACAD_REACTORS
330
6C9
102
}
330
18
100
AcDbEntity
  8
ROGO
 62
     4
100
AcDbLine
 10
259.9124795069785
 20
145.4212187062243
 30
0.0
 11
259.8294719534592
 21
145.2534557439533
 31
0.0
  0
LINE
  5
6D4
102
{ACAD_REACTORS
330
6C9
102
}
330
18
100
AcDbEntity
  8
ROGO
 62
     4
100
AcDbLine
 10
259.4175973833819
 20
145.6357834444748
 30
0.0
 11
258.9541383583904
 21
144.6991065322256
 31
0.0
  0
SPLINE
  5
6D5
102
{ACAD_REACTORS
330
6C8
102
}
330
18
100
AcDbEntity
  8
ROGO
 62
     4
100
AcDbSpline
210
0.0
220
0.0
230
1.0
 70
     8
 71
     3
 72
    25
 73
    21
 74
     0
 42
0.0000000001
 43
0.0000000001
 40
0.0
 40
0.0
 40
0.0
 40
0.0
 40
0.4087168505087288
 40
0.6887487002771746
 40
0.9415836120477687
 40
1.17452070575514
 40
1.41154617586699
 40
1.599156012919487
 40
1.80099909059943
 40
2.178735911501585
 40
2.521686161369157
 40
2.762704659361267
 40
3.06256558063785
 40
3.222432137207705
 40
3.399493810628493
 40
3.567459719866414
 40
3.743172740007509
 40
3.995988754699505
 40
4.17170091132118
 40
4.337226830236035
 40
4.337226830236035
 40
4.337226830236035
 40
4.337226830236035
 10
264.8026711808004
 20
145.6396903892626
 30
0.0
 10
264.8377802413317
 20
145.6385623713581
 30
0.0
 10
264.8969442317049
 20
145.6366614933673
 30
0.0
 10
264.9604640742851
 20
145.5870133314232
 30
0.0
 10
265.0090676189068
 20
145.5458512012258
 30
0.0
 10
265.0435670181707
 20
145.4960881132504
 30
0.0
 10
265.0738067082344
 20
145.4503336046862
 30
0.0
 10
265.0937323713098
 20
145.4020273712259
 30
0.0
 10
265.1208352098603
 20
145.3440643150551
 30
0.0
 10
265.1320544460624
 20
145.2665183573799
 30
0.0
 10
265.1244745179819
 20
145.1863674551586
 30
0.0
 10
265.1046944448495
 20
145.1153210529646
 30
0.0
 10
265.0839467384661
 20
145.0608159221377
 30
0.0
 10
265.0594930967713
 20
145.0133658243639
 30
0.0
 10
265.0303412310434
 20
144.9826418823746
 30
0.0
 10
265.0101168382673
 20
144.9435766896476
 30
0.0
 10
264.9712683668226
 20
144.9116234593216
 30
0.0
 10
264.9397757003236
 20
144.8721976578898
 30
0.0
 10
264.9040380825302
 20
144.8383580732683
 30
0.0
 10
264.8838890552022
 20
144.8174794573574
 30
0.0
 10
264.8732660020891
 20
144.8087009572462
 30
0.0
  0
SPLINE
  5
6D6
102
{ACAD_REACTORS
330
6C8
102
}
330
18
100
AcDbEntity
  8
ROGO
 62
     4
100
AcDbSpline
210
0.0
220
0.0
230
1.0
 70
     8
 71
     3
 72
    38
 73
    34
 74
    32
 42
0.0000000001
 43
0.0000000001
 44
0.0000000001
 40
0.0
 40
0.0
 40
0.0
 40
0.0
 40
0.1289432887572924
 40
0.1694386997662278
 40
0.2214725495874597
 40
0.2648341759812058
 40
0.3014202876682181
 40
0.3500149933853041
 40
0.3748449727639675
 40
0.4028100471116744
 40
0.4440253042547587
 40
0.4907132471595681
 40
0.5209992584847614
 40
0.5539000270224685
 40
0.5904729795074081
 40
0.6459742881243522
 40
0.6987063191840686
 40
0.7232211772574128
 40
0.7511770934373995
 40
0.7842956220194898
 40
0.8078717585222513
 40
0.8276353506511089
 40
0.8558532954253623
 40
0.8868599830266534
 40
0.917866497987717
 40
0.9449972417387188
 40
1.007131467490311
 40
1.031646325563656
 40
1.08067607083041
 40
1.124016184538856
 40
1.20698758300394
 40
1.309365697628525
 40
1.457214593109345
 40
1.457214593109345
 40
1.457214593109345
 40
1.457214593109345
 10
264.2673663918701
 20
145.6396903892626
 30
0.0
 10
264.2243857288214
 20
145.6366541083896
 30
0.0
 10
264.1679067314867
 20
145.6326642653493
 30
0.0
 10
264.0961916109358
 20
145.613016460433
 30
0.0
 10
264.0570989358079
 20
145.5896095979858
 30
0.0
 10
264.0164151935309
 20
145.5724044321254
 30
0.0
 10
263.9817285141387
 20
145.5469269933477
 30
0.0
 10
263.9466436702244
 20
145.5337987146017
 30
0.0
 10
263.92207618851
 20
145.5101260814647
 30
0.0
 10
263.8936413323576
 20
145.4956658154155
 30
0.0
 10
263.8709981515566
 20
145.4632995360888
 30
0.0
 10
263.8456894976792
 20
145.4330382377713
 30
0.0
 10
263.8163282752379
 20
145.4109488396024
 30
0.0
 10
263.7922311259263
 20
145.3877485087351
 30
0.0
 10
263.7701253421095
 20
145.3519434273005
 30
0.0
 10
263.7570421498724
 20
145.3043690764667
 30
0.0
 10
263.7201628269951
 20
145.2743323470642
 30
0.0
 10
263.7146099556494
 20
145.2382192360159
 30
0.0
 10
263.6942108775317
 20
145.2169131081918
 30
0.0
 10
263.6853406449219
 20
145.1894099580624
 30
0.0
 10
263.6819624333763
 20
145.1642122144718
 30
0.0
 10
263.6779077739871
 20
145.1406792662798
 30
0.0
 10
263.66730155292
 20
145.1159236443033
 30
0.0
 10
263.6707634600701
 20
145.085343927194
 30
0.0
 10
263.6697772666567
 20
145.0557325721267
 30
0.0
 10
263.6703576426381
 20
145.0157563207099
 30
0.0
 10
263.6682629853438
 20
144.9768345239019
 30
0.0
 10
263.684967056413
 20
144.9344783773982
 30
0.0
 10
263.694851971323
 20
144.8967237325718
 30
0.0
 10
263.7219234188025
 20
144.8444478485409
 30
0.0
 10
263.7686210983858
 20
144.7841327814846
 30
0.0
 10
263.8574206422847
 20
144.7109217177661
 30
0.0
 10
263.9428040000159
 20
144.703494796141
 30
0.0
 10
263.9932535303352
 20
144.6991065322256
 30
0.0
 11
264.2673663918701
 21
145.6396903892626
 31
0.0
 11
264.1393585195729
 21
145.6241869591419
 31
0.0
 11
264.1005682644755
 21
145.6125596455116
 31
0.0
 11
264.0540201412122
 21
145.5893046729707
 31
0.0
 11
264.0152298861148
 21
145.56992564428
 31
0.0
 11
263.9841978039392
 21
145.5505464429492
 31
0.0
 11
263.9415286147588
 21
145.5272916430485
 31
0.0
 11
263.9221333348321
 21
145.511788385568
 31
0.0
 11
263.8988591208225
 21
145.4962849554472
 31
0.0
 11
263.8717059727299
 21
145.4652784404862
 31
0.0
 11
263.8406738905544
 21
145.4303961543149
 31
0.0
 11
263.8173996765446
 21
145.4110169529841
 31
0.0
 11
263.794125767291
 21
145.3877621530834
 31
0.0
 11
263.7747304873642
 21
145.3567556381223
 31
0.0
 11
263.7514565781106
 21
145.3063699218304
 31
0.0
 11
263.720424191179
 21
145.2637359205989
 31
0.0
 11
263.7126663230132
 21
145.240480948058
 31
0.0
 11
263.6971502819254
 21
145.2172261481572
 31
0.0
 11
263.6855131749205
 21
145.186219460556
 31
0.0
 11
263.6816339360816
 21
145.1629646606552
 31
0.0
 11
263.6777550019987
 21
145.1435854593245
 31
0.0
 11
263.6699971338327
 21
145.1164548882136
 31
0.0
 11
263.6699971338327
 21
145.0854482006123
 31
0.0
 11
263.6699971338327
 21
145.0544416856512
 31
0.0
 11
263.6699971338327
 21
145.0273109419002
 31
0.0
 11
263.6738760679157
 21
144.9652979119781
 31
0.0
 11
263.6816339360816
 21
144.9420429394372
 31
0.0
 11
263.6971502819254
 21
144.8955331669955
 31
0.0
 11
263.7165452570961
 21
144.8567749369741
 31
0.0
 11
263.7669726191983
 21
144.7908861358417
 31
0.0
 11
263.8484320634762
 21
144.7288729332795
 31
0.0
 11
263.9932535303352
 21
144.6991065322256
 31
0.0
  0
LINE
  5
6D7
102
{ACAD_REACTORS
330
67C
102
}
330
18
100
AcDbEntity
  8
ROGO
 62
     4
100
AcDbLine
 10
258.0423497492934
 20
145.2735677957855
 30
0.0
 11
257.9296486417535
 21
145.0244651401098
 31
0.0
  0
SPLINE
  5
6D8
102
{ACAD_REACTORS
330
67C
102
}
330
18
100
AcDbEntity
  8
ROGO
 62
     4
100
AcDbSpline
210
0.0
220
0.0
230
1.0
 70
     8
 71
     3
 72
    15
 73
    11
 74
     9
 42
0.0000000001
 43
0.0000000001
 44
0.0000000001
 40
0.0
 40
0.0
 40
0.0
 40
0.0
 40
0.1098284065179782
 40
0.1599041188915469
 40
0.2167433860764834
 40
0.2554649376059976
 40
0.3167034729491553
 40
0.3533836827689055
 40
0.4163149030766253
 40
0.437291989900869
 40
0.437291989900869
 40
0.437291989900869
 40
0.437291989900869
 10
258.3319435632577
 20
145.2735677957855
 30
0.0
 10
258.3731929829244
 20
145.2737567401458
 30
0.0
 10
258.4332498690772
 20
145.2740318327418
 30
0.0
 10
258.4660911134103
 20
145.1997412908927
 30
0.0
 10
258.4513701018241
 20
145.1519097711249
 30
0.0
 10
258.4328645904788
 20
145.1028017083307
 30
0.0
 10
258.4001611607097
 20
145.069432039007
 30
0.0
 10
258.3562683677927
 20
145.0372914220992
 30
0.0
 10
258.3147875809405
 20
145.0334006565034
 30
0.0
 10
258.2878089854688
 20
145.0262522440729
 30
0.0
 10
258.2810643333723
 20
145.0244651401098
 30
0.0
 11
258.3319435632577
 21
145.2735677957855
 31
0.0
 11
258.4387900337867
 21
145.2481490898044
 31
0.0
 11
258.459141784254
 21
145.2023955847732
 31
0.0
 11
258.4489660553032
 21
145.1464745973495
 31
0.0
 11
258.4337023155942
 21
145.1108884089761
 31
0.0
 11
258.3929988146596
 21
145.0651349039449
 31
0.0
 11
258.3624713352415
 21
145.0447999391601
 31
0.0
 11
258.3014160838396
 21
145.029548881306
 31
0.0
 11
258.2810643333723
 21
145.0244651401098
 31
0.0
  0
SPLINE
  5
6D9
102
{ACAD_REACTORS
330
67C
102
}
330
18
100
AcDbEntity
  8
ROGO
 62
     4
100
AcDbSpline
210
0.0
220
0.0
230
1.0
 70
     8
 71
     3
 72
    18
 73
    14
 74
     0
 42
0.0000000001
 43
0.0000000001
 40
0.1087402787915014
 40
0.1087402787915014
 40
0.1087402787915014
 40
0.1087402787915014
 40
0.5992371417938475
 40
1.083176791562496
 40
1.448211145705696
 40
1.714037220764907
 40
2.164002567013297
 40
2.740236056362883
 40
3.395137510199602
 40
4.071816045172726
 40
4.784906178399433
 40
5.506895915094292
 40
6.060470601257719
 40
6.060470601257719
 40
6.060470601257719
 40
6.060470601257719
 10
258.7380829750892
 20
145.6357834444748
 30
0.0
 10
258.7749321416017
 20
145.6222788424558
 30
0.0
 10
258.847395647419
 20
145.5937280500683
 30
0.0
 10
258.9358353199139
 20
145.5285657077624
 30
0.0
 10
258.9840664985672
 20
145.4533411080453
 30
0.0
 10
259.0304594926804
 20
145.3792207341361
 30
0.0
 10
259.0369521075193
 20
145.2728825218566
 30
0.0
 10
259.0263167657814
 20
145.1384452480033
 30
0.0
 10
258.9576559603387
 20
144.9981738258297
 30
0.0
 10
258.8474513293341
 20
144.8754869510008
 30
0.0
 10
258.7106245892513
 20
144.7772899764177
 30
0.0
 10
258.5663360722447
 20
144.7002078800992
 30
0.0
 10
258.463198599728
 20
144.6994398465703
 30
0.0
 10
258.4184385758852
 20
144.6991065322256
 30
0.0
  0
LINE
  5
6DA
102
{ACAD_REACTORS
330
6CA
102
}
330
18
100
AcDbEntity
  8
ROGO
 62
     4
100
AcDbLine
 10
261.159023928593
 20
145.0655419479684
 30
0.0
 11
261.5317802814235
 21
145.0655419479684
 31
0.0
  0
LINE
  5
6DB
102
{ACAD_REACTORS
330
6CA
102
}
330
18
100
AcDbEntity
  8
ROGO
 62
     4
100
AcDbLine
 10
261.0233828577524
 20
144.8774440209126
 30
0.0
 11
261.6153408338391
 21
144.8774440209126
 31
0.0
  0
LINE
  5
6DD
102
{ACAD_REACTORS
330
6CA
102
}
330
18
100
AcDbEntity
  8
ROGO
 62
     4
100
AcDbLine
 10
261.0233828577524
 20
144.8774440209126
 30
0.0
 11
260.8947802287116
 21
144.6991065322256
 31
0.0
  0
LINE
  5
6DE
102
{ACAD_REACTORS
330
6C9
102
}
330
18
100
AcDbEntity
  8
ROGO
 62
     4
100
AcDbLine
 10
259.7443554834731
 20
145.0814305421793
 30
0.0
 11
259.661344415813
 21
144.913660477631
 31
0.0
  0
LINE
  5
6DF
102
{ACAD_REACTORS
330
6C9
102
}
330
18
100
AcDbEntity
  8
ROGO
 62
     4
100
AcDbLine
 10
260.3271921469743
 20
144.913660477631
 30
0.0
 11
260.2210328501609
 21
144.6991065322256
 31
0.0
  0
LINE
  5
6E0
102
{ACAD_REACTORS
330
6C9
102
}
330
18
100
AcDbEntity
  8
ROGO
 62
     4
100
AcDbLine
 10
260.4953196846205
 20
145.2534557439533
 30
0.0
 11
260.4102032146343
 21
145.0814305421793
 31
0.0
  0
LINE
  5
6E1
102
{ACAD_REACTORS
330
6C9
102
}
330
18
100
AcDbEntity
  8
ROGO
 62
     4
100
AcDbLine
 10
259.7443554834731
 20
145.0814305421793
 30
0.0
 11
260.4102032146343
 21
145.0814305421793
 31
0.0
  0
LINE
  5
6E2
102
{ACAD_REACTORS
330
6C9
102
}
330
18
100
AcDbEntity
  8
ROGO
 62
     4
100
AcDbLine
 10
259.6613444158131
 20
144.913660477631
 30
0.0
 11
260.3271921469743
 21
144.913660477631
 31
0.0
  0
LINE
  5
6E3
102
{ACAD_REACTORS
330
6C9
102
}
330
18
100
AcDbEntity
  8
ROGO
 62
     4
100
AcDbLine
 10
259.8294719534592
 20
145.2534557439533
 30
0.0
 11
260.4953196846205
 21
145.2534557439533
 31
0.0
  0
LINE
  5
6E4
102
{ACAD_REACTORS
330
6C9
102
}
330
18
100
AcDbEntity
  8
ROGO
 62
     4
100
AcDbLine
 10
258.9541383583904
 20
144.6991065322256
 30
0.0
 11
260.2210328501609
 21
144.6991065322256
 31
0.0
  0
LINE
  5
6E5
102
{ACAD_REACTORS
330
6CA
102
}
330
18
100
AcDbEntity
  8
ROGO
 62
     4
100
AcDbLine
 10
260.3760288751447
 20
144.6991065322256
 30
0.0
 11
260.8947802287116
 21
144.6991065322256
 31
0.0
  0
LINE
  5
6E6
102
{ACAD_REACTORS
330
67C
102
}
330
18
100
AcDbEntity
  8
ROGO
 62
     4
100
AcDbLine
 10
258.2810643333723
 20
145.0244651401098
 30
0.0
 11
257.9296486417535
 21
145.0244651401098
 31
0.0
  0
LINE
  5
6E7
102
{ACAD_REACTORS
330
67C
102
}
330
18
100
AcDbEntity
  8
ROGO
 62
     4
100
AcDbLine
 10
258.4184385761056
 20
144.6991065322256
 30
0.0
 11
257.7824471783379
 21
144.6991065322256
 31
0.0
  0
LINE
  5
6E8
102
{ACAD_REACTORS
330
67C
102
}
330
18
100
AcDbEntity
  8
ROGO
 62
     4
100
AcDbLine
 10
257.7824471783379
 20
144.6991065322256
 30
0.0
 11
257.5440423851486
 21
144.17216169197
 31
0.0
  0
SPLINE
  5
6E9
102
{ACAD_REACTORS
330
6C8
102
}
330
18
100
AcDbEntity
  8
ROGO
 62
     4
100
AcDbSpline
210
0.0
220
0.0
230
1.0
 70
     8
 71
     3
 72
     9
 73
     5
 74
     3
 42
0.0000000001
 43
0.0000000001
 44
0.0000000001
 40
0.0
 40
0.0
 40
0.0
 40
0.0
 40
0.0810170589120836
 40
0.1899495518469247
 40
0.1899495518469247
 40
0.1899495518469247
 40
0.1899495518469247
 10
264.7068977970315
 20
144.7199896588736
 30
0.0
 10
264.7329228203722
 20
144.7279518461859
 30
0.0
 10
264.7939401121224
 20
144.7466196913536
 30
0.0
 10
264.844354372571
 20
144.7860744155175
 30
0.0
 10
264.8732660020891
 20
144.8087009572462
 30
0.0
 11
264.7068977970315
 21
144.7199896588736
 31
0.0
 11
264.7830439815746
 21
144.7476577345979
 31
0.0
 11
264.8732660020891
 21
144.8087009572462
 31
0.0
  0
SPLINE
  5
6EA
102
{ACAD_REACTORS
330
6C8
102
}
330
18
100
AcDbEntity
  8
ROGO
 62
     4
100
AcDbSpline
210
0.0
220
0.0
230
1.0
 70
     8
 71
     3
 72
    11
 73
     7
 74
     0
 42
0.0000000001
 43
0.0000000001
 40
0.1647869275458134
 40
0.1647869275458134
 40
0.1647869275458134
 40
0.1647869275458134
 40
0.2895635144633836
 40
0.5387013147903714
 40
0.7953622617455423
 40
0.8850764140209602
 40
0.8850764140209602
 40
0.8850764140209602
 40
0.8850764140209602
 10
264.7068977970315
 20
144.7199896588736
 30
0.0
 10
264.6969267892594
 20
144.7172142250598
 30
0.0
 10
264.6660112948465
 20
144.7122727191703
 30
0.0
 10
264.6141546755636
 20
144.7054874512365
 30
0.0
 10
264.5648675525722
 20
144.6984067765897
 30
0.0
 10
264.5360280105606
 20
144.6989625754932
 30
0.0
 10
264.5285583192655
 20
144.6991065322256
 30
0.0
  0
LINE
  5
6EB
102
{ACAD_REACTORS
330
6C8
102
}
330
18
100
AcDbEntity
  8
ROGO
 62
     4
100
AcDbLine
 10
263.9932535303352
 20
144.6991065322256
 30
0.0
 11
264.5285583192655
 21
144.6991065322256
 31
0.0
  0
LINE
  5
6EC
102
{ACAD_REACTORS
330
6CB
102
}
330
18
100
AcDbEntity
  8
ROGO
 62
     4
100
AcDbLine
 10
263.4539204853987
 20
145.0476073826746
 30
0.0
 11
263.2801467058353
 21
144.6991065322256
 31
0.0
  0
LINE
  5
6EE
102
{ACAD_REACTORS
330
6CA
102
}
330
18
100
AcDbEntity
  8
ROGO
 62
     4
100
AcDbLine
 10
261.6153408338391
 20
144.8774440209126
 30
0.0
 11
261.6945654127822
 21
144.6991065322256
 31
0.0
  0
LINE
  5
6EF
102
{ACAD_REACTORS
330
6CA
102
}
330
18
100
AcDbEntity
  8
ROGO
 62
     4
100
AcDbLine
 10
262.2168551100793
 20
144.6991065322256
 30
0.0
 11
261.6945654127822
 21
144.6991065322256
 31
0.0
  0
ARC
  5
6F0
330
18
100
AcDbEntity
  8
針
100
AcDbCircle
 10
263.0735450198029
 20
140.9335750694829
 30
0.0
 40
0.5
100
AcDbArc
 50
290.207529799669
 51
323.0641879364476
  0
ARC
  5
6F1
330
18
100
AcDbEntity
  8
針
100
AcDbCircle
 10
264.3305317066373
 20
140.0203207843611
 30
0.0
 40
0.5
100
AcDbArc
 50
144.9358120635524
 51
177.792470200331
  0
LINE
  5
6F2
102
{ACAD_REACTORS
330
6CB
102
}
330
18
100
AcDbEntity
  8
ROGO
 62
     4
100
AcDbLine
 10
262.4733745508461
 20
144.6991065322256
 30
0.0
 11
263.2801467058353
 21
144.6991065322256
 31
0.0
  0
LINE
  5
6F3
102
{ACAD_REACTORS
330
6CB
102
}
330
18
100
AcDbEntity
  8
ROGO
 62
     4
100
AcDbLine
 10
262.8549692138351
 20
145.0476073826746
 30
0.0
 11
263.4539204853987
 21
145.0476073826746
 31
0.0
  0
LINE
  5
6F4
102
{ACAD_REACTORS
330
6CA
102
}
330
18
100
AcDbEntity
  8
ROGO
 62
     4
100
AcDbLine
 10
261.0514848006711
 20
145.6357834444748
 30
0.0
 11
261.8007461106474
 21
145.6357834444748
 31
0.0
  0
LINE
  5
6F5
102
{ACAD_REACTORS
330
6C9
102
}
330
18
100
AcDbEntity
  8
ROGO
 62
     4
100
AcDbLine
 10
259.4175973833819
 20
145.6357834444748
 30
0.0
 11
260.6844918751525
 21
145.6357834444748
 31
0.0
  0
LINE
  5
6F6
102
{ACAD_REACTORS
330
6C9
102
}
330
18
100
AcDbEntity
  8
ROGO
 62
     4
100
AcDbLine
 10
259.9124795069785
 20
145.4212187062243
 30
0.0
 11
260.5783272381398
 21
145.4212187062243
 31
0.0
  0
LINE
  5
6F7
102
{ACAD_REACTORS
330
6C9
102
}
330
18
100
AcDbEntity
  8
ROGO
 62
     4
100
AcDbLine
 10
260.6844918751525
 20
145.6357834444748
 30
0.0
 11
260.5783272381398
 21
145.4212187062243
 31
0.0
  0
LINE
  5
6F8
102
{ACAD_REACTORS
330
67C
102
}
330
18
100
AcDbEntity
  8
ROGO
 62
     4
100
AcDbLine
 10
257.5878748711195
 20
145.6357834444748
 30
0.0
 11
258.7380829750892
 21
145.6357834444748
 31
0.0
  0
LINE
  5
6F9
102
{ACAD_REACTORS
330
67C
102
}
330
18
100
AcDbEntity
  8
ROGO
 62
     4
100
AcDbLine
 10
258.3319435632577
 20
145.2735677957855
 30
0.0
 11
258.0423497492934
 21
145.2735677957855
 31
0.0
  0
LINE
  5
6FA
102
{ACAD_REACTORS
330
6C8
102
}
330
18
100
AcDbEntity
  8
ROGO
 62
     4
100
AcDbLine
 10
264.2673663918701
 20
145.6396903892626
 30
0.0
 11
264.8026711808004
 21
145.6396903892626
 31
0.0
  0
LINE
  5
6FB
102
{ACAD_REACTORS
330
6CB
102
}
330
18
100
AcDbEntity
  8
ROGO
 62
     4
100
AcDbLine
 10
262.8091779947082
 20
145.6357834444748
 30
0.0
 11
263.7472040661308
 21
145.6357834444748
 31
0.0
  0
LINE
  5
6FC
102
{ACAD_REACTORS
330
6CB
102
}
330
18
100
AcDbEntity
  8
ROGO
 62
     4
100
AcDbLine
 10
262.9872554455896
 20
145.287278903458
 30
0.0
 11
263.5734284463309
 21
145.287278903458
 31
0.0
  0
LINE
  5
6FD
102
{ACAD_REACTORS
330
6CB
102
}
330
18
100
AcDbEntity
  8
ROGO
 62
     4
100
AcDbLine
 10
263.7472040661308
 20
145.6357834444748
 30
0.0
 11
263.5734284463309
 21
145.287278903458
 31
0.0
  0
HATCH
  5
6FE
330
18
100
AcDbEntity
  8
ROGO
 62
     4
100
AcDbHatch
 10
0.0
 20
0.0
 30
0.0
210
0.0
220
0.0
230
1.0
  2
SOLID
 70
     1
 71
     1
 91
        1
 92
        5
 93
        8
 72
     4
 94
        3
 73
     0
 74
     0
 95
       26
 96
       22
 40
0.0
 40
0.0
 40
0.0
 40
0.0
 40
0.169923923071684
 40
0.2836748319958191
 40
0.3656985008505316
 40
0.426942920354356
 40
0.5063801468146631
 40
0.5643615780072894
 40
0.6690625284671952
 40
0.7542875968970452
 40
0.8122542992729588
 40
0.8690936188356241
 40
0.9707681112905712
 40
1.04266411280859
 40
1.081385664338052
 40
1.136388484468192
 40
1.176107255030999
 40
1.233646640341432
 40
1.266208955382537
 40
1.337068205431096
 40
1.369423154551981
 40
1.369423154551981
 40
1.369423154551981
 40
1.369423154551981
 10
265.827234323693
 20
145.6357834444748
 10
265.7695595187327
 20
145.632342466709
 10
265.6732758977348
 20
145.6265980207711
 10
265.5675570675998
 20
145.5623749668002
 10
265.4901012635231
 20
145.5250385054969
 10
265.4348598779909
 20
145.4742827672123
 10
265.3943677184632
 20
145.4218557972008
 10
265.3433197497793
 20
145.3593894468365
 10
265.3016915900144
 20
145.2866499096068
 10
265.2804928989851
 20
145.206478258667
 10
265.2617152996687
 20
145.1425809876973
 10
265.2477895176609
 20
145.0713758179654
 10
265.2513326308375
 20
144.9944491859863
 10
265.2564065310616
 20
144.9230036684381
 10
265.2790602617526
 20
144.8720022657698
 10
265.3048588483424
 20
144.8356927815349
 10
265.3364488643118
 20
144.7957019100932
 10
265.3710152499517
 20
144.7692160854327
 10
265.3996044723804
 20
144.7212352342558
 10
265.4496489418032
 20
144.7151125316056
 10
265.4814591975119
 20
144.7029265259491
 10
265.4914308798312
 20
144.6991065322256
 72
     1
 10
265.4914308798312
 20
144.6991065322256
 11
266.2982030348203
 21
144.6991065322256
 72
     1
 10
266.2982030348203
 20
144.6991065322256
 11
266.4719768143838
 21
145.0476073826746
 72
     1
 10
266.4719768143838
 20
145.0476073826746
 11
265.8730255428202
 21
145.0476073826746
 72
     4
 94
        3
 73
     0
 74
     0
 95
       16
 96
       12
 40
0.0
 40
0.0
 40
0.0
 40
0.0
 40
0.0513165732835848
 40
0.1031624397428207
 40
0.1340861689274098
 40
0.1637356607215507
 40
0.1962978463874965
 40
0.2190368482719732
 40
0.2406141875624697
 40
0.2843699337995436
 40
0.3739547989170791
 40
0.3739547989170791
 40
0.3739547989170791
 40
0.3739547989170791
 10
265.8730255428201
 20
145.0476073826746
 10
265.8549590617324
 20
145.0529228063128
 10
265.8186397569287
 20
145.0636084783227
 10
265.8156001244018
 20
145.1154086906273
 10
265.8197411839613
 20
145.1523205806912
 10
265.8370839506463
 20
145.1791945921734
 10
265.8581237346975
 20
145.1987489714411
 10
265.8659577794403
 20
145.2242154929906
 10
265.8889852402056
 20
145.2434459029001
 10
265.9298190982241
 20
145.2757695356482
 10
265.9749742764329
 20
145.2826537471988
 10
266.0053117745746
 20
145.287278903458
 72
     1
 10
266.0053117745746
 20
145.287278903458
 11
266.591484775316
 21
145.287278903458
 72
     1
 10
266.591484775316
 20
145.287278903458
 11
266.7652603951158
 21
145.6357834444748
 72
     1
 10
266.7652603951158
 20
145.6357834444748
 11
265.8272343236931
 21
145.6357834444748
 97
        8
330
72E
330
6C5
330
71B
330
71A
330
719
330
701
330
72F
330
730
 75
     0
 76
     1
 47
0.0514683685270805
 98
        1
 10
265.9890963637669
 20
145.464274715927
450
        0
451
        0
460
0.0
461
0.0
452
        0
462
0.0
453
        0
470

  0
HATCH
  5
6FF
330
18
100
AcDbEntity
  8
ROGO
 62
     4
100
AcDbHatch
 10
0.0
 20
0.0
 30
0.0
210
0.0
220
0.0
230
1.0
  2
SOLID
 70
     1
 71
     1
 91
        1
 92
        7
 72
     0
 73
     1
 93
       11
 10
266.2316303969888
 20
144.17216169197
 10
266.770951052958
 20
144.17216169197
 10
266.9614394733699
 20
144.554183517593
 10
267.1519278937822
 20
144.17216169197
 10
267.6912367498488
 20
144.17216169197
 10
267.3263322116584
 20
144.9039725682224
 10
268.2129090842433
 20
145.6357834444748
 10
267.6736002281764
 20
145.6357834444748
 10
267.4210798293708
 20
145.4759857329171
 10
267.500760129339
 20
145.6357834444748
 10
266.96143947337
 20
145.6357834444748
 97
       11
330
72B
330
72C
330
72D
330
731
330
702
330
680
330
718
330
720
330
706
330
707
330
700
 75
     0
 76
     1
 47
0.0514683685270805
 98
        1
 10
266.9150236263912
 20
145.0078611912279
450
        0
451
        0
460
0.0
461
0.0
452
        0
462
0.0
453
        0
470

  0
LINE
  5
700
102
{ACAD_REACTORS
330
6FF
102
}
330
18
100
AcDbEntity
  8
ROGO
 62
     4
100
AcDbLine
 10
267.3263322116584
 20
144.9039725682224
 30
0.0
 11
268.2129090842433
 21
145.6357834444748
 31
0.0
  0
SPLINE
  5
701
102
{ACAD_REACTORS
330
6FE
102
}
330
18
100
AcDbEntity
  8
ROGO
 62
     4
100
AcDbSpline
210
0.0
220
0.0
230
1.0
 70
     8
 71
     3
 72
    16
 73
    12
 74
    10
 42
0.0000000001
 43
0.0000000001
 44
0.0000000001
 40
0.0
 40
0.0
 40
0.0
 40
0.0
 40
0.0895848651175355
 40
0.1333406113546093
 40
0.1549179506451059
 40
0.1776569525295826
 40
0.2102191381955283
 40
0.2398686299896692
 40
0.2707923591742583
 40
0.3226382256334943
 40
0.3739547989170791
 40
0.3739547989170791
 40
0.3739547989170791
 40
0.3739547989170791
 10
266.0053117745746
 20
145.287278903458
 30
0.0
 10
265.9749742764329
 20
145.2826537471988
 30
0.0
 10
265.9298190982241
 20
145.2757695356482
 30
0.0
 10
265.8889852402056
 20
145.2434459029001
 30
0.0
 10
265.8659577794403
 20
145.2242154929906
 30
0.0
 10
265.8581237346975
 20
145.1987489714411
 30
0.0
 10
265.8370839506463
 20
145.1791945921734
 30
0.0
 10
265.8197411839613
 20
145.1523205806912
 30
0.0
 10
265.8156001244018
 20
145.1154086906273
 30
0.0
 10
265.8186397569287
 20
145.0636084783227
 30
0.0
 10
265.8549590617324
 20
145.0529228063128
 30
0.0
 10
265.8730255428201
 20
145.0476073826746
 30
0.0
 11
266.0053117745746
 21
145.287278903458
 31
0.0
 11
265.918817054513
 21
145.2639527066058
 31
0.0
 11
265.8832015643367
 21
145.2385341663593
 31
0.0
 11
265.8679378246276
 21
145.2232829427707
 31
0.0
 11
265.857761803111
 21
145.2029479779859
 31
0.0
 11
265.8374100526438
 21
145.1775294377394
 31
0.0
 11
265.8221463129347
 21
145.1521107317585
 31
0.0
 11
265.8170583021765
 21
145.1216084503158
 31
0.0
 11
265.827234323693
 21
145.0707710383537
 31
0.0
 11
265.8730255428201
 21
145.0476073826746
 31
0.0
  0
LINE
  5
702
102
{ACAD_REACTORS
330
6FF
102
}
330
18
100
AcDbEntity
  8
ROGO
 62
     4
100
AcDbLine
 10
266.96143947337
 20
145.6357834444748
 30
0.0
 11
266.2316303969888
 21
144.17216169197
 31
0.0
  0
LINE
  5
706
102
{ACAD_REACTORS
330
6FF
102
}
330
18
100
AcDbEntity
  8
ROGO
 62
     4
100
AcDbLine
 10
267.1519278937821
 20
144.17216169197
 30
0.0
 11
267.6912367498489
 21
144.17216169197
 31
0.0
  0
LINE
  5
707
102
{ACAD_REACTORS
330
6FF
102
}
330
18
100
AcDbEntity
  8
ROGO
 62
     4
100
AcDbLine
 10
267.3263322116584
 20
144.9039725682224
 30
0.0
 11
267.6912367498489
 21
144.17216169197
 31
0.0
  0
LINE
  5
718
102
{ACAD_REACTORS
330
6FF
102
}
330
18
100
AcDbEntity
  8
ROGO
 62
     4
100
AcDbLine
 10
266.96143947337
 20
144.5541835175931
 30
0.0
 11
266.7709510529579
 21
144.17216169197
 31
0.0
  0
LINE
  5
719
102
{ACAD_REACTORS
330
6FE
102
}
330
18
100
AcDbEntity
  8
ROGO
 62
     4
100
AcDbLine
 10
265.8730255428201
 20
145.0476073826746
 30
0.0
 11
266.4719768143838
 21
145.0476073826746
 31
0.0
  0
LINE
  5
71A
102
{ACAD_REACTORS
330
6FE
102
}
330
18
100
AcDbEntity
  8
ROGO
 62
     4
100
AcDbLine
 10
266.4719768143838
 20
145.0476073826746
 30
0.0
 11
266.2982030348203
 21
144.6991065322256
 31
0.0
  0
LINE
  5
71B
102
{ACAD_REACTORS
330
6FE
102
}
330
18
100
AcDbEntity
  8
ROGO
 62
     4
100
AcDbLine
 10
265.4914308798312
 20
144.6991065322256
 30
0.0
 11
266.2982030348203
 21
144.6991065322256
 31
0.0
  0
LINE
  5
720
102
{ACAD_REACTORS
330
6FF
102
}
330
18
100
AcDbEntity
  8
ROGO
 62
     4
100
AcDbLine
 10
266.96143947337
 20
144.5541835175931
 30
0.0
 11
267.1519278937821
 21
144.17216169197
 31
0.0
  0
LINE
  5
72B
102
{ACAD_REACTORS
330
6FF
102
}
330
18
100
AcDbEntity
  8
ROGO
 62
     4
100
AcDbLine
 10
267.6736002281765
 20
145.6357834444748
 30
0.0
 11
268.2129090842433
 21
145.6357834444748
 31
0.0
  0
LINE
  5
72C
102
{ACAD_REACTORS
330
6FF
102
}
330
18
100
AcDbEntity
  8
ROGO
 62
     4
100
AcDbLine
 10
267.4210798293708
 20
145.4759857329172
 30
0.0
 11
267.6736002281765
 21
145.6357834444748
 31
0.0
  0
LINE
  5
72D
102
{ACAD_REACTORS
330
6FF
102
}
330
18
100
AcDbEntity
  8
ROGO
 62
     4
100
AcDbLine
 10
267.500760129339
 20
145.6357834444748
 30
0.0
 11
267.4210798293708
 21
145.4759857329172
 31
0.0
  0
LINE
  5
72E
102
{ACAD_REACTORS
330
6FE
102
}
330
18
100
AcDbEntity
  8
ROGO
 62
     4
100
AcDbLine
 10
265.8272343236932
 20
145.6357834444748
 30
0.0
 11
266.7652603951158
 21
145.6357834444748
 31
0.0
  0
LINE
  5
72F
102
{ACAD_REACTORS
330
6FE
102
}
330
18
100
AcDbEntity
  8
ROGO
 62
     4
100
AcDbLine
 10
266.0053117745746
 20
145.287278903458
 30
0.0
 11
266.591484775316
 21
145.287278903458
 31
0.0
  0
LINE
  5
730
102
{ACAD_REACTORS
330
6FE
102
}
330
18
100
AcDbEntity
  8
ROGO
 62
     4
100
AcDbLine
 10
266.7652603951158
 20
145.6357834444748
 30
0.0
 11
266.591484775316
 21
145.287278903458
 31
0.0
  0
LINE
  5
731
102
{ACAD_REACTORS
330
6FF
102
}
330
18
100
AcDbEntity
  8
ROGO
 62
     4
100
AcDbLine
 10
266.96143947337
 20
145.6357834444748
 30
0.0
 11
267.500760129339
 21
145.6357834444748
 31
0.0
  0
LINE
  5
753
330
18
100
AcDbEntity
  8
外形線
100
AcDbLine
 10
280.1828641985998
 20
67.340897326635
 30
0.0
 11
262.6828641985998
 21
67.340897326635
 31
0.0
  0
LINE
  5
754
330
18
100
AcDbEntity
  8
外形線
100
AcDbLine
 10
279.6828641985998
 20
72.54089732663499
 30
0.0
 11
262.6828641985998
 21
72.54089732663499
 31
0.0
  0
LINE
  5
755
330
18
100
AcDbEntity
  8
外形線
100
AcDbLine
 10
280.6828641985998
 20
71.54089732663499
 30
0.0
 11
262.6828641985998
 21
71.54089732663499
 31
0.0
  0
LINE
  5
756
330
18
100
AcDbEntity
  8
外形線
100
AcDbLine
 10
280.6828641985998
 20
67.840897326635
 30
0.0
 11
262.6828641985998
 21
67.840897326635
 31
0.0
  0
LINE
  5
770
330
18
100
AcDbEntity
  8
ﾊｯﾁﾝｸ
100
AcDbLine
 10
262.6828641985998
 20
71.54089732663499
 30
0.0
 11
262.6828641985998
 21
67.840897326635
 31
0.0
  0
LINE
  5
771
330
18
100
AcDbEntity
  8
ﾊｯﾁﾝｸ
100
AcDbLine
 10
261.5828641985997
 20
71.54089732663499
 30
0.0
 11
261.5828641985997
 21
67.840897326635
 31
0.0
  0
LINE
  5
772
330
18
100
AcDbEntity
  8
ﾊｯﾁﾝｸ
100
AcDbLine
 10
260.5828641985997
 20
71.54089732663499
 30
0.0
 11
260.5828641985997
 21
67.840897326635
 31
0.0
  0
POINT
  5
773
330
18
100
AcDbEntity
  8
DEFPOINTS
  6
ByBlock
 62
     0
100
AcDbPoint
 10
262.6828641985998
 20
75.49089732663509
 30
0.0
  0
LINE
  5
774
330
18
100
AcDbEntity
  8
ﾊｯﾁﾝｸ
100
AcDbLine
 10
263.7828641985998
 20
71.54089732663499
 30
0.0
 11
263.7828641985998
 21
67.840897326635
 31
0.0
  0
LINE
  5
775
330
18
100
AcDbEntity
  8
ﾊｯﾁﾝｸ
100
AcDbLine
 10
264.7828641985998
 20
71.54089732663499
 30
0.0
 11
264.7828641985998
 21
67.840897326635
 31
0.0
  0
LINE
  5
77B
330
18
100
AcDbEntity
  8
外形線
100
AcDbLine
 10
280.6828641985998
 20
71.54089732663499
 30
0.0
 11
280.6828641985998
 21
67.840897326635
 31
0.0
  0
LINE
  5
77C
330
18
100
AcDbEntity
  8
ﾊｯﾁﾝｸ
100
AcDbLine
 10
279.7828641985998
 20
71.54089732663499
 30
0.0
 11
279.7828641985998
 21
67.840897326635
 31
0.0
  0
LINE
  5
77D
330
18
100
AcDbEntity
  8
ﾊｯﾁﾝｸ
100
AcDbLine
 10
278.7828641985998
 20
71.54089732663499
 30
0.0
 11
278.7828641985998
 21
67.840897326635
 31
0.0
  0
LINE
  5
77E
330
18
100
AcDbEntity
  8
ﾊｯﾁﾝｸ
100
AcDbLine
 10
277.6828641985998
 20
71.54089732663499
 30
0.0
 11
277.6828641985998
 21
67.840897326635
 31
0.0
  0
LINE
  5
77F
330
18
100
AcDbEntity
  8
ﾊｯﾁﾝｸ
100
AcDbLine
 10
276.4828641985998
 20
71.54089732663499
 30
0.0
 11
276.4828641985998
 21
67.840897326635
 31
0.0
  0
LINE
  5
780
330
18
100
AcDbEntity
  8
外形線
100
AcDbLine
 10
279.6828641985998
 20
72.54089732663499
 30
0.0
 11
280.6828641985998
 21
71.54089732663499
 31
0.0
  0
POINT
  5
781
330
18
100
AcDbEntity
  8
DEFPOINTS
  6
ByBlock
 62
     0
100
AcDbPoint
 10
280.6828641985998
 20
71.54089732663499
 30
0.0
  0
LINE
  5
787
330
18
100
AcDbEntity
  8
外形線
100
AcDbLine
 10
280.1828641985998
 20
67.340897326635
 30
0.0
 11
280.6828641985998
 21
67.840897326635
 31
0.0
  0
POINT
  5
78A
330
18
100
AcDbEntity
  8
DEFPOINTS
  6
ByBlock
 62
     0
100
AcDbPoint
 10
285.8356788573379
 20
62.49089732663503
 30
0.0
  0
POINT
  5
78B
330
18
100
AcDbEntity
  8
DEFPOINTS
  6
ByBlock
 62
     0
100
AcDbPoint
 10
285.8356788573379
 20
62.49089732663503
 30
0.0
  0
LINE
  5
7AA
330
18
100
AcDbEntity
  8
外形線
100
AcDbLine
 10
278.0328641985997
 20
56.69089732663502
 30
0.0
 11
278.0328641985997
 21
55.99089732663504
 31
0.0
  0
POINT
  5
7AB
330
18
100
AcDbEntity
  8
DEFPOINTS
  6
ByBlock
 62
     0
100
AcDbPoint
 10
278.6828641985997
 20
56.69089732663502
 30
0.0
  0
POINT
  5
7AC
330
18
100
AcDbEntity
  8
DEFPOINTS
  6
ByBlock
 62
     0
100
AcDbPoint
 10
278.6828641985997
 20
56.69089732663502
 30
0.0
  0
LINE
  5
7CE
330
18
100
AcDbEntity
  8
外形線
100
AcDbLine
 10
278.0328641985997
 20
55.99089732663504
 30
0.0
 11
247.3328641985997
 21
55.99089732663504
 31
0.0
  0
LINE
  5
7CF
330
18
100
AcDbEntity
  8
外形線
100
AcDbLine
 10
247.3328641985997
 20
56.69089732663502
 30
0.0
 11
247.3328641985997
 21
55.99089732663504
 31
0.0
  0
POINT
  5
7D0
330
18
100
AcDbEntity
  8
DEFPOINTS
  6
ByBlock
 62
     0
100
AcDbPoint
 10
246.6828641985998
 20
56.69089732663502
 30
0.0
  0
POINT
  5
7D1
330
18
100
AcDbEntity
  8
DEFPOINTS
  6
ByBlock
 62
     0
100
AcDbPoint
 10
246.6828641985998
 20
56.69089732663502
 30
0.0
  0
ARC
  5
92F
330
18
100
AcDbEntity
  8
外形線
100
AcDbCircle
 10
288.4828641985998
 20
62.49089732663499
 30
0.0
 40
1.199999999999999
100
AcDbArc
 50
279.5940682268597
 51
80.40593177314013
  0
LINE
  5
930
330
18
100
AcDbEntity
  8
外形線
100
AcDbLine
 10
288.6828641985997
 20
63.79089732663505
 30
0.0
 11
288.6828641985997
 21
61.19089732663496
 31
0.0
  0
LINE
  5
931
330
18
100
AcDbEntity
  8
外形線
100
AcDbLine
 10
287.6828641985997
 20
64.74089732663504
 30
0.0
 11
287.6828641985997
 21
60.24089732663504
 31
0.0
  0
LINE
  5
932
330
18
100
AcDbEntity
  8
外形線
100
AcDbLine
 10
280.6828641985998
 20
60.74089732663498
 30
0.0
 11
285.1828641985997
 21
60.74089732663498
 31
0.0
  0
LINE
  5
933
330
18
100
AcDbEntity
  8
0
  6
ByBlock
 62
     2
100
AcDbLine
 10
286.1828641985997
 20
60.74089732663503
 30
0.0
 11
287.6828641985997
 21
60.74089732663503
 31
0.0
  0
LINE
  5
934
330
18
100
AcDbEntity
  8
0
  6
ByBlock
 62
     2
100
AcDbLine
 10
286.1828641985997
 20
61.340897326635
 30
0.0
 11
287.6828641985997
 21
61.340897326635
 31
0.0
  0
LINE
  5
935
330
18
100
AcDbEntity
  8
0
  6
ByBlock
 62
     2
100
AcDbLine
 10
286.1828641985997
 20
62.04089732663499
 30
0.0
 11
287.6828641985997
 21
62.04089732663499
 31
0.0
  0
LINE
  5
936
330
18
100
AcDbEntity
  8
0
  6
ByBlock
 62
     2
100
AcDbLine
 10
286.1828641985997
 20
62.94089732663502
 30
0.0
 11
287.6828641985997
 21
62.94089732663502
 31
0.0
  0
LINE
  5
937
330
18
100
AcDbEntity
  8
0
  6
ByBlock
 62
     2
100
AcDbLine
 10
286.1828641985997
 20
63.64089732663501
 30
0.0
 11
287.6828641985997
 21
63.64089732663501
 31
0.0
  0
LINE
  5
938
330
18
100
AcDbEntity
  8
外形線
100
AcDbLine
 10
287.6828641985997
 20
60.24089732663504
 30
0.0
 11
288.6828641985997
 21
61.19089732663496
 31
0.0
  0
LINE
  5
939
330
18
100
AcDbEntity
  8
外形線
100
AcDbLine
 10
286.1828641985997
 20
60.24089732663504
 30
0.0
 11
287.6828641985997
 21
60.24089732663504
 31
0.0
  0
LINE
  5
93A
330
18
100
AcDbEntity
  8
外形線
100
AcDbLine
 10
285.1828641985997
 20
65.99089732663504
 30
0.0
 11
286.1828641985997
 21
65.99089732663504
 31
0.0
  0
LINE
  5
93B
330
18
100
AcDbEntity
  8
外形線
100
AcDbLine
 10
280.6828641985998
 20
64.24089732663503
 30
0.0
 11
285.1828641985997
 21
64.24089732663503
 31
0.0
  0
LINE
  5
93C
330
18
100
AcDbEntity
  8
0
  6
ByBlock
 62
     2
100
AcDbLine
 10
286.1828641985997
 20
64.24089732663503
 30
0.0
 11
287.6828641985997
 21
64.24089732663503
 31
0.0
  0
LINE
  5
93D
330
18
100
AcDbEntity
  8
外形線
100
AcDbLine
 10
287.6828641985997
 20
64.74089732663504
 30
0.0
 11
288.6828641985997
 21
63.79089732663505
 31
0.0
  0
LINE
  5
93E
330
18
100
AcDbEntity
  8
外形線
100
AcDbLine
 10
286.1828641985997
 20
64.74089732663504
 30
0.0
 11
287.6828641985997
 21
64.74089732663504
 31
0.0
  0
LINE
  5
93F
330
18
100
AcDbEntity
  8
外形線
100
AcDbLine
 10
285.1828641985997
 20
65.99089732663504
 30
0.0
 11
285.1828641985997
 21
58.99089732663504
 31
0.0
  0
LINE
  5
940
330
18
100
AcDbEntity
  8
外形線
100
AcDbLine
 10
286.1828641985997
 20
65.99089732663504
 30
0.0
 11
286.1828641985997
 21
58.99089732663504
 31
0.0
  0
LINE
  5
941
330
18
100
AcDbEntity
  8
外形線
100
AcDbLine
 10
285.1828641985997
 20
58.99089732663504
 30
0.0
 11
286.1828641985997
 21
58.99089732663504
 31
0.0
  0
LINE
  5
942
330
18
100
AcDbEntity
  8
隠れ線2
100
AcDbLine
 10
215.5828641985998
 20
143.0741750329273
 30
0.0
 11
233.5828641985998
 21
143.0741750329273
 31
0.0
  0
LINE
  5
943
330
18
100
AcDbEntity
  8
隠れ線2
100
AcDbLine
 10
215.5828641985998
 20
135.0741750329273
 30
0.0
 11
233.5828641985998
 21
135.0741750329273
 31
0.0
  0
LINE
  5
944
330
18
100
AcDbEntity
  8
隠れ線2
100
AcDbLine
 10
226.6828641985997
 20
142.5741750329273
 30
0.0
 11
226.6828641985997
 21
135.5741750329273
 31
0.0
  0
LINE
  5
945
330
18
100
AcDbEntity
  8
隠れ線2
100
AcDbLine
 10
226.6828641985997
 20
142.5741750329273
 30
0.0
 11
227.1828641985997
 21
143.0741750329273
 31
0.0
  0
LINE
  5
946
330
18
100
AcDbEntity
  8
隠れ線2
100
AcDbLine
 10
226.6828641985997
 20
135.5741750329273
 30
0.0
 11
227.1828641985997
 21
135.0741750329273
 31
0.0
  0
LINE
  5
947
330
18
100
AcDbEntity
  8
隠れ線2
100
AcDbLine
 10
213.8869916200268
 20
135.5741750329272
 30
0.0
 11
230.5828641985998
 21
135.5741750329272
 31
0.0
  0
LINE
  5
948
330
18
100
AcDbEntity
  8
隠れ線2
100
AcDbLine
 10
213.8869916200268
 20
142.5741750329274
 30
0.0
 11
230.5828641985999
 21
142.5741750329273
 31
0.0
  0
LINE
  5
94A
330
18
100
AcDbEntity
  8
隠れ線2
 48
0.5
100
AcDbLine
 10
231.0828641985998
 20
142.5741750329273
 30
0.0
 11
233.5828641985998
 21
142.5741750329273
 31
0.0
  0
LINE
  5
94B
330
18
100
AcDbEntity
  8
隠れ線2
 48
0.5
100
AcDbLine
 10
231.0828641985998
 20
135.5741750329272
 30
0.0
 11
233.5828641985998
 21
135.5741750329273
 31
0.0
  0
LINE
  5
94D
330
18
100
AcDbEntity
  8
外形線
100
AcDbLine
 10
233.5828641985998
 20
143.074175032927
 30
0.0
 11
245.1329354238156
 21
143.0741750329273
 31
0.0
  0
LINE
  5
94E
330
18
100
AcDbEntity
  8
外形線
 62
     1
 48
0.5
100
AcDbLine
 10
233.5828641985998
 20
142.5741750329265
 30
0.0
 11
245.0264206155902
 21
142.5741750329273
 31
0.0
  0
LINE
  5
94F
330
18
100
AcDbEntity
  8
外形線
 62
     1
 48
0.5
100
AcDbLine
 10
233.5828641985998
 20
135.574175032928
 30
0.0
 11
245.0264206155902
 21
135.5741750329271
 31
0.0
  0
LINE
  5
950
330
18
100
AcDbEntity
  8
外形線
100
AcDbLine
 10
233.5828641985998
 20
135.0741750329274
 30
0.0
 11
245.1329354238156
 21
135.0741750329272
 31
0.0
  0
LINE
  5
952
330
18
100
AcDbEntity
  8
隠れ線2
 48
0.5
100
AcDbLine
 10
230.5828641985999
 20
142.5741750329273
 30
0.0
 11
231.0828641985998
 21
142.5741750329273
 31
0.0
  0
LINE
  5
953
330
18
100
AcDbEntity
  8
隠れ線2
 48
0.5
100
AcDbLine
 10
230.5828641985999
 20
135.5741750329272
 30
0.0
 11
231.0828641985998
 21
135.5741750329272
 31
0.0
  0
LINE
  5
955
330
18
100
AcDbEntity
  8
隠れ線2
100
AcDbLine
 10
227.1828641985997
 20
143.0741750329273
 30
0.0
 11
227.1828641985997
 21
135.0741750329273
 31
0.0
  0
LINE
  5
956
330
18
100
AcDbEntity
  8
外形線
100
AcDbLine
 10
231.0828641985998
 20
81.49089732663503
 30
0.0
 11
231.0828641985998
 21
43.49089732663503
 31
0.0
  0
LINE
  5
957
330
18
100
AcDbEntity
  8
外形線
100
AcDbLine
 10
233.6828641985999
 20
81.49089732663503
 30
0.0
 11
233.6828641985998
 21
43.49089732663503
 31
0.0
  0
LINE
  5
958
330
18
100
AcDbEntity
  8
外形線
100
AcDbLine
 10
230.5828641985999
 20
76.49089732663504
 30
0.0
 11
230.5828641985999
 21
48.49089732663504
 31
0.0
  0
LINE
  5
959
330
18
100
AcDbEntity
  8
外形線
100
AcDbLine
 10
209.5828641985998
 20
78.49089732663504
 30
0.0
 11
209.5828641985998
 21
46.49089732663504
 31
0.0
  0
LINE
  5
95A
330
18
100
AcDbEntity
  8
外形線
100
AcDbLine
 10
231.0828641985998
 20
43.49089732663503
 30
0.0
 11
233.6828641985998
 21
43.49089732663503
 31
0.0
  0
LINE
  5
95B
330
18
100
AcDbEntity
  8
外形線
100
AcDbLine
 10
209.5828641985998
 20
46.49089732663504
 30
0.0
 11
228.5828641985998
 21
46.49089732663504
 31
0.0
  0
ARC
  5
95C
330
18
100
AcDbEntity
  8
外形線
100
AcDbCircle
 10
228.5828641985998
 20
48.490897326635
 30
0.0
 40
2.0
100
AcDbArc
 50
270.0
 51
0.0
  0
ARC
  5
95D
330
18
100
AcDbEntity
  8
外形線
100
AcDbCircle
 10
230.5828641985999
 20
54.99089732663501
 30
0.0
 40
0.5
100
AcDbArc
 50
0.0
 51
89.99999999999998
  0
ARC
  5
95E
330
18
100
AcDbEntity
  8
外形線
100
AcDbCircle
 10
230.5828641985999
 20
69.99089732663499
 30
0.0
 40
0.5
100
AcDbArc
 50
270.0
 51
0.0000000000000127
  0
LINE
  5
95F
330
18
100
AcDbEntity
  8
外形線
100
AcDbLine
 10
233.6828641985998
 20
58.49089732663504
 30
0.0
 11
246.6828641985997
 21
58.49089732663492
 31
0.0
  0
LINE
  5
960
330
18
100
AcDbEntity
  8
外形線
 62
     1
100
AcDbLine
 10
233.6828641985998
 20
58.99089732663504
 30
0.0
 11
246.6828641985997
 21
58.99089732663481
 31
0.0
  0
LINE
  5
961
330
18
100
AcDbEntity
  8
外形線
 62
     1
100
AcDbLine
 10
233.6828641985999
 20
65.99089732663504
 30
0.0
 11
246.6828641985997
 21
65.99089732663526
 31
0.0
  0
LINE
  5
962
330
18
100
AcDbEntity
  8
外形線
100
AcDbLine
 10
233.6828641985998
 20
66.49089732663504
 30
0.0
 11
246.6828641985997
 21
66.49089732663515
 31
0.0
  0
LINE
  5
963
330
18
100
AcDbEntity
  8
外形線
100
AcDbLine
 10
231.0828641985998
 20
81.49089732663501
 30
0.0
 11
233.6828641985999
 21
81.49089732663503
 31
0.0
  0
LINE
  5
964
330
18
100
AcDbEntity
  8
外形線
100
AcDbLine
 10
209.5828641985998
 20
78.49089732663504
 30
0.0
 11
228.5828641985998
 21
78.490897326635
 31
0.0
  0
ARC
  5
965
330
18
100
AcDbEntity
  8
外形線
100
AcDbCircle
 10
228.5828641985998
 20
76.49089732663499
 30
0.0
 40
2.0
100
AcDbArc
 50
0.0
 51
89.99999999999998
  0
LINE
  5
967
330
18
100
AcDbEntity
  8
目盛
100
AcDbLine
 10
262.6828641985999
 20
154.5741750329272
 30
0.0
 11
262.6828641985999
 21
151.8241750329272
 31
0.0
  0
LINE
  5
968
330
18
100
AcDbEntity
  8
目盛
100
AcDbLine
 10
263.6561172513042
 20
154.5435893235654
 30
0.0
 11
263.5619314720103
 21
153.046549230923
 31
0.0
  0
LINE
  5
969
330
18
100
AcDbEntity
  8
目盛
100
AcDbLine
 10
264.6255293188466
 20
154.4519529033016
 30
0.0
 11
264.4375294685001
 21
152.9637808513299
 31
0.0
  0
LINE
  5
96A
330
18
100
AcDbEntity
  8
目盛
100
AcDbLine
 10
265.5872745746786
 20
154.2996274192219
 30
0.0
 11
265.3062026028
 21
152.8261965431289
 31
0.0
  0
LINE
  5
96B
330
18
100
AcDbEntity
  8
目盛
100
AcDbLine
 10
266.5375574496551
 20
154.087214030421
 30
0.0
 11
266.1645226189078
 21
152.634339288728
 31
0.0
  0
LINE
  5
96C
330
18
100
AcDbEntity
  8
目盛
100
AcDbLine
 10
267.4726276114116
 20
153.8155510355021
 30
0.0
 11
266.8545936226617
 21
151.9134380029118
 31
0.0
  0
LINE
  5
96D
330
18
100
AcDbEntity
  8
目盛
100
AcDbLine
 10
268.3887947652124
 20
153.4857105641951
 30
0.0
 11
267.8366079361854
 21
152.0910458353628
 31
0.0
  0
LINE
  5
96E
330
18
100
AcDbEntity
  8
目盛
100
AcDbLine
 10
269.2824432178585
 20
153.0989943461505
 30
0.0
 11
268.6437742805109
 21
151.7417537674515
 31
0.0
  0
LINE
  5
96F
330
18
100
AcDbEntity
  8
目盛
100
AcDbLine
 10
270.1500461471765
 20
152.6569285736071
 30
0.0
 11
269.4274156360239
 21
151.3424685535413
 31
0.0
  0
LINE
  5
970
330
18
100
AcDbEntity
  8
目盛
100
AcDbLine
 10
270.9881795207743
 20
152.1612578782085
 30
0.0
 11
270.1844393283059
 21
150.8947659899554
 31
0.0
  0
LINE
  5
974
330
18
100
AcDbEntity
  8
目盛
100
AcDbLine
 10
261.7096111458955
 20
154.5435893235655
 30
0.0
 11
261.8037969251895
 21
153.0465492309231
 31
0.0
  0
LINE
  5
975
330
18
100
AcDbEntity
  8
目盛
100
AcDbLine
 10
260.7401990783531
 20
154.4519529033017
 30
0.0
 11
260.9281989286996
 21
152.9637808513299
 31
0.0
  0
LINE
  5
976
330
18
100
AcDbEntity
  8
目盛
100
AcDbLine
 10
259.7784538225211
 20
154.2996274192219
 30
0.0
 11
260.0595257943997
 21
152.8261965431289
 31
0.0
  0
LINE
  5
977
330
18
100
AcDbEntity
  8
目盛
100
AcDbLine
 10
253.5721927880666
 20
151.6139384457389
 30
0.0
 11
255.1886022318708
 21
149.3891417112078
 31
0.0
  0
LINE
  5
978
330
18
100
AcDbEntity
  8
目盛
100
AcDbLine
 10
257.8931007857882
 20
153.8155510355022
 30
0.0
 11
258.5111347745381
 21
151.9134380029118
 31
0.0
  0
LINE
  5
979
330
18
100
AcDbEntity
  8
目盛
100
AcDbLine
 10
256.9769336319874
 20
153.4857105641952
 30
0.0
 11
257.5291204610144
 21
152.0910458353628
 31
0.0
  0
LINE
  5
97A
330
18
100
AcDbEntity
  8
目盛
100
AcDbLine
 10
256.0832851793413
 20
153.0989943461505
 30
0.0
 11
256.7219541166888
 21
151.7417537674515
 31
0.0
  0
LINE
  5
97B
330
18
100
AcDbEntity
  8
目盛
100
AcDbLine
 10
255.2156822500233
 20
152.6569285736071
 30
0.0
 11
255.9383127611759
 21
151.3424685535413
 31
0.0
  0
LINE
  5
97C
330
18
100
AcDbEntity
  8
目盛
100
AcDbLine
 10
254.3775488764254
 20
152.1612578782085
 30
0.0
 11
255.1812890688939
 21
150.8947659899554
 31
0.0
  0
LINE
  5
97D
330
18
100
AcDbEntity
  8
目盛
100
AcDbLine
 10
258.8281709475446
 20
154.087214030421
 30
0.0
 11
259.2012057782919
 21
152.6343392887281
 31
0.0
  0
LINE
  5
97E
330
18
100
AcDbEntity
  8
目盛
100
AcDbLine
 10
252.8027923574951
 20
151.0171302959519
 30
0.0
 11
253.7589283421182
 21
149.8613604317882
 31
0.0
  0
LINE
  5
97F
330
18
100
AcDbEntity
  8
目盛
100
AcDbLine
 10
252.0723840567051
 20
150.3731887579591
 30
0.0
 11
253.0992047155982
 21
149.2797358168269
 31
0.0
  0
LINE
  5
980
330
18
100
AcDbEntity
  8
目盛
100
AcDbLine
 10
251.383850473568
 20
149.6846551748219
 30
0.0
 11
252.4773034147
 21
148.6578345159288
 31
0.0
  0
LINE
  5
981
330
18
100
AcDbEntity
  8
目盛
100
AcDbLine
 10
247.9414881960249
 20
143.8639384457389
 30
0.0
 11
250.5568936158366
 21
143.0141417112078
 31
0.0
  0
LINE
  5
982
330
18
100
AcDbEntity
  8
目盛
100
AcDbLine
 10
250.1431007857881
 20
148.1848464434605
 30
0.0
 11
251.761134774538
 21
147.0092759388756
 31
0.0
  0
LINE
  5
983
330
18
100
AcDbEntity
  8
目盛
100
AcDbLine
 10
249.5957813533185
 20
147.3794903551017
 30
0.0
 11
250.8622732415716
 21
146.5757501626332
 31
0.0
  0
LINE
  5
984
330
18
100
AcDbEntity
  8
目盛
100
AcDbLine
 10
249.1001106579199
 20
146.5413569815038
 30
0.0
 11
250.4145706779857
 21
145.8187264703512
 31
0.0
  0
LINE
  5
985
330
18
100
AcDbEntity
  8
目盛
100
AcDbLine
 10
248.6580448853765
 20
145.6737540521858
 30
0.0
 11
250.0152854640755
 21
145.0350851148382
 31
0.0
  0
LINE
  5
986
330
18
100
AcDbEntity
  8
目盛
100
AcDbLine
 10
248.2713286673319
 20
144.7801055995397
 30
0.0
 11
249.6659933961643
 21
144.2279187705127
 31
0.0
  0
LINE
  5
987
330
18
100
AcDbEntity
  8
目盛
100
AcDbLine
 10
250.7399089355751
 20
148.9542468740319
 30
0.0
 11
251.8956787997387
 21
147.9981108894089
 31
0.0
  0
LINE
  5
988
330
18
100
AcDbEntity
  8
目盛
100
AcDbLine
 10
247.6698252011061
 20
142.9288682839825
 30
0.0
 11
249.122699942799
 21
142.5558334532352
 31
0.0
  0
LINE
  5
989
330
18
100
AcDbEntity
  8
目盛
100
AcDbLine
 10
247.4574118123051
 20
141.9785854090059
 30
0.0
 11
248.9308426883982
 21
141.6975134371273
 31
0.0
  0
LINE
  5
98A
330
18
100
AcDbEntity
  8
目盛
100
AcDbLine
 10
247.3050863282254
 20
141.0168401531739
 30
0.0
 11
248.7932583801971
 21
140.8288403028274
 31
0.0
  0
LINE
  5
98B
330
18
100
AcDbEntity
  8
目盛
100
AcDbLine
 10
247.9414881960249
 20
134.2844116201155
 30
0.0
 11
250.5568936158366
 21
135.1342083546466
 31
0.0
  0
LINE
  5
98C
330
18
100
AcDbEntity
  8
目盛
100
AcDbLine
 10
247.1828641985998
 20
139.0741750329272
 30
0.0
 11
249.1828641985998
 21
139.0741750329272
 31
0.0
  0
LINE
  5
98D
330
18
100
AcDbEntity
  8
目盛
100
AcDbLine
 10
247.2134499079615
 20
138.1009219802228
 30
0.0
 11
248.710490000604
 21
138.1951077595168
 31
0.0
  0
LINE
  5
98E
330
18
100
AcDbEntity
  8
目盛
100
AcDbLine
 10
247.3050863282254
 20
137.1315099126805
 30
0.0
 11
248.7932583801971
 21
137.3195097630269
 31
0.0
  0
LINE
  5
98F
330
18
100
AcDbEntity
  8
目盛
100
AcDbLine
 10
247.4574118123051
 20
136.1697646568485
 30
0.0
 11
248.9308426883982
 21
136.4508366287271
 31
0.0
  0
LINE
  5
990
330
18
100
AcDbEntity
  8
目盛
100
AcDbLine
 10
247.669825201106
 20
135.2194817818719
 30
0.0
 11
249.122699942799
 21
135.5925166126193
 31
0.0
  0
LINE
  5
991
330
18
100
AcDbEntity
  8
目盛
100
AcDbLine
 10
247.2134499079616
 20
140.0474280856316
 30
0.0
 11
248.710490000604
 21
139.9532423063376
 31
0.0
  0
LINE
  5
992
330
18
100
AcDbEntity
  8
目盛
100
AcDbLine
 10
248.2713286673319
 20
133.3682444663147
 30
0.0
 11
249.6659933961643
 21
133.9204312953417
 31
0.0
  0
LINE
  5
993
330
18
100
AcDbEntity
  8
目盛
100
AcDbLine
 10
248.6580448853765
 20
132.4745960136686
 30
0.0
 11
250.0152854640756
 21
133.1132649510162
 31
0.0
  0
LINE
  5
994
330
18
100
AcDbEntity
  8
目盛
100
AcDbLine
 10
249.10011065792
 20
131.6069930843506
 30
0.0
 11
250.4145706779858
 21
132.3296235955032
 31
0.0
  0
LINE
  5
995
330
18
100
AcDbEntity
  8
目盛
100
AcDbLine
 10
253.5721927880665
 20
126.5344116201155
 30
0.0
 11
255.1886022318708
 21
128.7592083546466
 31
0.0
  0
LINE
  5
996
330
18
100
AcDbEntity
  8
目盛
100
AcDbLine
 10
250.1431007857881
 20
129.9635036223939
 30
0.0
 11
251.761134774538
 21
131.1390741269788
 31
0.0
  0
LINE
  5
997
330
18
100
AcDbEntity
  8
目盛
100
AcDbLine
 10
250.739908935575
 20
129.1941031918225
 30
0.0
 11
251.8956787997388
 21
130.1502391764456
 31
0.0
  0
LINE
  5
998
330
18
100
AcDbEntity
  8
目盛
100
AcDbLine
 10
251.383850473568
 20
128.4636948910325
 30
0.0
 11
252.4773034147001
 21
129.4905155499256
 31
0.0
  0
LINE
  5
999
330
18
100
AcDbEntity
  8
目盛
100
AcDbLine
 10
252.0723840567052
 20
127.7751613078954
 30
0.0
 11
253.0992047155982
 21
128.8686142490274
 31
0.0
  0
LINE
  5
99A
330
18
100
AcDbEntity
  8
目盛
100
AcDbLine
 10
252.8027923574951
 20
127.1312197699025
 30
0.0
 11
253.7589283421182
 21
128.2869896340661
 31
0.0
  0
LINE
  5
99B
330
18
100
AcDbEntity
  8
目盛
100
AcDbLine
 10
249.5957813533186
 20
130.7688597107527
 30
0.0
 11
250.8622732415716
 21
131.5725999032213
 31
0.0
  0
LINE
  5
99C
330
18
100
AcDbEntity
  8
目盛
100
AcDbLine
 10
254.3775488764254
 20
125.987092187646
 30
0.0
 11
255.1812890688939
 21
127.2535840758991
 31
0.0
  0
LINE
  5
99D
330
18
100
AcDbEntity
  8
目盛
100
AcDbLine
 10
255.2156822500233
 20
125.4914214922474
 30
0.0
 11
255.9383127611758
 21
126.8058815123132
 31
0.0
  0
LINE
  5
99E
330
18
100
AcDbEntity
  8
目盛
100
AcDbLine
 10
256.0832851793413
 20
125.049355719704
 30
0.0
 11
256.7219541166888
 21
126.406596298403
 31
0.0
  0
LINE
  5
99F
330
18
100
AcDbEntity
  8
目盛
100
AcDbLine
 10
262.6828641985999
 20
123.5741750329272
 30
0.0
 11
262.6828641985999
 21
126.3241750329272
 31
0.0
  0
LINE
  5
9A0
330
18
100
AcDbEntity
  8
目盛
100
AcDbLine
 10
257.8931007857882
 20
124.3327990303524
 30
0.0
 11
258.511134774538
 21
126.2349120629427
 31
0.0
  0
LINE
  5
9A1
330
18
100
AcDbEntity
  8
目盛
100
AcDbLine
 10
258.8281709475445
 20
124.0611360354334
 30
0.0
 11
259.2012057782919
 21
125.5140107771264
 31
0.0
  0
LINE
  5
9A2
330
18
100
AcDbEntity
  8
目盛
100
AcDbLine
 10
259.7784538225211
 20
123.8487226466326
 30
0.0
 11
260.0595257943997
 21
125.3221535227256
 31
0.0
  0
LINE
  5
9A3
330
18
100
AcDbEntity
  8
目盛
100
AcDbLine
 10
260.7401990783531
 20
123.6963971625529
 30
0.0
 11
260.9281989286996
 21
125.1845692145246
 31
0.0
  0
LINE
  5
9A4
330
18
100
AcDbEntity
  8
目盛
100
AcDbLine
 10
261.7096111458955
 20
123.604760742289
 30
0.0
 11
261.8037969251894
 21
125.1018008349314
 31
0.0
  0
LINE
  5
9A5
330
18
100
AcDbEntity
  8
目盛
100
AcDbLine
 10
256.9769336319873
 20
124.6626395016594
 30
0.0
 11
257.5291204610144
 21
126.0573042304917
 31
0.0
  0
LINE
  5
9A6
330
18
100
AcDbEntity
  8
目盛
100
AcDbLine
 10
263.6561172513042
 20
123.604760742289
 30
0.0
 11
263.5619314720102
 21
125.1018008349314
 31
0.0
  0
LINE
  5
9A7
330
18
100
AcDbEntity
  8
目盛
100
AcDbLine
 10
264.6255293188466
 20
123.6963971625528
 30
0.0
 11
264.4375294685001
 21
125.1845692145246
 31
0.0
  0
LINE
  5
9A8
330
18
100
AcDbEntity
  8
目盛
100
AcDbLine
 10
265.5872745746785
 20
123.8487226466326
 30
0.0
 11
265.3062026028
 21
125.3221535227256
 31
0.0
  0
LINE
  5
9A9
330
18
100
AcDbEntity
  8
目盛
100
AcDbLine
 10
271.7935356091332
 20
126.5344116201156
 30
0.0
 11
270.1771261653289
 21
128.7592083546467
 31
0.0
  0
LINE
  5
9AA
330
18
100
AcDbEntity
  8
目盛
100
AcDbLine
 10
267.4726276114116
 20
124.3327990303523
 30
0.0
 11
266.8545936226616
 21
126.2349120629427
 31
0.0
  0
LINE
  5
9AB
330
18
100
AcDbEntity
  8
目盛
100
AcDbLine
 10
268.3887947652123
 20
124.6626395016593
 30
0.0
 11
267.8366079361853
 21
126.0573042304917
 31
0.0
  0
LINE
  5
9AC
330
18
100
AcDbEntity
  8
目盛
100
AcDbLine
 10
269.2824432178585
 20
125.049355719704
 30
0.0
 11
268.6437742805109
 21
126.406596298403
 31
0.0
  0
LINE
  5
9AD
330
18
100
AcDbEntity
  8
目盛
100
AcDbLine
 10
270.1500461471765
 20
125.4914214922474
 30
0.0
 11
269.4274156360239
 21
126.8058815123132
 31
0.0
  0
LINE
  5
9AE
330
18
100
AcDbEntity
  8
目盛
100
AcDbLine
 10
270.9881795207743
 20
125.987092187646
 30
0.0
 11
270.1844393283058
 21
127.2535840758991
 31
0.0
  0
LINE
  5
9AF
330
18
100
AcDbEntity
  8
目盛
100
AcDbLine
 10
266.5375574496551
 20
124.0611360354335
 30
0.0
 11
266.1645226189078
 21
125.5140107771264
 31
0.0
  0
LINE
  5
9B0
330
18
100
AcDbEntity
  8
目盛
100
AcDbLine
 10
272.5629360397045
 20
127.1312197699025
 30
0.0
 11
271.6068000550815
 21
128.2869896340662
 31
0.0
  0
LINE
  5
9B1
330
18
100
AcDbEntity
  8
目盛
100
AcDbLine
 10
273.2933443404945
 20
127.7751613078953
 30
0.0
 11
272.2665236816015
 21
128.8686142490275
 31
0.0
  0
LINE
  5
9B2
330
18
100
AcDbEntity
  8
目盛
100
AcDbLine
 10
273.9818779236317
 20
128.4636948910326
 30
0.0
 11
272.8884249824996
 21
129.4905155499256
 31
0.0
  0
LINE
  5
9B3
330
18
100
AcDbEntity
  8
目盛
100
AcDbLine
 10
277.4242402011747
 20
134.2844116201155
 30
0.0
 11
274.8088347813631
 21
135.1342083546466
 31
0.0
  0
LINE
  5
9B4
330
18
100
AcDbEntity
  8
目盛
100
AcDbLine
 10
275.2226276114115
 20
129.9635036223939
 30
0.0
 11
273.6045936226616
 21
131.1390741269788
 31
0.0
  0
LINE
  5
9B5
330
18
100
AcDbEntity
  8
目盛
100
AcDbLine
 10
275.7699470438811
 20
130.7688597107527
 30
0.0
 11
274.503455155628
 21
131.5725999032213
 31
0.0
  0
LINE
  5
9B6
330
18
100
AcDbEntity
  8
目盛
100
AcDbLine
 10
276.2656177392797
 20
131.6069930843507
 30
0.0
 11
274.9511577192139
 21
132.3296235955033
 31
0.0
  0
LINE
  5
9B7
330
18
100
AcDbEntity
  8
目盛
100
AcDbLine
 10
276.7076835118231
 20
132.4745960136686
 30
0.0
 11
275.3504429331241
 21
133.1132649510162
 31
0.0
  0
LINE
  5
9B8
330
18
100
AcDbEntity
  8
目盛
100
AcDbLine
 10
277.0943997298677
 20
133.3682444663147
 30
0.0
 11
275.6997350010354
 21
133.9204312953417
 31
0.0
  0
LINE
  5
9B9
330
18
100
AcDbEntity
  8
目盛
100
AcDbLine
 10
274.6258194616246
 20
129.1941031918225
 30
0.0
 11
273.4700495974609
 21
130.1502391764456
 31
0.0
  0
LINE
  5
9BA
330
18
100
AcDbEntity
  8
目盛
100
AcDbLine
 10
277.6959031960936
 20
135.2194817818719
 30
0.0
 11
276.2430284544006
 21
135.5925166126192
 31
0.0
  0
LINE
  5
9BB
330
18
100
AcDbEntity
  8
目盛
100
AcDbLine
 10
277.9083165848945
 20
136.1697646568485
 30
0.0
 11
276.4348857088015
 21
136.4508366287271
 31
0.0
  0
LINE
  5
9BC
330
18
100
AcDbEntity
  8
目盛
100
AcDbLine
 10
278.0606420689742
 20
137.1315099126805
 30
0.0
 11
276.5724700170025
 21
137.319509763027
 31
0.0
  0
LINE
  5
9BD
330
18
100
AcDbEntity
  8
目盛
100
AcDbLine
 10
277.4242402011747
 20
143.8639384457389
 30
0.0
 11
274.808834781363
 21
143.0141417112078
 31
0.0
  0
LINE
  5
9BE
330
18
100
AcDbEntity
  8
目盛
100
AcDbLine
 10
278.1828641985998
 20
139.0741750329272
 30
0.0
 11
276.1828641985998
 21
139.0741750329272
 31
0.0
  0
LINE
  5
9BF
330
18
100
AcDbEntity
  8
目盛
100
AcDbLine
 10
278.1522784892381
 20
140.0474280856316
 30
0.0
 11
276.6552383965956
 21
139.9532423063376
 31
0.0
  0
LINE
  5
9C0
330
18
100
AcDbEntity
  8
目盛
100
AcDbLine
 10
278.0606420689742
 20
141.0168401531739
 30
0.0
 11
276.5724700170025
 21
140.8288403028275
 31
0.0
  0
LINE
  5
9C1
330
18
100
AcDbEntity
  8
目盛
100
AcDbLine
 10
277.9083165848945
 20
141.9785854090059
 30
0.0
 11
276.4348857088015
 21
141.6975134371273
 31
0.0
  0
LINE
  5
9C2
330
18
100
AcDbEntity
  8
目盛
100
AcDbLine
 10
277.6959031960936
 20
142.9288682839825
 30
0.0
 11
276.2430284544006
 21
142.5558334532352
 31
0.0
  0
LINE
  5
9C3
330
18
100
AcDbEntity
  8
目盛
100
AcDbLine
 10
278.152278489238
 20
138.1009219802228
 30
0.0
 11
276.6552383965956
 21
138.1951077595168
 31
0.0
  0
LINE
  5
9C4
330
18
100
AcDbEntity
  8
目盛
100
AcDbLine
 10
277.0943997298677
 20
144.7801055995397
 30
0.0
 11
275.6997350010354
 21
144.2279187705127
 31
0.0
  0
LINE
  5
9C5
330
18
100
AcDbEntity
  8
目盛
100
AcDbLine
 10
276.7076835118231
 20
145.6737540521858
 30
0.0
 11
275.3504429331241
 21
145.0350851148382
 31
0.0
  0
LINE
  5
9C6
330
18
100
AcDbEntity
  8
目盛
100
AcDbLine
 10
276.2656177392797
 20
146.5413569815038
 30
0.0
 11
274.9511577192139
 21
145.8187264703513
 31
0.0
  0
LINE
  5
9C7
330
18
100
AcDbEntity
  8
目盛
100
AcDbLine
 10
271.7935356091332
 20
151.6139384457389
 30
0.0
 11
270.1771261653289
 21
149.3891417112078
 31
0.0
  0
LINE
  5
9C8
330
18
100
AcDbEntity
  8
目盛
100
AcDbLine
 10
275.2226276114115
 20
148.1848464434606
 30
0.0
 11
273.6045936226616
 21
147.0092759388756
 31
0.0
  0
LINE
  5
9C9
330
18
100
AcDbEntity
  8
目盛
100
AcDbLine
 10
274.6258194616246
 20
148.9542468740319
 30
0.0
 11
273.4700495974609
 21
147.9981108894089
 31
0.0
  0
LINE
  5
9CA
330
18
100
AcDbEntity
  8
目盛
100
AcDbLine
 10
273.9818779236318
 20
149.6846551748219
 30
0.0
 11
272.8884249824996
 21
148.6578345159289
 31
0.0
  0
LINE
  5
9CB
330
18
100
AcDbEntity
  8
目盛
100
AcDbLine
 10
273.2933443404945
 20
150.373188757959
 30
0.0
 11
272.2665236816015
 21
149.279735816827
 31
0.0
  0
LINE
  5
9CC
330
18
100
AcDbEntity
  8
目盛
100
AcDbLine
 10
272.5629360397046
 20
151.017130295952
 30
0.0
 11
271.6068000550815
 21
149.8613604317883
 31
0.0
  0
LINE
  5
9CD
330
18
100
AcDbEntity
  8
目盛
100
AcDbLine
 10
275.7699470438811
 20
147.3794903551017
 30
0.0
 11
274.5034551556281
 21
146.5757501626332
 31
0.0
  0
TEXT
  5
9D0
330
18
100
AcDbEntity
  8
文字
100
AcDbText
 10
261.6625817154469
 20
149.6146305324252
 30
0.0
 40
2.0
  1
0
  7
STYLE3
100
AcDbText
  0
TEXT
  5
9D1
330
18
100
AcDbEntity
  8
文字
100
AcDbText
 10
267.3722192178253
 20
146.8801318893293
 30
0.0
 40
2.0
  1
10
  7
STYLE3
100
AcDbText
  0
TEXT
  5
9D2
330
18
100
AcDbEntity
  8
文字
100
AcDbText
 10
271.1295160457681
 20
141.4820211477742
 30
0.0
 40
2.0
  1
20
  7
STYLE3
100
AcDbText
  0
TEXT
  5
9D3
330
18
100
AcDbEntity
  8
文字
100
AcDbText
 10
271.090748168283
 20
134.6151916522432
 30
0.0
 40
2.0
  1
30
  7
STYLE3
100
AcDbText
  0
TEXT
  5
9D4
330
18
100
AcDbEntity
  8
文字
100
AcDbText
 10
267.9592233790634
 20
129.0627604036503
 30
0.0
 40
2.0
  1
40
  7
STYLE3
100
AcDbText
  0
TEXT
  5
9D5
330
18
100
AcDbEntity
  8
文字
100
AcDbText
 10
260.7509991302705
 20
126.5584888347926
 30
0.0
 40
2.0
  1
50
  7
STYLE3
100
AcDbText
  0
TEXT
  5
9D6
330
18
100
AcDbEntity
  8
文字
100
AcDbText
 10
254.1768645491127
 20
128.8028921081396
 30
0.0
 40
2.0
  1
40
  7
STYLE3
100
AcDbText
  0
TEXT
  5
9D7
330
18
100
AcDbEntity
  8
文字
100
AcDbText
 10
250.2717173221204
 20
134.0302132384088
 30
0.0
 40
2.0
  1
30
  7
STYLE3
100
AcDbText
  0
TEXT
  5
9D8
330
18
100
AcDbEntity
  8
文字
100
AcDbText
 10
250.4897244212016
 20
141.8177960104855
 30
0.0
 40
2.0
  1
20
  7
STYLE3
100
AcDbText
  0
TEXT
  5
9D9
330
18
100
AcDbEntity
  8
文字
100
AcDbText
 10
253.8276445813814
 20
147.0443334631192
 30
0.0
 40
2.0
  1
10
  7
STYLE3
100
AcDbText
  0
TEXT
  5
9DE
330
18
100
AcDbEntity
  8
文字
100
AcDbText
 10
259.4389886177299
 20
134.1199891846375
 30
0.0
 40
1.0
  1
0.01mm
  7
STYLE3
100
AcDbText
  0
TEXT
  5
A0C
330
18
100
AcDbEntity
  8
文字
100
AcDbText
 10
258.7603180081682
 20
149.6146305324252
 30
0.0
 40
2.0
  1
-
  7
STYLE3
100
AcDbText
  0
TEXT
  5
A0D
330
18
100
AcDbEntity
  8
文字
100
AcDbText
 10
263.9373294090219
 20
149.6146305324252
 30
0.0
 40
2.0
  1
+
  7
STYLE3
100
AcDbText
  0
LINE
  5
A0E
330
18
100
AcDbEntity
  8
文字
100
AcDbLine
 10
231.0828641985998
 20
155.607542916206
 30
0.0
 11
233.5828641985998
 21
157.1086536160991
 31
0.0
  0
LINE
  5
A0F
330
18
100
AcDbEntity
  8
文字
100
AcDbLine
 10
231.0828641985998
 20
154.4528423778268
 30
0.0
 11
233.5828641985998
 21
155.9539530777198
 31
0.0
  0
LINE
  5
A10
330
18
100
AcDbEntity
  8
文字
100
AcDbLine
 10
231.0991103000723
 20
153.307521530506
 30
0.0
 11
233.5828641985998
 21
154.7992525393406
 31
0.0
  0
LINE
  5
A11
330
18
100
AcDbEntity
  8
文字
100
AcDbLine
 10
231.0828641985998
 20
152.1434413010683
 30
0.0
 11
233.5828641985998
 21
153.6445520009613
 31
0.0
  0
LINE
  5
A12
330
18
100
AcDbEntity
  8
文字
100
AcDbLine
 10
231.0828641985998
 20
150.9887407626891
 30
0.0
 11
233.5828641985998
 21
152.4898514625821
 31
0.0
  0
LINE
  5
A13
330
18
100
AcDbEntity
  8
文字
100
AcDbLine
 10
233.5828641985998
 20
152.3349008582433
 30
0.0
 11
231.0828641985998
 21
153.8360115581364
 31
0.0
  0
LINE
  5
A14
330
18
100
AcDbEntity
  8
文字
100
AcDbLine
 10
233.5828641985998
 20
153.4896013966226
 30
0.0
 11
231.0828641985998
 21
154.9907120965156
 31
0.0
  0
LINE
  5
A15
330
18
100
AcDbEntity
  8
文字
100
AcDbLine
 10
233.5828641985998
 20
154.6443019350018
 30
0.0
 11
231.0828641985998
 21
156.1454126348949
 31
0.0
  0
LINE
  5
A16
330
18
100
AcDbEntity
  8
文字
100
AcDbLine
 10
233.5828641985998
 20
155.7990024733811
 30
0.0
 11
231.0828641985998
 21
157.3001131732742
 31
0.0
  0
LINE
  5
A17
330
18
100
AcDbEntity
  8
文字
100
AcDbLine
 10
233.5828641985998
 20
156.9537030117604
 30
0.0
 11
231.7421497294794
 21
158.0741750329272
 31
0.0
  0
LINE
  5
A18
330
18
100
AcDbEntity
  8
文字
100
AcDbLine
 10
231.0828641985998
 20
156.7622434545853
 30
0.0
 11
233.2551963483422
 21
158.0741750329273
 31
0.0
  0
LINE
  5
A19
330
18
100
AcDbEntity
  8
文字
100
AcDbLine
 10
231.0828641985998
 20
157.9169439929646
 30
0.0
 11
231.3551963483421
 21
158.0741750329273
 31
0.0
  0
LINE
  5
A1A
330
18
100
AcDbEntity
  8
文字
100
AcDbLine
 10
233.5828641985998
 20
151.1802003198641
 30
0.0
 11
231.0828641985998
 21
152.6813110197571
 31
0.0
  0
LINE
  5
A1B
330
18
100
AcDbEntity
  8
文字
100
AcDbLine
 10
232.0144818792216
 20
150.9887407626891
 30
0.0
 11
231.0828641985998
 21
151.5266104813779
 31
0.0
  0
POINT
  5
AE6
330
18
100
AcDbEntity
  8
DEFPOINTS
  6
ByBlock
 62
     0
100
AcDbPoint
 10
289.6828641985998
 20
118.3870876051288
 30
0.0
  0
LINE
  5
AE8
330
18
100
AcDbEntity
  8
0
  6
ByBlock
 62
     2
100
AcDbLine
 10
289.6828641985998
 20
139.0741750329272
 30
0.0
 11
289.6828641985998
 21
118.3870876051288
 31
0.0
  0
LINE
  5
AE9
330
18
100
AcDbEntity
  8
0
  6
ByBlock
 62
     2
100
AcDbLine
 10
282.1828641985998
 20
119.6370876051288
 30
0.0
 11
279.6828641985998
 21
119.6370876051288
 31
0.0
  0
LINE
  5
AEA
330
18
100
AcDbEntity
  8
0
  6
ByBlock
 62
     2
100
AcDbLine
 10
292.1828641985998
 20
119.6370876051288
 30
0.0
 11
298.1493420687614
 21
119.6370876051288
 31
0.0
  0
MTEXT
  5
AED
330
18
100
AcDbEntity
  8
0
  6
ByBlock
 62
     6
100
AcDbMText
 10
292.5475073147751
 20
121.5295012412052
 30
0.0
 40
2.5
 41
0.0
 71
     4
 72
     1
  1
\A1;3.5
  7
STYLE3
 73
     1
 44
1.0
  0
LINE
  5
AEE
330
18
100
AcDbEntity
  8
0
  6
ByBlock
 62
     2
100
AcDbLine
 10
286.1828641985998
 20
119.6370876051288
 30
0.0
 11
289.6828641985998
 21
119.6370876051288
 31
0.0
  0
LINE
  5
AEF
330
18
100
AcDbEntity
  8
0
  6
ByBlock
 62
     2
100
AcDbLine
 10
286.1828641985998
 20
119.6370876051288
 30
0.0
 11
289.6828641985998
 21
119.6370876051288
 31
0.0
  0
INSERT
  5
AF1
330
18
100
AcDbEntity
  8
0
  6
ByBlock
 62
     2
100
AcDbBlockReference
  2
_OPEN
 10
289.6828641985999
 20
119.6370876051288
 30
0.0
 41
2.5
 42
2.5
 43
2.5
 50
180.0
  0
POINT
  5
AF2
330
18
100
AcDbEntity
  8
DEFPOINTS
  6
ByBlock
 62
     0
100
AcDbPoint
 10
286.1828641985998
 20
128.5741750329272
 30
0.0
  0
POINT
  5
AF3
330
18
100
AcDbEntity
  8
DEFPOINTS
  6
ByBlock
 62
     0
100
AcDbPoint
 10
289.6828641985998
 20
139.0741750329272
 30
0.0
  0
POINT
  5
AF4
330
18
100
AcDbEntity
  8
DEFPOINTS
  6
ByBlock
 62
     0
100
AcDbPoint
 10
289.6828641985998
 20
119.6370876051288
 30
0.0
  0
LINE
  5
AF5
330
18
100
AcDbEntity
  8
0
  6
ByBlock
 62
     2
100
AcDbLine
 10
286.1828641985998
 20
128.5741750329272
 30
0.0
 11
286.1828641985998
 21
118.8114455420026
 31
0.0
  0
LINE
  5
AF6
330
18
100
AcDbEntity
  8
0
  6
ByBlock
 62
     2
100
AcDbLine
 10
281.1828641985997
 20
119.6370876051288
 30
0.0
 11
278.6828641985998
 21
119.6370876051288
 31
0.0
  0
LINE
  5
AF7
330
18
100
AcDbEntity
  8
0
  6
ByBlock
 62
     2
100
AcDbLine
 10
288.6828641985998
 20
119.6370876051288
 30
0.0
 11
291.1828641985998
 21
119.6370876051288
 31
0.0
  0
MTEXT
  5
AFA
330
18
100
AcDbEntity
  8
0
  6
ByBlock
 62
     6
100
AcDbMText
 10
285.1427306557884
 20
116.9610036503793
 30
0.0
 40
2.5
 41
0.0
 71
     4
 72
     1
  1
\A1;1
  7
STYLE3
 73
     1
 44
1.0
  0
LINE
  5
AFB
330
18
100
AcDbEntity
  8
外形線
100
AcDbLine
 10
285.1828641985997
 20
119.6370876051288
 30
0.0
 11
286.1828641985998
 21
119.6370876051288
 31
0.0
  0
LINE
  5
AFC
330
18
100
AcDbEntity
  8
外形線
100
AcDbLine
 10
285.1828641985997
 20
119.6370876051288
 30
0.0
 11
286.1828641985998
 21
119.6370876051288
 31
0.0
  0
POINT
  5
AFF
330
18
100
AcDbEntity
  8
DEFPOINTS
  6
ByBlock
 62
     0
100
AcDbPoint
 10
285.1828641985997
 20
128.5741750329272
 30
0.0
  0
POINT
  5
B00
330
18
100
AcDbEntity
  8
DEFPOINTS
  6
ByBlock
 62
     0
100
AcDbPoint
 10
286.1828641985998
 20
128.5741750329272
 30
0.0
  0
POINT
  5
B01
330
18
100
AcDbEntity
  8
外形線
100
AcDbPoint
 10
286.1828641985998
 20
119.6370876051288
 30
0.0
  0
POINT
  5
B0C
330
18
100
AcDbEntity
  8
DEFPOINTS
  6
ByBlock
 62
     0
100
AcDbPoint
 10
230.5828641985998
 20
125.0741750329272
 30
0.0
  0
POINT
  5
B0D
330
18
100
AcDbEntity
  8
DEFPOINTS
  6
ByBlock
 62
     0
100
AcDbPoint
 10
233.5828641985998
 20
120.0741750329272
 30
0.0
  0
POINT
  5
B1B
330
18
100
AcDbEntity
  8
DEFPOINTS
  6
ByBlock
 62
     0
100
AcDbPoint
 10
233.5828641985998
 20
120.0741750329272
 30
0.0
  0
POINT
  5
B1C
330
18
100
AcDbEntity
  8
DEFPOINTS
  6
ByBlock
 62
     0
100
AcDbPoint
 10
285.6217496223503
 20
139.0741750329272
 30
0.0
  0
POINT
  5
B24
330
18
100
AcDbEntity
  8
DEFPOINTS
  6
ByBlock
 62
     0
100
AcDbPoint
 10
209.5828641985998
 20
123.0741750329273
 30
0.0
  0
POINT
  5
B25
330
18
100
AcDbEntity
  8
DEFPOINTS
  6
ByBlock
 62
     0
100
AcDbPoint
 10
230.5828641985998
 20
125.0741750329272
 30
0.0
  0
LINE
  5
B27
330
18
100
AcDbEntity
  8
0
  6
ByBlock
 62
     2
100
AcDbLine
 10
285.1828641985997
 20
128.5741750329272
 30
0.0
 11
285.1828641985997
 21
118.8114455420026
 31
0.0
  0
LINE
  5
B28
330
18
100
AcDbEntity
  8
0
  6
ByBlock
 62
     2
100
AcDbLine
 10
278.1828641985998
 20
119.6370876051288
 30
0.0
 11
272.4004405714258
 21
119.6370876051288
 31
0.0
  0
LINE
  5
B29
330
18
100
AcDbEntity
  8
0
  6
ByBlock
 62
     2
100
AcDbLine
 10
287.6828641985998
 20
119.6370876051288
 30
0.0
 11
290.1828641985998
 21
119.6370876051288
 31
0.0
  0
LINE
  5
B2A
330
18
100
AcDbEntity
  8
0
  6
ByBlock
 62
     2
100
AcDbLine
 10
280.6828641985998
 20
119.6370876051288
 30
0.0
 11
285.1828641985997
 21
119.6370876051288
 31
0.0
  0
INSERT
  5
B2B
330
18
100
AcDbEntity
  8
0
  6
ByBlock
 62
     2
100
AcDbBlockReference
  2
_OPEN
 10
280.6828641985998
 20
119.6370876051288
 30
0.0
 41
2.5
 42
2.5
 43
2.5
  0
MTEXT
  5
B2D
330
18
100
AcDbEntity
  8
0
  6
ByBlock
 62
     6
100
AcDbMText
 10
275.1786292620439
 20
121.5120876051288
 30
0.0
 40
2.5
 41
0.0
 71
     5
 72
     1
  1
4.5
  7
STYLE3
 73
     1
 44
1.0
  0
POINT
  5
B2E
330
18
100
AcDbEntity
  8
外形線
100
AcDbPoint
 10
280.6828641985998
 20
139.0741750329272
 30
0.0
  0
POINT
  5
B2F
330
18
100
AcDbEntity
  8
DEFPOINTS
  6
ByBlock
 62
     0
100
AcDbPoint
 10
285.1828641985997
 20
128.5741750329272
 30
0.0
  0
POINT
  5
B30
330
18
100
AcDbEntity
  8
外形線
100
AcDbPoint
 10
285.1828641985997
 20
119.6370876051288
 30
0.0
  0
LINE
  5
B31
330
18
100
AcDbEntity
  8
0
  6
ByBlock
 62
     2
100
AcDbLine
 10
280.6828641985998
 20
139.0741750329272
 30
0.0
 11
280.6828641985998
 21
118.8114455420027
 31
0.0
  0
INSERT
  5
B34
330
18
100
AcDbEntity
  8
0
  6
ByBlock
 62
     2
100
AcDbBlockReference
  2
_OPEN
 10
280.6828641985998
 20
119.6370876051288
 30
0.0
 41
2.5
 42
2.5
 43
2.5
  0
POINT
  5
B36
330
18
100
AcDbEntity
  8
DEFPOINTS
  6
ByBlock
 62
     0
100
AcDbPoint
 10
285.6217496223503
 20
139.0741750329272
 30
0.0
  0
POINT
  5
B37
330
18
100
AcDbEntity
  8
外形線
100
AcDbPoint
 10
280.6828641985998
 20
139.0741750329272
 30
0.0
  0
POINT
  5
B38
330
18
100
AcDbEntity
  8
DEFPOINTS
  6
ByBlock
 62
     0
100
AcDbPoint
 10
280.6828641985998
 20
119.6370876051288
 30
0.0
  0
POINT
  5
BBD
330
18
100
AcDbEntity
  8
DEFPOINTS
  6
ByBlock
 62
     0
100
AcDbPoint
 10
292.5100990449447
 20
62.49089732663503
 30
0.0
  0
POINT
  5
BBE
330
18
100
AcDbEntity
  8
DEFPOINTS
  6
ByBlock
 62
     0
100
AcDbPoint
 10
286.1828641985997
 20
65.99089732663504
 30
0.0
  0
LINE
  5
C22
330
18
100
AcDbEntity
  8
0
  6
ByBlock
 62
     2
100
AcDbLine
 10
244.6828641985997
 20
71.54089732663499
 30
0.0
 11
244.6828641985998
 21
83.92509100246909
 31
0.0
  0
LINE
  5
C23
330
18
100
AcDbEntity
  8
0
  6
ByBlock
 62
     2
100
AcDbLine
 10
280.6828641985998
 20
71.54089732663499
 30
0.0
 11
280.6828641985998
 21
83.92509100246909
 31
0.0
  0
LINE
  5
C24
330
18
100
AcDbEntity
  8
0
  6
ByBlock
 62
     2
100
AcDbLine
 10
247.1828641985998
 20
82.67509100246909
 30
0.0
 11
278.1828641985998
 21
82.67509100246909
 31
0.0
  0
INSERT
  5
C25
330
18
100
AcDbEntity
  8
0
  6
ByBlock
 62
     2
100
AcDbBlockReference
  2
_OPEN
 10
244.6828641985997
 20
82.67509100246908
 30
0.0
 41
2.5
 42
2.5
 43
2.5
 50
180.0
  0
INSERT
  5
C26
330
18
100
AcDbEntity
  8
0
  6
ByBlock
 62
     2
100
AcDbBlockReference
  2
_OPEN
 10
280.6828641985998
 20
82.67509100246908
 30
0.0
 41
2.5
 42
2.5
 43
2.5
  0
MTEXT
  5
C27
330
18
100
AcDbEntity
  8
0
  6
ByBlock
 62
     6
100
AcDbMText
 10
262.6828641985998
 20
84.55009100246909
 30
0.0
 40
2.5
 41
0.0
 71
     5
 72
     1
  1
\A1;φ36
  7
STYLE3
 73
     1
 44
1.0
  0
POINT
  5
C28
330
18
100
AcDbEntity
  8
DEFPOINTS
  6
ByBlock
 62
     0
100
AcDbPoint
 10
244.6828641985997
 20
72.69089732663502
 30
0.0
  0
POINT
  5
C29
330
18
100
AcDbEntity
  8
DEFPOINTS
  6
ByBlock
 62
     0
100
AcDbPoint
 10
280.6828641985998
 20
71.54089732663499
 30
0.0
  0
POINT
  5
C2A
330
18
100
AcDbEntity
  8
DEFPOINTS
  6
ByBlock
 62
     0
100
AcDbPoint
 10
280.6828641985998
 20
82.67509100246909
 30
0.0
  0
LEADER
  5
C2D
330
18
100
AcDbEntity
  8
寸法線
 62
     2
100
AcDbLeader
  3
STYLE3
 73
     0
 75
     1
 40
2.5
 41
15.73809523809523
 76
     3
 10
222.3692364725459
 20
143.0741750329273
 30
0.0
 10
209.2033940238373
 20
164.4329588328277
 30
0.0
 10
206.7033940238373
 20
164.4329588328277
 30
0.0
340
C2E
211
1.0
221
-0.0000000000000005
231
0.0
1001
ACAD
1000
DSTYLE
1002
{
1070
   271
1070
     2
1002
}
  0
MTEXT
  5
C2E
102
{ACAD_REACTORS
330
C2D
102
}
330
18
100
AcDbEntity
  8
寸法線
 62
     6
100
AcDbMText
 10
206.0783940238373
 20
166.3079588328277
 30
0.0
 40
2.5
 41
0.0
 71
     6
 72
     1
  1
\A1;M8×0.75
  7
STYLE3
 73
     1
 44
1.0
  0
POINT
  5
C4D
330
18
100
AcDbEntity
  8
DEFPOINTS
  6
ByBlock
 62
     0
100
AcDbPoint
 10
280.1828641985998
 20
67.340897326635
 30
0.0
  0
MTEXT
  5
D42
330
18
100
AcDbEntity
  8
寸法線
 62
     6
100
AcDbMText
 10
156.8020542294098
 20
125.2316377791516
 30
0.0
 40
2.5
 41
0.0
 71
     4
 72
     1
  1
\A1;
  7
STYLE3
 73
     1
 44
1.0
  0
MTEXT
  5
D49
330
18
100
AcDbEntity
  8
寸法線
 62
     6
100
AcDbMText
 10
157.9828971517251
 20
118.25642576602
 30
0.0
 40
2.5
 41
0.0
 71
     4
 72
     1
  1
\A1;
  7
STYLE3
 73
     1
 44
1.0
  0
CIRCLE
  5
D4F
102
{ACAD_REACTORS
330
D52
102
}
330
18
100
AcDbEntity
  8
外形線
100
AcDbCircle
 10
286.1828641985998
 20
119.6370876051288
 30
0.0
 40
0.2568595749982947
  0
HATCH
  5
D52
330
18
100
AcDbEntity
  8
外形線
100
AcDbHatch
 10
0.0
 20
0.0
 30
0.0
210
0.0
220
0.0
230
1.0
  2
SOLID
 70
     1
 71
     1
 91
        1
 92
        1
 93
        1
 72
     2
 10
286.1828641985998
 20
119.6370876051288
 40
0.2568595749982947
 50
0.0
 51
360.0
 73
     1
 97
        1
330
D4F
 75
     0
 76
     1
 98
        1
 10
131.900692942901
 20
-43.18019872946206
450
        0
451
        0
460
0.0
461
0.0
452
        0
462
0.0
453
        0
470

  0
HATCH
  5
D53
330
18
100
AcDbEntity
  8
外形線
100
AcDbHatch
 10
0.0
 20
0.0
 30
0.0
210
0.0
220
0.0
230
1.0
  2
SOLID
 70
     1
 71
     1
 91
        1
 92
        1
 93
        1
 72
     2
 10
285.1828641985997
 20
119.6370876051288
 40
0.2568595749982947
 50
0.0
 51
360.0
 73
     1
 97
        1
330
D54
 75
     0
 76
     1
 98
        1
 10
130.900692942901
 20
-43.18019872946206
450
        0
451
        0
460
0.0
461
0.0
452
        0
462
0.0
453
        0
470

  0
CIRCLE
  5
D54
102
{ACAD_REACTORS
330
D53
102
}
330
18
100
AcDbEntity
  8
外形線
100
AcDbCircle
 10
285.1828641985997
 20
119.6370876051288
 30
0.0
 40
0.2568595749982947
  0
POINT
  5
D55
330
18
100
AcDbEntity
  8
外形線
100
AcDbPoint
 10
285.1828641985997
 20
119.6370876051288
 30
0.0
  0
DIMENSION
  5
F25
330
18
100
AcDbEntity
  8
寸法線
100
AcDbDimension
  2
*D3
 10
278.1828641985998
 20
164.5467002871611
 30
0.0
 11
262.6828641985998
 21
166.4217002871611
 31
0.0
 70
    32
  1
φ31
 71
     5
 42
31.0
  3
STYLE3
100
AcDbAlignedDimension
 13
247.1828641985998
 23
139.0741750329273
 33
0.0
 14
278.1828641985998
 24
139.0741750329273
 34
0.0
100
AcDbRotatedDimension
1001
ACAD
1000
DSTYLE
1002
{
1070
   271
1070
     2
1002
}
  0
LINE
  5
F3D
330
18
100
AcDbEntity
  8
外形線
100
AcDbLine
 10
280.6828641985998
 20
65.99089732663504
 30
0.0
 11
280.6828641985998
 21
58.99089732663505
 31
0.0
  0
LINE
  5
F3E
330
18
100
AcDbEntity
  8
外形線
100
AcDbLine
 10
280.1828641985998
 20
66.49089732663504
 30
0.0
 11
278.6828641985998
 21
66.49089732663504
 31
0.0
  0
LINE
  5
F3F
330
18
100
AcDbEntity
  8
外形線
100
AcDbLine
 10
280.1828641985998
 20
58.49089732663504
 30
0.0
 11
278.6828641985998
 21
58.49089732663505
 31
0.0
  0
ARC
  5
F40
330
18
100
AcDbEntity
  8
外形線
100
AcDbCircle
 10
280.1828641985998
 20
65.99089732663504
 30
0.0
 40
0.5
100
AcDbArc
 50
360.0
 51
90.0
  0
ARC
  5
F41
330
18
100
AcDbEntity
  8
外形線
100
AcDbCircle
 10
280.1828641985998
 20
58.99089732663505
 30
0.0
 40
0.5
100
AcDbArc
 50
270.0
 51
359.9999999999997
  0
LINE
  5
F5B
330
18
100
AcDbEntity
  8
外形線
100
AcDbLine
 10
280.6828641985998
 20
135.5741750329272
 30
0.0
 11
280.6828641985998
 21
142.5741750329273
 31
0.0
  0
ARC
  5
F5E
330
18
100
AcDbEntity
  8
外形線
100
AcDbCircle
 10
280.1828641985998
 20
142.5741750329273
 30
0.0
 40
0.5
100
AcDbArc
 50
0.0
 51
89.99999999999994
  0
ARC
  5
F5F
330
18
100
AcDbEntity
  8
外形線
100
AcDbCircle
 10
280.1828641985998
 20
135.5741750329272
 30
0.0
 40
0.5
100
AcDbArc
 50
269.9999999999999
 51
0.0
  0
LINE
  5
FAC
330
18
100
AcDbEntity
  8
隠れ線2
100
AcDbLine
 10
211.8662656778631
 20
139.0741750329273
 30
0.0
 11
213.8869916200268
 21
142.5741750329274
 31
0.0
  0
LINE
  5
FAD
330
18
100
AcDbEntity
  8
隠れ線2
100
AcDbLine
 10
211.8662656778631
 20
139.0741750329273
 30
0.0
 11
213.8869916200268
 21
135.5741750329273
 31
0.0
  0
LINE
  5
FAE
330
18
100
AcDbEntity
  8
隠れ線2
100
AcDbLine
 10
215.5828641985998
 20
143.0741750329273
 30
0.0
 11
215.5828641985998
 21
135.0741750329273
 31
0.0
  0
DIMENSION
  5
FBC
330
18
100
AcDbEntity
  8
寸法線
100
AcDbDimension
  2
*D4
 10
262.6828641985998
 20
109.2146432003898
 30
0.0
 11
244.6828641985998
 21
111.0896432003898
 31
0.0
 70
    32
 71
     5
 42
36.0
  3
STYLE3
100
AcDbAlignedDimension
 13
226.6828641985997
 23
135.5741750329273
 33
0.0
 14
262.6828641985998
 24
117.6352896091768
 34
0.0
100
AcDbRotatedDimension
1001
ACAD
1000
DSTYLE
1002
{
1070
   271
1070
     2
1002
}
  0
DIMENSION
  5
FC8
330
18
100
AcDbEntity
  8
寸法線
100
AcDbDimension
  2
*D5
 10
289.6828641985998
 20
109.2146432003898
 30
0.0
 11
276.1828641985998
 21
111.0896432003898
 31
0.0
 70
    32
 71
     5
 42
27.00000000000006
  3
STYLE3
100
AcDbAlignedDimension
 13
262.6828641985998
 23
117.6352896091768
 33
0.0
 14
289.6828641985998
 24
118.3870876051288
 34
0.0
100
AcDbRotatedDimension
1001
ACAD
1000
DSTYLE
1002
{
1070
    75
1070
     1
1070
   271
1070
     2
1070
   279
1070
     1
1002
}
  0
DIMENSION
  5
FD5
330
18
100
AcDbEntity
  8
寸法線
100
AcDbDimension
  2
*D6
 10
289.6828641985998
 20
102.5028392342315
 30
0.0
 11
249.6328641985998
 21
104.3778392342315
 31
0.0
 70
    32
  1
66～80
 71
     5
 42
80.10000000000003
  3
STYLE3
100
AcDbAlignedDimension
 13
209.5828641985998
 23
123.0741750329273
 33
0.0
 14
289.6828641985998
 24
107.9646432003898
 34
0.0
100
AcDbRotatedDimension
1001
ACAD
1000
DSTYLE
1002
{
1070
   271
1070
     2
1002
}
  0
DIMENSION
  5
1045
330
18
100
AcDbEntity
  8
寸法線
100
AcDbDimension
  2
*D7
 10
196.8702031524109
 20
81.49089732663503
 30
0.0
 11
194.9952031524109
 21
62.49089732663506
 31
0.0
 70
    32
  1
φ38
 71
     5
 42
37.99999999999998
  3
STYLE3
100
AcDbAlignedDimension
 13
231.0828641985998
 23
43.49089732663503
 33
0.0
 14
231.0828641985998
 24
81.49089732663501
 34
0.0
 50
90.0
100
AcDbRotatedDimension
1001
ACAD
1000
DSTYLE
1002
{
1070
   271
1070
     2
1002
}
  0
DIMENSION
  5
1052
330
18
100
AcDbEntity
  8
寸法線
100
AcDbDimension
  2
*D8
 10
203.3799663758787
 20
46.49089732663504
 30
0.0
 11
201.5049663758787
 21
62.49089732663506
 31
0.0
 70
    32
  1
φ32
 71
     5
 42
31.99999999999999
  3
STYLE3
100
AcDbAlignedDimension
 13
209.5828641985998
 23
78.49089732663504
 33
0.0
 14
209.5828641985998
 24
46.49089732663504
 34
0.0
 50
90.0
100
AcDbRotatedDimension
1001
ACAD
1000
DSTYLE
1002
{
1070
   271
1070
     2
1002
}
  0
DIMENSION
  5
1061
330
18
100
AcDbEntity
  8
寸法線
100
AcDbDimension
  2
*D9
 10
230.5828641985999
 20
36.40589234830247
 30
0.0
 11
232.1328641985998
 21
38.28089234830247
 31
0.0
 70
    32
  1
3
 71
     5
 42
3.099999999999965
  3
STYLE3
100
AcDbAlignedDimension
 13
233.6828641985998
 23
43.49089732663503
 33
0.0
 14
230.5828641985999
 24
48.49089732663504
 34
0.0
100
AcDbRotatedDimension
1001
ACAD
1000
DSTYLE
1002
{
1070
   271
1070
     2
1002
}
  0
DIMENSION
  5
1087
330
18
100
AcDbEntity
  8
寸法線
100
AcDbDimension
  2
*D10
 10
230.5828641985999
 20
36.40589234830247
 30
0.0
 11
220.0828641985998
 21
38.28089234830247
 31
0.0
 70
    32
 71
     5
 42
21.00000000000006
  3
STYLE3
100
AcDbAlignedDimension
 13
209.5828641985998
 23
46.49089732663504
 33
0.0
 14
230.5828641985999
 24
38.01818016598821
 34
0.0
100
AcDbRotatedDimension
1001
ACAD
1000
DSTYLE
1002
{
1070
   271
1070
     2
1002
}
  0
LINE
  5
1152
330
18
100
AcDbEntity
  8
隠れ線2
100
AcDbLine
 10
213.8869916200268
 20
142.5741750329274
 30
0.0
 11
213.8869916200268
 21
135.5741750329272
 31
0.0
  0
DIMENSION
  5
11A5
330
18
100
AcDbEntity
  8
寸法線
100
AcDbDimension
  2
*D11
 10
215.5828641985998
 20
164.3197673173367
 30
0.0
 11
223.0828641985998
 21
166.1947673173367
 31
0.0
 70
    32
 71
     5
 42
15.00000000000003
  3
STYLE3
100
AcDbAlignedDimension
 13
230.5828641985999
 23
153.0741750329272
 33
0.0
 14
215.5828641985998
 24
143.0741750329273
 34
0.0
100
AcDbRotatedDimension
1001
ACAD
1000
DSTYLE
1002
{
1070
   271
1070
     2
1002
}
  0
LINE
  5
176B
330
18
100
AcDbEntity
  8
0
  6
ByBlock
 62
     2
100
AcDbLine
 10
283.9503189265666
 20
58.24089732663499
 30
0.0
 11
283.9503189265666
 21
49.11857895953052
 31
0.0
  0
LINE
  5
176C
330
18
100
AcDbEntity
  8
0
  6
ByBlock
 62
     2
100
AcDbLine
 10
283.9503189265666
 20
66.74089732663505
 30
0.0
 11
283.9503189265666
 21
70.257884058535
 31
0.0
  0
LINE
  5
176D
330
18
100
AcDbEntity
  8
0
  6
ByBlock
 62
     2
100
AcDbLine
 10
283.9503189265666
 20
60.74089732663499
 30
0.0
 11
283.9503189265666
 21
64.24089732663505
 31
0.0
  0
INSERT
  5
176E
330
18
100
AcDbEntity
  8
0
  6
ByBlock
 62
     2
100
AcDbBlockReference
  2
_OPEN
 10
283.9503189265666
 20
60.74089732663499
 30
0.0
 41
2.5
 42
2.5
 43
2.5
 50
90.0
  0
INSERT
  5
176F
330
18
100
AcDbEntity
  8
0
  6
ByBlock
 62
     2
100
AcDbBlockReference
  2
_OPEN
 10
283.9503189265666
 20
64.24089732663505
 30
0.0
 41
2.5
 42
2.5
 43
2.5
 50
270.0
  0
MTEXT
  5
1770
330
18
100
AcDbEntity
  8
0
  6
ByBlock
 62
     6
100
AcDbMText
 10
282.0753189265666
 20
53.3893854879644
 30
0.0
 40
2.5
 41
0.0
 71
     5
 72
     1
  1
\A1;φ3.5
  7
STYLE3
 11
0.0000000000000001
 21
1.0
 31
0.0
 73
     1
 44
1.0
  0
HATCH
  5
1CDE
330
18
100
AcDbEntity
  8
針
100
AcDbHatch
 10
0.0
 20
0.0
 30
0.0
210
0.0
220
0.0
230
1.0
  2
SOLID
 70
     1
 71
     0
 91
        1
 92
        7
 72
     1
 73
     1
 93
        7
 10
271.3758935119336
 20
150.92851880884
 42
0.0
 10
271.3233074072992
 20
150.966724850239
 42
0.0
 10
271.2707213026649
 20
151.0049308916381
 42
0.0
 10
263.4731996281001
 20
140.6331150986601
 42
-0.1443545616784134
 10
263.2462557860919
 20
140.4643512516647
 42
-0.1222437615213236
 10
263.8309027752056
 20
140.0395803502034
 42
-0.1443545616783651
 10
263.9212772276564
 20
140.3075676667359
 42
0.0
 97
        0
 75
     0
 76
     1
 47
0.0443407669343012
 98
        1
 10
264.345564809284
 20
141.2200818846694
450
        0
451
        0
460
0.0
461
0.0
452
        0
462
0.0
453
        0
470

  0
LINE
  5
1CDF
330
18
100
AcDbEntity
  8
針
100
AcDbLine
 10
263.4731996281001
 20
140.63311509866
 30
0.0
 11
271.2707213026649
 21
151.004930891638
 31
0.0
  0
LINE
  5
1CE0
330
18
100
AcDbEntity
  8
針
100
AcDbLine
 10
263.9212772276564
 20
140.3075676667359
 30
0.0
 11
271.3758935119336
 21
150.92851880884
 31
0.0
  0
LINE
  5
1CE1
330
18
100
AcDbEntity
  8
針
100
AcDbLine
 10
271.3233074072992
 20
150.966724850239
 30
0.0
 11
271.2707213026649
 21
151.004930891638
 31
0.0
  0
LINE
  5
1CE2
330
18
100
AcDbEntity
  8
針
100
AcDbLine
 10
271.3233074072992
 20
150.966724850239
 30
0.0
 11
271.3758935119336
 21
150.92851880884
 31
0.0
  0
CIRCLE
  5
1CE3
330
18
100
AcDbEntity
  8
針
100
AcDbCircle
 10
262.6828641985998
 20
139.0741750329273
 30
0.0
 40
1.5
  0
ARC
  5
1CE4
330
18
100
AcDbEntity
  8
針
100
AcDbCircle
 10
263.0735450198029
 20
140.9335750694829
 30
0.0
 40
0.5
100
AcDbArc
 50
290.207529799669
 51
323.0641879364476
  0
ARC
  5
1CE5
330
18
100
AcDbEntity
  8
針
100
AcDbCircle
 10
264.3305317066373
 20
140.0203207843611
 30
0.0
 40
0.5
100
AcDbArc
 50
144.9358120635524
 51
177.792470200331
  0
HATCH
  5
1CEE
330
18
100
AcDbEntity
  8
針
100
AcDbHatch
 10
0.0
 20
0.0
 30
0.0
210
0.0
220
0.0
230
1.0
  2
SOLID
 70
     1
 71
     0
 91
        1
 92
        7
 72
     1
 73
     1
 93
        7
 10
271.3758935119336
 20
150.92851880884
 42
0.0
 10
271.3233074072992
 20
150.966724850239
 42
0.0
 10
271.2707213026649
 20
151.0049308916381
 42
0.0
 10
263.4731996281001
 20
140.6331150986601
 42
-0.1443545616784134
 10
263.2462557860919
 20
140.4643512516647
 42
-0.1222437615213236
 10
263.8309027752056
 20
140.0395803502034
 42
-0.1443545616783651
 10
263.9212772276564
 20
140.3075676667359
 42
0.0
 97
        0
 75
     0
 76
     1
 47
0.0443407669343012
 98
        1
 10
264.345564809284
 20
141.2200818846694
450
        0
451
        0
460
0.0
461
0.0
452
        0
462
0.0
453
        0
470

  0
LINE
  5
1CEF
330
18
100
AcDbEntity
  8
針
100
AcDbLine
 10
263.4731996281001
 20
140.63311509866
 30
0.0
 11
271.2707213026649
 21
151.004930891638
 31
0.0
  0
LINE
  5
1CF0
330
18
100
AcDbEntity
  8
針
100
AcDbLine
 10
263.9212772276564
 20
140.3075676667359
 30
0.0
 11
271.3758935119336
 21
150.92851880884
 31
0.0
  0
LINE
  5
1CF1
330
18
100
AcDbEntity
  8
針
100
AcDbLine
 10
271.3233074072992
 20
150.966724850239
 30
0.0
 11
271.2707213026649
 21
151.004930891638
 31
0.0
  0
LINE
  5
1CF2
330
18
100
AcDbEntity
  8
針
100
AcDbLine
 10
271.3233074072992
 20
150.966724850239
 30
0.0
 11
271.3758935119336
 21
150.92851880884
 31
0.0
  0
CIRCLE
  5
1CF3
330
18
100
AcDbEntity
  8
針
100
AcDbCircle
 10
262.6828641985998
 20
139.0741750329273
 30
0.0
 40
1.5
  0
ARC
  5
1CF4
330
18
100
AcDbEntity
  8
針
100
AcDbCircle
 10
263.0735450198029
 20
140.9335750694829
 30
0.0
 40
0.5
100
AcDbArc
 50
290.207529799669
 51
323.0641879364476
  0
ARC
  5
1CF5
330
18
100
AcDbEntity
  8
針
100
AcDbCircle
 10
264.3305317066373
 20
140.0203207843611
 30
0.0
 40
0.5
100
AcDbArc
 50
144.9358120635524
 51
177.792470200331
  0
HATCH
  5
1CF6
330
18
100
AcDbEntity
  8
針
100
AcDbHatch
 10
0.0
 20
0.0
 30
0.0
210
0.0
220
0.0
230
1.0
  2
SOLID
 70
     1
 71
     0
 91
        1
 92
        7
 72
     1
 73
     1
 93
        7
 10
271.3758935119336
 20
150.92851880884
 42
0.0
 10
271.3233074072992
 20
150.966724850239
 42
0.0
 10
271.2707213026649
 20
151.0049308916381
 42
0.0
 10
263.4731996281001
 20
140.6331150986601
 42
-0.1443545616784134
 10
263.2462557860919
 20
140.4643512516647
 42
-0.1222437615213236
 10
263.8309027752056
 20
140.0395803502034
 42
-0.1443545616783651
 10
263.9212772276564
 20
140.3075676667359
 42
0.0
 97
        0
 75
     0
 76
     1
 47
0.0443407669343012
 98
        1
 10
264.345564809284
 20
141.2200818846694
450
        0
451
        0
460
0.0
461
0.0
452
        0
462
0.0
453
        0
470

  0
LINE
  5
1CF7
330
18
100
AcDbEntity
  8
針
100
AcDbLine
 10
263.4731996281001
 20
140.63311509866
 30
0.0
 11
271.2707213026649
 21
151.004930891638
 31
0.0
  0
LINE
  5
1CF8
330
18
100
AcDbEntity
  8
針
100
AcDbLine
 10
263.9212772276564
 20
140.3075676667359
 30
0.0
 11
271.3758935119336
 21
150.92851880884
 31
0.0
  0
LINE
  5
1CF9
330
18
100
AcDbEntity
  8
針
100
AcDbLine
 10
271.3233074072992
 20
150.966724850239
 30
0.0
 11
271.2707213026649
 21
151.004930891638
 31
0.0
  0
LINE
  5
1CFA
330
18
100
AcDbEntity
  8
針
100
AcDbLine
 10
271.3233074072992
 20
150.966724850239
 30
0.0
 11
271.3758935119336
 21
150.92851880884
 31
0.0
  0
CIRCLE
  5
1CFB
330
18
100
AcDbEntity
  8
針
100
AcDbCircle
 10
262.6828641985998
 20
139.0741750329273
 30
0.0
 40
1.5
  0
ARC
  5
1CFC
330
18
100
AcDbEntity
  8
針
100
AcDbCircle
 10
263.0735450198029
 20
140.9335750694829
 30
0.0
 40
0.5
100
AcDbArc
 50
290.207529799669
 51
323.0641879364476
  0
ARC
  5
1CFD
330
18
100
AcDbEntity
  8
針
100
AcDbCircle
 10
264.3305317066373
 20
140.0203207843611
 30
0.0
 40
0.5
100
AcDbArc
 50
144.9358120635524
 51
177.792470200331
  0
LINE
  5
1D39
330
18
100
AcDbEntity
  8
外形線
100
AcDbLine
 10
191.6051314386068
 20
181.3935139548669
 30
0.0
 11
290.6051314386068
 21
181.3935139548669
 31
0.0
  0
LINE
  5
1D3A
330
18
100
AcDbEntity
  8
外形線
100
AcDbLine
 10
191.5783414386068
 20
182.3890639548669
 30
0.0
 11
290.5783414386069
 21
182.3890639548669
 31
0.0
  0
TEXT
  5
1D3B
330
18
100
AcDbEntity
  8
0
100
AcDbText
 10
191.7884014386069
 20
184.7840559548669
 30
0.0
 40
4.0
  1
Model No.U2HA Dial Inside Gauge
  7
STYLE3
100
AcDbText
  0
TEXT
  5
1D3C
330
18
100
AcDbEntity
  8
0
  6
Continuous
100
AcDbText
 10
237.2974494386069
 20
12.36697695486692
 30
0.0
 40
2.1
  1
Design and specifications are subject to change without notice for future improvement.
  7
STYLE3
100
AcDbText
  0
LINE
  5
1D3D
330
18
100
AcDbEntity
  8
外形線
100
AcDbLine
 10
235.8399814386069
 20
10.46898695486692
 30
0.0
 11
376.6313994386069
 21
10.46898695486692
 31
0.0
  0
TEXT
  5
1D3E
330
18
100
AcDbEntity
  8
0
  6
Continuous
100
AcDbText
 10
339.2117114386069
 20
6.389988954866919
 30
0.0
 40
3.0
  1
株式会社　尾崎製作所
  7
STYLE3
100
AcDbText
  0
TEXT
  5
1D3F
330
18
100
AcDbEntity
  8
0
  6
Continuous
100
AcDbText
 10
340.0861904386069
 20
2.602349954866919
 30
0.0
 40
2.1
  1
OZAKI MFG. CO., LTD.
  7
STYLE3
100
AcDbText
  0
LINE
  5
1D40
330
18
100
AcDbEntity
  8
外形線
100
AcDbLine
 10
235.8399814386069
 20
21.24919295486692
 30
0.0
 11
376.6313994386069
 21
21.24919295486692
 31
0.0
  0
TEXT
  5
1D41
330
18
100
AcDbEntity
  8
0
  6
Continuous
100
AcDbText
 10
237.5889434386069
 20
16.29612495486692
 30
0.0
 40
3.5
  1
仕様及び外観は予告なく変更される場合がございますのでご了承下さい。
  7
STYLE3
100
AcDbText
  0
TEXT
  5
1D42
330
18
100
AcDbEntity
  8
0
  6
Continuous
100
AcDbText
 10
272.5681784386069
 20
6.104586954866919
 30
0.0
 40
3.0
  1
単位
  7
STYLE3
100
AcDbText
  0
TEXT
  5
1D43
330
18
100
AcDbEntity
  8
0
  6
Continuous
100
AcDbText
 10
272.7398994386069
 20
2.602349954866919
 30
0.0
 40
2.1
  1
Unit
  7
STYLE3
100
AcDbText
  0
LINE
  5
1D44
330
18
100
AcDbEntity
  8
外形線
100
AcDbLine
 10
235.8399814386069
 20
0.8542089548669196
 30
0.0
 11
235.8399814386069
 21
21.24919295486692
 31
0.0
  0
LINE
  5
1D45
330
18
100
AcDbEntity
  8
外形線
100
AcDbLine
 10
271.1107094386069
 20
10.46898695486692
 30
0.0
 11
271.1107094386069
 21
0.8542089548669196
 31
0.0
  0
TEXT
  5
1D46
330
18
100
AcDbEntity
  8
0
  6
Continuous
100
AcDbText
 10
237.0059574386069
 20
2.602348954866919
 30
0.0
 40
2.1
  1
3RD Angle Projection
  7
STYLE3
100
AcDbText
  0
TEXT
  5
1D47
330
18
100
AcDbEntity
  8
0
  6
Continuous
100
AcDbText
 10
239.6294004386069
 20
6.098631954866919
 30
0.0
 40
3.0
  1
三　　角　　法
  7
STYLE3
100
AcDbText
  0
LINE
  5
1D48
330
18
100
AcDbEntity
  8
外形線
100
AcDbLine
 10
288.6003264386069
 20
10.46898695486692
 30
0.0
 11
288.6003264386069
 21
0.8542089548669196
 31
0.0
  0
LINE
  5
1D49
330
18
100
AcDbEntity
  8
外形線
100
AcDbLine
 10
308.1303994386069
 20
10.46898695486692
 30
0.0
 11
308.1303994386069
 21
0.8542089548669196
 31
0.0
  0
LINE
  5
1D4A
330
18
100
AcDbEntity
  8
外形線
100
AcDbLine
 10
337.8627484386069
 20
10.46898695486692
 30
0.0
 11
337.8627484386069
 21
0.8542089548669196
 31
0.0
  0
TEXT
  5
1D4B
330
18
100
AcDbEntity
  8
0
  6
Continuous
100
AcDbText
 10
289.8860744386068
 20
5.813228954866919
 30
0.0
 40
3.0
  1
尺 度
  7
STYLE3
100
AcDbText
  0
TEXT
  5
1D4C
330
18
100
AcDbEntity
  8
0
  6
Continuous
100
AcDbText
 10
290.3492894386068
 20
2.893706954866919
 30
0.0
 40
2.1
  1
Scale
  7
STYLE3
100
AcDbText
  0
TEXT
  5
1D4D
330
18
100
AcDbEntity
  8
0
  6
Continuous
100
AcDbText
 10
280.6102264386069
 20
4.350492954866918
 30
0.0
 40
2.399999999999999
  1
mm
  7
STYLE3
100
AcDbText
  0
TEXT
  5
1D4E
330
18
100
AcDbEntity
  8
0
  6
Continuous
100
AcDbText
 10
299.9685784386069
 20
4.64184995486692
 30
0.0
 40
2.399999999999999
  1
1/1
  7
STYLE3
100
AcDbText
  0
TEXT
  5
1D4F
330
18
100
AcDbEntity
  8
0
  6
Continuous
100
AcDbText
 10
318.8071574386068
 20
4.350491954866919
 30
0.0
 40
2.1
  1
2010.06.16
  7
STYLE3
100
AcDbText
  0
TEXT
  5
1D50
330
18
100
AcDbEntity
  8
0
  6
Continuous
100
AcDbText
 10
310.0623504386069
 20
2.602350954866919
 30
0.0
 40
2.1
  1
Date
  7
STYLE3
100
AcDbText
  0
TEXT
  5
1D51
330
18
100
AcDbEntity
  8
0
  6
Continuous
100
AcDbText
 10
309.6789894386068
 20
5.935433954866919
 30
0.0
 40
3.0
  1
日 付
  7
STYLE3
100
AcDbText
  0
ENDSEC
  0
SECTION
  2
OBJECTS
  0
DICTIONARY
  5
C
330
0
100
AcDbDictionary
281
     1
  3
ACAD_COLOR
350
11CA
  3
ACAD_GROUP
350
D
  3
ACAD_LAYOUT
350
11CD
  3
ACAD_MATERIAL
350
11C9
  3
ACAD_MLINESTYLE
350
1B
  3
ACAD_PLOTSETTINGS
350
11CE
  3
ACAD_PLOTSTYLENAME
350
11C7
  3
ACAD_TABLESTYLE
350
11CB
  3
ACDBVARIABLEDICTIONARY
350
D50
  0
DICTIONARY
  5
11CA
102
{ACAD_REACTORS
330
C
102
}
330
C
100
AcDbDictionary
281
     1
  0
DICTIONARY
  5
D
102
{ACAD_REACTORS
330
C
102
}
330
C
100
AcDbDictionary
281
     1
  0
DICTIONARY
  5
11CD
102
{ACAD_REACTORS
330
C
102
}
330
C
100
AcDbDictionary
281
     1
  3
Model
350
11CF
  3
レイアウト1
350
11D0
  0
DICTIONARY
  5
11C9
102
{ACAD_REACTORS
330
C
102
}
330
C
100
AcDbDictionary
281
     1
  0
DICTIONARY
  5
1B
102
{ACAD_REACTORS
330
C
102
}
330
C
100
AcDbDictionary
281
     1
  3
STANDARD
350
1C
  0
DICTIONARY
  5
11CE
102
{ACAD_REACTORS
330
C
102
}
330
C
100
AcDbDictionary
281
     1
  0
ACDBDICTIONARYWDFLT
  5
11C7
102
{ACAD_REACTORS
330
C
102
}
330
C
100
AcDbDictionary
281
     1
  3
Normal
350
11C8
100
AcDbDictionaryWithDefault
340
11C8
  0
DICTIONARY
  5
11CB
102
{ACAD_REACTORS
330
C
102
}
330
C
100
AcDbDictionary
281
     1
  3
Standard
350
11CC
  0
DICTIONARY
  5
D50
102
{ACAD_REACTORS
330
C
102
}
330
C
100
AcDbDictionary
281
     1
  3
CTABLESTYLE
350
11D7
  3
SORTENTS
350
D51
  0
LAYOUT
  5
11CF
102
{ACAD_REACTORS
330
11CD
102
}
330
11CD
100
AcDbPlotSettings
  1

  2
A4 EPSON LP-6100.pc3
  4
A4
  6

 40
5.873749732971191
 41
5.873747825622558
 42
5.873748779296875
 43
5.873748779296875
 44
209.9733276367187
 45
297.0106506347656
 46
0.0
 47
0.0
 48
0.0
 49
0.0
140
0.0
141
0.0
142
1.0
143
1.0
 70
 28336
 72
     1
 73
     0
 74
     1
  7
monochrome.ctb
 75
    16
147
1.0
 76
     1
 77
     2
 78
   300
148
-115.7601939837451
149
0.4181507475462923
100
AcDbLayout
  1
Model
 70
     1
 71
     0
 10
0.0
 20
0.0
 11
12.0
 21
9.0
 12
0.0
 22
0.0
 32
0.0
 14
0.0
 24
0.0
 34
0.0
 15
0.0
 25
0.0
 35
0.0
146
0.0
 13
0.0
 23
0.0
 33
0.0
 16
1.0
 26
0.0
 36
0.0
 17
0.0
 27
1.0
 37
0.0
 76
     0
330
18
1001
ACAD_PSEXT
1000
A4 EPSON LP-6100.pc3
1000
EPSON LP-6100
1000
\\SATO-MATE2
1000

1070
     0
  0
LAYOUT
  5
11D0
102
{ACAD_REACTORS
330
11CD
102
}
330
11CD
100
AcDbPlotSettings
  1

  2
Mytalk FAX
  4

  6

 40
0.0
 41
0.0
 42
0.0
 43
0.0
 44
0.0
 45
0.0
 46
0.0
 47
0.0
 48
0.0
 49
0.0
140
0.0
141
0.0
142
1.0
143
1.0
 70
   688
 72
     0
 73
     0
 74
     5
  7
monochrome.ctb
 75
    16
147
1.0
 76
     0
 77
     2
 78
   300
148
0.0
149
0.0
100
AcDbLayout
  1
レイアウト1
 70
     1
 71
     1
 10
0.0
 20
0.0
 11
420.0
 21
297.0
 12
0.0
 22
0.0
 32
0.0
 14
1.000000000000000E+20
 24
1.000000000000000E+20
 34
1.000000000000000E+20
 15
-1.000000000000000E+20
 25
-1.000000000000000E+20
 35
-1.000000000000000E+20
146
0.0
 13
0.0
 23
0.0
 33
0.0
 16
1.0
 26
0.0
 36
0.0
 17
0.0
 27
1.0
 37
0.0
 76
     0
330
15
  0
MLINESTYLE
  5
1C
102
{ACAD_REACTORS
330
1B
102
}
330
1B
100
AcDbMlineStyle
  2
STANDARD
 70
     0
  3

 62
   256
 51
90.0
 52
90.0
 71
     2
 49
0.5
 62
   256
  6
BYLAYER
 49
-0.5
 62
   256
  6
BYLAYER
  0
ACDBPLACEHOLDER
  5
11C8
102
{ACAD_REACTORS
330
11C7
102
}
330
11C7
  0
ACAD_PROXY_OBJECT
  5
11CC
102
{ACAD_REACTORS
330
11CB
102
}
330
11CB
100
AcDbProxyObject
 90
      499
 91
      504
 95
  2555929
 70
     0
 93
     1849
310
4214DD185B99185C992420000000000000F83F0000000000003E0FC00000000000004901028000000C1008070000C3001FDFF8000000C1003FBFF000000182007F7FE00000030400FEFFC00000060801FDFF8000000C1003FBFF000000182000000000000000C2020B0000001820100E000186003FBFF000000182007F7FE0
310
0000030400FEFFC00000060801FDFF8000000C1003FBFF000000182007F7FE0000003040000000000000012404160000003040201C00030C007F7FE00000030400FEFFC00000060801FDFF8000000C1003FBFF000000182007F7FE00000030400FEFFC000000608000
340
F
340
F
340
F
 94
        0
  0
DICTIONARYVAR
  5
11D7
102
{ACAD_REACTORS
330
D50
102
}
330
D50
100
DictionaryVariables
280
     0
  1
STANDARD
  0
DICTIONARYVAR
  5
D51
102
{ACAD_REACTORS
330
D50
102
}
330
D50
100
DictionaryVariables
280
     0
  1
96
  0
ENDSEC
  0
EOF
