  0
SECTION
  2
HEADER
  9
$ACADVER
  1
AC1018
  9
$ACADMAINTVER
 70
     0
  9
$DWGCODEPAGE
  3
ANSI_932
  9
$INSBASE
 10
0.0
 20
0.0
 30
0.0
  9
$EXTMIN
 10
255.8333053331939
 20
176.0392376680199
 30
-0.0000610400456509
  9
$EXTMAX
 10
634.1449399030143
 20
459.3787801311446
 30
0.0000152620489651
  9
$LIMMIN
 10
0.0
 20
0.0
  9
$LIMMAX
 10
420.0
 20
297.0
  9
$ORTHOMODE
 70
     1
  9
$REGENMODE
 70
     1
  9
$FILLMODE
 70
     1
  9
$QTEXTMODE
 70
     0
  9
$MIRRTEXT
 70
     1
  9
$LTSCALE
 40
1.0
  9
$ATTMODE
 70
     1
  9
$TEXTSIZE
 40
3.0
  9
$TRACEWID
 40
1.0
  9
$TEXTSTYLE
  7
STYLE3
  9
$CLAYER
  8
中心線
  9
$CELTYPE
  6
BYLAYER
  9
$CECOLOR
 62
   256
  9
$CELTSCALE
 40
1.0
  9
$DISPSILH
 70
     0
  9
$DIMSCALE
 40
1.0
  9
$DIMASZ
 40
2.5
  9
$DIMEXO
 40
0.0
  9
$DIMDLI
 40
3.75
  9
$DIMRND
 40
0.0
  9
$DIMDLE
 40
0.0
  9
$DIMEXE
 40
1.25
  9
$DIMTP
 40
0.0
  9
$DIMTM
 40
0.0
  9
$DIMTXT
 40
2.5
  9
$DIMCEN
 40
2.5
  9
$DIMTSZ
 40
0.0
  9
$DIMTOL
 70
     0
  9
$DIMLIM
 70
     0
  9
$DIMTIH
 70
     0
  9
$DIMTOH
 70
     0
  9
$DIMSE1
 70
     0
  9
$DIMSE2
 70
     0
  9
$DIMTAD
 70
     1
  9
$DIMZIN
 70
     8
  9
$DIMBLK
  1

  9
$DIMASO
 70
     1
  9
$DIMSHO
 70
     1
  9
$DIMPOST
  1

  9
$DIMAPOST
  1

  9
$DIMALT
 70
     0
  9
$DIMALTD
 70
     4
  9
$DIMALTF
 40
0.0394
  9
$DIMLFAC
 40
1.0
  9
$DIMTOFL
 70
     1
  9
$DIMTVP
 40
0.0
  9
$DIMTIX
 70
     0
  9
$DIMSOXD
 70
     0
  9
$DIMSAH
 70
     1
  9
$DIMBLK1
  1
OPEN
  9
$DIMBLK2
  1
OPEN
  9
$DIMSTYLE
  2
STYLE3
  9
$DIMCLRD
 70
     2
  9
$DIMCLRE
 70
     2
  9
$DIMCLRT
 70
     6
  9
$DIMTFAC
 40
1.0
  9
$DIMGAP
 40
0.625
  9
$DIMJUST
 70
     0
  9
$DIMSD1
 70
     0
  9
$DIMSD2
 70
     0
  9
$DIMTOLJ
 70
     1
  9
$DIMTZIN
 70
     0
  9
$DIMALTZ
 70
     0
  9
$DIMALTTZ
 70
     0
  9
$DIMUPT
 70
     0
  9
$DIMDEC
 70
     2
  9
$DIMTDEC
 70
     4
  9
$DIMALTU
 70
     8
  9
$DIMALTTD
 70
     4
  9
$DIMTXSTY
  7
STYLE3
  9
$DIMAUNIT
 70
     0
  9
$DIMADEC
 70
     0
  9
$DIMALTRND
 40
0.0
  9
$DIMAZIN
 70
     0
  9
$DIMDSEP
 70
    46
  9
$DIMATFIT
 70
     3
  9
$DIMFRAC
 70
     0
  9
$DIMLDRBLK
  1

  9
$DIMLUNIT
 70
     2
  9
$DIMLWD
 70
    -2
  9
$DIMLWE
 70
    -2
  9
$DIMTMOVE
 70
     0
  9
$LUNITS
 70
     2
  9
$LUPREC
 70
     4
  9
$SKETCHINC
 40
1.0
  9
$FILLETRAD
 40
5.0
  9
$AUNITS
 70
     0
  9
$AUPREC
 70
     0
  9
$MENU
  1
.
  9
$ELEVATION
 40
0.0
  9
$PELEVATION
 40
0.0
  9
$THICKNESS
 40
0.0
  9
$LIMCHECK
 70
     0
  9
$CHAMFERA
 40
0.5
  9
$CHAMFERB
 40
0.5
  9
$CHAMFERC
 40
20.0
  9
$CHAMFERD
 40
0.0
  9
$SKPOLY
 70
     0
  9
$TDCREATE
 40
2451047.607400231
  9
$TDUCREATE
 40
2451047.232400231
  9
$TDUPDATE
 40
2455363.639582604
  9
$TDUUPDATE
 40
2455363.264582604
  9
$TDINDWG
 40
0.2491960880
  9
$TDUSRTIMER
 40
0.2491960880
  9
$USRTIMER
 70
     1
  9
$ANGBASE
 50
0.0
  9
$ANGDIR
 70
     0
  9
$PDMODE
 70
     0
  9
$PDSIZE
 40
0.0
  9
$PLINEWID
 40
0.0
  9
$SPLFRAME
 70
     0
  9
$SPLINETYPE
 70
     6
  9
$SPLINESEGS
 70
     8
  9
$HANDSEED
  5
10D2
  9
$SURFTAB1
 70
     6
  9
$SURFTAB2
 70
     6
  9
$SURFTYPE
 70
     6
  9
$SURFU
 70
     6
  9
$SURFV
 70
     6
  9
$UCSBASE
  2

  9
$UCSNAME
  2

  9
$UCSORG
 10
0.0
 20
0.0
 30
0.0
  9
$UCSXDIR
 10
1.0
 20
0.0
 30
0.0
  9
$UCSYDIR
 10
0.0
 20
1.0
 30
0.0
  9
$UCSORTHOREF
  2

  9
$UCSORTHOVIEW
 70
     0
  9
$UCSORGTOP
 10
0.0
 20
0.0
 30
0.0
  9
$UCSORGBOTTOM
 10
0.0
 20
0.0
 30
0.0
  9
$UCSORGLEFT
 10
0.0
 20
0.0
 30
0.0
  9
$UCSORGRIGHT
 10
0.0
 20
0.0
 30
0.0
  9
$UCSORGFRONT
 10
0.0
 20
0.0
 30
0.0
  9
$UCSORGBACK
 10
0.0
 20
0.0
 30
0.0
  9
$PUCSBASE
  2

  9
$PUCSNAME
  2

  9
$PUCSORG
 10
0.0
 20
0.0
 30
0.0
  9
$PUCSXDIR
 10
1.0
 20
0.0
 30
0.0
  9
$PUCSYDIR
 10
0.0
 20
1.0
 30
0.0
  9
$PUCSORTHOREF
  2

  9
$PUCSORTHOVIEW
 70
     0
  9
$PUCSORGTOP
 10
0.0
 20
0.0
 30
0.0
  9
$PUCSORGBOTTOM
 10
0.0
 20
0.0
 30
0.0
  9
$PUCSORGLEFT
 10
0.0
 20
0.0
 30
0.0
  9
$PUCSORGRIGHT
 10
0.0
 20
0.0
 30
0.0
  9
$PUCSORGFRONT
 10
0.0
 20
0.0
 30
0.0
  9
$PUCSORGBACK
 10
0.0
 20
0.0
 30
0.0
  9
$USERI1
 70
     0
  9
$USERI2
 70
     0
  9
$USERI3
 70
     0
  9
$USERI4
 70
     0
  9
$USERI5
 70
     0
  9
$USERR1
 40
0.0
  9
$USERR2
 40
0.0
  9
$USERR3
 40
0.0
  9
$USERR4
 40
0.0
  9
$USERR5
 40
0.0
  9
$WORLDVIEW
 70
     1
  9
$SHADEDGE
 70
     3
  9
$SHADEDIF
 70
    70
  9
$TILEMODE
 70
     1
  9
$MAXACTVP
 70
    48
  9
$PINSBASE
 10
0.0
 20
0.0
 30
0.0
  9
$PLIMCHECK
 70
     0
  9
$PEXTMIN
 10
1.000000000000000E+20
 20
1.000000000000000E+20
 30
1.000000000000000E+20
  9
$PEXTMAX
 10
-1.000000000000000E+20
 20
-1.000000000000000E+20
 30
-1.000000000000000E+20
  9
$PLIMMIN
 10
0.0
 20
0.0
  9
$PLIMMAX
 10
420.0
 20
297.0
  9
$UNITMODE
 70
     0
  9
$VISRETAIN
 70
     1
  9
$PLINEGEN
 70
     0
  9
$PSLTSCALE
 70
     1
  9
$TREEDEPTH
 70
  3020
  9
$CMLSTYLE
  2
STANDARD
  9
$CMLJUST
 70
     0
  9
$CMLSCALE
 40
20.0
  9
$PROXYGRAPHICS
 70
     1
  9
$MEASUREMENT
 70
     1
  9
$CELWEIGHT
370
    -1
  9
$ENDCAPS
280
     0
  9
$JOINSTYLE
280
     0
  9
$LWDISPLAY
290
     0
  9
$INSUNITS
 70
     0
  9
$HYPERLINKBASE
  1

  9
$STYLESHEET
  1

  9
$XEDIT
290
     1
  9
$CEPSNTYPE
380
     0
  9
$PSTYLEMODE
290
     1
  9
$FINGERPRINTGUID
  2
{2132E5F3-9460-46BF-B50C-80D5E135F82A}
  9
$VERSIONGUID
  2
{613BA918-06C8-45F8-8AD7-423D266D97B1}
  9
$EXTNAMES
290
     1
  9
$PSVPSCALE
 40
0.0
  9
$OLESTARTUP
290
     0
  9
$SORTENTS
280
    96
  9
$INDEXCTL
280
     0
  9
$HIDETEXT
280
     0
  9
$XCLIPFRAME
290
     0
  9
$HALOGAP
280
     0
  9
$OBSCOLOR
 70
   257
  9
$OBSLTYPE
280
     0
  9
$INTERSECTIONDISPLAY
280
     0
  9
$INTERSECTIONCOLOR
 70
   257
  9
$DIMASSOC
280
     1
  9
$PROJECTNAME
  1

  0
ENDSEC
  0
SECTION
  2
CLASSES
  0
CLASS
  1
DICTIONARYVAR
  2
AcDbDictionaryVar
  3
ObjectDBX Classes
 90
        0
 91
        1
280
     0
281
     0
  0
CLASS
  1
IMAGEDEF
  2
AcDbRasterImageDef
  3
ISM
 90
        0
 91
        1
280
     0
281
     0
  0
CLASS
  1
ACDBDICTIONARYWDFLT
  2
AcDbDictionaryWithDefault
  3
ObjectDBX Classes
 90
        0
 91
        1
280
     0
281
     0
  0
ENDSEC
  0
SECTION
  2
TABLES
  0
TABLE
  2
VPORT
  5
8
330
0
100
AcDbSymbolTable
 70
     2
  0
VPORT
  5
10D1
330
8
100
AcDbSymbolTableRecord
100
AcDbViewportTableRecord
  2
*Active
 70
     0
 10
0.0
 20
0.0
 11
1.0
 21
1.0
 12
444.9891226181041
 22
317.7090088995823
 13
0.0
 23
0.0
 14
10.0
 24
10.0
 15
10.0
 25
10.0
 16
0.0
 26
0.0
 36
1.0
 17
0.0
 27
0.0
 37
0.0
 40
285.4942157898404
 41
1.530456852791878
 42
50.0
 43
0.0
 44
0.0
 50
0.0
 51
0.0
 71
     0
 72
   100
 73
     1
 74
     1
 75
     0
 76
     0
 77
     0
 78
     0
281
     0
 65
     1
110
0.0
120
0.0
130
0.0
111
1.0
121
0.0
131
0.0
112
0.0
122
1.0
132
0.0
 79
     0
146
0.0
  0
ENDTAB
  0
TABLE
  2
LTYPE
  5
5
330
0
100
AcDbSymbolTable
 70
    13
  0
LTYPE
  5
12
330
5
100
AcDbSymbolTableRecord
100
AcDbLinetypeTableRecord
  2
BYBLOCK
 70
     0
  3

 72
    65
 73
     0
 40
0.0
  0
LTYPE
  5
13
330
5
100
AcDbSymbolTableRecord
100
AcDbLinetypeTableRecord
  2
BYLAYER
 70
     0
  3

 72
    65
 73
     0
 40
0.0
  0
LTYPE
  5
14
330
5
100
AcDbSymbolTableRecord
100
AcDbLinetypeTableRecord
  2
CONTINUOUS
 70
     0
  3
Solid line
 72
    65
 73
     0
 40
0.0
  0
LTYPE
  5
22
330
5
100
AcDbSymbolTableRecord
100
AcDbLinetypeTableRecord
  2
CENTER2
 70
     0
  3
Center (.5x) ___ _ ___ _ ___ _ ___ _ ___ _ ___
 72
    65
 73
     4
 40
28.575
 49
19.05
 74
     0
 49
-3.174999999999999
 74
     0
 49
3.174999999999999
 74
     0
 49
-3.174999999999999
 74
     0
  0
LTYPE
  5
24
330
5
100
AcDbSymbolTableRecord
100
AcDbLinetypeTableRecord
  2
PHANTOM2
 70
     0
  3
Phantom (.5x) ___ _ _ ___ _ _ ___ _ _ ___ _ _
 72
    65
 73
     6
 40
31.75
 49
15.875
 74
     0
 49
-3.174999999999999
 74
     0
 49
3.174999999999999
 74
     0
 49
-3.174999999999999
 74
     0
 49
3.174999999999999
 74
     0
 49
-3.174999999999999
 74
     0
  0
ENDTAB
  0
TABLE
  2
LAYER
  5
2
330
0
100
AcDbSymbolTable
 70
    18
  0
LAYER
  5
E
330
2
100
AcDbSymbolTableRecord
100
AcDbLayerTableRecord
  2
0
 70
     0
 62
     7
  6
CONTINUOUS
370
    -3
390
108F
  0
LAYER
  5
25
330
2
100
AcDbSymbolTableRecord
100
AcDbLayerTableRecord
  2
外形線
 70
     0
 62
     7
  6
CONTINUOUS
370
    -3
390
108F
  0
LAYER
  5
26
330
2
100
AcDbSymbolTableRecord
100
AcDbLayerTableRecord
  2
寸法線
 70
     0
 62
     2
  6
CONTINUOUS
370
    -3
390
108F
  0
LAYER
  5
27
330
2
100
AcDbSymbolTableRecord
100
AcDbLayerTableRecord
  2
中心線
 70
     0
 62
     4
  6
CENTER2
370
    -3
390
108F
  0
LAYER
  5
29
330
2
100
AcDbSymbolTableRecord
100
AcDbLayerTableRecord
  2
想像線
 70
     0
 62
     1
  6
PHANTOM2
370
    -3
390
108F
  0
LAYER
  5
2B
330
2
100
AcDbSymbolTableRecord
100
AcDbLayerTableRecord
  2
文字
 70
     0
 62
     6
  6
CONTINUOUS
370
    -3
390
108F
  0
LAYER
  5
53
330
2
100
AcDbSymbolTableRecord
100
AcDbLayerTableRecord
  2
DEFPOINTS
 70
     0
 62
     7
  6
CONTINUOUS
290
     0
370
    -3
390
108F
  0
LAYER
  5
A5
330
2
100
AcDbSymbolTableRecord
100
AcDbLayerTableRecord
  2
C
 70
     0
 62
     7
  6
CONTINUOUS
370
    -3
390
108F
  0
LAYER
  5
DEC
330
2
100
AcDbSymbolTableRecord
100
AcDbLayerTableRecord
  2
ROGO
 70
     0
 62
     6
  6
CONTINUOUS
370
    -3
390
108F
  0
ENDTAB
  0
TABLE
  2
STYLE
  5
3
330
0
100
AcDbSymbolTable
 70
     6
  0
STYLE
  5
F
330
3
100
AcDbSymbolTableRecord
100
AcDbTextStyleTableRecord
  2
STANDARD
 70
     0
 40
0.0
 41
1.0
 50
0.0
 71
     0
 42
2.5
  3
txt
  4

  0
STYLE
  5
3F
330
3
100
AcDbSymbolTableRecord
100
AcDbTextStyleTableRecord
  2
STYLE3
 70
     0
 40
0.0
 41
1.0
 50
0.0
 71
     0
 42
3.0
  3
romans.shx
  4
bigfont.shx
  0
ENDTAB
  0
TABLE
  2
VIEW
  5
6
330
0
100
AcDbSymbolTable
 70
     0
  0
ENDTAB
  0
TABLE
  2
UCS
  5
7
330
0
100
AcDbSymbolTable
 70
     0
  0
ENDTAB
  0
TABLE
  2
APPID
  5
9
330
0
100
AcDbSymbolTable
 70
     1
  0
APPID
  5
10
330
9
100
AcDbSymbolTableRecord
100
AcDbRegAppTableRecord
  2
ACAD
 70
     0
  0
ENDTAB
  0
TABLE
  2
DIMSTYLE
  5
A
330
0
100
AcDbSymbolTable
 70
    12
100
AcDbDimStyleTable
 71
     0
  0
DIMSTYLE
105
1D
330
A
100
AcDbSymbolTableRecord
100
AcDbDimStyleTableRecord
  2
STANDARD
 70
     0
 41
2.5
 42
0.625
 43
3.75
 44
1.25
 73
     0
 74
     0
 77
     1
 78
     8
140
2.5
141
2.5
143
0.0394
147
0.625
171
     4
172
     1
273
     8
274
     4
277
     6
340
F
  0
DIMSTYLE
105
8F
102
{ACAD_REACTORS
330
55B
330
568
330
5A0
330
5AF
330
639
330
646
330
65E
330
66A
330
677
330
F39
330
F91
330
F9E
330
FCC
102
}
330
A
100
AcDbSymbolTableRecord
100
AcDbDimStyleTableRecord
  2
STYLE3
 70
     0
 41
2.5
 42
0.0
 43
3.75
 44
1.25
 73
     0
 74
     0
 77
     1
 78
     8
140
2.5
141
2.5
143
0.0394
147
0.625
171
     4
172
     1
173
     1
176
     2
177
     2
178
     6
271
     1
273
     8
274
     4
340
3F
341
45
343
45
344
45
  0
ENDTAB
  0
TABLE
  2
BLOCK_RECORD
  5
1
330
0
100
AcDbSymbolTable
 70
    29
  0
BLOCK_RECORD
  5
18
330
1
100
AcDbSymbolTableRecord
100
AcDbBlockTableRecord
  2
*MODEL_SPACE
340
1094
  0
BLOCK_RECORD
  5
15
330
1
100
AcDbSymbolTableRecord
100
AcDbBlockTableRecord
  2
*PAPER_SPACE
340
1095
  0
BLOCK_RECORD
  5
45
330
1
100
AcDbSymbolTableRecord
100
AcDbBlockTableRecord
  2
_OPEN
340
0
102
{BLKREFS
331
531
331
53A
331
53B
331
549
331
5D4
331
5D5
331
620
331
629
331
F0D
331
F7F
331
F80
331
1054
331
1055
331
56D
331
56E
331
599
331
59A
331
5A8
331
5A9
331
FDD
331
FDE
331
64B
331
64C
331
1017
331
1018
331
F68
331
F69
331
1022
331
1023
331
9E6
331
9E8
331
9EF
331
9F0
331
9F7
331
9F8
331
9FF
331
A00
331
A06
331
A3E
331
A3F
331
A46
331
A47
331
A4D
331
A4E
331
A55
331
A56
331
A5B
331
A5C
331
A5E
331
A5F
331
A70
331
A71
331
A7E
331
C76
331
C9C
331
C9D
331
CA6
331
CA7
331
CAB
331
CAF
331
CB0
331
CB4
331
CB5
331
CF3
331
D01
331
D02
331
D6F
331
D70
331
D78
331
D79
331
D81
331
D82
331
D8A
331
D8B
331
D93
331
D94
331
D9C
331
DA9
331
DAA
331
DB5
331
DB6
331
DC0
331
DC1
331
DCC
331
F5E
331
F5F
331
FA3
331
FA4
331
FAE
331
FAF
331
FD1
331
FD2
331
506
331
507
331
514
331
515
331
526
331
527
331
554
331
555
331
57B
331
57C
331
58A
331
58B
331
5B5
331
5B6
331
5C4
331
5C5
331
615
331
616
331
632
331
633
331
657
331
658
331
663
331
664
331
670
331
671
331
F01
331
F02
331
F32
331
F33
331
F4C
331
F4D
331
F74
331
F75
331
F8A
331
F8B
331
F97
331
F98
331
FB9
331
FBA
331
FC5
331
FC6
331
FE9
331
FEA
331
FF5
331
FF6
331
1000
331
1001
331
100B
331
100C
102
}
  0
BLOCK_RECORD
  5
54D
330
1
100
AcDbSymbolTableRecord
100
AcDbBlockTableRecord
  2
*D4
340
0
  0
BLOCK_RECORD
  5
55C
330
1
100
AcDbSymbolTableRecord
100
AcDbBlockTableRecord
  2
*D5
340
0
  0
BLOCK_RECORD
  5
592
330
1
100
AcDbSymbolTableRecord
100
AcDbBlockTableRecord
  2
*D6
340
0
  0
BLOCK_RECORD
  5
5A1
330
1
100
AcDbSymbolTableRecord
100
AcDbBlockTableRecord
  2
*D7
340
0
  0
BLOCK_RECORD
  5
62D
330
1
100
AcDbSymbolTableRecord
100
AcDbBlockTableRecord
  2
*D8
340
0
  0
BLOCK_RECORD
  5
63A
330
1
100
AcDbSymbolTableRecord
100
AcDbBlockTableRecord
  2
*D9
340
0
  0
BLOCK_RECORD
  5
652
330
1
100
AcDbSymbolTableRecord
100
AcDbBlockTableRecord
  2
*D10
340
0
  0
BLOCK_RECORD
  5
65F
330
1
100
AcDbSymbolTableRecord
100
AcDbBlockTableRecord
  2
*D11
340
0
  0
BLOCK_RECORD
  5
66B
330
1
100
AcDbSymbolTableRecord
100
AcDbBlockTableRecord
  2
*D12
340
0
  0
BLOCK_RECORD
  5
F2D
330
1
100
AcDbSymbolTableRecord
100
AcDbBlockTableRecord
  2
*D21
340
0
  0
BLOCK_RECORD
  5
F85
330
1
100
AcDbSymbolTableRecord
100
AcDbBlockTableRecord
  2
*D22
340
0
  0
BLOCK_RECORD
  5
F92
330
1
100
AcDbSymbolTableRecord
100
AcDbBlockTableRecord
  2
*D23
340
0
  0
BLOCK_RECORD
  5
FC0
330
1
100
AcDbSymbolTableRecord
100
AcDbBlockTableRecord
  2
*D24
340
0
  0
ENDTAB
  0
ENDSEC
  0
SECTION
  2
BLOCKS
  0
BLOCK
  5
19
330
18
100
AcDbEntity
  8
0
100
AcDbBlockBegin
  2
*MODEL_SPACE
 70
     0
 10
0.0
 20
0.0
 30
0.0
  3
*MODEL_SPACE
  1

  0
ENDBLK
  5
1A
330
18
100
AcDbEntity
  8
0
100
AcDbBlockEnd
  0
BLOCK
  5
16
330
15
100
AcDbEntity
 67
     1
  8
0
100
AcDbBlockBegin
  2
*PAPER_SPACE
 70
     0
 10
0.0
 20
0.0
 30
0.0
  3
*PAPER_SPACE
  1

  0
ENDBLK
  5
17
330
15
100
AcDbEntity
 67
     1
  8
0
100
AcDbBlockEnd
  0
BLOCK
  5
46
330
45
100
AcDbEntity
  8
0
100
AcDbBlockBegin
  2
_OPEN
 70
     0
 10
0.0
 20
0.0
 30
0.0
  3
_OPEN
  1

  0
LINE
  5
47
330
45
100
AcDbEntity
  8
0
  6
ByBlock
 62
     0
100
AcDbLine
 10
-1.0
 20
0.1666666666666666
 30
0.0
 11
0.0
 21
0.0
 31
0.0
  0
LINE
  5
48
330
45
100
AcDbEntity
  8
0
  6
ByBlock
 62
     0
100
AcDbLine
 10
0.0
 20
0.0
 30
0.0
 11
-1.0
 21
-0.1666666666666666
 31
0.0
  0
LINE
  5
49
330
45
100
AcDbEntity
  8
0
  6
ByBlock
 62
     0
100
AcDbLine
 10
0.0
 20
0.0
 30
0.0
 11
-1.0
 21
0.0
 31
0.0
  0
ENDBLK
  5
4A
330
45
100
AcDbEntity
  8
0
100
AcDbBlockEnd
  0
BLOCK
  5
104E
330
54D
100
AcDbEntity
  8
0
100
AcDbBlockBegin
  2
*D4
 70
     1
 10
0.0
 20
0.0
 30
0.0
  3
*D4
  1

  0
LINE
  5
104F
330
54D
100
AcDbEntity
  8
0
  6
ByBlock
 62
     2
100
AcDbLine
 10
399.9868045327877
 20
439.856988437012
 30
0.0
 11
381.3790741493592
 21
439.856988437012
 31
0.0
  0
LINE
  5
1050
330
54D
100
AcDbEntity
  8
0
  6
ByBlock
 62
     2
100
AcDbLine
 10
399.9868045327876
 20
433.8569884370119
 30
0.0
 11
381.3790741493592
 21
433.8569884370119
 31
0.0
  0
LINE
  5
1051
330
54D
100
AcDbEntity
  8
0
  6
ByBlock
 62
     2
100
AcDbLine
 10
382.6290741493592
 20
442.356988437012
 30
0.0
 11
382.6290741493592
 21
444.856988437012
 31
0.0
  0
LINE
  5
1052
330
54D
100
AcDbEntity
  8
0
  6
ByBlock
 62
     2
100
AcDbLine
 10
382.6290741493592
 20
431.3569884370119
 30
0.0
 11
382.6290741493592
 21
428.856988437012
 31
0.0
  0
LINE
  5
1053
330
54D
100
AcDbEntity
  8
0
  6
ByBlock
 62
     2
100
AcDbLine
 10
382.6290741493592
 20
439.856988437012
 30
0.0
 11
382.6290741493592
 21
433.8569884370119
 31
0.0
  0
INSERT
  5
1054
330
54D
100
AcDbEntity
  8
0
  6
ByBlock
 62
     2
100
AcDbBlockReference
  2
_OPEN
 10
382.6290741493592
 20
439.856988437012
 30
0.0
 41
2.5
 42
2.5
 43
2.5
 50
270.0
  0
INSERT
  5
1055
330
54D
100
AcDbEntity
  8
0
  6
ByBlock
 62
     2
100
AcDbBlockReference
  2
_OPEN
 10
382.6290741493592
 20
433.8569884370119
 30
0.0
 41
2.5
 42
2.5
 43
2.5
 50
90.0
  0
MTEXT
  5
1056
330
54D
100
AcDbEntity
  8
0
  6
ByBlock
 62
     6
100
AcDbMText
 10
380.7540741493592
 20
436.856988437012
 30
0.0
 40
2.5
 41
0.0
 71
     5
 72
     1
  1
\A1;φ6
  7
STYLE3
 11
0.0000000000000001
 21
1.0
 31
0.0
 73
     1
 44
1.0
  0
POINT
  5
1057
330
54D
100
AcDbEntity
  8
DEFPOINTS
  6
ByBlock
 62
     0
100
AcDbPoint
 10
399.9868045327877
 20
439.856988437012
 30
0.0
  0
POINT
  5
1058
330
54D
100
AcDbEntity
  8
DEFPOINTS
  6
ByBlock
 62
     0
100
AcDbPoint
 10
399.9868045327876
 20
433.8569884370119
 30
0.0
  0
POINT
  5
1059
330
54D
100
AcDbEntity
  8
DEFPOINTS
  6
ByBlock
 62
     0
100
AcDbPoint
 10
382.6290741493592
 20
433.8569884370119
 30
0.0
  0
ENDBLK
  5
105A
330
54D
100
AcDbEntity
  8
0
100
AcDbBlockEnd
  0
BLOCK
  5
569
330
55C
100
AcDbEntity
  8
0
100
AcDbBlockBegin
  2
*D5
 70
     1
 10
0.0
 20
0.0
 30
0.0
  3
*D5
  1

  0
LINE
  5
56A
330
55C
100
AcDbEntity
  8
0
  6
ByBlock
 62
     2
100
AcDbLine
 10
419.0421654270362
 20
417.370873852833
 30
0.0
 11
419.0421654270362
 21
419.1655243942602
 31
0.0
  0
LINE
  5
56B
330
55C
100
AcDbEntity
  8
0
  6
ByBlock
 62
     2
100
AcDbLine
 10
437.0502320422066
 20
418.0516868647147
 30
0.0
 11
437.0502320422066
 21
416.6655243942602
 31
0.0
  0
LINE
  5
56C
330
55C
100
AcDbEntity
  8
0
  6
ByBlock
 62
     2
100
AcDbLine
 10
421.5421654270362
 20
417.9155243942602
 30
0.0
 11
434.5502320422066
 21
417.9155243942602
 31
0.0
  0
INSERT
  5
56D
330
55C
100
AcDbEntity
  8
0
  6
ByBlock
 62
     2
100
AcDbBlockReference
  2
_OPEN
 10
419.0421654270362
 20
417.9155243942602
 30
0.0
 41
2.5
 42
2.5
 43
2.5
 50
180.0
  0
INSERT
  5
56E
330
55C
100
AcDbEntity
  8
0
  6
ByBlock
 62
     2
100
AcDbBlockReference
  2
_OPEN
 10
437.0502320422066
 20
417.9155243942602
 30
0.0
 41
2.5
 42
2.5
 43
2.5
  0
MTEXT
  5
56F
330
55C
100
AcDbEntity
  8
0
  6
ByBlock
 62
     6
100
AcDbMText
 10
428.0461987346213
 20
419.7905243942602
 30
0.0
 40
2.5
 41
0.0
 71
     5
 72
     1
  1
\A1;18
  7
STYLE3
 73
     1
 44
1.0
  0
POINT
  5
570
330
55C
100
AcDbEntity
  8
DEFPOINTS
  6
ByBlock
 62
     0
100
AcDbPoint
 10
419.0421654270362
 20
417.370873852833
 30
0.0
  0
POINT
  5
571
330
55C
100
AcDbEntity
  8
DEFPOINTS
  6
ByBlock
 62
     0
100
AcDbPoint
 10
437.0502320422066
 20
418.0516868647147
 30
0.0
  0
POINT
  5
572
330
55C
100
AcDbEntity
  8
DEFPOINTS
  6
ByBlock
 62
     0
100
AcDbPoint
 10
437.0502320422066
 20
417.9155243942602
 30
0.0
  0
ENDBLK
  5
573
330
55C
100
AcDbEntity
  8
0
100
AcDbBlockEnd
  0
BLOCK
  5
593
330
592
100
AcDbEntity
  8
0
100
AcDbBlockBegin
  2
*D6
 70
     1
 10
0.0
 20
0.0
 30
0.0
  3
*D6
  1

  0
LINE
  5
594
330
592
100
AcDbEntity
  8
0
  6
ByBlock
 62
     2
100
AcDbLine
 10
415.0502320422066
 20
209.1979714098306
 30
0.0
 11
415.0502320422066
 21
203.6389624015268
 31
0.0
  0
LINE
  5
595
330
592
100
AcDbEntity
  8
0
  6
ByBlock
 62
     2
100
AcDbLine
 10
420.0502320422065
 20
209.1979714098306
 30
0.0
 11
420.0502320422065
 21
203.6389624015268
 31
0.0
  0
LINE
  5
596
330
592
100
AcDbEntity
  8
0
  6
ByBlock
 62
     2
100
AcDbLine
 10
412.5502320422066
 20
204.8889624015268
 30
0.0
 11
410.0502320422066
 21
204.8889624015268
 31
0.0
  0
LINE
  5
597
330
592
100
AcDbEntity
  8
0
  6
ByBlock
 62
     2
100
AcDbLine
 10
422.5502320422066
 20
204.8889624015268
 30
0.0
 11
425.0502320422066
 21
204.8889624015268
 31
0.0
  0
LINE
  5
598
330
592
100
AcDbEntity
  8
0
  6
ByBlock
 62
     2
100
AcDbLine
 10
415.0502320422066
 20
204.8889624015268
 30
0.0
 11
420.0502320422065
 21
204.8889624015268
 31
0.0
  0
INSERT
  5
599
330
592
100
AcDbEntity
  8
0
  6
ByBlock
 62
     2
100
AcDbBlockReference
  2
_OPEN
 10
415.0502320422066
 20
204.8889624015268
 30
0.0
 41
2.5
 42
2.5
 43
2.5
  0
INSERT
  5
59A
330
592
100
AcDbEntity
  8
0
  6
ByBlock
 62
     2
100
AcDbBlockReference
  2
_OPEN
 10
420.0502320422065
 20
204.8889624015268
 30
0.0
 41
2.5
 42
2.5
 43
2.5
 50
180.0
  0
MTEXT
  5
59B
330
592
100
AcDbEntity
  8
0
  6
ByBlock
 62
     6
100
AcDbMText
 10
417.5502320422066
 20
206.7639624015268
 30
0.0
 40
2.5
 41
0.0
 71
     5
 72
     1
  1
\A1;5
  7
STYLE3
 73
     1
 44
1.0
  0
POINT
  5
59C
330
592
100
AcDbEntity
  8
DEFPOINTS
  6
ByBlock
 62
     0
100
AcDbPoint
 10
415.0502320422066
 20
209.1979714098306
 30
0.0
  0
POINT
  5
59D
330
592
100
AcDbEntity
  8
DEFPOINTS
  6
ByBlock
 62
     0
100
AcDbPoint
 10
420.0502320422065
 20
209.1979714098306
 30
0.0
  0
POINT
  5
59E
330
592
100
AcDbEntity
  8
DEFPOINTS
  6
ByBlock
 62
     0
100
AcDbPoint
 10
420.0502320422065
 20
204.8889624015268
 30
0.0
  0
ENDBLK
  5
59F
330
592
100
AcDbEntity
  8
0
100
AcDbBlockEnd
  0
BLOCK
  5
5A2
330
5A1
100
AcDbEntity
  8
0
100
AcDbBlockBegin
  2
*D7
 70
     1
 10
0.0
 20
0.0
 30
0.0
  3
*D7
  1

  0
LINE
  5
5A3
330
5A1
100
AcDbEntity
  8
0
  6
ByBlock
 62
     2
100
AcDbLine
 10
454.0502320422066
 20
209.1979714098306
 30
0.0
 11
454.0502320422066
 21
203.6389624015268
 31
0.0
  0
LINE
  5
5A4
330
5A1
100
AcDbEntity
  8
0
  6
ByBlock
 62
     2
100
AcDbLine
 10
459.0502320422065
 20
209.1979714098306
 30
0.0
 11
459.0502320422065
 21
203.6389624015268
 31
0.0
  0
LINE
  5
5A5
330
5A1
100
AcDbEntity
  8
0
  6
ByBlock
 62
     2
100
AcDbLine
 10
451.5502320422066
 20
204.8889624015268
 30
0.0
 11
449.0502320422065
 21
204.8889624015268
 31
0.0
  0
LINE
  5
5A6
330
5A1
100
AcDbEntity
  8
0
  6
ByBlock
 62
     2
100
AcDbLine
 10
461.5502320422065
 20
204.8889624015268
 30
0.0
 11
464.0502320422065
 21
204.8889624015268
 31
0.0
  0
LINE
  5
5A7
330
5A1
100
AcDbEntity
  8
0
  6
ByBlock
 62
     2
100
AcDbLine
 10
454.0502320422066
 20
204.8889624015268
 30
0.0
 11
459.0502320422065
 21
204.8889624015268
 31
0.0
  0
INSERT
  5
5A8
330
5A1
100
AcDbEntity
  8
0
  6
ByBlock
 62
     2
100
AcDbBlockReference
  2
_OPEN
 10
454.0502320422066
 20
204.8889624015268
 30
0.0
 41
2.5
 42
2.5
 43
2.5
  0
INSERT
  5
5A9
330
5A1
100
AcDbEntity
  8
0
  6
ByBlock
 62
     2
100
AcDbBlockReference
  2
_OPEN
 10
459.0502320422065
 20
204.8889624015268
 30
0.0
 41
2.5
 42
2.5
 43
2.5
 50
180.0
  0
MTEXT
  5
5AA
330
5A1
100
AcDbEntity
  8
0
  6
ByBlock
 62
     6
100
AcDbMText
 10
456.5502320422066
 20
206.7639624015268
 30
0.0
 40
2.5
 41
0.0
 71
     5
 72
     1
  1
\A1;5
  7
STYLE3
 73
     1
 44
1.0
  0
POINT
  5
5AB
330
5A1
100
AcDbEntity
  8
DEFPOINTS
  6
ByBlock
 62
     0
100
AcDbPoint
 10
454.0502320422066
 20
209.1979714098306
 30
0.0
  0
POINT
  5
5AC
330
5A1
100
AcDbEntity
  8
DEFPOINTS
  6
ByBlock
 62
     0
100
AcDbPoint
 10
459.0502320422065
 20
209.1979714098306
 30
0.0
  0
POINT
  5
5AD
330
5A1
100
AcDbEntity
  8
DEFPOINTS
  6
ByBlock
 62
     0
100
AcDbPoint
 10
459.0502320422065
 20
204.8889624015268
 30
0.0
  0
ENDBLK
  5
5AE
330
5A1
100
AcDbEntity
  8
0
100
AcDbBlockEnd
  0
BLOCK
  5
FD9
330
62D
100
AcDbEntity
  8
0
100
AcDbBlockBegin
  2
*D8
 70
     1
 10
0.0
 20
0.0
 30
0.0
  3
*D8
  1

  0
LINE
  5
FDA
330
62D
100
AcDbEntity
  8
0
  6
ByBlock
 62
     2
100
AcDbLine
 10
531.7659645953251
 20
436.8569884370119
 30
0.0
 11
483.1222473230327
 21
436.8569884370119
 31
0.0
  0
LINE
  5
FDB
330
62D
100
AcDbEntity
  8
0
  6
ByBlock
 62
     2
100
AcDbLine
 10
544.7376522525944
 20
306.262666449759
 30
0.0
 11
483.1222473230327
 21
306.262666449759
 31
0.0
  0
LINE
  5
FDC
330
62D
100
AcDbEntity
  8
0
  6
ByBlock
 62
     2
100
AcDbLine
 10
484.3722473230327
 20
434.3569884370118
 30
0.0
 11
484.3722473230327
 21
308.762666449759
 31
0.0
  0
INSERT
  5
FDD
330
62D
100
AcDbEntity
  8
0
  6
ByBlock
 62
     2
100
AcDbBlockReference
  2
_OPEN
 10
484.3722473230327
 20
436.8569884370119
 30
0.0
 41
2.5
 42
2.5
 43
2.5
 50
90.0
  0
INSERT
  5
FDE
330
62D
100
AcDbEntity
  8
0
  6
ByBlock
 62
     2
100
AcDbBlockReference
  2
_OPEN
 10
484.3722473230327
 20
306.262666449759
 30
0.0
 41
2.5
 42
2.5
 43
2.5
 50
270.0
  0
MTEXT
  5
FDF
330
62D
100
AcDbEntity
  8
0
  6
ByBlock
 62
     6
100
AcDbMText
 10
482.4972473230327
 20
371.5598274433855
 30
0.0
 40
2.5
 41
0.0
 71
     5
 72
     1
  1
\A1;140
  7
STYLE3
 11
0.0000000000000001
 21
1.0
 31
0.0
 73
     1
 44
1.0
  0
POINT
  5
FE0
330
62D
100
AcDbEntity
  8
DEFPOINTS
  6
ByBlock
 62
     0
100
AcDbPoint
 10
531.7659645953251
 20
436.8569884370119
 30
0.0
  0
POINT
  5
FE1
330
62D
100
AcDbEntity
  8
DEFPOINTS
  6
ByBlock
 62
     0
100
AcDbPoint
 10
544.7376522525944
 20
306.262666449759
 30
0.0
  0
POINT
  5
FE2
330
62D
100
AcDbEntity
  8
DEFPOINTS
  6
ByBlock
 62
     0
100
AcDbPoint
 10
484.3722473230327
 20
306.262666449759
 30
0.0
  0
ENDBLK
  5
FE3
330
62D
100
AcDbEntity
  8
0
100
AcDbBlockEnd
  0
BLOCK
  5
647
330
63A
100
AcDbEntity
  8
0
100
AcDbBlockBegin
  2
*D9
 70
     1
 10
0.0
 20
0.0
 30
0.0
  3
*D9
  1

  0
LINE
  5
648
330
63A
100
AcDbEntity
  8
0
  6
ByBlock
 62
     2
100
AcDbLine
 10
544.7376522525944
 20
419.713246432652
 30
0.0
 11
544.7376522525944
 21
423.6098624432495
 31
0.0
  0
LINE
  5
649
330
63A
100
AcDbEntity
  8
0
  6
ByBlock
 62
     2
100
AcDbLine
 10
562.7457188677649
 20
419.713246432652
 30
0.0
 11
562.7457188677649
 21
423.6098624432495
 31
0.0
  0
LINE
  5
64A
330
63A
100
AcDbEntity
  8
0
  6
ByBlock
 62
     2
100
AcDbLine
 10
547.2376522525944
 20
422.3598624432495
 30
0.0
 11
560.2457188677649
 21
422.3598624432495
 31
0.0
  0
INSERT
  5
64B
330
63A
100
AcDbEntity
  8
0
  6
ByBlock
 62
     2
100
AcDbBlockReference
  2
_OPEN
 10
544.7376522525944
 20
422.3598624432495
 30
0.0
 41
2.5
 42
2.5
 43
2.5
 50
180.0
  0
INSERT
  5
64C
330
63A
100
AcDbEntity
  8
0
  6
ByBlock
 62
     2
100
AcDbBlockReference
  2
_OPEN
 10
562.7457188677649
 20
422.3598624432495
 30
0.0
 41
2.5
 42
2.5
 43
2.5
  0
MTEXT
  5
64D
330
63A
100
AcDbEntity
  8
0
  6
ByBlock
 62
     6
100
AcDbMText
 10
553.7416855601796
 20
424.2348624432495
 30
0.0
 40
2.5
 41
0.0
 71
     5
 72
     1
  1
\A1;18
  7
STYLE3
 73
     1
 44
1.0
  0
POINT
  5
64E
330
63A
100
AcDbEntity
  8
DEFPOINTS
  6
ByBlock
 62
     0
100
AcDbPoint
 10
544.7376522525944
 20
419.713246432652
 30
0.0
  0
POINT
  5
64F
330
63A
100
AcDbEntity
  8
DEFPOINTS
  6
ByBlock
 62
     0
100
AcDbPoint
 10
562.7457188677649
 20
419.713246432652
 30
0.0
  0
POINT
  5
650
330
63A
100
AcDbEntity
  8
DEFPOINTS
  6
ByBlock
 62
     0
100
AcDbPoint
 10
562.7457188677649
 20
422.3598624432495
 30
0.0
  0
ENDBLK
  5
651
330
63A
100
AcDbEntity
  8
0
100
AcDbBlockEnd
  0
BLOCK
  5
1013
330
652
100
AcDbEntity
  8
0
100
AcDbBlockBegin
  2
*D10
 70
     1
 10
0.0
 20
0.0
 30
0.0
  3
*D10
  1

  0
LINE
  5
1014
330
652
100
AcDbEntity
  8
0
  6
ByBlock
 62
     2
100
AcDbLine
 10
562.7457188677649
 20
416.4826950843239
 30
0.0
 11
606.2920187826998
 21
416.4826950843239
 31
0.0
  0
LINE
  5
1015
330
652
100
AcDbEntity
  8
0
  6
ByBlock
 62
     2
100
AcDbLine
 10
592.7457188677649
 20
256.1979714098306
 30
0.0
 11
606.2920187826998
 21
256.1979714098306
 31
0.0
  0
LINE
  5
1016
330
652
100
AcDbEntity
  8
0
  6
ByBlock
 62
     2
100
AcDbLine
 10
605.0420187826999
 20
413.9826950843239
 30
0.0
 11
605.0420187826999
 21
258.6979714098306
 31
0.0
  0
INSERT
  5
1017
330
652
100
AcDbEntity
  8
0
  6
ByBlock
 62
     2
100
AcDbBlockReference
  2
_OPEN
 10
605.0420187826999
 20
416.4826950843239
 30
0.0
 41
2.5
 42
2.5
 43
2.5
 50
90.0
  0
INSERT
  5
1018
330
652
100
AcDbEntity
  8
0
  6
ByBlock
 62
     2
100
AcDbBlockReference
  2
_OPEN
 10
605.0420187826999
 20
256.1979714098306
 30
0.0
 41
2.5
 42
2.5
 43
2.5
 50
270.0
  0
MTEXT
  5
1019
330
652
100
AcDbEntity
  8
0
  6
ByBlock
 62
     6
100
AcDbMText
 10
603.1670187826998
 20
336.3403332470773
 30
0.0
 40
2.5
 41
0.0
 71
     5
 72
     1
  1
\A1;213
  7
STYLE3
 11
0.0000000000000001
 21
1.0
 31
0.0
 73
     1
 44
1.0
  0
POINT
  5
101A
330
652
100
AcDbEntity
  8
DEFPOINTS
  6
ByBlock
 62
     0
100
AcDbPoint
 10
562.7457188677649
 20
416.4826950843239
 30
0.0
  0
POINT
  5
101B
330
652
100
AcDbEntity
  8
DEFPOINTS
  6
ByBlock
 62
     0
100
AcDbPoint
 10
592.7457188677649
 20
256.1979714098306
 30
0.0
  0
POINT
  5
101C
330
652
100
AcDbEntity
  8
DEFPOINTS
  6
ByBlock
 62
     0
100
AcDbPoint
 10
605.0420187826999
 20
256.1979714098306
 30
0.0
  0
ENDBLK
  5
101D
330
652
100
AcDbEntity
  8
0
100
AcDbBlockEnd
  0
BLOCK
  5
F65
330
65F
100
AcDbEntity
  8
0
100
AcDbBlockBegin
  2
*D11
 70
     1
 10
0.0
 20
0.0
 30
0.0
  3
*D11
  1

  0
LINE
  5
F66
330
65F
100
AcDbEntity
  8
0
  6
ByBlock
 62
     2
100
AcDbLine
 10
592.7457188677649
 20
209.1979714098306
 30
0.0
 11
606.2920187826998
 21
209.1979714098306
 31
0.0
  0
LINE
  5
F67
330
65F
100
AcDbEntity
  8
0
  6
ByBlock
 62
     2
100
AcDbLine
 10
605.0420187826999
 20
253.6979714098306
 30
0.0
 11
605.0420187826999
 21
211.6979714098305
 31
0.0
  0
INSERT
  5
F68
330
65F
100
AcDbEntity
  8
0
  6
ByBlock
 62
     2
100
AcDbBlockReference
  2
_OPEN
 10
605.0420187826999
 20
256.1979714098306
 30
0.0
 41
2.5
 42
2.5
 43
2.5
 50
90.0
  0
INSERT
  5
F69
330
65F
100
AcDbEntity
  8
0
  6
ByBlock
 62
     2
100
AcDbBlockReference
  2
_OPEN
 10
605.0420187826999
 20
209.1979714098306
 30
0.0
 41
2.5
 42
2.5
 43
2.5
 50
270.0
  0
MTEXT
  5
F6A
330
65F
100
AcDbEntity
  8
0
  6
ByBlock
 62
     6
100
AcDbMText
 10
603.1670187826998
 20
232.6979714098306
 30
0.0
 40
2.5
 41
0.0
 71
     5
 72
     1
  1
\A1;50
  7
STYLE3
 11
0.0000000000000001
 21
1.0
 31
0.0
 73
     1
 44
1.0
  0
POINT
  5
F6B
330
65F
100
AcDbEntity
  8
DEFPOINTS
  6
ByBlock
 62
     0
100
AcDbPoint
 10
592.7457188677649
 20
256.1979714098306
 30
0.0
  0
POINT
  5
F6C
330
65F
100
AcDbEntity
  8
DEFPOINTS
  6
ByBlock
 62
     0
100
AcDbPoint
 10
592.7457188677649
 20
209.1979714098306
 30
0.0
  0
POINT
  5
F6D
330
65F
100
AcDbEntity
  8
DEFPOINTS
  6
ByBlock
 62
     0
100
AcDbPoint
 10
605.0420187826999
 20
209.1979714098306
 30
0.0
  0
ENDBLK
  5
F6E
330
65F
100
AcDbEntity
  8
0
100
AcDbBlockEnd
  0
BLOCK
  5
101E
330
66B
100
AcDbEntity
  8
0
100
AcDbBlockBegin
  2
*D12
 70
     1
 10
0.0
 20
0.0
 30
0.0
  3
*D12
  1

  0
LINE
  5
101F
330
66B
100
AcDbEntity
  8
0
  6
ByBlock
 62
     2
100
AcDbLine
 10
606.2920187826998
 20
416.4826950843239
 30
0.0
 11
615.9376998576565
 21
416.4826950843239
 31
0.0
  0
LINE
  5
1020
330
66B
100
AcDbEntity
  8
0
  6
ByBlock
 62
     2
100
AcDbLine
 10
606.2920187826998
 20
209.1979714098306
 30
0.0
 11
615.9376998576565
 21
209.1979714098306
 31
0.0
  0
LINE
  5
1021
330
66B
100
AcDbEntity
  8
0
  6
ByBlock
 62
     2
100
AcDbLine
 10
614.6876998576565
 20
413.9826950843239
 30
0.0
 11
614.6876998576565
 21
211.6979714098305
 31
0.0
  0
INSERT
  5
1022
330
66B
100
AcDbEntity
  8
0
  6
ByBlock
 62
     2
100
AcDbBlockReference
  2
_OPEN
 10
614.6876998576565
 20
416.4826950843239
 30
0.0
 41
2.5
 42
2.5
 43
2.5
 50
90.0
  0
INSERT
  5
1023
330
66B
100
AcDbEntity
  8
0
  6
ByBlock
 62
     2
100
AcDbBlockReference
  2
_OPEN
 10
614.6876998576565
 20
209.1979714098306
 30
0.0
 41
2.5
 42
2.5
 43
2.5
 50
270.0
  0
MTEXT
  5
1024
330
66B
100
AcDbEntity
  8
0
  6
ByBlock
 62
     6
100
AcDbMText
 10
612.8126998576565
 20
312.8403332470772
 30
0.0
 40
2.5
 41
0.0
 71
     5
 72
     1
  1
\A1;263
  7
STYLE3
 11
0.0000000000000001
 21
1.0
 31
0.0
 73
     1
 44
1.0
  0
POINT
  5
1025
330
66B
100
AcDbEntity
  8
DEFPOINTS
  6
ByBlock
 62
     0
100
AcDbPoint
 10
606.2920187826998
 20
416.4826950843239
 30
0.0
  0
POINT
  5
1026
330
66B
100
AcDbEntity
  8
DEFPOINTS
  6
ByBlock
 62
     0
100
AcDbPoint
 10
606.2920187826998
 20
209.1979714098306
 30
0.0
  0
POINT
  5
1027
330
66B
100
AcDbEntity
  8
DEFPOINTS
  6
ByBlock
 62
     0
100
AcDbPoint
 10
614.6876998576565
 20
209.1979714098306
 30
0.0
  0
ENDBLK
  5
1028
330
66B
100
AcDbEntity
  8
0
100
AcDbBlockEnd
  0
BLOCK
  5
F5A
330
F2D
100
AcDbEntity
  8
0
100
AcDbBlockBegin
  2
*D21
 70
     1
 10
0.0
 20
0.0
 30
0.0
  3
*D21
  1

  0
LINE
  5
F5B
330
F2D
100
AcDbEntity
  8
0
  6
ByBlock
 62
     2
100
AcDbLine
 10
415.0502320422066
 20
214.1273362608357
 30
0.0
 11
415.0502320422066
 21
212.7468200452538
 31
0.0
  0
LINE
  5
F5C
330
F2D
100
AcDbEntity
  8
0
  6
ByBlock
 62
     2
100
AcDbLine
 10
459.0502320422065
 20
214.9104361927641
 30
0.0
 11
459.0502320422065
 21
212.7468200452538
 31
0.0
  0
LINE
  5
F5D
330
F2D
100
AcDbEntity
  8
0
  6
ByBlock
 62
     2
100
AcDbLine
 10
417.5502320422065
 20
213.9968200452539
 30
0.0
 11
456.5502320422066
 21
213.9968200452539
 31
0.0
  0
INSERT
  5
F5E
330
F2D
100
AcDbEntity
  8
0
  6
ByBlock
 62
     2
100
AcDbBlockReference
  2
_OPEN
 10
415.0502320422066
 20
213.9968200452539
 30
0.0
 41
2.5
 42
2.5
 43
2.5
 50
180.0
  0
INSERT
  5
F5F
330
F2D
100
AcDbEntity
  8
0
  6
ByBlock
 62
     2
100
AcDbBlockReference
  2
_OPEN
 10
459.0502320422065
 20
213.9968200452539
 30
0.0
 41
2.5
 42
2.5
 43
2.5
  0
MTEXT
  5
F60
330
F2D
100
AcDbEntity
  8
0
  6
ByBlock
 62
     6
100
AcDbMText
 10
437.0502320422065
 20
215.8718200452538
 30
0.0
 40
2.5
 41
0.0
 71
     5
 72
     1
  1
\A1;45
  7
STYLE3
 73
     1
 44
1.0
  0
POINT
  5
F61
330
F2D
100
AcDbEntity
  8
DEFPOINTS
  6
ByBlock
 62
     0
100
AcDbPoint
 10
415.0502320422066
 20
214.1273362608357
 30
0.0
  0
POINT
  5
F62
330
F2D
100
AcDbEntity
  8
DEFPOINTS
  6
ByBlock
 62
     0
100
AcDbPoint
 10
459.0502320422065
 20
214.9104361927641
 30
0.0
  0
POINT
  5
F63
330
F2D
100
AcDbEntity
  8
DEFPOINTS
  6
ByBlock
 62
     0
100
AcDbPoint
 10
459.0502320422065
 20
213.9968200452539
 30
0.0
  0
ENDBLK
  5
F64
330
F2D
100
AcDbEntity
  8
0
100
AcDbBlockEnd
  0
BLOCK
  5
F9F
330
F85
100
AcDbEntity
  8
0
100
AcDbBlockBegin
  2
*D22
 70
     1
 10
0.0
 20
0.0
 30
0.0
  3
*D22
  1

  0
LINE
  5
FA0
330
F85
100
AcDbEntity
  8
0
  6
ByBlock
 62
     2
100
AcDbLine
 10
539.7376522525944
 20
392.2121264893153
 30
0.0
 11
539.7376522525944
 21
394.6265616789187
 31
0.0
  0
LINE
  5
FA1
330
F85
100
AcDbEntity
  8
0
  6
ByBlock
 62
     2
100
AcDbLine
 10
549.7376522525944
 20
391.6299085647092
 30
0.0
 11
549.7376522525944
 21
394.6265616789187
 31
0.0
  0
LINE
  5
FA2
330
F85
100
AcDbEntity
  8
0
  6
ByBlock
 62
     2
100
AcDbLine
 10
542.2376522525944
 20
393.3765616789187
 30
0.0
 11
547.2376522525944
 21
393.3765616789187
 31
0.0
  0
INSERT
  5
FA3
330
F85
100
AcDbEntity
  8
0
  6
ByBlock
 62
     2
100
AcDbBlockReference
  2
_OPEN
 10
539.7376522525944
 20
393.3765616789187
 30
0.0
 41
2.5
 42
2.5
 43
2.5
 50
180.0
  0
INSERT
  5
FA4
330
F85
100
AcDbEntity
  8
0
  6
ByBlock
 62
     2
100
AcDbBlockReference
  2
_OPEN
 10
549.7376522525944
 20
393.3765616789187
 30
0.0
 41
2.5
 42
2.5
 43
2.5
  0
MTEXT
  5
FA5
330
F85
100
AcDbEntity
  8
0
  6
ByBlock
 62
     6
100
AcDbMText
 10
544.7376522525944
 20
395.2515616789187
 30
0.0
 40
2.5
 41
0.0
 71
     5
 72
     1
  1
\A1;φ10
  7
STYLE3
 73
     1
 44
1.0
  0
POINT
  5
FA6
330
F85
100
AcDbEntity
  8
DEFPOINTS
  6
ByBlock
 62
     0
100
AcDbPoint
 10
539.7376522525944
 20
392.2121264893153
 30
0.0
  0
POINT
  5
FA7
330
F85
100
AcDbEntity
  8
DEFPOINTS
  6
ByBlock
 62
     0
100
AcDbPoint
 10
549.7376522525944
 20
391.6299085647092
 30
0.0
  0
POINT
  5
FA8
330
F85
100
AcDbEntity
  8
DEFPOINTS
  6
ByBlock
 62
     0
100
AcDbPoint
 10
549.7376522525944
 20
393.3765616789187
 30
0.0
  0
ENDBLK
  5
FA9
330
F85
100
AcDbEntity
  8
0
100
AcDbBlockEnd
  0
BLOCK
  5
FAA
330
F92
100
AcDbEntity
  8
0
100
AcDbBlockBegin
  2
*D23
 70
     1
 10
0.0
 20
0.0
 30
0.0
  3
*D23
  1

  0
LINE
  5
FAB
330
F92
100
AcDbEntity
  8
0
  6
ByBlock
 62
     2
100
AcDbLine
 10
556.7457188677646
 20
391.1932452861567
 30
0.0
 11
556.7457188677646
 21
394.6265616789187
 31
0.0
  0
LINE
  5
FAC
330
F92
100
AcDbEntity
  8
0
  6
ByBlock
 62
     2
100
AcDbLine
 10
568.7457188677649
 20
390.7565820076042
 30
0.0
 11
568.7457188677649
 21
394.6265616789187
 31
0.0
  0
LINE
  5
FAD
330
F92
100
AcDbEntity
  8
0
  6
ByBlock
 62
     2
100
AcDbLine
 10
559.2457188677647
 20
393.3765616789187
 30
0.0
 11
566.2457188677649
 21
393.3765616789187
 31
0.0
  0
INSERT
  5
FAE
330
F92
100
AcDbEntity
  8
0
  6
ByBlock
 62
     2
100
AcDbBlockReference
  2
_OPEN
 10
556.7457188677646
 20
393.3765616789187
 30
0.0
 41
2.5
 42
2.5
 43
2.5
 50
180.0
  0
INSERT
  5
FAF
330
F92
100
AcDbEntity
  8
0
  6
ByBlock
 62
     2
100
AcDbBlockReference
  2
_OPEN
 10
568.7457188677649
 20
393.3765616789187
 30
0.0
 41
2.5
 42
2.5
 43
2.5
  0
MTEXT
  5
FB0
330
F92
100
AcDbEntity
  8
0
  6
ByBlock
 62
     6
100
AcDbMText
 10
562.7457188677648
 20
395.2515616789187
 30
0.0
 40
2.5
 41
0.0
 71
     5
 72
     1
  1
\A1;φ12
  7
STYLE3
 73
     1
 44
1.0
  0
POINT
  5
FB1
330
F92
100
AcDbEntity
  8
DEFPOINTS
  6
ByBlock
 62
     0
100
AcDbPoint
 10
556.7457188677646
 20
391.1932452861567
 30
0.0
  0
POINT
  5
FB2
330
F92
100
AcDbEntity
  8
DEFPOINTS
  6
ByBlock
 62
     0
100
AcDbPoint
 10
568.7457188677649
 20
390.7565820076042
 30
0.0
  0
POINT
  5
FB3
330
F92
100
AcDbEntity
  8
DEFPOINTS
  6
ByBlock
 62
     0
100
AcDbPoint
 10
568.7457188677649
 20
393.3765616789187
 30
0.0
  0
ENDBLK
  5
FB4
330
F92
100
AcDbEntity
  8
0
100
AcDbBlockEnd
  0
BLOCK
  5
FCD
330
FC0
100
AcDbEntity
  8
0
100
AcDbBlockBegin
  2
*D24
 70
     1
 10
0.0
 20
0.0
 30
0.0
  3
*D24
  1

  0
LINE
  5
FCE
330
FC0
100
AcDbEntity
  8
0
  6
ByBlock
 62
     2
100
AcDbLine
 10
456.4948711479578
 20
381.8909828872227
 30
0.0
 11
470.7746214685919
 21
381.8909828872227
 31
0.0
  0
LINE
  5
FCF
330
FC0
100
AcDbEntity
  8
0
  6
ByBlock
 62
     2
100
AcDbLine
 10
456.4948711479578
 20
340.8909828872227
 30
0.0
 11
470.7746214685919
 21
340.8909828872227
 31
0.0
  0
LINE
  5
FD0
330
FC0
100
AcDbEntity
  8
0
  6
ByBlock
 62
     2
100
AcDbLine
 10
469.5246214685919
 20
379.3909828872227
 30
0.0
 11
469.5246214685919
 21
343.3909828872227
 31
0.0
  0
INSERT
  5
FD1
330
FC0
100
AcDbEntity
  8
0
  6
ByBlock
 62
     2
100
AcDbBlockReference
  2
_OPEN
 10
469.5246214685919
 20
381.8909828872227
 30
0.0
 41
2.5
 42
2.5
 43
2.5
 50
90.0
  0
INSERT
  5
FD2
330
FC0
100
AcDbEntity
  8
0
  6
ByBlock
 62
     2
100
AcDbBlockReference
  2
_OPEN
 10
469.5246214685919
 20
340.8909828872227
 30
0.0
 41
2.5
 42
2.5
 43
2.5
 50
270.0
  0
MTEXT
  5
FD3
330
FC0
100
AcDbEntity
  8
0
  6
ByBlock
 62
     6
100
AcDbMText
 10
467.6496214685919
 20
361.3909828872227
 30
0.0
 40
2.5
 41
0.0
 71
     5
 72
     1
  1
\A1;φ42
  7
STYLE3
 11
0.0000000000000001
 21
1.0
 31
0.0
 73
     1
 44
1.0
  0
POINT
  5
FD4
330
FC0
100
AcDbEntity
  8
DEFPOINTS
  6
ByBlock
 62
     0
100
AcDbPoint
 10
456.4948711479578
 20
381.8909828872227
 30
0.0
  0
POINT
  5
FD5
330
FC0
100
AcDbEntity
  8
DEFPOINTS
  6
ByBlock
 62
     0
100
AcDbPoint
 10
456.4948711479578
 20
340.8909828872227
 30
0.0
  0
POINT
  5
FD6
330
FC0
100
AcDbEntity
  8
DEFPOINTS
  6
ByBlock
 62
     0
100
AcDbPoint
 10
469.5246214685919
 20
340.8909828872227
 30
0.0
  0
ENDBLK
  5
FD7
330
FC0
100
AcDbEntity
  8
0
100
AcDbBlockEnd
  0
ENDSEC
  0
SECTION
  2
ENTITIES
  0
LWPOLYLINE
  5
1A0
330
18
100
AcDbEntity
  8
C
100
AcDbPolyline
 90
        5
 70
     0
 43
0.8
 10
256.2352605185929
 20
458.9717683211813
 10
633.7352605185929
 20
458.9717683211813
 10
633.7352605185929
 20
176.4717683211813
 10
256.2352605185929
 20
176.4717683211813
 10
256.2352605185929
 20
458.9717683211813
  0
LINE
  5
1FD
330
18
100
AcDbEntity
  8
中心線
100
AcDbLine
 10
402.1028972249399
 20
234.1979714098306
 30
0.0
 11
461.6168415901355
 21
234.1979714098306
 31
0.0
  0
LINE
  5
1FE
330
18
100
AcDbEntity
  8
中心線
100
AcDbLine
 10
430.4948711479581
 20
419.5586900947199
 30
0.0
 11
430.4948711479581
 21
201.4650526100632
 31
0.0
  0
LINE
  5
1FF
330
18
100
AcDbEntity
  8
外形線
100
AcDbLine
 10
452.4948711479581
 20
256.1627930904133
 30
0.0
 11
452.4948711479581
 21
209.1979714098306
 31
0.0
  0
LINE
  5
200
330
18
100
AcDbEntity
  8
外形線
100
AcDbLine
 10
408.4948711479581
 20
256.1979714098306
 30
0.0
 11
408.4948711479581
 21
209.1979714098306
 31
0.0
  0
LINE
  5
201
330
18
100
AcDbEntity
  8
外形線
100
AcDbLine
 10
408.4948711479581
 20
256.1979714098306
 30
0.0
 11
443.568338896679
 21
256.1979714098306
 31
0.0
  0
LINE
  5
202
330
18
100
AcDbEntity
  8
外形線
100
AcDbLine
 10
408.4948711479581
 20
209.1979714098306
 30
0.0
 11
413.4948711479581
 21
209.1979714098306
 31
0.0
  0
LINE
  5
205
330
18
100
AcDbEntity
  8
外形線
100
AcDbLine
 10
413.4948711479581
 20
210.6979714098306
 30
0.0
 11
413.4948711479581
 21
209.1979714098306
 31
0.0
  0
LINE
  5
217
330
18
100
AcDbEntity
  8
外形線
100
AcDbLine
 10
413.4948711479581
 20
210.6979714098306
 30
0.0
 11
442.4948711479581
 21
213.6979714098306
 31
0.0
  0
LINE
  5
218
330
18
100
AcDbEntity
  8
外形線
100
AcDbLine
 10
442.4948711479581
 20
213.6979714098306
 30
0.0
 11
447.4948711479582
 21
209.1979714098306
 31
0.0
  0
LINE
  5
219
330
18
100
AcDbEntity
  8
外形線
100
AcDbLine
 10
447.4948711479583
 20
209.1979714098306
 30
0.0
 11
452.4948711479581
 21
209.1979714098306
 31
0.0
  0
ARC
  5
21A
330
18
100
AcDbEntity
  8
外形線
100
AcDbCircle
 10
430.4948711479581
 20
234.1979714098306
 30
0.0
 40
16.75
100
AcDbArc
 50
63.4795947281163
 51
39.35732926987159
  0
LINE
  5
21C
330
18
100
AcDbEntity
  8
外形線
100
AcDbLine
 10
412.9948711479581
 20
259.1979714098306
 30
0.0
 11
445.9616251474596
 21
259.1979714098306
 31
0.0
  0
LINE
  5
21E
330
18
100
AcDbEntity
  8
外形線
100
AcDbLine
 10
412.9948711479581
 20
259.1979714098306
 30
0.0
 11
412.9948711479581
 21
256.1979714098307
 31
0.0
  0
LINE
  5
21F
330
18
100
AcDbEntity
  8
外形線
100
AcDbLine
 10
435.7448711479581
 20
261.1979714098306
 30
0.0
 11
435.7448711479581
 21
259.1979714098306
 31
0.0
  0
LINE
  5
220
330
18
100
AcDbEntity
  8
外形線
100
AcDbLine
 10
425.2448711479582
 20
261.1979714098306
 30
0.0
 11
425.2448711479582
 21
259.1979714098306
 31
0.0
  0
LINE
  5
221
330
18
100
AcDbEntity
  8
外形線
100
AcDbLine
 10
419.9948711479581
 20
261.1979714098306
 30
0.0
 11
440.9948711479582
 21
261.1979714098306
 31
0.0
  0
LINE
  5
222
330
18
100
AcDbEntity
  8
外形線
100
AcDbLine
 10
441.4948711479565
 20
271.1979714098303
 30
0.0
 11
441.4948711479582
 21
261.6979714098306
 31
0.0
  0
LINE
  5
223
330
18
100
AcDbEntity
  8
外形線
100
AcDbLine
 10
419.4948711479598
 20
271.1979714098303
 30
0.0
 11
419.4948711479581
 21
261.6979714098306
 31
0.0
  0
LINE
  5
224
330
18
100
AcDbEntity
  8
外形線
100
AcDbLine
 10
440.9948711479582
 20
261.1979714098306
 30
0.0
 11
441.4948711479582
 21
261.6979714098306
 31
0.0
  0
LINE
  5
225
330
18
100
AcDbEntity
  8
外形線
100
AcDbLine
 10
419.9948711479581
 20
261.1979714098306
 30
0.0
 11
419.4948711479581
 21
261.6979714098306
 31
0.0
  0
LINE
  5
226
330
18
100
AcDbEntity
  8
外形線
100
AcDbLine
 10
442.4948711479565
 20
272.1979714098305
 30
0.0
 11
442.4948711479581
 21
272.1979714098306
 31
0.0
  0
LINE
  5
227
330
18
100
AcDbEntity
  8
外形線
100
AcDbLine
 10
418.4948711479582
 20
301.1979714098306
 30
0.0
 11
423.9948711479581
 21
301.1979714098306
 31
0.0
  0
LINE
  5
228
330
18
100
AcDbEntity
  8
外形線
100
AcDbLine
 10
442.4948711479582
 20
301.1979714098306
 30
0.0
 11
442.4948711479581
 21
272.1979714098306
 31
0.0
  0
LINE
  5
229
330
18
100
AcDbEntity
  8
外形線
100
AcDbLine
 10
418.4948711479582
 20
301.1979714098306
 30
0.0
 11
418.4948711479582
 21
272.1979714098305
 31
0.0
  0
ARC
  5
22A
330
18
100
AcDbEntity
  8
外形線
100
AcDbCircle
 10
442.4948711479565
 20
271.1979714098305
 30
0.0
 40
1.0
100
AcDbArc
 50
90.00000000000014
 51
180.0000000000102
  0
ARC
  5
22B
330
18
100
AcDbEntity
  8
外形線
100
AcDbCircle
 10
418.4948711479598
 20
271.1979714098305
 30
0.0
 40
1.0
100
AcDbArc
 50
359.9999999999898
 51
89.99999999999987
  0
LINE
  5
22C
330
18
100
AcDbEntity
  8
外形線
100
AcDbLine
 10
418.4948711479598
 20
272.1979714098305
 30
0.0
 11
418.4948711479582
 21
272.1979714098306
 31
0.0
  0
LINE
  5
22D
330
18
100
AcDbEntity
  8
外形線
100
AcDbLine
 10
418.4948711479598
 20
272.1979714098305
 30
0.0
 11
442.4948711479565
 21
272.1979714098305
 31
0.0
  0
LINE
  5
22E
330
18
100
AcDbEntity
  8
外形線
100
AcDbLine
 10
439.4948711479582
 20
301.1979714098306
 30
0.0
 11
439.4948711479582
 21
280.1979714098306
 31
0.0
  0
LINE
  5
22F
330
18
100
AcDbEntity
  8
外形線
100
AcDbLine
 10
421.4948711479582
 20
301.1979714098306
 30
0.0
 11
421.4948711479581
 21
280.1979714098305
 31
0.0
  0
LINE
  5
231
330
18
100
AcDbEntity
  8
外形線
100
AcDbLine
 10
423.9948711479581
 20
301.1979714098307
 30
0.0
 11
442.4948711479582
 21
301.1979714098306
 31
0.0
  0
LINE
  5
24D
330
18
100
AcDbEntity
  8
中心線
100
AcDbLine
 10
413.1842393388136
 20
291.1979714098306
 30
0.0
 11
448.8954221916609
 21
291.1979714098306
 31
0.0
  0
LINE
  5
25B
330
18
100
AcDbEntity
  8
外形線
100
AcDbLine
 10
421.4948711479581
 20
280.1979714098305
 30
0.0
 11
439.4948711479582
 21
280.1979714098306
 31
0.0
  0
LINE
  5
25D
330
18
100
AcDbEntity
  8
外形線
100
AcDbLine
 10
421.494871147958
 20
282.8979714098306
 30
0.0
 11
439.4948711479581
 21
282.8979714098305
 31
0.0
  0
LINE
  5
25E
330
18
100
AcDbEntity
  8
外形線
100
AcDbLine
 10
444.4948711479582
 20
301.1979714098306
 30
0.0
 11
444.4948711479582
 21
281.1979714098306
 31
0.0
  0
LINE
  5
25F
330
18
100
AcDbEntity
  8
外形線
100
AcDbLine
 10
442.4948711479582
 20
301.1979714098306
 30
0.0
 11
444.4948711479582
 21
301.1979714098306
 31
0.0
  0
LINE
  5
260
330
18
100
AcDbEntity
  8
外形線
100
AcDbLine
 10
442.4948711479581
 20
281.1979714098306
 30
0.0
 11
444.4948711479582
 21
281.1979714098306
 31
0.0
  0
LINE
  5
261
330
18
100
AcDbEntity
  8
外形線
100
AcDbLine
 10
445.9948711479582
 20
296.1979714098306
 30
0.0
 11
445.9948711479581
 21
286.1979714098306
 31
0.0
  0
LINE
  5
262
330
18
100
AcDbEntity
  8
外形線
100
AcDbLine
 10
444.4948711479582
 20
296.1979714098306
 30
0.0
 11
445.9948711479582
 21
296.1979714098306
 31
0.0
  0
LINE
  5
264
330
18
100
AcDbEntity
  8
外形線
100
AcDbLine
 10
444.4948711479582
 20
286.1979714098306
 30
0.0
 11
445.9948711479581
 21
286.1979714098306
 31
0.0
  0
LINE
  5
266
330
18
100
AcDbEntity
  8
外形線
100
AcDbLine
 10
416.5227351929586
 20
295.1979714098305
 30
0.0
 11
418.4948711479582
 21
295.1979714098305
 31
0.0
  0
LINE
  5
267
330
18
100
AcDbEntity
  8
外形線
100
AcDbLine
 10
416.5227351929587
 20
287.1979714098305
 30
0.0
 11
418.4948711479582
 21
287.1979714098306
 31
0.0
  0
LINE
  5
268
330
18
100
AcDbEntity
  8
外形線
100
AcDbLine
 10
415.9948711479582
 20
291.4979714098306
 30
0.0
 11
415.9948711479582
 21
290.8979714098305
 31
0.0
  0
LINE
  5
26A
330
18
100
AcDbEntity
  8
外形線
100
AcDbLine
 10
415.0023758413268
 20
291.4979714098306
 30
0.0
 11
415.9948711479582
 21
291.4979714098306
 31
0.0
  0
LINE
  5
26B
330
18
100
AcDbEntity
  8
外形線
100
AcDbLine
 10
415.0023758413268
 20
290.8979714098305
 30
0.0
 11
415.9948711479582
 21
290.8979714098305
 31
0.0
  0
ARC
  5
26D
330
18
100
AcDbEntity
  8
外形線
100
AcDbCircle
 10
420.9948711479582
 20
291.1979714098306
 30
0.0
 40
6.0
100
AcDbArc
 50
138.1896851042215
 51
177.134016017401
  0
LINE
  5
26F
330
18
100
AcDbEntity
  8
外形線
100
AcDbLine
 10
416.5227351929586
 20
295.1979714098305
 30
0.0
 11
416.5227351929587
 21
287.1979714098305
 31
0.0
  0
ARC
  5
270
330
18
100
AcDbEntity
  8
外形線
100
AcDbCircle
 10
420.9948711479582
 20
291.1979714098306
 30
0.0
 40
6.0
100
AcDbArc
 50
182.8659839825995
 51
221.81031489578
  0
LINE
  5
272
330
18
100
AcDbEntity
  8
外形線
100
AcDbLine
 10
423.9948711479581
 20
308.9479714098305
 30
0.0
 11
436.9948711479582
 21
308.9479714098306
 31
0.0
  0
LINE
  5
273
330
18
100
AcDbEntity
  8
外形線
100
AcDbLine
 10
436.9948711479582
 20
308.9479714098306
 30
0.0
 11
436.9948711479582
 21
301.1979714098306
 31
0.0
  0
LINE
  5
274
330
18
100
AcDbEntity
  8
外形線
100
AcDbLine
 10
423.9948711479581
 20
308.9479714098305
 30
0.0
 11
423.9948711479581
 21
301.1979714098306
 31
0.0
  0
LINE
  5
275
330
18
100
AcDbEntity
  8
外形線
100
AcDbLine
 10
436.4948711479581
 20
414.4826950843241
 30
0.0
 11
436.4948711479581
 21
373.3909828872228
 31
0.0
  0
LINE
  5
276
330
18
100
AcDbEntity
  8
外形線
100
AcDbLine
 10
424.4948711479579
 20
414.4826950843238
 30
0.0
 11
424.494871147958
 21
373.3909828872227
 31
0.0
  0
LINE
  5
277
330
18
100
AcDbEntity
  8
外形線
100
AcDbLine
 10
438.9948711479581
 20
373.3909828872227
 30
0.0
 11
438.9948711479581
 21
349.3909828872228
 31
0.0
  0
LINE
  5
278
330
18
100
AcDbEntity
  8
外形線
100
AcDbLine
 10
421.9948711479581
 20
373.3909828872227
 30
0.0
 11
421.9948711479582
 21
349.3909828872228
 31
0.0
  0
LINE
  5
279
330
18
100
AcDbEntity
  8
中心線
100
AcDbLine
 10
400.1413794218474
 20
361.3909828872227
 30
0.0
 11
463.8328146128712
 21
361.3909828872227
 31
0.0
  0
LINE
  5
27A
330
18
100
AcDbEntity
  8
外形線
100
AcDbLine
 10
431.4948711479582
 20
373.3909828872228
 30
0.0
 11
431.4948711479582
 21
349.3909828872229
 31
0.0
  0
LINE
  5
27B
330
18
100
AcDbEntity
  8
外形線
100
AcDbLine
 10
429.4948711479581
 20
373.3909828872228
 30
0.0
 11
429.4948711479581
 21
349.3909828872228
 31
0.0
  0
LINE
  5
27C
330
18
100
AcDbEntity
  8
外形線
100
AcDbLine
 10
421.9948711479581
 20
373.3909828872227
 30
0.0
 11
429.4948711479581
 21
373.3909828872227
 31
0.0
  0
LINE
  5
27D
330
18
100
AcDbEntity
  8
外形線
100
AcDbLine
 10
421.9948711479582
 20
349.3909828872228
 30
0.0
 11
429.4948711479581
 21
349.3909828872228
 31
0.0
  0
LINE
  5
27E
330
18
100
AcDbEntity
  8
外形線
100
AcDbLine
 10
431.4948711479582
 20
373.3909828872227
 30
0.0
 11
438.9948711479581
 21
373.3909828872227
 31
0.0
  0
LINE
  5
27F
330
18
100
AcDbEntity
  8
外形線
100
AcDbLine
 10
431.4948711479582
 20
349.3909828872229
 30
0.0
 11
438.9948711479581
 21
349.3909828872228
 31
0.0
  0
LINE
  5
280
330
18
100
AcDbEntity
  8
外形線
100
AcDbLine
 10
429.4948711479581
 20
365.3909828872227
 30
0.0
 11
431.4948711479582
 21
365.3909828872227
 31
0.0
  0
LINE
  5
281
330
18
100
AcDbEntity
  8
外形線
100
AcDbLine
 10
429.4948711479581
 20
357.3909828872227
 30
0.0
 11
431.4948711479582
 21
357.3909828872228
 31
0.0
  0
LINE
  5
283
330
18
100
AcDbEntity
  8
外形線
 62
     4
100
AcDbLine
 10
429.4948711479581
 20
364.3909828872227
 30
0.0
 11
431.4948711479582
 21
364.3909828872228
 31
0.0
  0
LINE
  5
284
330
18
100
AcDbEntity
  8
外形線
 62
     4
100
AcDbLine
 10
429.4948711479581
 20
358.3909828872227
 30
0.0
 11
431.4948711479582
 21
358.3909828872227
 31
0.0
  0
LINE
  5
286
330
18
100
AcDbEntity
  8
外形線
100
AcDbLine
 10
414.994871147958
 20
370.390982887223
 30
0.0
 11
421.9948711479582
 21
370.3909828872228
 31
0.0
  0
LINE
  5
287
330
18
100
AcDbEntity
  8
外形線
100
AcDbLine
 10
414.9948711479582
 20
352.3909828872227
 30
0.0
 11
421.9948711479583
 21
352.3909828872227
 31
0.0
  0
LINE
  5
2A1
330
18
100
AcDbEntity
  8
外形線
100
AcDbLine
 10
414.994871147958
 20
370.390982887223
 30
0.0
 11
414.9948711479582
 21
352.3909828872227
 31
0.0
  0
ARC
  5
2A5
330
18
100
AcDbEntity
  8
外形線
100
AcDbCircle
 10
419.4868045327877
 20
361.3909828872227
 30
0.0
 40
17.0
100
AcDbArc
 50
155.6842608288235
 51
204.3157391711765
  0
LINE
  5
2A6
330
18
100
AcDbEntity
  8
外形線
100
AcDbLine
 10
403.994871147958
 20
368.3909828872227
 30
0.0
 11
414.994871147958
 21
368.3909828872229
 31
0.0
  0
LINE
  5
2A7
330
18
100
AcDbEntity
  8
外形線
100
AcDbLine
 10
403.994871147958
 20
354.3909828872227
 30
0.0
 11
414.9948711479582
 21
354.3909828872227
 31
0.0
  0
LINE
  5
2A9
330
18
100
AcDbEntity
  8
外形線
100
AcDbLine
 10
403.994871147958
 20
368.3909828872227
 30
0.0
 11
403.994871147958
 21
354.3909828872227
 31
0.0
  0
LINE
  5
2AD
330
18
100
AcDbEntity
  8
中心線
100
AcDbLine
 10
412.4868045327877
 20
445.7407953919441
 30
0.0
 11
412.4868045327877
 21
304.3362577316761
 31
0.0
  0
LINE
  5
2B1
330
18
100
AcDbEntity
  8
外形線
100
AcDbLine
 10
446.9948711479578
 20
381.8909828872228
 30
0.0
 11
456.4948711479578
 21
381.8909828872227
 31
0.0
  0
LINE
  5
2B3
330
18
100
AcDbEntity
  8
外形線
100
AcDbLine
 10
438.9948711479581
 20
368.3909828872227
 30
0.0
 11
446.9948711479581
 21
368.3909828872227
 31
0.0
  0
LINE
  5
2B4
330
18
100
AcDbEntity
  8
外形線
100
AcDbLine
 10
438.9948711479581
 20
354.3909828872228
 30
0.0
 11
446.9948711479581
 21
354.3909828872227
 31
0.0
  0
LINE
  5
2B5
330
18
100
AcDbEntity
  8
外形線
100
AcDbLine
 10
457.9948711479581
 20
364.4447079277692
 30
0.0
 11
457.994871147958
 21
344.8909828872227
 31
0.0
  0
LINE
  5
2B8
330
18
100
AcDbEntity
  8
外形線
100
AcDbLine
 10
446.9948711479578
 20
373.8909828872227
 30
0.0
 11
456.4948711479577
 21
373.8909828872227
 31
0.0
  0
LINE
  5
2BB
330
18
100
AcDbEntity
  8
外形線
100
AcDbLine
 10
457.9948711479578
 20
377.8909828872227
 30
0.0
 11
457.994871147958
 21
361.3909828872227
 31
0.0
  0
LINE
  5
2BC
330
18
100
AcDbEntity
  8
外形線
100
AcDbLine
 10
456.4948711479579
 20
373.8909828872227
 30
0.0
 11
457.994871147958
 21
364.4447079277711
 31
0.0
  0
ARC
  5
2BD
330
18
100
AcDbEntity
  8
外形線
100
AcDbCircle
 10
451.9115378146245
 20
377.8909828872226
 30
0.0
 40
6.083333333333398
100
AcDbArc
 50
318.8879095608341
 51
41.11209043916713
  0
LINE
  5
2BE
330
18
100
AcDbEntity
  8
外形線
100
AcDbLine
 10
446.9948711479578
 20
381.8909828872227
 30
0.0
 11
446.994871147958
 21
340.8909828872227
 31
0.0
  0
LINE
  5
2BF
330
18
100
AcDbEntity
  8
外形線
100
AcDbLine
 10
456.4948711479579
 20
348.8909828872227
 30
0.0
 11
457.994871147958
 21
358.3372578466743
 31
0.0
  0
LINE
  5
2C0
330
18
100
AcDbEntity
  8
外形線
100
AcDbLine
 10
457.9948711479578
 20
344.8909828872227
 30
0.0
 11
457.994871147958
 21
361.3909828872227
 31
0.0
  0
LINE
  5
2C1
330
18
100
AcDbEntity
  8
外形線
100
AcDbLine
 10
446.9948711479578
 20
348.8909828872227
 30
0.0
 11
456.4948711479577
 21
348.8909828872227
 31
0.0
  0
LINE
  5
2C2
330
18
100
AcDbEntity
  8
外形線
100
AcDbLine
 10
446.9948711479578
 20
340.8909828872226
 30
0.0
 11
456.4948711479578
 21
340.8909828872227
 31
0.0
  0
ARC
  5
2C3
330
18
100
AcDbEntity
  8
外形線
100
AcDbCircle
 10
451.9115378146245
 20
344.8909828872228
 30
0.0
 40
6.083333333333398
100
AcDbArc
 50
318.8879095608329
 51
41.11209043916591
  0
LINE
  5
2C5
330
18
100
AcDbEntity
  8
外形線
100
AcDbLine
 10
424.4948711479582
 20
349.3909828872228
 30
0.0
 11
424.4948711479582
 21
330.8363547643305
 31
0.0
  0
LINE
  5
2C6
330
18
100
AcDbEntity
  8
外形線
100
AcDbLine
 10
436.4948711479581
 20
349.3909828872229
 30
0.0
 11
436.4948711479581
 21
330.8363547643306
 31
0.0
  0
ARC
  5
2C7
330
18
100
AcDbEntity
  8
外形線
100
AcDbCircle
 10
430.4948711479581
 20
406.482695084324
 30
0.0
 40
10.0
100
AcDbArc
 50
53.13010235415461
 51
126.8698976458454
  0
LINE
  5
2C8
330
18
100
AcDbEntity
  8
外形線
100
AcDbLine
 10
424.4948711479579
 20
414.4826950843238
 30
0.0
 11
436.4948711479581
 21
414.4826950843238
 31
0.0
  0
LINE
  5
2CE
330
18
100
AcDbEntity
  8
外形線
100
AcDbLine
 10
417.4868045327876
 20
427.856988437012
 30
0.0
 11
417.4868045327876
 21
370.3909828872229
 31
0.0
  0
LINE
  5
2CF
330
18
100
AcDbEntity
  8
外形線
100
AcDbLine
 10
407.4868045327877
 20
427.8569884370118
 30
0.0
 11
407.4868045327877
 21
368.3909828872228
 31
0.0
  0
LINE
  5
2D0
330
18
100
AcDbEntity
  8
外形線
100
AcDbLine
 10
407.4868045327877
 20
354.3909828872227
 30
0.0
 11
407.4868045327876
 21
336.5562843706133
 31
0.0
  0
LINE
  5
2D1
330
18
100
AcDbEntity
  8
外形線
100
AcDbLine
 10
417.4868045327877
 20
352.3909828872227
 30
0.0
 11
417.4868045327877
 21
336.5562843706133
 31
0.0
  0
LINE
  5
2D4
330
18
100
AcDbEntity
  8
外形線
100
AcDbLine
 10
409.9868045327877
 20
444.3569884370119
 30
0.0
 11
414.9868045327877
 21
444.3569884370119
 31
0.0
  0
LINE
  5
2D5
330
18
100
AcDbEntity
  8
中心線
100
AcDbLine
 10
388.5936454639995
 20
436.856988437012
 30
0.0
 11
445.1958177566884
 21
436.856988437012
 31
0.0
  0
LINE
  5
2D6
330
18
100
AcDbEntity
  8
外形線
100
AcDbLine
 10
414.9868045327877
 20
427.856988437012
 30
0.0
 11
417.4868045327876
 21
427.856988437012
 31
0.0
  0
LINE
  5
2D7
330
18
100
AcDbEntity
  8
外形線
100
AcDbLine
 10
414.9868045327877
 20
444.3569884370119
 30
0.0
 11
414.9868045327877
 21
427.856988437012
 31
0.0
  0
LINE
  5
2D8
330
18
100
AcDbEntity
  8
外形線
100
AcDbLine
 10
409.9868045327877
 20
444.3569884370119
 30
0.0
 11
409.9868045327877
 21
427.856988437012
 31
0.0
  0
LINE
  5
2DA
330
18
100
AcDbEntity
  8
外形線
100
AcDbLine
 10
409.9868045327877
 20
427.856988437012
 30
0.0
 11
407.4868045327877
 21
427.8569884370118
 31
0.0
  0
LINE
  5
2DB
330
18
100
AcDbEntity
  8
外形線
100
AcDbLine
 10
421.9868045327877
 20
443.356988437012
 30
0.0
 11
421.9868045327877
 21
430.3569884370119
 31
0.0
  0
LINE
  5
2DC
330
18
100
AcDbEntity
  8
外形線
100
AcDbLine
 10
419.4868045327877
 20
443.356988437012
 30
0.0
 11
419.4868045327877
 21
430.3569884370119
 31
0.0
  0
LINE
  5
2DD
330
18
100
AcDbEntity
  8
外形線
100
AcDbLine
 10
414.9868045327877
 20
440.0069884370121
 30
0.0
 11
419.4868045327877
 21
440.006988437012
 31
0.0
  0
LINE
  5
2DE
330
18
100
AcDbEntity
  8
外形線
100
AcDbLine
 10
414.9868045327877
 20
433.7069884370119
 30
0.0
 11
419.4868045327877
 21
433.7069884370119
 31
0.0
  0
LINE
  5
2DF
330
18
100
AcDbEntity
  8
外形線
100
AcDbLine
 10
419.4868045327877
 20
443.356988437012
 30
0.0
 11
421.9868045327877
 21
443.356988437012
 31
0.0
  0
LINE
  5
2E0
330
18
100
AcDbEntity
  8
外形線
100
AcDbLine
 10
419.4868045327877
 20
430.3569884370119
 30
0.0
 11
421.9868045327877
 21
430.3569884370119
 31
0.0
  0
LINE
  5
2E9
330
18
100
AcDbEntity
  8
外形線
100
AcDbLine
 10
399.9868045327876
 20
442.356988437012
 30
0.0
 11
399.9868045327876
 21
439.8569884370122
 31
0.0
  0
LINE
  5
2EA
330
18
100
AcDbEntity
  8
外形線
100
AcDbLine
 10
399.9868045327876
 20
442.356988437012
 30
0.0
 11
409.9868045327877
 21
442.356988437012
 31
0.0
  0
LINE
  5
2EB
330
18
100
AcDbEntity
  8
外形線
100
AcDbLine
 10
399.9868045327876
 20
431.356988437012
 30
0.0
 11
409.9868045327877
 21
431.356988437012
 31
0.0
  0
LINE
  5
2EE
330
18
100
AcDbEntity
  8
外形線
100
AcDbLine
 10
399.9868045327876
 20
439.856988437012
 30
0.0
 11
402.9868045327876
 21
436.856988437012
 31
0.0
  0
LINE
  5
2EF
330
18
100
AcDbEntity
  8
外形線
100
AcDbLine
 10
399.9868045327876
 20
433.856988437012
 30
0.0
 11
402.9868045327876
 21
436.856988437012
 31
0.0
  0
LINE
  5
2F0
330
18
100
AcDbEntity
  8
外形線
100
AcDbLine
 10
399.9868045327876
 20
433.8569884370119
 30
0.0
 11
399.9868045327876
 21
431.356988437012
 31
0.0
  0
ARC
  5
2F3
330
18
100
AcDbEntity
  8
外形線
100
AcDbCircle
 10
399.9868045327876
 20
436.856988437012
 30
0.0
 40
3.0
100
AcDbArc
 50
89.99999999999891
 51
270.0
  0
LINE
  5
2F4
330
18
100
AcDbEntity
  8
外形線
100
AcDbLine
 10
393.9868045327876
 20
441.356988437012
 30
0.0
 11
399.9868045327876
 21
441.356988437012
 31
0.0
  0
LINE
  5
2F5
330
18
100
AcDbEntity
  8
外形線
100
AcDbLine
 10
393.9868045327876
 20
432.356988437012
 30
0.0
 11
399.9868045327875
 21
432.356988437012
 31
0.0
  0
ARC
  5
2F6
330
18
100
AcDbEntity
  8
外形線
100
AcDbCircle
 10
399.9868045327876
 20
436.856988437012
 30
0.0
 40
7.5
100
AcDbArc
 50
143.130102354156
 51
216.8698976458434
  0
LINE
  5
2F7
330
18
100
AcDbEntity
  8
外形線
100
AcDbLine
 10
393.9868045327877
 20
441.3569884370121
 30
0.0
 11
393.9868045327876
 21
432.3569884370121
 31
0.0
  0
LINE
  5
2F8
330
18
100
AcDbEntity
  8
外形線
100
AcDbLine
 10
440.4868045327877
 20
446.1069884370121
 30
0.0
 11
440.4868045327877
 21
427.606988437012
 31
0.0
  0
LINE
  5
2F9
330
18
100
AcDbEntity
  8
外形線
100
AcDbLine
 10
433.4868045327877
 20
446.106988437012
 30
0.0
 11
440.4868045327877
 21
446.1069884370121
 31
0.0
  0
LINE
  5
2FA
330
18
100
AcDbEntity
  8
外形線
100
AcDbLine
 10
433.4868045327876
 20
427.606988437012
 30
0.0
 11
440.4868045327877
 21
427.606988437012
 31
0.0
  0
LINE
  5
2FB
330
18
100
AcDbEntity
  8
外形線
100
AcDbLine
 10
433.4868045327877
 20
446.106988437012
 30
0.0
 11
433.4868045327876
 21
427.606988437012
 31
0.0
  0
LINE
  5
305
330
18
100
AcDbEntity
  8
外形線
100
AcDbLine
 10
433.4868045327878
 20
442.406988437012
 30
0.0
 11
440.4868045327878
 21
442.4069884370121
 31
0.0
  0
LINE
  5
306
330
18
100
AcDbEntity
  8
外形線
100
AcDbLine
 10
433.4868045327878
 20
438.706988437012
 30
0.0
 11
440.4868045327879
 21
438.7069884370121
 31
0.0
  0
LINE
  5
307
330
18
100
AcDbEntity
  8
外形線
100
AcDbLine
 10
433.4868045327879
 20
435.006988437012
 30
0.0
 11
440.4868045327879
 21
435.0069884370121
 31
0.0
  0
LINE
  5
308
330
18
100
AcDbEntity
  8
外形線
100
AcDbLine
 10
433.4868045327879
 20
431.306988437012
 30
0.0
 11
440.486804532788
 21
431.3069884370121
 31
0.0
  0
LINE
  5
309
330
18
100
AcDbEntity
  8
外形線
100
AcDbLine
 10
421.9868045327877
 20
441.856988437012
 30
0.0
 11
433.4868045327877
 21
441.856988437012
 31
0.0
  0
LINE
  5
30A
330
18
100
AcDbEntity
  8
外形線
100
AcDbLine
 10
421.9868045327877
 20
431.8569884370119
 30
0.0
 11
433.4868045327877
 21
431.856988437012
 31
0.0
  0
ARC
  5
30B
330
18
100
AcDbEntity
  8
外形線
100
AcDbCircle
 10
412.4868045327876
 20
314.2626664497591
 30
0.0
 40
8.0
100
AcDbArc
 50
231.3178125465117
 51
308.6821874534892
  0
LINE
  5
30C
330
18
100
AcDbEntity
  8
外形線
100
AcDbLine
 10
407.4868045327877
 20
308.0176684513607
 30
0.0
 11
417.4868045327876
 21
308.0176684513607
 31
0.0
  0
ARC
  5
31E
330
18
100
AcDbEntity
  8
外形線
100
AcDbCircle
 10
409.9868045327877
 20
340.8864113895355
 30
0.0
 40
5.0
100
AcDbArc
 50
239.9999999999992
 51
300.0000000000008
  0
ARC
  5
31F
330
18
100
AcDbEntity
  8
外形線
100
AcDbCircle
 10
409.9868045327877
 20
332.226157351691
 30
0.0
 40
5.0
100
AcDbArc
 50
59.99999999999923
 51
120.0000000000008
  0
ARC
  5
320
330
18
100
AcDbEntity
  8
外形線
100
AcDbCircle
 10
414.9868045327878
 20
340.8864113895356
 30
0.0
 40
5.0
100
AcDbArc
 50
239.9999999999992
 51
300.0000000000008
  0
ARC
  5
321
330
18
100
AcDbEntity
  8
外形線
100
AcDbCircle
 10
414.9868045327877
 20
329.2261573516908
 30
0.0
 40
5.0
100
AcDbArc
 50
59.99999999999923
 51
120.0000000000008
  0
ARC
  5
322
330
18
100
AcDbEntity
  8
外形線
100
AcDbCircle
 10
414.9868045327877
 20
337.8864113895353
 30
0.0
 40
5.0
100
AcDbArc
 50
239.9999999999992
 51
300.0000000000008
  0
ARC
  5
323
330
18
100
AcDbEntity
  8
外形線
100
AcDbCircle
 10
409.9868045327878
 20
329.2261573516911
 30
0.0
 40
5.0
100
AcDbArc
 50
59.99999999999923
 51
120.0000000000008
  0
LINE
  5
324
330
18
100
AcDbEntity
  8
外形線
100
AcDbLine
 10
417.4868045327877
 20
333.556284370613
 30
0.0
 11
417.4868045327877
 21
308.0176684513607
 31
0.0
  0
LINE
  5
325
330
18
100
AcDbEntity
  8
外形線
100
AcDbLine
 10
407.4868045327877
 20
333.5562843706132
 30
0.0
 11
407.4868045327877
 21
308.0176684513607
 31
0.0
  0
ARC
  5
330
330
18
100
AcDbEntity
  8
外形線
100
AcDbCircle
 10
427.4948711479582
 20
336.0325071870371
 30
0.0
 40
5.999999999999943
100
AcDbArc
 50
240.0000000000002
 51
299.9999999999998
  0
ARC
  5
331
330
18
100
AcDbEntity
  8
外形線
100
AcDbCircle
 10
427.4948711479582
 20
325.640202341624
 30
0.0
 40
5.999999999999943
100
AcDbArc
 50
60.0000000000002
 51
119.9999999999998
  0
ARC
  5
333
330
18
100
AcDbEntity
  8
外形線
100
AcDbCircle
 10
433.494871147958
 20
336.0325071870371
 30
0.0
 40
5.999999999999943
100
AcDbArc
 50
240.0000000000002
 51
299.9999999999998
  0
ARC
  5
334
330
18
100
AcDbEntity
  8
外形線
100
AcDbCircle
 10
433.4948711479581
 20
322.640202341624
 30
0.0
 40
5.999999999999943
100
AcDbArc
 50
60.0000000000002
 51
119.9999999999998
  0
ARC
  5
335
330
18
100
AcDbEntity
  8
外形線
100
AcDbCircle
 10
433.4948711479581
 20
333.0325071870372
 30
0.0
 40
5.999999999999943
100
AcDbArc
 50
240.0000000000002
 51
299.9999999999998
  0
ARC
  5
336
330
18
100
AcDbEntity
  8
外形線
100
AcDbCircle
 10
427.4948711479581
 20
322.640202341624
 30
0.0
 40
5.999999999999943
100
AcDbArc
 50
60.0000000000002
 51
119.9999999999998
  0
LINE
  5
337
330
18
100
AcDbEntity
  8
外形線
100
AcDbLine
 10
436.4948711479581
 20
327.8363547643306
 30
0.0
 11
436.4948711479581
 21
308.9479714098306
 31
0.0
  0
LINE
  5
338
330
18
100
AcDbEntity
  8
外形線
100
AcDbLine
 10
424.4948711479582
 20
327.8363547643306
 30
0.0
 11
424.4948711479581
 21
308.9479714098305
 31
0.0
  0
LINE
  5
348
330
18
100
AcDbEntity
  8
外形線
100
AcDbLine
 10
532.745718867765
 20
256.1979714098306
 30
0.0
 11
592.7457188677649
 21
256.1979714098306
 31
0.0
  0
LINE
  5
349
330
18
100
AcDbEntity
  8
外形線
100
AcDbLine
 10
532.7457188677649
 20
209.1979714098306
 30
0.0
 11
592.7457188677649
 21
209.1979714098306
 31
0.0
  0
LINE
  5
34D
102
{ACAD_REACTORS
330
6ED
102
}
330
18
100
AcDbEntity
  8
中心線
100
AcDbLine
 10
562.7457188677649
 20
204.831339943525
 30
0.0
 11
562.7457188677649
 21
421.2677153232754
 31
0.0
  0
LINE
  5
34E
330
18
100
AcDbEntity
  8
外形線
100
AcDbLine
 10
545.2457188677649
 20
259.1979714098306
 30
0.0
 11
580.2457188677649
 21
259.1979714098306
 31
0.0
  0
LINE
  5
34F
330
18
100
AcDbEntity
  8
外形線
100
AcDbLine
 10
545.2457188677649
 20
259.1979714098306
 30
0.0
 11
545.2457188677649
 21
256.1979714098307
 31
0.0
  0
LINE
  5
350
330
18
100
AcDbEntity
  8
外形線
100
AcDbLine
 10
580.2457188677649
 20
259.1979714098306
 30
0.0
 11
580.2457188677649
 21
256.1979714098306
 31
0.0
  0
LINE
  5
353
330
18
100
AcDbEntity
  8
外形線
100
AcDbLine
 10
563.7457188677649
 20
259.1979714098306
 30
0.0
 11
563.7457188677649
 21
256.1979714098306
 31
0.0
  0
LINE
  5
354
330
18
100
AcDbEntity
  8
外形線
100
AcDbLine
 10
561.7457188677649
 20
259.1979714098306
 30
0.0
 11
561.7457188677649
 21
256.1979714098306
 31
0.0
  0
LINE
  5
355
330
18
100
AcDbEntity
  8
外形線
100
AcDbLine
 10
592.7457188677649
 20
209.1979714098306
 30
0.0
 11
592.7457188677649
 21
256.1979714098306
 31
0.0
  0
LINE
  5
356
330
18
100
AcDbEntity
  8
外形線
100
AcDbLine
 10
532.7457188677649
 20
209.1979714098306
 30
0.0
 11
532.745718867765
 21
256.1979714098306
 31
0.0
  0
LINE
  5
364
330
18
100
AcDbEntity
  8
外形線
100
AcDbLine
 10
573.7457188677648
 20
261.1979714098306
 30
0.0
 11
573.7457188677649
 21
280.1979714098308
 31
0.0
  0
LINE
  5
365
330
18
100
AcDbEntity
  8
外形線
100
AcDbLine
 10
551.745718867765
 20
261.1979714098306
 30
0.0
 11
551.7457188677649
 21
280.1979714098308
 31
0.0
  0
LINE
  5
366
330
18
100
AcDbEntity
  8
外形線
100
AcDbLine
 10
557.4957188677649
 20
261.1979714098306
 30
0.0
 11
557.4957188677649
 21
259.1979714098307
 31
0.0
  0
LINE
  5
367
330
18
100
AcDbEntity
  8
外形線
100
AcDbLine
 10
567.9957188677649
 20
261.1979714098306
 30
0.0
 11
567.9957188677649
 21
259.1979714098306
 31
0.0
  0
LINE
  5
368
330
18
100
AcDbEntity
  8
外形線
100
AcDbLine
 10
551.745718867765
 20
261.1979714098306
 30
0.0
 11
573.7457188677648
 21
261.1979714098306
 31
0.0
  0
LINE
  5
369
330
18
100
AcDbEntity
  8
外形線
100
AcDbLine
 10
551.745718867765
 20
272.1979714098306
 30
0.0
 11
573.7457188677648
 21
272.1979714098306
 31
0.0
  0
LINE
  5
36B
330
18
100
AcDbEntity
  8
中心線
100
AcDbLine
 10
516.3681171120174
 20
291.1979714098306
 30
0.0
 11
608.8393608005397
 21
291.1979714098306
 31
0.0
  0
CIRCLE
  5
36C
330
18
100
AcDbEntity
  8
外形線
100
AcDbCircle
 10
562.7457188677649
 20
291.1979714098306
 30
0.0
 40
10.0
  0
LINE
  5
36E
330
18
100
AcDbEntity
  8
外形線
100
AcDbLine
 10
552.7457188677649
 20
291.1979714098306
 30
0.0
 11
551.7457188677649
 21
280.1979714098308
 31
0.0
  0
LINE
  5
36F
330
18
100
AcDbEntity
  8
外形線
100
AcDbLine
 10
572.7457188677649
 20
291.1979714098306
 30
0.0
 11
573.7457188677649
 21
280.1979714098308
 31
0.0
  0
CIRCLE
  5
372
330
18
100
AcDbEntity
  8
外形線
100
AcDbCircle
 10
562.7457188677649
 20
298.6979714098305
 30
0.0
 40
2.0
  0
LINE
  5
373
330
18
100
AcDbEntity
  8
外形線
100
AcDbLine
 10
561.7981325941232
 20
299.6455576834724
 30
0.0
 11
563.5352574034633
 21
297.9084328741322
 31
0.0
  0
LINE
  5
374
330
18
100
AcDbEntity
  8
外形線
100
AcDbLine
 10
561.8290010329912
 20
297.781253575057
 30
0.0
 11
563.661857640589
 21
299.6141101826546
 31
0.0
  0
CIRCLE
  5
378
330
18
100
AcDbEntity
  8
外形線
100
AcDbCircle
 10
556.2505283393816
 20
287.4479714098306
 30
0.0
 40
2.0
  0
CIRCLE
  5
37B
330
18
100
AcDbEntity
  8
外形線
100
AcDbCircle
 10
569.2409093961482
 20
287.4479714098306
 30
0.0
 40
2.0
  0
LINE
  5
37E
330
18
100
AcDbEntity
  8
外形線
100
AcDbLine
 10
555.3029420657399
 20
288.3955576834725
 30
0.0
 11
557.0400668750799
 21
286.6584328741323
 31
0.0
  0
LINE
  5
37F
330
18
100
AcDbEntity
  8
外形線
100
AcDbLine
 10
555.3338105046079
 20
286.5312535750571
 30
0.0
 11
557.1666671122057
 21
288.3641101826547
 31
0.0
  0
LINE
  5
380
330
18
100
AcDbEntity
  8
外形線
100
AcDbLine
 10
568.2933231225065
 20
288.3955576834725
 30
0.0
 11
570.0304479318466
 21
286.6584328741323
 31
0.0
  0
LINE
  5
381
330
18
100
AcDbEntity
  8
外形線
100
AcDbLine
 10
568.3241915613746
 20
286.5312535750571
 30
0.0
 11
570.1570481689723
 21
288.3641101826547
 31
0.0
  0
LINE
  5
382
330
18
100
AcDbEntity
  8
中心線
100
AcDbLine
 10
552.9195158089391
 20
287.4479714098306
 30
0.0
 11
559.5280634301068
 21
287.4479714098306
 31
0.0
  0
LINE
  5
383
330
18
100
AcDbEntity
  8
中心線
100
AcDbLine
 10
556.2505283393816
 20
290.6892233692879
 30
0.0
 11
556.2505283393816
 21
284.5153172550343
 31
0.0
  0
LINE
  5
384
330
18
100
AcDbEntity
  8
中心線
100
AcDbLine
 10
565.9098968657058
 20
287.4479714098306
 30
0.0
 11
572.5184444868735
 21
287.4479714098306
 31
0.0
  0
LINE
  5
385
330
18
100
AcDbEntity
  8
中心線
100
AcDbLine
 10
569.2409093961482
 20
290.6892233692879
 30
0.0
 11
569.2409093961482
 21
284.5153172550343
 31
0.0
  0
LINE
  5
386
330
18
100
AcDbEntity
  8
中心線
100
AcDbLine
 10
559.4147063373225
 20
298.6979714098305
 30
0.0
 11
566.0232539584901
 21
298.6979714098305
 31
0.0
  0
CIRCLE
  5
387
330
18
100
AcDbEntity
  8
外形線
100
AcDbCircle
 10
562.7457188677649
 20
291.1979714098306
 30
0.0
 40
5.0
  0
LINE
  5
38A
330
18
100
AcDbEntity
  8
外形線
100
AcDbLine
 10
571.2457188677649
 20
373.3909828872226
 30
0.0
 11
571.2457188677649
 21
349.3909828872227
 31
0.0
  0
LINE
  5
38F
330
18
100
AcDbEntity
  8
中心線
100
AcDbLine
 10
544.7376522525944
 20
449.1578263896738
 30
0.0
 11
544.7376522525944
 21
303.9926600363573
 31
0.0
  0
LINE
  5
390
330
18
100
AcDbEntity
  8
外形線
100
AcDbLine
 10
539.7376522525944
 20
429.0747972288752
 30
0.0
 11
539.7376522525944
 21
377.1434350231448
 31
0.0
  0
LINE
  5
391
330
18
100
AcDbEntity
  8
外形線
100
AcDbLine
 10
549.7376522525944
 20
429.0747972288752
 30
0.0
 11
549.7376522525944
 21
377.1434350231447
 31
0.0
  0
LINE
  5
392
330
18
100
AcDbEntity
  8
中心線
100
AcDbLine
 10
519.281505353157
 20
361.3909828872226
 30
0.0
 11
581.1547603483754
 21
361.3909828872226
 31
0.0
  0
LINE
  5
395
330
18
100
AcDbEntity
  8
外形線
100
AcDbLine
 10
539.7376522525944
 20
345.6385307513005
 30
0.0
 11
539.7376522525944
 21
336.5562843706132
 31
0.0
  0
LINE
  5
396
330
18
100
AcDbEntity
  8
外形線
100
AcDbLine
 10
549.7376522525946
 20
345.6385307513005
 30
0.0
 11
549.7376522525944
 21
336.5562843706132
 31
0.0
  0
LINE
  5
397
330
18
100
AcDbEntity
  8
外形線
100
AcDbLine
 10
539.7376522525944
 20
333.5562843706131
 30
0.0
 11
539.7376522525944
 21
308.0176684513606
 31
0.0
  0
LINE
  5
398
330
18
100
AcDbEntity
  8
外形線
100
AcDbLine
 10
549.7376522525944
 20
333.5562843706129
 30
0.0
 11
549.7376522525944
 21
308.0176684513606
 31
0.0
  0
ARC
  5
399
330
18
100
AcDbEntity
  8
外形線
100
AcDbCircle
 10
544.7376522525944
 20
314.262666449759
 30
0.0
 40
8.0
100
AcDbArc
 50
231.3178125465117
 51
308.6821874534892
  0
LINE
  5
39A
330
18
100
AcDbEntity
  8
外形線
100
AcDbLine
 10
539.7376522525944
 20
308.0176684513606
 30
0.0
 11
549.7376522525944
 21
308.0176684513606
 31
0.0
  0
ARC
  5
39B
330
18
100
AcDbEntity
  8
外形線
100
AcDbCircle
 10
542.2376522525945
 20
329.226157351691
 30
0.0
 40
5.0
100
AcDbArc
 50
59.99999999999923
 51
120.0000000000008
  0
ARC
  5
39C
330
18
100
AcDbEntity
  8
外形線
100
AcDbCircle
 10
542.2376522525944
 20
332.2261573516909
 30
0.0
 40
5.0
100
AcDbArc
 50
59.99999999999923
 51
120.0000000000008
  0
ARC
  5
39D
330
18
100
AcDbEntity
  8
外形線
100
AcDbCircle
 10
542.2376522525944
 20
340.8864113895353
 30
0.0
 40
5.0
100
AcDbArc
 50
239.9999999999992
 51
300.0000000000008
  0
ARC
  5
39E
330
18
100
AcDbEntity
  8
外形線
100
AcDbCircle
 10
547.2376522525944
 20
337.8864113895352
 30
0.0
 40
5.0
100
AcDbArc
 50
239.9999999999992
 51
300.0000000000008
  0
ARC
  5
39F
330
18
100
AcDbEntity
  8
外形線
100
AcDbCircle
 10
547.2376522525944
 20
329.2261573516908
 30
0.0
 40
5.0
100
AcDbArc
 50
59.99999999999923
 51
120.0000000000008
  0
ARC
  5
3A0
330
18
100
AcDbEntity
  8
外形線
100
AcDbCircle
 10
547.2376522525946
 20
340.8864113895355
 30
0.0
 40
5.0
100
AcDbArc
 50
239.9999999999992
 51
300.0000000000008
  0
LINE
  5
3A7
330
18
100
AcDbEntity
  8
外形線
100
AcDbLine
 10
556.2457188677649
 20
308.9479714098304
 30
0.0
 11
556.2457188677649
 21
298.7973134866158
 31
0.0
  0
LINE
  5
3A8
330
18
100
AcDbEntity
  8
外形線
100
AcDbLine
 10
569.2457188677649
 20
308.9479714098305
 30
0.0
 11
569.2457188677649
 21
298.7973134866158
 31
0.0
  0
LINE
  5
3A9
330
18
100
AcDbEntity
  8
外形線
100
AcDbLine
 10
556.7457188677649
 20
349.3909828872227
 30
0.0
 11
556.745718867765
 21
330.8363547643304
 31
0.0
  0
LINE
  5
3AA
330
18
100
AcDbEntity
  8
外形線
100
AcDbLine
 10
568.7457188677649
 20
349.3909828872227
 30
0.0
 11
568.7457188677649
 21
330.8363547643305
 31
0.0
  0
LINE
  5
3AB
330
18
100
AcDbEntity
  8
外形線
100
AcDbLine
 10
556.7457188677649
 20
327.8363547643305
 30
0.0
 11
556.7457188677649
 21
308.9479714098304
 31
0.0
  0
LINE
  5
3AC
330
18
100
AcDbEntity
  8
外形線
100
AcDbLine
 10
568.7457188677647
 20
327.8363547643305
 30
0.0
 11
568.7457188677649
 21
308.9479714098305
 31
0.0
  0
LINE
  5
3AD
330
18
100
AcDbEntity
  8
外形線
100
AcDbLine
 10
556.2457188677649
 20
308.9479714098304
 30
0.0
 11
569.2457188677649
 21
308.9479714098305
 31
0.0
  0
ARC
  5
3AE
330
18
100
AcDbEntity
  8
外形線
100
AcDbCircle
 10
565.7457188677649
 20
333.032507187037
 30
0.0
 40
5.999999999999943
100
AcDbArc
 50
240.0000000000002
 51
299.9999999999998
  0
ARC
  5
3AF
330
18
100
AcDbEntity
  8
外形線
100
AcDbCircle
 10
565.7457188677649
 20
322.6402023416239
 30
0.0
 40
5.999999999999943
100
AcDbArc
 50
60.0000000000002
 51
119.9999999999998
  0
ARC
  5
3B0
330
18
100
AcDbEntity
  8
外形線
100
AcDbCircle
 10
565.7457188677648
 20
336.032507187037
 30
0.0
 40
5.999999999999943
100
AcDbArc
 50
240.0000000000002
 51
299.9999999999998
  0
ARC
  5
3B1
330
18
100
AcDbEntity
  8
外形線
100
AcDbCircle
 10
559.7457188677649
 20
322.6402023416239
 30
0.0
 40
5.999999999999943
100
AcDbArc
 50
60.0000000000002
 51
119.9999999999998
  0
ARC
  5
3B2
330
18
100
AcDbEntity
  8
外形線
100
AcDbCircle
 10
559.7457188677649
 20
325.6402023416239
 30
0.0
 40
5.999999999999943
100
AcDbArc
 50
60.0000000000002
 51
119.9999999999998
  0
ARC
  5
3B3
330
18
100
AcDbEntity
  8
外形線
100
AcDbCircle
 10
559.7457188677649
 20
336.032507187037
 30
0.0
 40
5.999999999999943
100
AcDbArc
 50
240.0000000000002
 51
299.9999999999998
  0
LINE
  5
3B7
330
18
100
AcDbEntity
  8
外形線
100
AcDbLine
 10
559.4600841169299
 20
349.3909828872229
 30
0.0
 11
571.2457188677649
 21
349.3909828872227
 31
0.0
  0
LINE
  5
3C3
330
18
100
AcDbEntity
  8
中心線
100
AcDbLine
 10
531.7659645953251
 20
436.8569884370119
 30
0.0
 11
557.258489355489
 21
436.8569884370119
 31
0.0
  0
LINE
  5
3D3
330
18
100
AcDbEntity
  8
外形線
100
AcDbLine
 10
542.6016513162655
 20
427.8569884370118
 30
0.0
 11
539.7376522525944
 21
427.8569884370117
 31
0.0
  0
LINE
  5
3D4
330
18
100
AcDbEntity
  8
外形線
100
AcDbLine
 10
546.873653188924
 20
427.856988437012
 30
0.0
 11
549.7376522525944
 21
427.8569884370118
 31
0.0
  0
LINE
  5
3D8
330
18
100
AcDbEntity
  8
外形線
100
AcDbLine
 10
556.7457188677646
 20
414.4826950843238
 30
0.0
 11
556.7457188677648
 21
373.3909828872226
 31
0.0
  0
LINE
  5
3D9
330
18
100
AcDbEntity
  8
外形線
100
AcDbLine
 10
568.7457188677649
 20
414.4826950843239
 30
0.0
 11
568.7457188677649
 21
373.3909828872226
 31
0.0
  0
LINE
  5
3DB
330
18
100
AcDbEntity
  8
外形線
100
AcDbLine
 10
559.4600841169296
 20
373.3909828872226
 30
0.0
 11
571.2457188677649
 21
373.3909828872226
 31
0.0
  0
LINE
  5
3DF
330
18
100
AcDbEntity
  8
外形線
100
AcDbLine
 10
556.7457188677646
 20
414.4826950843238
 30
0.0
 11
568.7457188677649
 21
414.4826950843238
 31
0.0
  0
ARC
  5
3E0
330
18
100
AcDbEntity
  8
外形線
100
AcDbCircle
 10
562.7457188677649
 20
406.4826950843239
 30
0.0
 40
10.0
100
AcDbArc
 50
53.13010235415461
 51
126.8698976458454
  0
ARC
  5
3EF
330
18
100
AcDbEntity
  8
外形線
100
AcDbCircle
 10
544.7376522525944
 20
378.3909828872226
 30
0.0
 40
3.5
100
AcDbArc
 50
25.48189215893847
 51
154.5181078410615
  0
ARC
  5
3F0
330
18
100
AcDbEntity
  8
外形線
100
AcDbCircle
 10
530.0152203882589
 20
369.8909828872227
 30
0.0
 40
3.5
100
AcDbArc
 50
85.48189215893803
 51
214.5181078410615
  0
ARC
  5
3F1
330
18
100
AcDbEntity
  8
外形線
100
AcDbCircle
 10
530.015220388259
 20
352.8909828872228
 30
0.0
 40
3.5
100
AcDbArc
 50
145.4818921589403
 51
274.5181078410602
  0
ARC
  5
3F2
330
18
100
AcDbEntity
  8
外形線
100
AcDbCircle
 10
544.7376522525944
 20
344.3909828872226
 30
0.0
 40
3.5
100
AcDbArc
 50
205.4818921589376
 51
334.5181078410616
  0
ARC
  5
3F3
330
18
100
AcDbEntity
  8
外形線
100
AcDbCircle
 10
559.4600841169299
 20
352.8909828872226
 30
0.0
 40
3.5
100
AcDbArc
 50
265.481892158938
 51
34.51810784106225
  0
ARC
  5
3F4
330
18
100
AcDbEntity
  8
外形線
100
AcDbCircle
 10
559.4600841169296
 20
369.8909828872225
 30
0.0
 40
3.5
100
AcDbArc
 50
325.4818921589393
 51
94.51810784106019
  0
ARC
  5
3F5
330
18
100
AcDbEntity
  8
外形線
100
AcDbCircle
 10
558.2784717319163
 20
384.8443702015264
 30
0.0
 40
11.5
100
AcDbArc
 50
205.4818921589386
 51
274.5181078410606
  0
ARC
  5
3F6
330
18
100
AcDbEntity
  8
外形線
100
AcDbCircle
 10
571.8192912112381
 20
361.3909828872227
 30
0.0
 40
11.5
100
AcDbArc
 50
145.4818921589397
 51
214.5181078410621
  0
ARC
  5
3F7
330
18
100
AcDbEntity
  8
外形線
100
AcDbCircle
 10
558.2784717319163
 20
337.9375955729187
 30
0.0
 40
11.5
100
AcDbArc
 50
85.48189215893874
 51
154.5181078410611
  0
ARC
  5
3F8
330
18
100
AcDbEntity
  8
外形線
100
AcDbCircle
 10
531.1968327732724
 20
337.937595572919
 30
0.0
 40
11.5
100
AcDbArc
 50
25.48189215893787
 51
94.5181078410607
  0
ARC
  5
3FA
330
18
100
AcDbEntity
  8
外形線
100
AcDbCircle
 10
531.1968327732726
 20
384.8443702015265
 30
0.0
 40
11.5
100
AcDbArc
 50
265.4818921589387
 51
334.5181078410609
  0
ARC
  5
3FB
330
18
100
AcDbEntity
  8
外形線
100
AcDbCircle
 10
517.6560132939507
 20
361.3909828872227
 30
0.0
 40
11.5
100
AcDbArc
 50
325.4818921589393
 51
34.51810784106124
  0
CIRCLE
  5
3FC
330
18
100
AcDbEntity
  8
外形線
100
AcDbCircle
 10
544.7376522525944
 20
361.3909828872226
 30
0.0
 40
7.25
  0
CIRCLE
  5
3FD
330
18
100
AcDbEntity
  8
外形線
100
AcDbCircle
 10
544.7376522525944
 20
361.3909828872226
 30
0.0
 40
3.5
  0
CIRCLE
  5
3FE
330
18
100
AcDbEntity
  8
外形線
 62
     4
100
AcDbCircle
 10
544.7376522525944
 20
361.3909828872226
 30
0.0
 40
4.5
  0
CIRCLE
  5
400
330
18
100
AcDbEntity
  8
外形線
100
AcDbCircle
 10
544.7376522525944
 20
436.8569884370119
 30
0.0
 40
5.0
  0
CIRCLE
  5
401
330
18
100
AcDbEntity
  8
外形線
100
AcDbCircle
 10
544.7376522525944
 20
444.8569884370119
 30
0.0
 40
1.25
  0
CIRCLE
  5
402
330
18
100
AcDbEntity
  8
外形線
100
AcDbCircle
 10
540.7376522525944
 20
443.7851916672873
 30
0.0
 40
1.25
  0
CIRCLE
  5
403
330
18
100
AcDbEntity
  8
外形線
100
AcDbCircle
 10
537.8094490223189
 20
440.8569884370119
 30
0.0
 40
1.25
  0
CIRCLE
  5
404
330
18
100
AcDbEntity
  8
外形線
100
AcDbCircle
 10
536.7376522525944
 20
436.8569884370119
 30
0.0
 40
1.25
  0
CIRCLE
  5
405
330
18
100
AcDbEntity
  8
外形線
100
AcDbCircle
 10
537.8094490223189
 20
432.8569884370121
 30
0.0
 40
1.25
  0
CIRCLE
  5
406
330
18
100
AcDbEntity
  8
外形線
100
AcDbCircle
 10
540.7376522525943
 20
429.9287852067363
 30
0.0
 40
1.25
  0
CIRCLE
  5
407
330
18
100
AcDbEntity
  8
外形線
100
AcDbCircle
 10
544.7376522525944
 20
428.8569884370118
 30
0.0
 40
1.25
  0
CIRCLE
  5
408
330
18
100
AcDbEntity
  8
外形線
100
AcDbCircle
 10
548.7376522525945
 20
429.9287852067363
 30
0.0
 40
1.25
  0
CIRCLE
  5
409
330
18
100
AcDbEntity
  8
外形線
100
AcDbCircle
 10
551.66585548287
 20
432.8569884370118
 30
0.0
 40
1.25
  0
CIRCLE
  5
40A
330
18
100
AcDbEntity
  8
外形線
100
AcDbCircle
 10
552.7376522525944
 20
436.8569884370118
 30
0.0
 40
1.25
  0
CIRCLE
  5
40B
330
18
100
AcDbEntity
  8
外形線
100
AcDbCircle
 10
551.6658554828698
 20
440.8569884370118
 30
0.0
 40
1.25
  0
CIRCLE
  5
40C
330
18
100
AcDbEntity
  8
外形線
100
AcDbCircle
 10
548.7376522525944
 20
443.7851916672874
 30
0.0
 40
1.25
  0
ARC
  5
40F
330
18
100
AcDbEntity
  8
外形線
100
AcDbCircle
 10
547.9863116638021
 20
448.9811504161261
 30
0.0
 40
4.0
100
AcDbArc
 50
231.7720069160946
 51
278.2279930839051
  0
ARC
  5
410
330
18
100
AcDbEntity
  8
外形線
100
AcDbCircle
 10
541.4889928413867
 20
448.981150416126
 30
0.0
 40
4.0
100
AcDbArc
 50
261.7720069160947
 51
308.2279930839051
  0
ARC
  5
411
330
18
100
AcDbEntity
  8
外形線
100
AcDbCircle
 10
535.8621496846878
 20
445.7324910049182
 30
0.0
 40
4.0
100
AcDbArc
 50
291.7720069160946
 51
338.2279930839051
  0
ARC
  5
412
330
18
100
AcDbEntity
  8
外形線
100
AcDbCircle
 10
532.6134902734802
 20
440.1056478482196
 30
0.0
 40
4.0
100
AcDbArc
 50
321.7720069160947
 51
8.227993083905129
  0
ARC
  5
413
330
18
100
AcDbEntity
  8
外形線
100
AcDbCircle
 10
532.6134902734803
 20
433.6083290258043
 30
0.0
 40
4.0
100
AcDbArc
 50
351.7720069160946
 51
38.22799308390502
  0
ARC
  5
414
330
18
100
AcDbEntity
  8
外形線
100
AcDbCircle
 10
535.8621496846878
 20
427.9814858691055
 30
0.0
 40
4.0
100
AcDbArc
 50
21.7720069160946
 51
68.22799308390507
  0
ARC
  5
415
330
18
100
AcDbEntity
  8
外形線
100
AcDbCircle
 10
541.4889928413867
 20
424.7328264578976
 30
0.0
 40
4.0
100
AcDbArc
 50
51.77200691609465
 51
98.22799308390514
  0
ARC
  5
416
330
18
100
AcDbEntity
  8
外形線
100
AcDbCircle
 10
547.9863116638023
 20
424.7328264578976
 30
0.0
 40
4.0
100
AcDbArc
 50
81.7720069160946
 51
128.227993083905
  0
ARC
  5
417
330
18
100
AcDbEntity
  8
外形線
100
AcDbCircle
 10
553.6131548205008
 20
427.9814858691053
 30
0.0
 40
4.0
100
AcDbArc
 50
111.7720069160946
 51
158.227993083905
  0
ARC
  5
418
330
18
100
AcDbEntity
  8
外形線
100
AcDbCircle
 10
556.8618142317086
 20
433.6083290258041
 30
0.0
 40
4.0
100
AcDbArc
 50
141.7720069160946
 51
188.2279930839051
  0
ARC
  5
419
330
18
100
AcDbEntity
  8
外形線
100
AcDbCircle
 10
556.8618142317085
 20
440.1056478482196
 30
0.0
 40
4.0
100
AcDbArc
 50
171.7720069160946
 51
218.2279930839051
  0
ARC
  5
41A
330
18
100
AcDbEntity
  8
外形線
100
AcDbCircle
 10
553.6131548205008
 20
445.7324910049183
 30
0.0
 40
4.0
100
AcDbArc
 50
201.7720069160947
 51
248.2279930839051
  0
CIRCLE
  5
41C
330
18
100
AcDbEntity
  8
外形線
100
AcDbCircle
 10
544.7376522525944
 20
436.8569884370119
 30
0.0
 40
6.5
  0
LINE
  5
42B
330
18
100
AcDbEntity
  8
中心線
100
AcDbLine
 10
315.0195748533317
 20
328.1886907396205
 30
0.0
 11
315.0195748533317
 21
421.2677153232754
 31
0.0
  0
LINE
  5
42F
330
18
100
AcDbEntity
  8
中心線
100
AcDbLine
 10
358.4837883679396
 20
361.3909828872226
 30
0.0
 11
296.6105333727212
 21
361.3909828872226
 31
0.0
  0
LINE
  5
430
330
18
100
AcDbEntity
  8
中心線
100
AcDbLine
 10
333.0276414685022
 20
449.1578263896738
 30
0.0
 11
333.0276414685022
 21
305.1721554235366
 31
0.0
  0
ARC
  5
431
330
18
100
AcDbEntity
  8
外形線
100
AcDbCircle
 10
347.7500733328377
 20
369.8909828872227
 30
0.0
 40
3.5
100
AcDbArc
 50
325.4818921589385
 51
94.51810784106196
  0
ARC
  5
433
330
18
100
AcDbEntity
  8
外形線
100
AcDbCircle
 10
346.5684609478241
 20
384.8443702015265
 30
0.0
 40
11.5
100
AcDbArc
 50
222.0397902388254
 51
274.5181078410613
  0
ARC
  5
434
330
18
100
AcDbEntity
  8
外形線
100
AcDbCircle
 10
319.4868219891804
 20
384.8443702015264
 30
0.0
 40
11.5
100
AcDbArc
 50
277.6593375780798
 51
317.9602097611752
  0
LINE
  5
435
330
18
100
AcDbEntity
  8
外形線
100
AcDbLine
 10
306.5195748533317
 20
373.3909828872226
 30
0.0
 11
306.5195748533317
 21
349.3909828872227
 31
0.0
  0
LINE
  5
459
330
18
100
AcDbEntity
  8
外形線
100
AcDbLine
 10
309.0195748533318
 20
349.3909828872227
 30
0.0
 11
309.0195748533318
 21
330.8363547643305
 31
0.0
  0
LINE
  5
45A
330
18
100
AcDbEntity
  8
外形線
100
AcDbLine
 10
321.0195748533317
 20
349.3909828872227
 30
0.0
 11
321.0195748533316
 21
330.8363547643304
 31
0.0
  0
ARC
  5
45B
330
18
100
AcDbEntity
  8
外形線
100
AcDbCircle
 10
330.527641468502
 20
340.8864113895355
 30
0.0
 40
5.0
100
AcDbArc
 50
239.9999999999992
 51
300.0000000000008
  0
ARC
  5
45C
330
18
100
AcDbEntity
  8
外形線
100
AcDbCircle
 10
330.5276414685022
 20
329.2261573516908
 30
0.0
 40
5.0
100
AcDbArc
 50
59.99999999999921
 51
120.0000000000008
  0
ARC
  5
45D
330
18
100
AcDbEntity
  8
外形線
100
AcDbCircle
 10
330.5276414685022
 20
337.8864113895352
 30
0.0
 40
5.0
100
AcDbArc
 50
239.9999999999992
 51
300.0000000000008
  0
LINE
  5
45E
330
18
100
AcDbEntity
  8
外形線
100
AcDbLine
 10
338.0276414685022
 20
308.0176684513606
 30
0.0
 11
328.0276414685022
 21
308.0176684513606
 31
0.0
  0
ARC
  5
45F
330
18
100
AcDbEntity
  8
外形線
100
AcDbCircle
 10
333.0276414685022
 20
314.262666449759
 30
0.0
 40
8.0
100
AcDbArc
 50
231.3178125465108
 51
308.6821874534883
  0
LINE
  5
460
330
18
100
AcDbEntity
  8
外形線
100
AcDbLine
 10
338.0276414685022
 20
333.5562843706131
 30
0.0
 11
338.0276414685022
 21
308.0176684513606
 31
0.0
  0
ARC
  5
461
330
18
100
AcDbEntity
  8
外形線
100
AcDbCircle
 10
335.5276414685022
 20
340.8864113895353
 30
0.0
 40
5.0
100
AcDbArc
 50
239.9999999999992
 51
300.0000000000008
  0
ARC
  5
462
330
18
100
AcDbEntity
  8
外形線
100
AcDbCircle
 10
335.5276414685022
 20
332.2261573516909
 30
0.0
 40
5.0
100
AcDbArc
 50
59.99999999999921
 51
120.0000000000008
  0
ARC
  5
463
330
18
100
AcDbEntity
  8
外形線
100
AcDbCircle
 10
335.5276414685021
 20
329.226157351691
 30
0.0
 40
5.0
100
AcDbArc
 50
59.99999999999921
 51
120.0000000000008
  0
LINE
  5
466
330
18
100
AcDbEntity
  8
外形線
100
AcDbLine
 10
328.0276414685022
 20
333.5562843706129
 30
0.0
 11
328.0276414685022
 21
308.0176684513606
 31
0.0
  0
ARC
  5
468
330
18
100
AcDbEntity
  8
外形線
100
AcDbCircle
 10
318.0195748533317
 20
336.032507187037
 30
0.0
 40
5.999999999999943
100
AcDbArc
 50
240.0000000000002
 51
299.9999999999998
  0
ARC
  5
469
330
18
100
AcDbEntity
  8
外形線
100
AcDbCircle
 10
318.0195748533317
 20
325.6402023416239
 30
0.0
 40
5.999999999999943
100
AcDbArc
 50
60.00000000000018
 51
119.9999999999998
  0
ARC
  5
46D
330
18
100
AcDbEntity
  8
外形線
100
AcDbCircle
 10
312.0195748533319
 20
336.032507187037
 30
0.0
 40
5.999999999999943
100
AcDbArc
 50
240.0000000000002
 51
299.9999999999998
  0
ARC
  5
470
330
18
100
AcDbEntity
  8
外形線
100
AcDbCircle
 10
319.4868219891804
 20
337.9375955729187
 30
0.0
 40
11.5
100
AcDbArc
 50
42.03979023882463
 51
82.3406624219211
  0
ARC
  5
471
330
18
100
AcDbEntity
  8
外形線
100
AcDbCircle
 10
360.109280427146
 20
361.3909828872227
 30
0.0
 40
11.5
100
AcDbArc
 50
145.4818921589387
 51
214.5181078410607
  0
ARC
  5
472
330
18
100
AcDbEntity
  8
外形線
100
AcDbCircle
 10
346.5684609478242
 20
337.937595572919
 30
0.0
 40
11.5
100
AcDbArc
 50
85.4818921589393
 51
137.9602097611754
  0
ARC
  5
473
330
18
100
AcDbEntity
  8
外形線
100
AcDbCircle
 10
347.7500733328376
 20
352.8909828872228
 30
0.0
 40
3.5
100
AcDbArc
 50
265.4818921589399
 51
34.51810784105967
  0
LINE
  5
477
330
18
100
AcDbEntity
  8
外形線
100
AcDbLine
 10
328.0276414685022
 20
349.390982887223
 30
0.0
 11
306.5195748533317
 21
349.3909828872227
 31
0.0
  0
ARC
  5
479
330
18
100
AcDbEntity
  8
外形線
100
AcDbCircle
 10
336.27630087971
 20
448.981150416126
 30
0.0
 40
4.0
100
AcDbArc
 50
231.7720069160949
 51
278.2279930839053
  0
ARC
  5
47A
330
18
100
AcDbEntity
  8
外形線
100
AcDbCircle
 10
329.7789820572945
 20
448.9811504161261
 30
0.0
 40
4.0
100
AcDbArc
 50
261.7720069160949
 51
308.2279930839054
  0
ARC
  5
47B
330
18
100
AcDbEntity
  8
外形線
100
AcDbCircle
 10
329.0276414685022
 20
443.7851916672874
 30
0.0
 40
1.25
100
AcDbArc
 50
81.77200691609542
 51
158.227993083906
  0
ARC
  5
47C
330
18
100
AcDbEntity
  8
外形線
100
AcDbCircle
 10
337.0276414685022
 20
443.7851916672873
 30
0.0
 40
1.25
100
AcDbArc
 50
21.77200691609298
 51
98.22799308390678
  0
ARC
  5
47D
330
18
100
AcDbEntity
  8
外形線
100
AcDbCircle
 10
333.0276414685022
 20
444.8569884370119
 30
0.0
 40
1.25
100
AcDbArc
 50
51.77200691609472
 51
128.2279930839052
  0
LINE
  5
47E
330
18
100
AcDbEntity
  8
外形線
100
AcDbLine
 10
338.0276414685022
 20
442.6019864354103
 30
0.0
 11
338.0276414685022
 21
439.14827628449
 31
0.0
  0
LINE
  5
47F
330
18
100
AcDbEntity
  8
外形線
100
AcDbLine
 10
328.0276414685022
 20
442.6019864354103
 30
0.0
 11
328.0276414685022
 21
439.1482762844898
 31
0.0
  0
LINE
  5
480
330
18
100
AcDbEntity
  8
外形線
100
AcDbLine
 10
309.0195748533318
 20
414.4826950843239
 30
0.0
 11
309.0195748533318
 21
373.3909828872226
 31
0.0
  0
LINE
  5
481
330
18
100
AcDbEntity
  8
外形線
100
AcDbLine
 10
321.0195748533319
 20
414.4826950843238
 30
0.0
 11
321.0195748533319
 21
373.3909828872226
 31
0.0
  0
LINE
  5
483
330
18
100
AcDbEntity
  8
外形線
100
AcDbLine
 10
328.0276414685023
 20
373.3909828872226
 30
0.0
 11
306.5195748533317
 21
373.3909828872226
 31
0.0
  0
ARC
  5
485
330
18
100
AcDbEntity
  8
外形線
100
AcDbCircle
 10
329.0276414685021
 20
429.9287852067363
 30
0.0
 40
1.25
100
AcDbArc
 50
201.7720069160949
 51
216.8698976458513
  0
LINE
  5
487
330
18
100
AcDbEntity
  8
中心線
100
AcDbLine
 10
345.9993291257715
 20
436.8569884370119
 30
0.0
 11
320.5068043656077
 21
436.8569884370119
 31
0.0
  0
ARC
  5
489
330
18
100
AcDbEntity
  8
外形線
100
AcDbCircle
 10
345.1518034476163
 20
433.6083290258043
 30
0.0
 40
4.0
100
AcDbArc
 50
141.7720069160949
 51
188.2279930839054
  0
ARC
  5
48A
330
18
100
AcDbEntity
  8
外形線
100
AcDbCircle
 10
345.1518034476164
 20
440.1056478482196
 30
0.0
 40
4.0
100
AcDbArc
 50
171.7720069160949
 51
218.2279930839054
  0
ARC
  5
48B
330
18
100
AcDbEntity
  8
外形線
100
AcDbCircle
 10
341.0276414685022
 20
436.8569884370119
 30
0.0
 40
1.25
100
AcDbArc
 50
321.7720069160951
 51
38.22799308390366
  0
ARC
  5
48E
330
18
100
AcDbEntity
  8
外形線
100
AcDbCircle
 10
341.9031440364088
 20
427.9814858691055
 30
0.0
 40
4.0
100
AcDbArc
 50
111.7720069160949
 51
158.2279930839054
  0
ARC
  5
48F
330
18
100
AcDbEntity
  8
外形線
100
AcDbCircle
 10
337.0276414685023
 20
429.9287852067363
 30
0.0
 40
1.25
100
AcDbArc
 50
323.1301023541393
 51
338.2279930839051
  0
ARC
  5
490
330
18
100
AcDbEntity
  8
外形線
100
AcDbCircle
 10
339.9558446987777
 20
432.8569884370121
 30
0.0
 40
1.25
100
AcDbArc
 50
291.7720069160978
 51
8.227993083907165
  0
ARC
  5
493
330
18
100
AcDbEntity
  8
外形線
100
AcDbCircle
 10
341.9031440364088
 20
445.7324910049182
 30
0.0
 40
4.0
100
AcDbArc
 50
201.772006916095
 51
248.2279930839054
  0
ARC
  5
494
330
18
100
AcDbEntity
  8
外形線
100
AcDbCircle
 10
339.9558446987777
 20
440.8569884370119
 30
0.0
 40
1.25
100
AcDbArc
 50
351.7720069160958
 51
68.22799308390266
  0
ARC
  5
495
330
18
100
AcDbEntity
  8
外形線
100
AcDbCircle
 10
315.0195748533317
 20
406.4826950843239
 30
0.0
 40
10.0
100
AcDbArc
 50
53.13010235415461
 51
126.8698976458454
  0
LINE
  5
496
330
18
100
AcDbEntity
  8
外形線
100
AcDbLine
 10
321.0195748533319
 20
414.4826950843238
 30
0.0
 11
309.0195748533318
 21
414.4826950843238
 31
0.0
  0
ARC
  5
497
330
18
100
AcDbEntity
  8
外形線
100
AcDbCircle
 10
320.903479489388
 20
433.6083290258041
 30
0.0
 40
4.0
100
AcDbArc
 50
351.7720069160949
 51
38.22799308390537
  0
ARC
  5
498
330
18
100
AcDbEntity
  8
外形線
100
AcDbCircle
 10
325.0276414685022
 20
436.8569884370118
 30
0.0
 40
1.25
100
AcDbArc
 50
141.7720069160931
 51
218.2279930839037
  0
ARC
  5
499
330
18
100
AcDbEntity
  8
外形線
100
AcDbCircle
 10
324.1521389005958
 20
427.9814858691053
 30
0.0
 40
4.0
100
AcDbArc
 50
21.77200691609493
 51
68.22799308390539
  0
ARC
  5
49A
330
18
100
AcDbEntity
  8
外形線
100
AcDbCircle
 10
326.0994382382266
 20
432.8569884370118
 30
0.0
 40
1.25
100
AcDbArc
 50
171.7720069160928
 51
248.227993083906
  0
ARC
  5
49B
330
18
100
AcDbEntity
  8
外形線
100
AcDbCircle
 10
324.1521389005958
 20
445.7324910049183
 30
0.0
 40
4.0
100
AcDbArc
 50
291.7720069160949
 51
338.2279930839053
  0
ARC
  5
49C
330
18
100
AcDbEntity
  8
外形線
100
AcDbCircle
 10
320.9034794893881
 20
440.1056478482196
 30
0.0
 40
4.0
100
AcDbArc
 50
321.7720069160949
 51
8.227993083905353
  0
ARC
  5
49D
330
18
100
AcDbEntity
  8
外形線
100
AcDbCircle
 10
326.0994382382269
 20
440.8569884370118
 30
0.0
 40
1.25
100
AcDbArc
 50
111.7720069160978
 51
188.2279930839068
  0
LINE
  5
49F
330
18
100
AcDbEntity
  8
外形線
100
AcDbLine
 10
337.0276414685022
 20
442.6019864354103
 30
0.0
 11
337.0276414685022
 21
440.6319056546473
 31
0.0
  0
LINE
  5
4A0
330
18
100
AcDbEntity
  8
外形線
100
AcDbLine
 10
329.0276414685022
 20
442.6019864354103
 30
0.0
 11
329.0276414685022
 21
440.6319056546473
 31
0.0
  0
ARC
  5
4A5
330
18
100
AcDbEntity
  8
外形線
100
AcDbCircle
 10
333.0276414685022
 20
436.356988437012
 30
0.0
 40
8.0
100
AcDbArc
 50
51.31781254651077
 51
128.6821874534883
  0
LINE
  5
4A6
330
18
100
AcDbEntity
  8
外形線
100
AcDbLine
 10
328.0276414685023
 20
442.6019864354103
 30
0.0
 11
338.0276414685022
 21
442.6019864354103
 31
0.0
  0
LINE
  5
4A7
330
18
100
AcDbEntity
  8
外形線
100
AcDbLine
 10
337.0276414685022
 20
427.8569884370122
 30
0.0
 11
329.0276414685022
 21
427.8569884370119
 31
0.0
  0
CIRCLE
  5
4B5
330
18
100
AcDbEntity
  8
外形線
100
AcDbCircle
 10
333.0276414685022
 20
436.8569884370119
 30
0.0
 40
4.5
  0
CIRCLE
  5
4C3
330
18
100
AcDbEntity
  8
外形線
100
AcDbCircle
 10
333.0276414685022
 20
436.8569884370119
 30
0.0
 40
5.5
  0
LINE
  5
4D1
330
18
100
AcDbEntity
  8
外形線
100
AcDbLine
 10
337.0276414685022
 20
433.0820712193765
 30
0.0
 11
337.0276414685022
 21
427.8569884370118
 31
0.0
  0
LINE
  5
4D2
330
18
100
AcDbEntity
  8
外形線
100
AcDbLine
 10
338.0276414685022
 20
434.5657005895339
 30
0.0
 11
338.0276414685023
 21
368.8742976607705
 31
0.0
  0
LINE
  5
4D3
330
18
100
AcDbEntity
  8
外形線
100
AcDbLine
 10
329.0276414685022
 20
433.0820712193765
 30
0.0
 11
329.0276414685022
 21
427.8569884370119
 31
0.0
  0
LINE
  5
4D4
330
18
100
AcDbEntity
  8
外形線
100
AcDbLine
 10
328.0276414685022
 20
434.565700589534
 30
0.0
 11
328.0276414685022
 21
368.8742976607705
 31
0.0
  0
ARC
  5
4D5
330
18
100
AcDbEntity
  8
外形線
100
AcDbCircle
 10
333.0276414685022
 20
436.8569884370119
 30
0.0
 40
6.5
100
AcDbArc
 50
140.2848627681731
 51
219.7151372318262
  0
ARC
  5
4D6
330
18
100
AcDbEntity
  8
外形線
100
AcDbCircle
 10
333.0276414685022
 20
436.8569884370119
 30
0.0
 40
6.5
100
AcDbArc
 50
320.2848627681731
 51
39.71513723182724
  0
ARC
  5
4D7
330
18
100
AcDbEntity
  8
外形線
100
AcDbCircle
 10
333.0276414685022
 20
361.3909828872226
 30
0.0
 40
12.0
100
AcDbArc
 50
294.6243183521644
 51
65.37568164783566
  0
CIRCLE
  5
4F2
330
18
100
AcDbEntity
  8
外形線
100
AcDbCircle
 10
333.0276414685022
 20
361.3909828872226
 30
0.0
 40
9.0
  0
CIRCLE
  5
4F3
330
18
100
AcDbEntity
  8
外形線
100
AcDbCircle
 10
333.0276414685022
 20
361.3909828872226
 30
0.0
 40
7.0
  0
LINE
  5
4F4
330
18
100
AcDbEntity
  8
外形線
100
AcDbLine
 10
338.0276414685023
 20
353.9076681136748
 30
0.0
 11
338.0276414685023
 21
336.5562843706131
 31
0.0
  0
LINE
  5
4F5
330
18
100
AcDbEntity
  8
外形線
100
AcDbLine
 10
328.0276414685022
 20
353.9076681136748
 30
0.0
 11
328.0276414685023
 21
336.5562843706131
 31
0.0
  0
LINE
  5
52D
330
18
100
AcDbEntity
  8
0
  6
ByBlock
 62
     2
100
AcDbLine
 10
414.9868045327877
 20
444.3569884370119
 30
0.0
 11
414.9868045327877
 21
451.9806923063701
 31
0.0
  0
LINE
  5
52E
330
18
100
AcDbEntity
  8
0
  6
ByBlock
 62
     2
100
AcDbLine
 10
407.4868045327877
 20
450.7306923063701
 30
0.0
 11
404.9868045327877
 21
450.7306923063701
 31
0.0
  0
LINE
  5
52F
330
18
100
AcDbEntity
  8
0
  6
ByBlock
 62
     2
100
AcDbLine
 10
417.4868045327877
 20
450.7306923063701
 30
0.0
 11
419.9868045327877
 21
450.7306923063701
 31
0.0
  0
LINE
  5
530
330
18
100
AcDbEntity
  8
0
  6
ByBlock
 62
     2
100
AcDbLine
 10
409.9868045327877
 20
450.7306923063701
 30
0.0
 11
414.9868045327877
 21
450.7306923063701
 31
0.0
  0
INSERT
  5
531
330
18
100
AcDbEntity
  8
0
  6
ByBlock
 62
     2
100
AcDbBlockReference
  2
_OPEN
 10
409.9868045327877
 20
450.7306923063701
 30
0.0
 41
2.5
 42
2.5
 43
2.5
  0
MTEXT
  5
533
330
18
100
AcDbEntity
  8
0
  6
ByBlock
 62
     6
100
AcDbMText
 10
412.4868045327877
 20
452.6056923063702
 30
0.0
 40
2.5
 41
0.0
 71
     5
 72
     1
  1
\A1;5
  7
STYLE3
 73
     1
 44
1.0
  0
POINT
  5
534
330
18
100
AcDbEntity
  8
DEFPOINTS
  6
ByBlock
 62
     0
100
AcDbPoint
 10
409.9868045327877
 20
444.3569884370119
 30
0.0
  0
POINT
  5
535
330
18
100
AcDbEntity
  8
DEFPOINTS
  6
ByBlock
 62
     0
100
AcDbPoint
 10
414.9868045327877
 20
444.3569884370119
 30
0.0
  0
POINT
  5
536
330
18
100
AcDbEntity
  8
DEFPOINTS
  6
ByBlock
 62
     0
100
AcDbPoint
 10
414.9868045327877
 20
450.7306923063701
 30
0.0
  0
LINE
  5
537
330
18
100
AcDbEntity
  8
0
  6
ByBlock
 62
     2
100
AcDbLine
 10
399.9868045327876
 20
442.356988437012
 30
0.0
 11
399.9868045327876
 21
451.9806923063701
 31
0.0
  0
LINE
  5
538
330
18
100
AcDbEntity
  8
0
  6
ByBlock
 62
     2
100
AcDbLine
 10
409.9868045327877
 20
444.3569884370119
 30
0.0
 11
409.9868045327877
 21
451.9806923063701
 31
0.0
  0
LINE
  5
539
330
18
100
AcDbEntity
  8
0
  6
ByBlock
 62
     2
100
AcDbLine
 10
402.4868045327876
 20
450.7306923063701
 30
0.0
 11
407.4868045327877
 21
450.7306923063701
 31
0.0
  0
INSERT
  5
53A
330
18
100
AcDbEntity
  8
0
  6
ByBlock
 62
     2
100
AcDbBlockReference
  2
_OPEN
 10
399.9868045327876
 20
450.7306923063701
 30
0.0
 41
2.5
 42
2.5
 43
2.5
 50
180.0
  0
INSERT
  5
53B
330
18
100
AcDbEntity
  8
0
  6
ByBlock
 62
     2
100
AcDbBlockReference
  2
_OPEN
 10
409.9868045327877
 20
450.7306923063701
 30
0.0
 41
2.5
 42
2.5
 43
2.5
  0
MTEXT
  5
53C
330
18
100
AcDbEntity
  8
0
  6
ByBlock
 62
     6
100
AcDbMText
 10
404.9868045327876
 20
452.6056923063702
 30
0.0
 40
2.5
 41
0.0
 71
     5
 72
     1
  1
\A1;10
  7
STYLE3
 73
     1
 44
1.0
  0
POINT
  5
53D
330
18
100
AcDbEntity
  8
DEFPOINTS
  6
ByBlock
 62
     0
100
AcDbPoint
 10
399.9868045327876
 20
442.356988437012
 30
0.0
  0
POINT
  5
53E
330
18
100
AcDbEntity
  8
DEFPOINTS
  6
ByBlock
 62
     0
100
AcDbPoint
 10
409.9868045327877
 20
444.3569884370119
 30
0.0
  0
POINT
  5
53F
330
18
100
AcDbEntity
  8
DEFPOINTS
  6
ByBlock
 62
     0
100
AcDbPoint
 10
409.9868045327877
 20
450.7306923063701
 30
0.0
  0
LINE
  5
540
330
18
100
AcDbEntity
  8
0
  6
ByBlock
 62
     2
100
AcDbLine
 10
419.4868045327877
 20
443.356988437012
 30
0.0
 11
419.4868045327877
 21
451.9806923063701
 31
0.0
  0
LINE
  5
541
330
18
100
AcDbEntity
  8
0
  6
ByBlock
 62
     2
100
AcDbLine
 10
412.4868045327877
 20
450.7306923063701
 30
0.0
 11
409.9868045327877
 21
450.7306923063701
 31
0.0
  0
LINE
  5
542
330
18
100
AcDbEntity
  8
0
  6
ByBlock
 62
     2
100
AcDbLine
 10
421.9868045327877
 20
450.7306923063701
 30
0.0
 11
428.3025060610284
 21
450.7306923063701
 31
0.0
  0
MTEXT
  5
545
330
18
100
AcDbEntity
  8
0
  6
ByBlock
 62
     6
100
AcDbMText
 10
422.436206949914
 20
452.8065676018252
 30
0.0
 40
2.5
 41
0.0
 71
     4
 72
     1
  1
\A1;4.5
  7
STYLE3
 73
     1
 44
1.0
  0
LINE
  5
546
330
18
100
AcDbEntity
  8
0
  6
ByBlock
 62
     2
100
AcDbLine
 10
414.9868045327877
 20
450.7306923063701
 30
0.0
 11
419.4868045327877
 21
450.7306923063701
 31
0.0
  0
LINE
  5
547
330
18
100
AcDbEntity
  8
0
  6
ByBlock
 62
     2
100
AcDbLine
 10
414.9868045327877
 20
450.7306923063701
 30
0.0
 11
419.4868045327877
 21
450.7306923063701
 31
0.0
  0
INSERT
  5
549
330
18
100
AcDbEntity
  8
0
  6
ByBlock
 62
     2
100
AcDbBlockReference
  2
_OPEN
 10
419.4868045327877
 20
450.7306923063701
 30
0.0
 41
2.5
 42
2.5
 43
2.5
 50
180.0
  0
POINT
  5
54A
330
18
100
AcDbEntity
  8
DEFPOINTS
  6
ByBlock
 62
     0
100
AcDbPoint
 10
414.9868045327877
 20
444.3569884370119
 30
0.0
  0
POINT
  5
54B
330
18
100
AcDbEntity
  8
DEFPOINTS
  6
ByBlock
 62
     0
100
AcDbPoint
 10
419.4868045327877
 20
443.356988437012
 30
0.0
  0
POINT
  5
54C
330
18
100
AcDbEntity
  8
DEFPOINTS
  6
ByBlock
 62
     0
100
AcDbPoint
 10
419.4868045327877
 20
450.7306923063701
 30
0.0
  0
DIMENSION
  5
55B
330
18
100
AcDbEntity
  8
外形線
100
AcDbDimension
  2
*D4
 10
382.6290741493592
 20
433.8569884370119
 30
0.0
 11
380.7540741493592
 21
436.856988437012
 31
0.0
 70
    32
  1
φ6
 71
     5
 42
-1.0
  3
STYLE3
100
AcDbAlignedDimension
 13
399.9868045327877
 23
439.856988437012
 33
0.0
 14
399.9868045327876
 24
433.8569884370119
 34
0.0
 50
90.0
100
AcDbRotatedDimension
1001
ACAD
1000
DSTYLE
1002
{
1070
   271
1070
     2
1002
}
  0
DIMENSION
  5
568
330
18
100
AcDbEntity
  8
外形線
100
AcDbDimension
  2
*D5
 10
430.4948711479581
 20
417.9155243942602
 30
0.0
 11
421.4908378403729
 21
419.7905243942602
 31
0.0
 12
-6.555360894248451
 22
0.0
 32
0.0
 70
    32
  1
18
 71
     5
 42
-1.0
  3
STYLE3
100
AcDbAlignedDimension
 13
412.4868045327877
 23
417.370873852833
 33
0.0
 14
430.4948711479581
 24
418.0516868647147
 34
0.0
100
AcDbRotatedDimension
1001
ACAD
1000
DSTYLE
1002
{
1070
   271
1070
     2
1002
}
  0
DIMENSION
  5
5A0
330
18
100
AcDbEntity
  8
外形線
100
AcDbDimension
  2
*D6
 10
413.4948711479581
 20
204.8889624015268
 30
0.0
 11
410.9948711479582
 21
206.7639624015268
 31
0.0
 12
-6.555360894248451
 22
0.0
 32
0.0
 70
    32
 71
     5
 42
-1.0
  3
STYLE3
100
AcDbAlignedDimension
 13
408.4948711479581
 23
209.1979714098306
 33
0.0
 14
413.4948711479581
 24
209.1979714098306
 34
0.0
100
AcDbRotatedDimension
1001
ACAD
1000
DSTYLE
1002
{
1070
   271
1070
     2
1002
}
  0
DIMENSION
  5
5AF
330
18
100
AcDbEntity
  8
外形線
100
AcDbDimension
  2
*D7
 10
452.4948711479581
 20
204.8889624015268
 30
0.0
 11
449.9948711479581
 21
206.7639624015268
 31
0.0
 12
-6.555360894248451
 22
0.0
 32
0.0
 70
    32
 71
     5
 42
-1.0
  3
STYLE3
100
AcDbAlignedDimension
 13
447.4948711479582
 23
209.1979714098306
 33
0.0
 14
452.4948711479581
 24
209.1979714098306
 34
0.0
100
AcDbRotatedDimension
1001
ACAD
1000
DSTYLE
1002
{
1070
   271
1070
     2
1002
}
  0
LINE
  5
5BD
330
18
100
AcDbEntity
  8
想像線
100
AcDbLine
 10
500.4135020609732
 20
412.7862008907091
 30
0.0
 11
537.7827343342918
 21
375.4169686173908
 31
0.0
  0
LINE
  5
5BE
330
18
100
AcDbEntity
  8
想像線
100
AcDbLine
 10
493.3424342491077
 20
405.7151330788435
 30
0.0
 11
527.1526747267788
 21
371.9048926011725
 31
0.0
  0
LINE
  5
5BF
330
18
100
AcDbEntity
  8
中心線
100
AcDbLine
 10
492.1198240060814
 20
414.0088111337353
 30
0.0
 11
532.6872728090169
 21
373.4413623308
 31
0.0
  0
ARC
  5
5D3
330
18
100
AcDbEntity
  8
0
  6
ByBlock
 62
     2
100
AcDbCircle
 10
544.7376522525943
 20
361.3909828872222
 30
0.0
 40
57.95219406231653
100
AcDbArc
 50
92.47187462520695
 51
132.5281253747928
  0
INSERT
  5
5D4
330
18
100
AcDbEntity
  8
0
  6
ByBlock
 62
     2
100
AcDbBlockReference
  2
_OPEN
 10
544.7376522525944
 20
419.3431769495387
 30
0.0
 41
2.5
 42
2.5
 43
2.5
 50
1.23593731260349
  0
INSERT
  5
5D5
330
18
100
AcDbEntity
  8
0
  6
ByBlock
 62
     2
100
AcDbBlockReference
  2
_OPEN
 10
503.7592628464917
 20
402.369372293325
 30
0.0
 41
2.5
 42
2.5
 43
2.5
 50
223.7640626873963
  0
POINT
  5
5D7
330
18
100
AcDbEntity
  8
DEFPOINTS
  6
ByBlock
 62
     0
100
AcDbPoint
 10
529.7385207237896
 20
417.3685038221297
 30
0.0
 50
45.0
  0
POINT
  5
5D8
330
18
100
AcDbEntity
  8
DEFPOINTS
  6
ByBlock
 62
     0
100
AcDbPoint
 10
492.1198240060814
 20
414.0088111337353
 30
0.0
 50
45.0
  0
POINT
  5
5D9
330
18
100
AcDbEntity
  8
DEFPOINTS
  6
ByBlock
 62
     0
100
AcDbPoint
 10
544.7376522525943
 20
449.1578263896736
 30
0.0
 50
45.0
  0
POINT
  5
5DA
330
18
100
AcDbEntity
  8
DEFPOINTS
  6
ByBlock
 62
     0
100
AcDbPoint
 10
544.7376522525945
 20
303.9926600363575
 30
0.0
 50
45.0
  0
LINE
  5
5E8
330
18
100
AcDbEntity
  8
想像線
 48
0.5
100
AcDbLine
 10
544.9957188677649
 20
297.6979714098305
 30
0.0
 11
555.1463767909795
 21
297.6979714098305
 31
0.0
  0
LINE
  5
5E9
330
18
100
AcDbEntity
  8
想像線
 48
0.5
100
AcDbLine
 10
544.9957188677649
 20
284.6979714098305
 30
0.0
 11
544.9957188677649
 21
297.6979714098305
 31
0.0
  0
LINE
  5
5EA
330
18
100
AcDbEntity
  8
想像線
 48
0.5
100
AcDbLine
 10
526.1073355132648
 20
297.1979714098304
 30
0.0
 11
544.9957188677649
 21
297.1979714098305
 31
0.0
  0
LINE
  5
5EB
330
18
100
AcDbEntity
  8
想像線
 48
0.5
100
AcDbLine
 10
544.9957188677649
 20
284.6979714098305
 30
0.0
 11
555.1463767909795
 21
284.6979714098305
 31
0.0
  0
LINE
  5
5EC
330
18
100
AcDbEntity
  8
想像線
 48
0.5
100
AcDbLine
 10
526.1073355132648
 20
285.1979714098305
 30
0.0
 11
544.9957188677649
 21
285.1979714098305
 31
0.0
  0
ARC
  5
5ED
330
18
100
AcDbEntity
  8
想像線
 48
0.5
100
AcDbCircle
 10
531.3034879359714
 20
294.1979714098305
 30
0.0
 40
5.999999999999943
100
AcDbArc
 50
150.0000000000002
 51
209.9999999999998
  0
ARC
  5
5EE
330
18
100
AcDbEntity
  8
想像線
 48
0.5
100
AcDbCircle
 10
520.9111830905583
 20
294.1979714098305
 30
0.0
 40
5.999999999999943
100
AcDbArc
 50
330.0000000000002
 51
29.99999999999981
  0
ARC
  5
5EF
330
18
100
AcDbEntity
  8
想像線
 48
0.5
100
AcDbCircle
 10
531.3034879359714
 20
288.1979714098305
 30
0.0
 40
5.999999999999943
100
AcDbArc
 50
150.0000000000002
 51
209.9999999999998
  0
LINE
  5
5F0
330
18
100
AcDbEntity
  8
想像線
 48
0.5
100
AcDbLine
 10
599.384102222265
 20
285.1979714098305
 30
0.0
 11
580.4957188677649
 21
285.1979714098305
 31
0.0
  0
ARC
  5
5F1
330
18
100
AcDbEntity
  8
想像線
 48
0.5
100
AcDbCircle
 10
594.1879497995584
 20
288.1979714098305
 30
0.0
 40
5.999999999999943
100
AcDbArc
 50
330.0000000000002
 51
29.99999999999982
  0
LINE
  5
5F2
330
18
100
AcDbEntity
  8
想像線
 48
0.5
100
AcDbLine
 10
580.4957188677649
 20
284.6979714098305
 30
0.0
 11
570.3450609445503
 21
284.6979714098305
 31
0.0
  0
LINE
  5
5F3
330
18
100
AcDbEntity
  8
想像線
 48
0.5
100
AcDbLine
 10
580.4957188677649
 20
284.6979714098305
 30
0.0
 11
580.4957188677649
 21
297.6979714098305
 31
0.0
  0
LINE
  5
5F4
330
18
100
AcDbEntity
  8
想像線
 48
0.5
100
AcDbLine
 10
599.384102222265
 20
297.1979714098304
 30
0.0
 11
580.4957188677649
 21
297.1979714098305
 31
0.0
  0
ARC
  5
5F5
330
18
100
AcDbEntity
  8
想像線
 48
0.5
100
AcDbCircle
 10
594.1879497995584
 20
294.1979714098305
 30
0.0
 40
5.999999999999943
100
AcDbArc
 50
330.0000000000002
 51
29.99999999999982
  0
ARC
  5
5F6
330
18
100
AcDbEntity
  8
想像線
 48
0.5
100
AcDbCircle
 10
604.5802546449715
 20
294.1979714098305
 30
0.0
 40
5.999999999999943
100
AcDbArc
 50
150.0000000000002
 51
209.9999999999998
  0
LINE
  5
5F7
330
18
100
AcDbEntity
  8
想像線
 48
0.5
100
AcDbLine
 10
580.4957188677649
 20
297.6979714098305
 30
0.0
 11
570.3450609445503
 21
297.6979714098305
 31
0.0
  0
ARC
  5
611
330
18
100
AcDbEntity
  8
寸法線
100
AcDbCircle
 10
562.7457188677649
 20
291.1979714098306
 30
0.0
 40
20.39292776161437
100
AcDbArc
 50
7.012986275239138
 51
172.9717964572721
  0
INSERT
  5
620
330
18
100
AcDbEntity
  8
0
  6
ByBlock
 62
     2
100
AcDbBlockReference
  2
_OPEN
 10
583.1386466293792
 20
291.1979714098306
 30
0.0
 41
2.5
 42
2.5
 43
2.5
 50
273.5377488755324
  0
POINT
  5
624
330
18
100
AcDbEntity
  8
DEFPOINTS
  6
ByBlock
 62
     0
100
AcDbPoint
 10
516.3681171120174
 20
291.1979714098306
 30
0.0
  0
POINT
  5
625
330
18
100
AcDbEntity
  8
DEFPOINTS
  6
ByBlock
 62
     0
100
AcDbPoint
 10
569.2457188677649
 20
308.9479714098305
 30
0.0
  0
POINT
  5
626
330
18
100
AcDbEntity
  8
DEFPOINTS
  6
ByBlock
 62
     0
100
AcDbPoint
 10
569.2457188677649
 20
298.7973134866158
 30
0.0
  0
POINT
  5
627
330
18
100
AcDbEntity
  8
DEFPOINTS
  6
ByBlock
 62
     0
100
AcDbPoint
 10
608.8393608005397
 20
291.1979714098306
 30
0.0
  0
INSERT
  5
629
330
18
100
AcDbEntity
  8
0
  6
ByBlock
 62
     2
100
AcDbBlockReference
  2
_OPEN
 10
542.3527911061507
 20
291.1979714098306
 30
0.0
 41
-2.5
 42
2.5
 43
2.5
 50
86.46225112446755
  0
TEXT
  5
62B
330
18
100
AcDbEntity
  8
文字
100
AcDbText
 10
570.6038630038001
 20
310.5015879118307
 30
0.0
 40
2.5
  1
180°
  7
STYLE3
100
AcDbText
  0
DIMENSION
  5
639
330
18
100
AcDbEntity
  8
文字
100
AcDbDimension
  2
*D8
 10
484.3722473230327
 20
306.262666449759
 30
0.0
 11
482.4972473230327
 21
371.5598274433855
 31
0.0
 70
    32
  1
140
 71
     5
 42
-1.0
  3
STYLE3
100
AcDbAlignedDimension
 13
531.7659645953251
 23
436.8569884370119
 33
0.0
 14
544.7376522525944
 24
306.262666449759
 34
0.0
 50
90.0
100
AcDbRotatedDimension
1001
ACAD
1000
DSTYLE
1002
{
1070
   271
1070
     2
1002
}
  0
DIMENSION
  5
646
330
18
100
AcDbEntity
  8
文字
100
AcDbDimension
  2
*D9
 10
562.7457188677649
 20
422.3598624432495
 30
0.0
 11
553.7416855601796
 21
424.2348624432495
 31
0.0
 70
    32
  1
18
 71
     5
 42
-1.0
  3
STYLE3
100
AcDbAlignedDimension
 13
544.7376522525944
 23
419.713246432652
 33
0.0
 14
562.7457188677649
 24
419.713246432652
 34
0.0
100
AcDbRotatedDimension
1001
ACAD
1000
DSTYLE
1002
{
1070
   271
1070
     2
1002
}
  0
DIMENSION
  5
65E
330
18
100
AcDbEntity
  8
文字
100
AcDbDimension
  2
*D10
 10
605.0420187826999
 20
256.1979714098306
 30
0.0
 11
603.1670187826998
 21
336.3403332470773
 31
0.0
 70
    32
  1
213
 71
     5
 42
-1.0
  3
STYLE3
100
AcDbAlignedDimension
 13
562.7457188677649
 23
416.4826950843239
 33
0.0
 14
592.7457188677649
 24
256.1979714098306
 34
0.0
 50
90.0
100
AcDbRotatedDimension
1001
ACAD
1000
DSTYLE
1002
{
1070
   271
1070
     2
1002
}
  0
DIMENSION
  5
66A
330
18
100
AcDbEntity
  8
文字
100
AcDbDimension
  2
*D11
 10
605.0420187826999
 20
209.1979714098306
 30
0.0
 11
603.1670187826998
 21
232.6979714098306
 31
0.0
 70
    32
  1
50
 71
     5
 42
-1.0
  3
STYLE3
100
AcDbAlignedDimension
 13
592.7457188677649
 23
256.1979714098306
 33
0.0
 14
592.7457188677649
 24
209.1979714098306
 34
0.0
 50
90.0
100
AcDbRotatedDimension
1001
ACAD
1000
DSTYLE
1002
{
1070
    75
1070
     1
1070
   271
1070
     2
1070
   279
1070
     1
1002
}
  0
DIMENSION
  5
677
330
18
100
AcDbEntity
  8
文字
100
AcDbDimension
  2
*D12
 10
614.6876998576565
 20
209.1979714098306
 30
0.0
 11
612.8126998576565
 21
312.8403332470772
 31
0.0
 70
    32
  1
263
 71
     5
 42
-1.0
  3
STYLE3
100
AcDbAlignedDimension
 13
606.2920187826998
 23
416.4826950843239
 33
0.0
 14
606.2920187826998
 24
209.1979714098306
 34
0.0
 50
90.0
100
AcDbRotatedDimension
1001
ACAD
1000
DSTYLE
1002
{
1070
   271
1070
     2
1002
}
  0
LINE
  5
6A7
102
{ACAD_REACTORS
330
6ED
102
}
330
18
100
AcDbEntity
  8
外形線
100
AcDbLine
 10
536.2457188677649
 20
255.1979714098306
 30
0.0
 11
589.2457188677649
 21
255.1979714098306
 31
0.0
  0
LINE
  5
6A8
102
{ACAD_REACTORS
330
6ED
102
}
330
18
100
AcDbEntity
  8
外形線
100
AcDbLine
 10
533.7457188677649
 20
212.6979714098306
 30
0.0
 11
533.7457188677649
 21
252.6979714098306
 31
0.0
  0
LINE
  5
6A9
102
{ACAD_REACTORS
330
6ED
102
}
330
18
100
AcDbEntity
  8
外形線
100
AcDbLine
 10
591.7457188677648
 20
212.6979714098306
 30
0.0
 11
591.7457188677649
 21
252.6979714098306
 31
0.0
  0
LINE
  5
6AA
102
{ACAD_REACTORS
330
6ED
102
}
330
18
100
AcDbEntity
  8
外形線
100
AcDbLine
 10
536.2457188677649
 20
210.1979714098306
 30
0.0
 11
589.2457188677648
 21
210.1979714098305
 31
0.0
  0
ARC
  5
6AB
102
{ACAD_REACTORS
330
6ED
102
}
330
18
100
AcDbEntity
  8
外形線
100
AcDbCircle
 10
536.2457188677649
 20
252.6979714098306
 30
0.0
 40
2.5
100
AcDbArc
 50
90.0
 51
179.9999999999998
  0
ARC
  5
6AC
102
{ACAD_REACTORS
330
6ED
102
}
330
18
100
AcDbEntity
  8
外形線
100
AcDbCircle
 10
589.2457188677649
 20
252.6979714098306
 30
0.0
 40
2.5
100
AcDbArc
 50
0.0
 51
90.0
  0
ARC
  5
6AD
102
{ACAD_REACTORS
330
6ED
102
}
330
18
100
AcDbEntity
  8
外形線
100
AcDbCircle
 10
589.2457188677648
 20
212.6979714098306
 30
0.0
 40
2.5
100
AcDbArc
 50
269.9999999999999
 51
0.0
  0
ARC
  5
6AE
102
{ACAD_REACTORS
330
6ED
102
}
330
18
100
AcDbEntity
  8
外形線
100
AcDbCircle
 10
536.2457188677649
 20
212.6979714098306
 30
0.0
 40
2.5
100
AcDbArc
 50
180.0
 51
269.9999999999999
  0
LINE
  5
6B1
102
{ACAD_REACTORS
330
6ED
102
}
330
18
100
AcDbEntity
  8
外形線
100
AcDbLine
 10
536.2457188677649
 20
254.1979714098306
 30
0.0
 11
589.2457188677649
 21
254.1979714098306
 31
0.0
  0
LINE
  5
6B2
102
{ACAD_REACTORS
330
6ED
102
}
330
18
100
AcDbEntity
  8
外形線
100
AcDbLine
 10
534.7457188677649
 20
212.6979714098306
 30
0.0
 11
534.7457188677649
 21
252.6979714098306
 31
0.0
  0
LINE
  5
6B3
102
{ACAD_REACTORS
330
6ED
102
}
330
18
100
AcDbEntity
  8
外形線
100
AcDbLine
 10
536.2457188677649
 20
211.1979714098306
 30
0.0
 11
589.2457188677648
 21
211.1979714098306
 31
0.0
  0
LINE
  5
6B4
102
{ACAD_REACTORS
330
6ED
102
}
330
18
100
AcDbEntity
  8
外形線
100
AcDbLine
 10
590.7457188677648
 20
212.6979714098306
 30
0.0
 11
590.7457188677649
 21
252.6979714098306
 31
0.0
  0
ARC
  5
6B5
102
{ACAD_REACTORS
330
6ED
102
}
330
18
100
AcDbEntity
  8
外形線
100
AcDbCircle
 10
589.2457188677648
 20
212.6979714098306
 30
0.0
 40
1.5
100
AcDbArc
 50
269.9999999999999
 51
0.0
  0
ARC
  5
6B6
102
{ACAD_REACTORS
330
6ED
102
}
330
18
100
AcDbEntity
  8
外形線
100
AcDbCircle
 10
536.2457188677649
 20
212.6979714098306
 30
0.0
 40
1.5
100
AcDbArc
 50
180.0
 51
269.9999999999999
  0
ARC
  5
6B7
102
{ACAD_REACTORS
330
6ED
102
}
330
18
100
AcDbEntity
  8
外形線
100
AcDbCircle
 10
536.2457188677649
 20
252.6979714098306
 30
0.0
 40
1.5
100
AcDbArc
 50
90.0
 51
179.9999999999998
  0
ARC
  5
6B8
102
{ACAD_REACTORS
330
6ED
102
}
330
18
100
AcDbEntity
  8
外形線
100
AcDbCircle
 10
589.2457188677649
 20
252.6979714098306
 30
0.0
 40
1.5
100
AcDbArc
 50
0.0
 51
90.0
  0
HATCH
  5
6ED
330
18
100
AcDbEntity
  8
文字
100
AcDbHatch
 10
0.0
 20
0.0
 30
0.0
210
0.0
220
0.0
230
1.0
  2
SOLID
 70
     1
 71
     1
 91
        2
 92
        7
 72
     1
 73
     1
 93
       12
 10
591.7457188677649
 20
252.6979714098304
 42
0.4142135623731117
 10
589.2457188677649
 20
255.1979714098306
 42
0.0
 10
562.7457188677649
 20
255.1979714098305
 42
0.0
 10
562.7457188677649
 20
254.1979714098306
 42
0.0
 10
589.2457188677649
 20
254.1979714098306
 42
-0.4142135623730951
 10
590.7457188677649
 20
252.6979714098306
 42
0.0
 10
590.7457188677648
 20
212.6979714098306
 42
-0.4142135623730952
 10
589.2457188677648
 20
211.1979714098306
 42
0.0
 10
562.745718867765
 20
211.1979714098306
 42
0.0
 10
562.745718867765
 20
210.1979714098306
 42
0.0
 10
589.2457188677648
 20
210.1979714098305
 42
0.4142135623730951
 10
591.7457188677648
 20
212.6979714098306
 42
0.0
 97
       11
330
6AC
330
6A7
330
34D
330
6B1
330
6B8
330
6B4
330
6B5
330
6B3
330
6AA
330
6AD
330
6A9
 92
        7
 72
     1
 73
     1
 93
       12
 10
534.7457188677649
 20
252.6979714098305
 42
-0.4142135623730999
 10
536.2457188677649
 20
254.1979714098306
 42
0.0
 10
562.7457188677649
 20
254.1979714098306
 42
0.0
 10
562.7457188677649
 20
255.1979714098306
 42
0.0
 10
536.2457188677649
 20
255.1979714098306
 42
0.4142135623730942
 10
533.7457188677649
 20
252.6979714098306
 42
0.0
 10
533.7457188677649
 20
212.6979714098306
 42
0.4142135623730948
 10
536.2457188677649
 20
210.1979714098306
 42
0.0
 10
562.745718867765
 20
210.1979714098306
 42
0.0
 10
562.745718867765
 20
211.1979714098306
 42
0.0
 10
536.2457188677649
 20
211.1979714098306
 42
-0.4142135623730948
 10
534.7457188677649
 20
212.6979714098306
 42
0.0
 97
       11
330
6B7
330
6B1
330
34D
330
6A7
330
6AB
330
6A8
330
6AE
330
6AA
330
6B3
330
6B6
330
6B2
 75
     0
 76
     1
 47
0.1580304871906944
 98
        2
 10
591.5121015548329
 20
248.7079680227225
 10
534.2577877619767
 20
244.1250843351883
450
        0
451
        0
460
0.0
461
0.0
452
        0
462
0.0
453
        0
470

  0
MTEXT
  5
E48
330
18
100
AcDbEntity
  8
DEFPOINTS
  6
Continuous
100
AcDbMText
 10
1308.384434970111
 20
144.4048386888276
 30
0.0
 40
1.0
 41
0.0
 71
     4
 72
     1
  1
\A1;
 73
     1
 44
1.0
  0
LINE
  5
E49
102
{ACAD_REACTORS
330
E85
102
}
330
18
100
AcDbEntity
  8
ROGO
 62
     4
100
AcDbLine
 10
546.2486037553511
 20
248.3633294252899
 30
0.0
 11
550.0887345713652
 21
248.3633294252899
 31
0.0
  0
LINE
  5
E4A
102
{ACAD_REACTORS
330
E84
330
E85
330
E93
102
}
330
18
100
AcDbEntity
  8
ROGO
 62
     4
100
AcDbLine
 10
543.8308059483147
 20
243.4768232570715
 30
0.0
 11
576.9075894727861
 21
243.4768232570715
 31
0.0
  0
LINE
  5
E4B
102
{ACAD_REACTORS
330
E85
102
}
330
18
100
AcDbEntity
  8
ROGO
 62
     4
100
AcDbLine
 10
546.2486037553511
 20
248.3633294252899
 30
0.0
 11
543.8308059483147
 21
243.4768232570714
 31
0.0
  0
SPLINE
  5
E4C
102
{ACAD_REACTORS
330
E85
102
}
330
18
100
AcDbEntity
  8
ROGO
 62
     4
100
AcDbSpline
210
0.0
220
0.0
230
1.0
 70
     8
 71
     3
 72
    18
 73
    14
 74
     0
 42
0.0000000001
 43
0.0000000001
 40
0.1087402787915014
 40
0.1087402787915014
 40
0.1087402787915014
 40
0.1087402787915014
 40
0.5992371417938475
 40
1.083176791562496
 40
1.448211145705696
 40
1.714037220764907
 40
2.164002567013297
 40
2.740236056362883
 40
3.395137510199602
 40
4.071816045172726
 40
4.784906178399433
 40
5.506895915094292
 40
6.060470601257719
 40
6.060470601257719
 40
6.060470601257719
 40
6.060470601257719
 10
550.0887345713652
 20
248.36332942529
 30
0.0
 10
550.2117606736687
 20
248.3182424204325
 30
0.0
 10
550.4536902347324
 20
248.2229216021466
 30
0.0
 10
550.7489584653541
 20
248.0053679978302
 30
0.0
 10
550.9099850089857
 20
247.7542201381524
 30
0.0
 10
551.0648745161338
 20
247.5067588909569
 30
0.0
 10
551.0865510199188
 20
247.1517338789742
 30
0.0
 10
551.0510434422851
 20
246.7028962152822
 30
0.0
 10
550.8218097289051
 20
246.2345804304812
 30
0.0
 10
550.4538761366034
 20
245.824973119313
 30
0.0
 10
549.9970609053132
 20
245.4971287693782
 30
0.0
 10
549.5153334869078
 20
245.2397793971958
 30
0.0
 10
549.1709945928151
 20
245.2372152097136
 30
0.0
 10
549.0215569855759
 20
245.2361023931005
 30
0.0
  0
LINE
  5
E4D
102
{ACAD_REACTORS
330
E85
102
}
330
18
100
AcDbEntity
  8
ROGO
 62
     4
100
AcDbLine
 10
549.0215569863121
 20
245.2361023931005
 30
0.0
 11
546.8982106484979
 21
245.2361023931005
 31
0.0
  0
LINE
  5
E4E
102
{ACAD_REACTORS
330
E85
102
}
330
18
100
AcDbEntity
  8
ROGO
 62
     4
100
AcDbLine
 10
547.7659317751736
 20
247.1540217619427
 30
0.0
 11
547.3896633463827
 21
246.3223576647158
 31
0.0
  0
SPLINE
  5
E4F
102
{ACAD_REACTORS
330
E85
102
}
330
18
100
AcDbEntity
  8
ROGO
 62
     4
100
AcDbSpline
210
0.0
220
0.0
230
1.0
 70
     8
 71
     3
 72
    15
 73
    11
 74
     9
 42
0.0000000001
 43
0.0000000001
 44
0.0000000001
 40
0.0
 40
0.0
 40
0.0
 40
0.0
 40
0.3666775141712361
 40
0.5338622919137399
 40
0.7236281444783966
 40
0.8529054663465613
 40
1.057358891676737
 40
1.179820908402638
 40
1.389925599509188
 40
1.459960541243854
 40
1.459960541243854
 40
1.459960541243854
 40
1.459960541243854
 10
548.7327812742277
 20
247.1540217619426
 30
0.0
 10
548.8704982378433
 20
247.1546525791472
 30
0.0
 10
549.0710065618875
 20
247.1555710142995
 30
0.0
 10
549.1806516547756
 20
246.9075416376081
 30
0.0
 10
549.1315034962468
 20
246.7478494111291
 30
0.0
 10
549.0697202553372
 20
246.583895267005
 30
0.0
 10
548.9605352756703
 20
246.4724859532925
 30
0.0
 10
548.8139930403125
 20
246.3651800031711
 30
0.0
 10
548.6755036249511
 20
246.3521901374154
 30
0.0
 10
548.5854318062193
 20
246.3283241615404
 30
0.0
 10
548.5629138407575
 20
246.3223576647156
 30
0.0
 11
548.7327812742277
 21
247.1540217619426
 31
0.0
 11
549.0895031775466
 21
247.069157852704
 31
0.0
 11
549.157450346289
 21
246.9164033694025
 31
0.0
 11
549.1234772503036
 21
246.7297033224053
 31
0.0
 11
549.0725171179398
 21
246.6108938494712
 31
0.0
 11
548.9366227804548
 21
246.4581393661695
 31
0.0
 11
548.8347025157271
 21
246.3902482387786
 31
0.0
 11
548.6308610095001
 21
246.3393304465634
 31
0.0
 11
548.5629138407575
 21
246.3223576647156
 31
0.0
  0
LINE
  5
E50
102
{ACAD_REACTORS
330
E85
102
}
330
18
100
AcDbEntity
  8
ROGO
 62
     4
100
AcDbLine
 10
548.7327812742278
 20
247.1540217619427
 30
0.0
 11
547.7659317751736
 21
247.1540217619427
 31
0.0
  0
LINE
  5
E51
102
{ACAD_REACTORS
330
E85
102
}
330
18
100
AcDbEntity
  8
ROGO
 62
     4
100
AcDbLine
 10
548.5629138407578
 20
246.3223576647157
 30
0.0
 11
547.389663346383
 21
246.3223576647158
 31
0.0
  0
LINE
  5
E52
102
{ACAD_REACTORS
330
E84
330
E85
102
}
330
18
100
AcDbEntity
  8
ROGO
 62
     4
100
AcDbLine
 10
546.8982106484979
 20
245.2361023931005
 30
0.0
 11
546.1022628631782
 21
243.4768232570715
 31
0.0
  0
LINE
  5
E53
102
{ACAD_REACTORS
330
E81
102
}
330
18
100
AcDbEntity
  8
ROGO
 62
     4
100
AcDbLine
 10
552.3573885742409
 20
248.3633294252899
 30
0.0
 11
550.810065722239
 21
245.2361023931005
 31
0.0
  0
LINE
  5
E54
102
{ACAD_REACTORS
330
E81
102
}
330
18
100
AcDbEntity
  8
ROGO
 62
     4
100
AcDbLine
 10
556.5870932352464
 20
248.3633294252899
 30
0.0
 11
556.2326477285973
 21
247.6469750016494
 31
0.0
  0
LINE
  5
E55
102
{ACAD_REACTORS
330
E81
102
}
330
18
100
AcDbEntity
  8
ROGO
 62
     4
100
AcDbLine
 10
550.810065722239
 20
245.2361023931005
 30
0.0
 11
555.0397703832446
 21
245.2361023931005
 31
0.0
  0
LINE
  5
E56
102
{ACAD_REACTORS
330
E81
102
}
330
18
100
AcDbEntity
  8
ROGO
 62
     4
100
AcDbLine
 10
554.0096218410375
 20
247.6469750016494
 30
0.0
 11
553.7324895002625
 21
247.0868748606581
 31
0.0
  0
LINE
  5
E57
102
{ACAD_REACTORS
330
E81
102
}
330
18
100
AcDbEntity
  8
ROGO
 62
     4
100
AcDbLine
 10
554.0096218410375
 20
247.6469750016494
 30
0.0
 11
556.2326477285973
 21
247.6469750016494
 31
0.0
  0
LINE
  5
E58
102
{ACAD_REACTORS
330
E81
102
}
330
18
100
AcDbEntity
  8
ROGO
 62
     4
100
AcDbLine
 10
553.7324895002625
 20
247.0868748606581
 30
0.0
 11
555.9555153878224
 21
247.0868748606581
 31
0.0
  0
LINE
  5
E59
102
{ACAD_REACTORS
330
E81
102
}
330
18
100
AcDbEntity
  8
ROGO
 62
     4
100
AcDbLine
 10
553.1711721733305
 20
245.952420783316
 30
0.0
 11
555.3941980608904
 21
245.952420783316
 31
0.0
  0
LINE
  5
E5A
102
{ACAD_REACTORS
330
E81
102
}
330
18
100
AcDbEntity
  8
ROGO
 62
     4
100
AcDbLine
 10
553.4483162465567
 20
246.5125446362547
 30
0.0
 11
555.6713421341163
 21
246.512544636255
 31
0.0
  0
LINE
  5
E5B
102
{ACAD_REACTORS
330
E81
102
}
330
18
100
AcDbEntity
  8
ROGO
 62
     4
100
AcDbLine
 10
555.9555153878224
 20
247.0868748606581
 30
0.0
 11
555.6713421341163
 21
246.5125446362547
 31
0.0
  0
LINE
  5
E5C
102
{ACAD_REACTORS
330
E81
102
}
330
18
100
AcDbEntity
  8
ROGO
 62
     4
100
AcDbLine
 10
555.3941980608904
 20
245.952420783316
 30
0.0
 11
555.0397703832446
 21
245.2361023931005
 31
0.0
  0
LINE
  5
E5D
102
{ACAD_REACTORS
330
E81
102
}
330
18
100
AcDbEntity
  8
ROGO
 62
     4
100
AcDbLine
 10
553.4483162465567
 20
246.5125446362547
 30
0.0
 11
553.1711721733305
 21
245.952420783316
 31
0.0
  0
LINE
  5
E5E
102
{ACAD_REACTORS
330
E89
102
}
330
18
100
AcDbEntity
  8
ROGO
 62
     4
100
AcDbLine
 10
557.8123505062391
 20
248.3633294252899
 30
0.0
 11
555.5572463163786
 21
245.2361023931005
 31
0.0
  0
LINE
  5
E5F
102
{ACAD_REACTORS
330
E89
102
}
330
18
100
AcDbEntity
  8
ROGO
 62
     4
100
AcDbLine
 10
558.9414760242755
 20
247.5274089295997
 30
0.0
 11
558.1713849432548
 21
246.4594983396396
 31
0.0
  0
LINE
  5
E60
102
{ACAD_REACTORS
330
E89
102
}
330
18
100
AcDbEntity
  8
ROGO
 62
     4
100
AcDbLine
 10
557.7185282347565
 20
245.8315070712574
 30
0.0
 11
559.6948628283924
 21
245.8315070712574
 31
0.0
  0
LINE
  5
E61
102
{ACAD_REACTORS
330
E89
102
}
330
18
100
AcDbEntity
  8
ROGO
 62
     4
100
AcDbLine
 10
558.1713849432551
 20
246.4594983396396
 30
0.0
 11
559.4158842233674
 21
246.4594983396396
 31
0.0
  0
LINE
  5
E62
102
{ACAD_REACTORS
330
E89
102
}
330
18
100
AcDbEntity
  8
ROGO
 62
     4
100
AcDbLine
 10
557.7185282347565
 20
245.8315070712574
 30
0.0
 11
557.2891703497827
 21
245.2361023931006
 31
0.0
  0
LINE
  5
E63
102
{ACAD_REACTORS
330
E89
102
}
330
18
100
AcDbEntity
  8
ROGO
 62
     4
100
AcDbLine
 10
555.5572463163786
 20
245.2361023931005
 30
0.0
 11
557.2891703497827
 21
245.2361023931005
 31
0.0
  0
LINE
  5
E64
102
{ACAD_REACTORS
330
E89
102
}
330
18
100
AcDbEntity
  8
ROGO
 62
     4
100
AcDbLine
 10
557.8123505062391
 20
248.3633294252899
 30
0.0
 11
560.3138643068781
 21
248.36332942529
 31
0.0
  0
LINE
  5
E65
102
{ACAD_REACTORS
330
E89
102
}
330
18
100
AcDbEntity
  8
ROGO
 62
     4
100
AcDbLine
 10
561.7031024682372
 20
245.2361023931006
 30
0.0
 11
559.959365178824
 21
245.2361023931005
 31
0.0
  0
LINE
  5
E66
102
{ACAD_REACTORS
330
E82
102
}
330
18
100
AcDbEntity
  8
ROGO
 62
     4
100
AcDbLine
 10
562.559528541046
 20
245.2361023931005
 30
0.0
 11
565.2530503508672
 21
245.2361023931005
 31
0.0
  0
LINE
  5
E67
102
{ACAD_REACTORS
330
E82
102
}
330
18
100
AcDbEntity
  8
ROGO
 62
     4
100
AcDbLine
 10
566.812386749148
 20
248.3633294252899
 30
0.0
 11
566.2322125090586
 21
247.1997982148413
 31
0.0
  0
LINE
  5
E68
102
{ACAD_REACTORS
330
E82
102
}
330
18
100
AcDbEntity
  8
ROGO
 62
     4
100
AcDbLine
 10
564.2751918656692
 20
247.1997982148413
 30
0.0
 11
566.2322125090586
 21
247.1997982148415
 31
0.0
  0
LINE
  5
E69
102
{ACAD_REACTORS
330
E82
102
}
330
18
100
AcDbEntity
  8
ROGO
 62
     4
100
AcDbLine
 10
563.8335357572298
 20
246.3996212820716
 30
0.0
 11
565.8332184470705
 21
246.3996212820716
 31
0.0
  0
SPLINE
  5
E6A
102
{ACAD_REACTORS
330
E82
102
}
330
18
100
AcDbEntity
  8
ROGO
 62
     4
100
AcDbSpline
210
0.0
220
0.0
230
1.0
 70
     8
 71
     3
 72
    26
 73
    22
 74
    20
 42
0.0000000001
 43
0.0000000001
 44
0.0000000001
 40
0.0
 40
0.0
 40
0.0
 40
0.0
 40
0.5673148112186521
 40
0.9470881489316042
 40
1.22093565298321
 40
1.425408723407154
 40
1.690621027351398
 40
1.88420015439018
 40
2.233758938526259
 40
2.518294763343134
 40
2.711824716165209
 40
2.901590743600066
 40
3.24104527389879
 40
3.48108014239314
 40
3.610357464261409
 40
3.793992081180213
 40
3.926598758429083
 40
4.118702053391892
 40
4.227415901780283
 40
4.463989430320165
 40
4.572010958546696
 40
4.572010958546696
 40
4.572010958546696
 40
4.572010958546696
 10
563.6806553601383
 20
248.36332942529
 30
0.0
 10
563.4880999477123
 20
248.3518412391868
 30
0.0
 10
563.1666435966436
 20
248.3326626020422
 30
0.0
 10
562.8136864786808
 20
248.1182449433584
 30
0.0
 10
562.555089430819
 20
247.9935919391612
 30
0.0
 10
562.3706583298983
 20
247.8241367996925
 30
0.0
 10
562.2354695852952
 20
247.649102019085
 30
0.0
 10
562.0650387937173
 20
247.4405493613788
 30
0.0
 10
561.9260573532499
 20
247.1976982307928
 30
0.0
 10
561.8552825548468
 20
246.9300339478841
 30
0.0
 10
561.7925909101453
 20
246.7167039613685
 30
0.0
 10
561.7460977369195
 20
246.4789755315277
 30
0.0
 10
561.757926916393
 20
246.2221451988117
 30
0.0
 10
561.7748668427766
 20
245.9836143341308
 30
0.0
 10
561.8504994948368
 20
245.8133390097171
 30
0.0
 10
561.9366316886817
 20
245.6921147122681
 30
0.0
 10
562.0420993804706
 20
245.5585995881329
 30
0.0
 10
562.1575040991785
 20
245.470172953757
 30
0.0
 10
562.2529532215375
 20
245.3099821634581
 30
0.0
 10
562.4200336903138
 20
245.2895406633124
 30
0.0
 10
562.5262366833116
 20
245.248855977051
 30
0.0
 10
562.559528541046
 20
245.2361023931005
 30
0.0
 11
563.6806553601383
 21
248.36332942529
 31
0.0
 11
563.120091950592
 21
248.2760668393443
 31
0.0
 11
562.7803561068803
 21
248.1063395741949
 31
0.0
 11
562.5425415046676
 21
247.970557872741
 31
0.0
 11
562.3896611075757
 21
247.8347756179592
 31
0.0
 11
562.2197936741056
 21
247.6311027891143
 31
0.0
 11
562.1008863729993
 21
247.4783483058127
 31
0.0
 11
561.9310179627575
 21
247.1728387858815
 31
0.0
 11
561.8460847344082
 21
246.9012748296458
 31
0.0
 11
561.7951246020444
 21
246.7145747826485
 31
0.0
 11
561.7611505292875
 21
246.5278747356514
 31
0.0
 11
561.7611505292875
 21
246.1884202053527
 31
0.0
 11
561.7951246020444
 21
245.9508018128125
 31
0.0
 11
561.8460847344082
 21
245.8319923398783
 31
0.0
 11
561.9480049991359
 21
245.6792378565767
 31
0.0
 11
562.0329392042569
 21
245.5774011654902
 31
0.0
 11
562.1688325649699
 21
245.4416194640363
 31
0.0
 11
562.2367797337125
 21
245.3567555547976
 31
0.0
 11
562.4576082763183
 21
245.2718921988869
 31
0.0
 11
562.559528541046
 21
245.2361023931005
 31
0.0
  0
SPLINE
  5
E6B
102
{ACAD_REACTORS
330
E82
102
}
330
18
100
AcDbEntity
  8
ROGO
 62
     4
100
AcDbSpline
210
0.0
220
0.0
230
1.0
 70
     8
 71
     3
 72
    16
 73
    12
 74
    10
 42
0.0000000001
 43
0.0000000001
 44
0.0000000001
 40
0.0
 40
0.0
 40
0.0
 40
0.0
 40
0.2990916165509201
 40
0.4451763023768462
 40
0.5172152710216766
 40
0.5931326129016148
 40
0.7018460293529105
 40
0.8008350094558752
 40
0.9040782095151982
 40
1.077172894542592
 40
1.24850046018799
 40
1.24850046018799
 40
1.24850046018799
 40
1.24850046018799
 10
564.2751918656694
 20
247.1997982148413
 30
0.0
 10
564.1739058800353
 20
247.1843564830205
 30
0.0
 10
564.0231489946131
 20
247.1613725787789
 30
0.0
 10
563.8868194417496
 20
247.0534556046481
 30
0.0
 10
563.8099390395042
 20
246.9892521883764
 30
0.0
 10
563.7837839841481
 20
246.9042286401665
 30
0.0
 10
563.713539718941
 20
246.8389436068282
 30
0.0
 10
563.6556384638975
 20
246.7492209563908
 30
0.0
 10
563.6418129566948
 20
246.625985442728
 30
0.0
 10
563.6519611955188
 20
246.4530431804883
 30
0.0
 10
563.7732182803122
 20
246.4173675681939
 30
0.0
 10
563.8335357572298
 20
246.3996212820716
 30
0.0
 11
564.2751918656694
 21
247.1997982148413
 31
0.0
 11
563.9864171310932
 21
247.1219204403383
 31
0.0
 11
563.8675098299868
 21
247.0370570844275
 31
0.0
 11
563.8165496976228
 21
246.9861387388843
 31
0.0
 11
563.7825756248658
 21
246.9182476114933
 31
0.0
 11
563.7146284561234
 21
246.8333842555828
 31
0.0
 11
563.6636683237595
 21
246.748520346344
 31
0.0
 11
563.646681287381
 21
246.6466842085856
 31
0.0
 11
563.680655360138
 21
246.4769563901084
 31
0.0
 11
563.8335357572298
 21
246.3996212820716
 31
0.0
  0
LINE
  5
E6C
102
{ACAD_REACTORS
330
E82
102
}
330
18
100
AcDbEntity
  8
ROGO
 62
     4
100
AcDbLine
 10
565.8332184470704
 20
246.3996212820716
 30
0.0
 11
565.2530503508672
 21
245.2361023931005
 31
0.0
  0
LINE
  5
E6D
102
{ACAD_REACTORS
330
E82
102
}
330
18
100
AcDbEntity
  8
ROGO
 62
     4
100
AcDbLine
 10
563.6806553601391
 20
248.36332942529
 30
0.0
 11
566.8123867491482
 21
248.36332942529
 31
0.0
  0
LINE
  5
E6E
102
{ACAD_REACTORS
330
E83
102
}
330
18
100
AcDbEntity
  8
ROGO
 62
     4
100
AcDbLine
 10
572.6357322066288
 20
245.2361023931005
 30
0.0
 11
575.3292540164503
 21
245.2361023931005
 31
0.0
  0
LINE
  5
E6F
102
{ACAD_REACTORS
330
E83
102
}
330
18
100
AcDbEntity
  8
ROGO
 62
     4
100
AcDbLine
 10
573.756859025722
 20
248.3633294252899
 30
0.0
 11
576.8885904147311
 21
248.3633294252899
 31
0.0
  0
SPLINE
  5
E70
102
{ACAD_REACTORS
330
E83
102
}
330
18
100
AcDbEntity
  8
ROGO
 62
     4
100
AcDbSpline
210
0.0
220
0.0
230
1.0
 70
     8
 71
     3
 72
    16
 73
    12
 74
    10
 42
0.0000000001
 43
0.0000000001
 44
0.0000000001
 40
0.0
 40
0.0
 40
0.0
 40
0.0
 40
0.2990916165512495
 40
0.4451763023771491
 40
0.5172152710217384
 40
0.5931326129017784
 40
0.7018460293531627
 40
0.8008350094560299
 40
0.9040782095153529
 40
1.077172894542836
 40
1.248500460188462
 40
1.248500460188462
 40
1.248500460188462
 40
1.248500460188462
 10
574.3513955312525
 20
247.1997982148413
 30
0.0
 10
574.2501095456184
 20
247.1843564830205
 30
0.0
 10
574.099352660196
 20
247.161372578779
 30
0.0
 10
573.9630231073324
 20
247.053455604648
 30
0.0
 10
573.8861427050872
 20
246.9892521883763
 30
0.0
 10
573.859987649731
 20
246.9042286401667
 30
0.0
 10
573.7897433845239
 20
246.8389436068282
 30
0.0
 10
573.73184212948
 20
246.7492209563907
 30
0.0
 10
573.7180166222778
 20
246.625985442728
 30
0.0
 10
573.7281648611014
 20
246.4530431804881
 30
0.0
 10
573.8494219458949
 20
246.4173675681937
 30
0.0
 10
573.9097394228127
 20
246.3996212820715
 30
0.0
 11
574.3513955312525
 21
247.1997982148413
 31
0.0
 11
574.062620796676
 21
247.1219204403383
 31
0.0
 11
573.9437134955696
 21
247.0370570844274
 31
0.0
 11
573.8927533632059
 21
246.9861387388843
 31
0.0
 11
573.8587792904487
 21
246.9182476114933
 31
0.0
 11
573.7908321217063
 21
246.8333842555826
 31
0.0
 11
573.7398719893424
 21
246.748520346344
 31
0.0
 11
573.7228849529639
 21
246.6466842085856
 31
0.0
 11
573.7568590257208
 21
246.4769563901082
 31
0.0
 11
573.9097394228127
 21
246.3996212820715
 31
0.0
  0
SPLINE
  5
E71
102
{ACAD_REACTORS
330
E83
102
}
330
18
100
AcDbEntity
  8
ROGO
 62
     4
100
AcDbSpline
210
0.0
220
0.0
230
1.0
 70
     8
 71
     3
 72
    26
 73
    22
 74
    20
 42
0.0000000001
 43
0.0000000001
 44
0.0000000001
 40
0.0
 40
0.0
 40
0.0
 40
0.0
 40
0.5673148112188768
 40
0.9470881489318291
 40
1.220935652983336
 40
1.42540872340728
 40
1.690621027351422
 40
1.884200154390299
 40
2.233758938526477
 40
2.518294763343427
 40
2.711824716165283
 40
2.90159074360018
 40
3.241045273898904
 40
3.481080142393286
 40
3.610357464261555
 40
3.793992081180469
 40
3.926598758429295
 40
4.118702053392024
 40
4.227415901780397
 40
4.4639894303203
 40
4.572010958546831
 40
4.572010958546831
 40
4.572010958546831
 40
4.572010958546831
 10
573.7568590257212
 20
248.36332942529
 30
0.0
 10
573.564303613295
 20
248.3518412391868
 30
0.0
 10
573.2428472622266
 20
248.3326626020423
 30
0.0
 10
572.8898901442632
 20
248.1182449433583
 30
0.0
 10
572.6312930964019
 20
247.9935919391611
 30
0.0
 10
572.4468619954811
 20
247.8241367996926
 30
0.0
 10
572.3116732508783
 20
247.6491020190849
 30
0.0
 10
572.1412424593
 20
247.4405493613789
 30
0.0
 10
572.002261018833
 20
247.1976982307928
 30
0.0
 10
571.9314862204297
 20
246.930033947884
 30
0.0
 10
571.8687945757282
 20
246.7167039613684
 30
0.0
 10
571.8223014025021
 20
246.4789755315277
 30
0.0
 10
571.8341305819754
 20
246.2221451988116
 30
0.0
 10
571.8510705083598
 20
245.9836143341308
 30
0.0
 10
571.9267031604196
 20
245.813339009717
 30
0.0
 10
572.0128353542649
 20
245.6921147122681
 30
0.0
 10
572.1183030460537
 20
245.5585995881329
 30
0.0
 10
572.2337077647613
 20
245.4701729537568
 30
0.0
 10
572.3291568871208
 20
245.3099821634583
 30
0.0
 10
572.496237355897
 20
245.2895406633123
 30
0.0
 10
572.6024403488946
 20
245.2488559770509
 30
0.0
 10
572.635732206629
 20
245.2361023931004
 30
0.0
 11
573.7568590257212
 21
248.36332942529
 31
0.0
 11
573.1962956161748
 21
248.2760668393443
 31
0.0
 11
572.856559772463
 21
248.1063395741949
 31
0.0
 11
572.6187451702505
 21
247.970557872741
 31
0.0
 11
572.4658647731586
 21
247.8347756179592
 31
0.0
 11
572.2959973396887
 21
247.6311027891142
 31
0.0
 11
572.1770900385823
 21
247.4783483058127
 31
0.0
 11
572.0072216283404
 21
247.1728387858814
 31
0.0
 11
571.9222883999911
 21
246.9012748296456
 31
0.0
 11
571.8713282676274
 21
246.7145747826485
 31
0.0
 11
571.8373541948702
 21
246.5278747356514
 31
0.0
 11
571.8373541948702
 21
246.1884202053527
 31
0.0
 11
571.8713282676274
 21
245.9508018128125
 31
0.0
 11
571.9222883999911
 21
245.8319923398783
 31
0.0
 11
572.024208664719
 21
245.6792378565766
 31
0.0
 11
572.10914286984
 21
245.5774011654902
 31
0.0
 11
572.2450362305528
 21
245.4416194640363
 31
0.0
 11
572.3129833992954
 21
245.3567555547976
 31
0.0
 11
572.5338119419013
 21
245.2718921988869
 31
0.0
 11
572.635732206629
 21
245.2361023931004
 31
0.0
  0
LINE
  5
E72
102
{ACAD_REACTORS
330
E83
102
}
330
18
100
AcDbEntity
  8
ROGO
 62
     4
100
AcDbLine
 10
575.9094221126534
 20
246.3996212820716
 30
0.0
 11
575.3292540164503
 21
245.2361023931004
 31
0.0
  0
LINE
  5
E73
102
{ACAD_REACTORS
330
E83
102
}
330
18
100
AcDbEntity
  8
ROGO
 62
     4
100
AcDbLine
 10
573.9097394228126
 20
246.3996212820716
 30
0.0
 11
575.9094221126534
 21
246.3996212820716
 31
0.0
  0
LINE
  5
E74
102
{ACAD_REACTORS
330
E83
102
}
330
18
100
AcDbEntity
  8
ROGO
 62
     4
100
AcDbLine
 10
574.3513955312523
 20
247.1997982148413
 30
0.0
 11
576.3084161746413
 21
247.1997982148413
 31
0.0
  0
LINE
  5
E75
102
{ACAD_REACTORS
330
E83
102
}
330
18
100
AcDbEntity
  8
ROGO
 62
     4
100
AcDbLine
 10
576.8885904147311
 20
248.3633294252899
 30
0.0
 11
576.3084161746413
 21
247.1997982148413
 31
0.0
  0
LINE
  5
E76
102
{ACAD_REACTORS
330
E93
102
}
330
18
100
AcDbEntity
  8
ROGO
 62
     4
100
AcDbLine
 10
577.5435617379734
 20
248.3633294252899
 30
0.0
 11
579.3441592677178
 21
248.3633294252899
 31
0.0
  0
LINE
  5
E77
102
{ACAD_REACTORS
330
E84
330
E93
102
}
330
18
100
AcDbEntity
  8
ROGO
 62
     4
100
AcDbLine
 10
577.5435617379734
 20
248.3633294252899
 30
0.0
 11
575.1069919430419
 21
243.4768232570715
 31
0.0
  0
LINE
  5
E78
102
{ACAD_REACTORS
330
E93
102
}
330
18
100
AcDbEntity
  8
ROGO
 62
     4
100
AcDbLine
 10
579.3441592677178
 20
248.3633294252899
 30
0.0
 11
578.9048622285227
 21
247.4823254433102
 31
0.0
  0
LINE
  5
E79
102
{ACAD_REACTORS
330
E93
102
}
330
18
100
AcDbEntity
  8
ROGO
 62
     4
100
AcDbLine
 10
577.5435617379734
 20
244.7522566155241
 30
0.0
 11
578.1795340031607
 21
243.4768232570715
 31
0.0
  0
LINE
  5
E7A
102
{ACAD_REACTORS
330
E93
102
}
330
18
100
AcDbEntity
  8
ROGO
 62
     4
100
AcDbLine
 10
578.7618072398134
 20
245.9200763411807
 30
0.0
 11
579.9800921372791
 21
243.4768232570715
 31
0.0
  0
LINE
  5
E7B
102
{ACAD_REACTORS
330
E93
102
}
330
18
100
AcDbEntity
  8
ROGO
 62
     4
100
AcDbLine
 10
577.5435617379734
 20
244.752256615524
 30
0.0
 11
576.9075894727861
 21
243.4768232570715
 31
0.0
  0
LINE
  5
E7C
102
{ACAD_REACTORS
330
E93
102
}
330
18
100
AcDbEntity
  8
ROGO
 62
     4
100
AcDbLine
 10
578.7618072398134
 20
245.9200763411807
 30
0.0
 11
581.7217682741939
 21
248.3633294252899
 31
0.0
  0
LINE
  5
E7D
102
{ACAD_REACTORS
330
E93
102
}
330
18
100
AcDbEntity
  8
ROGO
 62
     4
100
AcDbLine
 10
579.9212101400756
 20
248.3633294252899
 30
0.0
 11
581.7217682741939
 21
248.3633294252899
 31
0.0
  0
LINE
  5
E7E
102
{ACAD_REACTORS
330
E93
102
}
330
18
100
AcDbEntity
  8
ROGO
 62
     4
100
AcDbLine
 10
578.1795340031607
 20
243.4768232570715
 30
0.0
 11
579.9800921372791
 21
243.4768232570715
 31
0.0
  0
LINE
  5
E7F
102
{ACAD_REACTORS
330
E81
102
}
330
18
100
AcDbEntity
  8
ROGO
 62
     4
100
AcDbLine
 10
552.3573885742409
 20
248.3633294252899
 30
0.0
 11
556.5870932352464
 21
248.36332942529
 31
0.0
  0
LINE
  5
E80
102
{ACAD_REACTORS
330
E84
102
}
330
18
100
AcDbEntity
  8
ROGO
 62
     4
100
AcDbLine
 10
546.2898938480308
 20
243.9666225274056
 30
0.0
 11
575.3512216782743
 21
243.9666225274056
 31
0.0
  0
HATCH
  5
E81
330
18
100
AcDbEntity
  8
ROGO
 62
     4
100
AcDbHatch
 10
0.0
 20
0.0
 30
0.0
210
0.0
220
0.0
230
1.0
  2
SOLID
 70
     1
 71
     1
 91
        1
 92
        1
 93
       12
 72
     1
 10
552.3573885742409
 20
248.3633294252899
 11
556.5870932352464
 21
248.36332942529
 72
     1
 10
556.5870932352464
 20
248.3633294252899
 11
556.2326477285973
 21
247.6469750016494
 72
     1
 10
556.2326477285973
 20
247.6469750016494
 11
554.0096218410375
 21
247.6469750016494
 72
     1
 10
554.0096218410375
 20
247.6469750016494
 11
553.7324895002625
 21
247.0868748606581
 72
     1
 10
553.7324895002625
 20
247.0868748606581
 11
555.9555153878224
 21
247.0868748606581
 72
     1
 10
555.9555153878224
 20
247.0868748606581
 11
555.6713421341163
 21
246.5125446362547
 72
     1
 10
555.6713421341163
 20
246.512544636255
 11
553.4483162465567
 21
246.5125446362547
 72
     1
 10
553.4483162465567
 20
246.5125446362547
 11
553.1711721733305
 21
245.952420783316
 72
     1
 10
553.1711721733305
 20
245.952420783316
 11
555.3941980608904
 21
245.952420783316
 72
     1
 10
555.3941980608904
 20
245.952420783316
 11
555.0397703832446
 21
245.2361023931005
 72
     1
 10
555.0397703832446
 20
245.2361023931005
 11
550.810065722239
 21
245.2361023931005
 72
     1
 10
550.810065722239
 20
245.2361023931005
 11
552.3573885742409
 21
248.3633294252899
 97
       12
330
E7F
330
E54
330
E57
330
E56
330
E58
330
E5B
330
E5A
330
E5D
330
E59
330
E5C
330
E55
330
E53
 75
     0
 76
     1
 98
        1
 10
379.3426344923653
 20
32.12957348150741
450
        0
451
        0
460
0.0
461
0.0
452
        0
462
0.0
453
        0
470

  0
HATCH
  5
E82
330
18
100
AcDbEntity
  8
ROGO
 62
     4
100
AcDbHatch
 10
0.0
 20
0.0
 30
0.0
210
0.0
220
0.0
230
1.0
  2
SOLID
 70
     1
 71
     1
 91
        1
 92
        5
 93
        8
 72
     1
 10
566.2322125090586
 20
247.1997982148414
 11
566.8123867491483
 21
248.36332942529
 72
     1
 10
566.8123867491483
 20
248.36332942529
 11
563.6806553601388
 21
248.36332942529
 72
     4
 94
        3
 73
     0
 74
     0
 95
       26
 96
       22
 40
0.0
 40
0.0
 40
0.0
 40
0.0
 40
0.6806272418834842
 40
1.136254477903046
 40
1.46479881993938
 40
1.710112249467339
 40
2.028296642642858
 40
2.26054023071286
 40
2.679918019583943
 40
3.021285510494669
 40
3.253470102552404
 40
3.481138982867296
 40
3.88839434820105
 40
4.176372499429433
 40
4.331470983165859
 40
4.55178379777286
 40
4.710876624553383
 40
4.941349605730123
 40
5.071777377612479
 40
5.355602839328967
 40
5.485200010717811
 40
5.485200010717811
 40
5.485200010717811
 40
5.485200010717811
 10
563.6806553601383
 20
248.36332942529
 10
563.488099947712
 20
248.3518412391868
 10
563.1666435966439
 20
248.3326626020422
 10
562.8136864786807
 20
248.1182449433582
 10
562.5550894308187
 20
247.9935919391613
 10
562.3706583298987
 20
247.8241367996925
 10
562.2354695852952
 20
247.6491020190851
 10
562.0650387937176
 20
247.4405493613788
 10
561.9260573532502
 20
247.1976982307928
 10
561.8552825548468
 20
246.9300339478841
 10
561.7925909101456
 20
246.7167039613684
 10
561.746097736919
 20
246.4789755315277
 10
561.7579269163926
 20
246.2221451988116
 10
561.7748668427768
 20
245.9836143341309
 10
561.8504994948368
 20
245.8133390097171
 10
561.9366316886817
 20
245.6921147122681
 10
562.0420993804707
 20
245.558599588133
 10
562.1575040991785
 20
245.4701729537569
 10
562.2529532215377
 20
245.3099821634581
 10
562.4200336903141
 20
245.2895406633124
 10
562.5262366833116
 20
245.248855977051
 10
562.559528541046
 20
245.2361023931005
 72
     1
 10
562.5595285410461
 20
245.2361023931005
 11
565.2530503508672
 21
245.2361023931005
 72
     1
 10
565.2530503508672
 20
245.2361023931005
 11
565.8332184470703
 21
246.3996212820716
 72
     1
 10
565.8332184470703
 20
246.3996212820716
 11
563.8335357572299
 21
246.3996212820716
 72
     4
 94
        3
 73
     0
 74
     0
 95
       16
 96
       12
 40
0.0
 40
0.0
 40
0.0
 40
0.0
 40
0.2055476186376435
 40
0.413215311645417
 40
0.5370797571173976
 40
0.655840267458388
 40
0.7862675211309036
 40
0.8773481874435923
 40
0.9637758349635053
 40
1.139038695775164
 40
1.497869274526411
 40
1.497869274526411
 40
1.497869274526411
 40
1.497869274526411
 10
563.8335357572298
 20
246.3996212820716
 10
563.7732182803123
 20
246.417367568194
 10
563.6519611955187
 20
246.4530431804882
 10
563.6418129566947
 20
246.625985442728
 10
563.6556384638973
 20
246.7492209563908
 10
563.7135397189413
 20
246.8389436068282
 10
563.7837839841481
 20
246.9042286401665
 10
563.8099390395043
 20
246.9892521883765
 10
563.8868194417494
 20
247.053455604648
 10
564.0231489946131
 20
247.161372578779
 10
564.1739058800353
 20
247.1843564830205
 10
564.2751918656694
 20
247.1997982148413
 72
     1
 10
564.2751918656695
 20
247.1997982148413
 11
566.2322125090586
 21
247.1997982148414
 97
        8
330
E6D
330
E6A
330
E66
330
E6C
330
E69
330
E6B
330
E68
330
E67
 75
     0
 76
     1
 47
0.0514683685270805
 98
        1
 10
564.7759377772096
 20
247.6671720255206
450
        0
451
        0
460
0.0
461
0.0
452
        0
462
0.0
453
        0
470

  0
HATCH
  5
E83
330
18
100
AcDbEntity
  8
ROGO
 62
     4
100
AcDbHatch
 10
0.0
 20
0.0
 30
0.0
210
0.0
220
0.0
230
1.0
  2
SOLID
 70
     1
 71
     1
 91
        1
 92
        5
 93
        8
 72
     4
 94
        3
 73
     0
 74
     0
 95
       26
 96
       22
 40
0.0
 40
0.0
 40
0.0
 40
0.0
 40
0.680627241883428
 40
1.136254477903041
 40
1.464798819939375
 40
1.710112249467291
 40
2.028296642642898
 40
2.260540230712845
 40
2.679918019584077
 40
3.021285510494803
 40
3.253470102552373
 40
3.481138982867256
 40
3.888394348201009
 40
4.176372499429384
 40
4.331470983165915
 40
4.5517837977729
 40
4.710876624553423
 40
4.941349605730163
 40
5.071777377612483
 40
5.355602839329045
 40
5.485200010717817
 40
5.485200010717817
 40
5.485200010717817
 40
5.485200010717817
 10
573.7568590257212
 20
248.36332942529
 10
573.5643036132948
 20
248.3518412391866
 10
573.2428472622267
 20
248.3326626020422
 10
572.8898901442636
 20
248.1182449433582
 10
572.6312930964017
 20
247.9935919391612
 10
572.4468619954812
 20
247.8241367996925
 10
572.3116732508783
 20
247.6491020190849
 10
572.1412424593002
 20
247.4405493613789
 10
572.0022610188331
 20
247.1976982307926
 10
571.9314862204294
 20
246.9300339478841
 10
571.8687945757284
 20
246.7167039613684
 10
571.822301402502
 20
246.4789755315277
 10
571.8341305819757
 20
246.2221451988116
 10
571.8510705083598
 20
245.9836143341308
 10
571.9267031604198
 20
245.813339009717
 10
572.012835354265
 20
245.692114712268
 10
572.1183030460537
 20
245.5585995881328
 10
572.2337077647615
 20
245.4701729537569
 10
572.3291568871205
 20
245.3099821634581
 10
572.4962373558968
 20
245.2895406633123
 10
572.6024403488946
 20
245.2488559770509
 10
572.635732206629
 20
245.2361023931004
 72
     1
 10
572.635732206629
 20
245.2361023931005
 11
575.3292540164502
 21
245.2361023931005
 72
     1
 10
575.3292540164502
 20
245.2361023931005
 11
575.9094221126531
 21
246.3996212820716
 72
     1
 10
575.9094221126531
 20
246.3996212820716
 11
573.9097394228125
 21
246.3996212820716
 72
     4
 94
        3
 73
     0
 74
     0
 95
       16
 96
       12
 40
0.0
 40
0.0
 40
0.0
 40
0.0
 40
0.2055476186376692
 40
0.4132153116455541
 40
0.5370797571174224
 40
0.6558402674583835
 40
0.7862675211309879
 40
0.877348187443702
 40
0.9637758349634946
 40
1.139038695775252
 40
1.497869274526499
 40
1.497869274526499
 40
1.497869274526499
 40
1.497869274526499
 10
573.9097394228127
 20
246.3996212820715
 10
573.8494219458953
 20
246.4173675681938
 10
573.7281648611015
 20
246.4530431804882
 10
573.7180166222777
 20
246.625985442728
 10
573.7318421294803
 20
246.7492209563907
 10
573.789743384524
 20
246.8389436068282
 10
573.859987649731
 20
246.9042286401666
 10
573.8861427050871
 20
246.9892521883765
 10
573.9630231073324
 20
247.0534556046479
 10
574.0993526601958
 20
247.161372578779
 10
574.2501095456183
 20
247.1843564830206
 10
574.3513955312525
 20
247.1997982148413
 72
     1
 10
574.3513955312526
 20
247.1997982148413
 11
576.3084161746412
 21
247.1997982148414
 72
     1
 10
576.3084161746412
 20
247.1997982148414
 11
576.8885904147311
 21
248.3633294252899
 72
     1
 10
576.8885904147311
 20
248.3633294252899
 11
573.756859025721
 21
248.36332942529
 97
        8
330
E6F
330
E71
330
E6E
330
E72
330
E73
330
E70
330
E74
330
E75
 75
     0
 76
     1
 47
0.0514683685270805
 98
        1
 10
574.297258111665
 20
247.7907235190726
450
        0
451
        0
460
0.0
461
0.0
452
        0
462
0.0
453
        0
470

  0
HATCH
  5
E84
330
18
100
AcDbEntity
  8
ROGO
 62
     4
100
AcDbHatch
 10
0.0
 20
0.0
 30
0.0
210
0.0
220
0.0
230
1.0
  2
SOLID
 70
     1
 71
     1
 91
        1
 92
        7
 72
     0
 73
     1
 93
        4
 10
546.323861946854
 20
243.9666225274056
 10
546.1022628631782
 20
243.4768232570715
 10
575.106991943042
 20
243.4768232570715
 10
575.3512216782744
 20
243.9666225274056
 97
        4
330
E80
330
E52
330
E4A
330
E77
 75
     0
 76
     1
 47
0.0514683685270805
 98
        1
 10
564.6522843424846
 20
243.8370784920457
450
        0
451
        0
460
0.0
461
0.0
452
        0
462
0.0
453
        0
470

  0
HATCH
  5
E85
330
18
100
AcDbEntity
  8
ROGO
 62
     4
100
AcDbHatch
 10
0.0
 20
0.0
 30
0.0
210
0.0
220
0.0
230
1.0
  2
SOLID
 70
     1
 71
     1
 91
        2
 92
        5
 93
        6
 72
     1
 10
543.8308059483147
 20
243.4768232570715
 11
546.1022628631782
 21
243.4768232570715
 72
     1
 10
546.1022628631782
 20
243.4768232570715
 11
546.8982106484981
 21
245.2361023931005
 72
     1
 10
546.8982106484981
 20
245.2361023931005
 11
549.0215569855759
 21
245.2361023931005
 72
     4
 94
        3
 73
     0
 74
     0
 95
       18
 96
       14
 40
0.108740278791501
 40
0.108740278791501
 40
0.108740278791501
 40
0.108740278791501
 40
0.6623149649549278
 40
1.384304701649787
 40
2.097394834876493
 40
2.774073369849618
 40
3.428974823686337
 40
4.005208313035923
 40
4.455173659284313
 40
4.720999734343524
 40
5.086034088486724
 40
5.569973738255373
 40
6.060470601257719
 40
6.060470601257719
 40
6.060470601257719
 40
6.060470601257719
 10
549.0215569855759
 20
245.2361023931005
 10
549.1709945928151
 20
245.2372152097136
 10
549.5153334869078
 20
245.2397793971958
 10
549.9970609053132
 20
245.4971287693782
 10
550.4538761366034
 20
245.824973119313
 10
550.8218097289051
 20
246.2345804304812
 10
551.0510434422851
 20
246.7028962152822
 10
551.0865510199188
 20
247.1517338789742
 10
551.0648745161338
 20
247.5067588909569
 10
550.9099850089857
 20
247.7542201381524
 10
550.7489584653541
 20
248.0053679978302
 10
550.4536902347324
 20
248.2229216021466
 10
550.2117606736687
 20
248.3182424204325
 10
550.0887345713652
 20
248.36332942529
 72
     1
 10
550.0887345713656
 20
248.3633294252899
 11
546.2486037553511
 21
248.3633294252899
 72
     1
 10
546.2486037553511
 20
248.3633294252899
 11
543.8308059483147
 21
243.4768232570715
 97
        6
330
E4C
330
E49
330
E4B
330
E4A
330
E52
330
E4D
 92
       20
 93
        4
 72
     1
 10
547.3896633463827
 20
246.3223576647158
 11
547.7659317751736
 21
247.1540217619427
 72
     1
 10
547.7659317751736
 20
247.1540217619427
 11
548.7327812742273
 21
247.1540217619428
 72
     4
 94
        3
 73
     0
 74
     0
 95
       15
 96
       11
 40
0.0
 40
0.0
 40
0.0
 40
0.0
 40
0.4399157226213117
 40
0.6404930950247764
 40
0.8681617655417579
 40
1.023260249278236
 40
1.268550109906271
 40
1.415472035848321
 40
1.667541915898791
 40
1.751565262875804
 40
1.751565262875804
 40
1.751565262875804
 40
1.751565262875804
 10
548.7327812742277
 20
247.1540217619426
 10
548.8704982378432
 20
247.1546525791473
 10
549.0710065618876
 20
247.1555710142997
 10
549.1806516547752
 20
246.907541637608
 10
549.1315034962468
 20
246.7478494111292
 10
549.0697202553372
 20
246.5838952670049
 10
548.96053527567
 20
246.4724859532925
 10
548.8139930403126
 20
246.3651800031711
 10
548.6755036249507
 20
246.3521901374152
 10
548.5854318062194
 20
246.3283241615404
 10
548.5629138407575
 20
246.3223576647156
 72
     1
 10
548.5629138407575
 20
246.3223576647157
 11
547.3896633463827
 21
246.3223576647158
 97
        4
330
E4E
330
E50
330
E4F
330
E51
 75
     0
 76
     1
 47
0.0514683685270805
 98
        2
 10
546.2691286587737
 20
246.8434963240532
 10
546.2691286587737
 20
246.8434963240532
450
        0
451
        0
460
0.0
461
0.0
452
        0
462
0.0
453
        0
470

  0
LINE
  5
E86
102
{ACAD_REACTORS
330
E89
102
}
330
18
100
AcDbEntity
  8
ROGO
 62
     4
100
AcDbLine
 10
560.3138643068781
 20
248.3633294252899
 30
0.0
 11
561.7031024682372
 21
245.2361023931005
 31
0.0
  0
LINE
  5
E87
102
{ACAD_REACTORS
330
E89
102
}
330
18
100
AcDbEntity
  8
ROGO
 62
     4
100
AcDbLine
 10
558.9414760242755
 20
247.5274089295997
 30
0.0
 11
559.4158842233674
 21
246.4594983396396
 31
0.0
  0
LINE
  5
E88
102
{ACAD_REACTORS
330
E89
102
}
330
18
100
AcDbEntity
  8
ROGO
 62
     4
100
AcDbLine
 10
559.6948628283924
 20
245.8315070712574
 30
0.0
 11
559.959365178824
 21
245.2361023931005
 31
0.0
  0
HATCH
  5
E89
330
18
100
AcDbEntity
  8
ROGO
 62
     4
100
AcDbHatch
 10
0.0
 20
0.0
 30
0.0
210
0.0
220
0.0
230
1.0
  2
SOLID
 70
     1
 71
     1
 91
        2
 92
        7
 72
     0
 73
     1
 93
        8
 10
560.313864306878
 20
248.3633294252899
 10
557.8123505062391
 20
248.36332942529
 10
555.5572463163786
 20
245.2361023931005
 10
557.2891703497827
 20
245.2361023931005
 10
557.7185282347565
 20
245.8315070712574
 10
559.6948628283926
 20
245.8315070712574
 10
559.959365178824
 20
245.2361023931005
 10
561.7031024682372
 20
245.2361023931005
 97
        8
330
E64
330
E5E
330
E63
330
E62
330
E60
330
E88
330
E65
330
E86
 92
       22
 72
     0
 73
     1
 93
        3
 10
559.4158842233674
 20
246.4594983396397
 10
558.1713849432548
 20
246.4594983396396
 10
558.9414760242756
 20
247.5274089295997
 97
        3
330
E61
330
E5F
330
E87
 75
     0
 76
     1
 47
0.0128389261915577
 98
        2
 10
560.1179760105013
 20
247.6130637268192
 10
560.1179760105013
 20
247.6130637268192
450
        0
451
        0
460
0.0
461
0.0
452
        0
462
0.0
453
        0
470

  0
SPLINE
  5
E8A
102
{ACAD_REACTORS
330
E91
102
}
330
18
100
AcDbEntity
  8
ROGO
 62
     4
100
AcDbSpline
210
0.0
220
0.0
230
1.0
 70
     8
 71
     3
 72
    38
 73
    34
 74
    32
 42
0.0000000001
 43
0.0000000001
 44
0.0000000001
 40
0.0
 40
0.0
 40
0.0
 40
0.0
 40
0.4304952251389935
 40
0.5656948252684748
 40
0.7394171190733941
 40
0.8841859806146851
 40
1.006333837547923
 40
1.168574067185899
 40
1.251472430224647
 40
1.344837746817574
 40
1.482440654064326
 40
1.638314889053885
 40
1.739428978741212
 40
1.849272801520911
 40
1.971376724615851
 40
2.156675615150043
 40
2.332728884784048
 40
2.414575171219349
 40
2.507909911986884
 40
2.618480757166994
 40
2.697192990191703
 40
2.763176509963206
 40
2.857386069883699
 40
2.960906238233388
 40
3.064425830199678
 40
3.155005617266038
 40
3.362449430445974
 40
3.444295716881311
 40
3.607988386973045
 40
3.752685425402288
 40
4.029697057465814
 40
4.37150072890459
 40
4.865114969397234
 40
4.865114969397234
 40
4.865114969397234
 40
4.865114969397234
 10
568.5490215107251
 20
248.3763733075441
 30
0.0
 10
568.405524548657
 20
248.3662362586868
 30
0.0
 10
568.2169615074349
 20
248.3529156090089
 30
0.0
 10
567.9775305353778
 20
248.2873186610592
 30
0.0
 10
567.8470141654083
 20
248.2091715731722
 30
0.0
 10
567.711185794969
 20
248.1517297177491
 30
0.0
 10
567.5953794587242
 20
248.066669720844
 30
0.0
 10
567.4782437944696
 20
248.022839123929
 30
0.0
 10
567.3962218166397
 20
247.943804723378
 30
0.0
 10
567.301288067709
 20
247.8955271003366
 30
0.0
 10
567.2256906379343
 20
247.7874677446305
 30
0.0
 10
567.1411941530538
 20
247.6864361627804
 30
0.0
 10
567.0431676005514
 20
247.6126876138671
 30
0.0
 10
566.9627158933077
 20
247.5352300605798
 30
0.0
 10
566.888912638615
 20
247.4156897825093
 30
0.0
 10
566.8452325693229
 20
247.2568561505275
 30
0.0
 10
566.7221057857732
 20
247.1565743234449
 30
0.0
 10
566.70356674723
 20
247.0360056453769
 30
0.0
 10
566.6354615684997
 20
246.96487215419
 30
0.0
 10
566.6058470548543
 20
246.8730490362821
 30
0.0
 10
566.5945684225664
 20
246.7889228409246
 30
0.0
 10
566.5810313744309
 20
246.7103547981225
 30
0.0
 10
566.5456210202348
 20
246.6277046876832
 30
0.0
 10
566.5571790820178
 20
246.5256100201083
 30
0.0
 10
566.5538865372131
 20
246.4267483648086
 30
0.0
 10
566.5558242036955
 20
246.2932820516742
 30
0.0
 10
566.5488308970086
 20
246.1633361829034
 30
0.0
 10
566.6045997773047
 20
246.0219242567703
 30
0.0
 10
566.6376019498927
 20
245.8958750883238
 30
0.0
 10
566.7279837680539
 20
245.721344729419
 30
0.0
 10
566.8838905103081
 20
245.5199744322755
 30
0.0
 10
567.1803602220031
 20
245.2755490444794
 30
0.0
 10
567.4654245178183
 20
245.25075322666
 30
0.0
 10
567.6338573391173
 20
245.2361023931005
 30
0.0
 11
568.5490215107251
 21
248.3763733075441
 31
0.0
 11
568.1216493044225
 21
248.3246129351776
 31
0.0
 11
567.9921426060725
 21
248.2857935204777
 31
0.0
 11
567.8367351785343
 21
248.2081535383113
 31
0.0
 11
567.7072284801843
 21
248.1434539374282
 31
0.0
 11
567.6036235284924
 21
248.0787537601618
 31
0.0
 11
567.4611664655484
 21
248.0011143543787
 31
0.0
 11
567.396412607638
 21
247.9493545583955
 31
0.0
 11
567.3187083851338
 21
247.897594186029
 31
0.0
 11
567.2280537980359
 21
247.7940745940627
 31
0.0
 11
567.124448846344
 21
247.6776151971963
 31
0.0
 11
567.0467446238396
 21
247.6129150199299
 31
0.0
 11
566.9690414188059
 21
247.5352756141468
 31
0.0
 11
566.9042875608956
 21
247.4317560221804
 31
0.0
 11
566.8265843558619
 21
247.2635362529477
 31
0.0
 11
566.7229783866994
 21
247.1211966698982
 31
0.0
 11
566.6970776575117
 21
247.0435566877318
 31
0.0
 11
566.6452751816657
 21
246.9659172819486
 31
0.0
 11
566.6064230704138
 21
246.8623971135991
 31
0.0
 11
566.5934716883494
 21
246.7847577078159
 31
0.0
 11
566.5805213237554
 21
246.7200575305494
 31
0.0
 11
566.5546205945677
 21
246.6294783198664
 31
0.0
 11
566.5546205945677
 21
246.5259581515167
 31
0.0
 11
566.5546205945677
 21
246.4224385595504
 31
0.0
 11
566.5546205945677
 21
246.331858772484
 31
0.0
 11
566.5675709591616
 21
246.1248195885513
 31
0.0
 11
566.5934716883494
 21
246.047179606385
 31
0.0
 11
566.6452751816657
 21
245.8919002184354
 31
0.0
 11
566.7100280221058
 21
245.7625004402859
 31
0.0
 11
566.8783868317079
 21
245.5425214514532
 31
0.0
 11
567.1503505930021
 21
245.3354816911372
 31
0.0
 11
567.6338573391173
 21
245.2361023931005
 31
0.0
  0
SPLINE
  5
E8B
102
{ACAD_REACTORS
330
E91
102
}
330
18
100
AcDbEntity
  8
ROGO
 62
     4
100
AcDbSpline
210
0.0
220
0.0
230
1.0
 70
     8
 71
     3
 72
    25
 73
    21
 74
     0
 42
0.0000000001
 43
0.0000000001
 40
0.0
 40
0.0
 40
0.0
 40
0.0
 40
0.4087168505087288
 40
0.6887487002771746
 40
0.9415836120477687
 40
1.17452070575514
 40
1.41154617586699
 40
1.599156012919487
 40
1.80099909059943
 40
2.178735911501585
 40
2.521686161369157
 40
2.762704659361267
 40
3.06256558063785
 40
3.222432137207705
 40
3.399493810628493
 40
3.567459719866414
 40
3.743172740007509
 40
3.995988754699505
 40
4.17170091132118
 40
4.337226830236035
 40
4.337226830236035
 40
4.337226830236035
 40
4.337226830236035
 10
570.3362115060281
 20
248.3763733075441
 30
0.0
 10
570.4534280208502
 20
248.3726072618164
 30
0.0
 10
570.6509552873045
 20
248.3662609144689
 30
0.0
 10
570.8630251762915
 20
248.2005035737039
 30
0.0
 10
571.0252949158497
 20
248.0630780382047
 30
0.0
 10
571.1404759911614
 20
247.8969370007916
 30
0.0
 10
571.241435430831
 20
247.7441791670544
 30
0.0
 10
571.3079600471518
 20
247.5829020424404
 30
0.0
 10
571.3984466687988
 20
247.3893842629847
 30
0.0
 10
571.4359036598623
 20
247.1304862247095
 30
0.0
 10
571.4105970085666
 20
246.8628912143033
 30
0.0
 10
571.3445584646574
 20
246.6256928521195
 30
0.0
 10
571.2752893416441
 20
246.4437198406297
 30
0.0
 10
571.1936474346607
 20
246.2853010448873
 30
0.0
 10
571.0963198488614
 20
246.1827248623554
 30
0.0
 10
571.0287978816048
 20
246.0523002462299
 30
0.0
 10
570.8990968198276
 20
245.9456199124515
 30
0.0
 10
570.7939541428771
 20
245.8139913536698
 30
0.0
 10
570.6746391016203
 20
245.7010131619345
 30
0.0
 10
570.6073687524654
 20
245.6313069791328
 30
0.0
 10
570.5719022021257
 20
245.6019987272791
 30
0.0
  0
LINE
  5
E8C
102
{ACAD_REACTORS
330
E91
102
}
330
18
100
AcDbEntity
  8
ROGO
 62
     4
100
AcDbLine
 10
568.5490215107251
 20
248.3763733075441
 30
0.0
 11
570.3362115060281
 21
248.3763733075441
 31
0.0
  0
LINE
  5
E8D
102
{ACAD_REACTORS
330
E91
102
}
330
18
100
AcDbEntity
  8
ROGO
 62
     4
100
AcDbLine
 10
567.6338573391173
 20
245.2361023931005
 30
0.0
 11
569.4210473344203
 21
245.2361023931005
 31
0.0
  0
SPLINE
  5
E8E
102
{ACAD_REACTORS
330
E91
102
}
330
18
100
AcDbEntity
  8
ROGO
 62
     4
100
AcDbSpline
210
0.0
220
0.0
230
1.0
 70
     8
 71
     3
 72
    11
 73
     7
 74
     0
 42
0.0000000001
 43
0.0000000001
 40
0.1647869275458134
 40
0.1647869275458134
 40
0.1647869275458134
 40
0.1647869275458134
 40
0.2895635144633836
 40
0.5387013147903714
 40
0.7953622617455423
 40
0.8850764140209602
 40
0.8850764140209602
 40
0.8850764140209602
 40
0.8850764140209602
 10
570.0164586533961
 20
245.3058236356294
 30
0.0
 10
569.9831690477323
 20
245.2965574612048
 30
0.0
 10
569.8799533406117
 20
245.2800595518453
 30
0.0
 10
569.7068227557762
 20
245.2574059847234
 30
0.0
 10
569.5422707941106
 20
245.233766160925
 30
0.0
 10
569.4459859447723
 20
245.2356217733915
 30
0.0
 10
569.4210473344203
 20
245.2361023931005
 30
0.0
  0
SPLINE
  5
E8F
102
{ACAD_REACTORS
330
E91
102
}
330
18
100
AcDbEntity
  8
ROGO
 62
     4
100
AcDbSpline
210
0.0
220
0.0
230
1.0
 70
     8
 71
     3
 72
     9
 73
     5
 74
     3
 42
0.0000000001
 43
0.0000000001
 44
0.0000000001
 40
0.0
 40
0.0
 40
0.0
 40
0.0
 40
0.2704867958046346
 40
0.6341731770258279
 40
0.6341731770258279
 40
0.6341731770258279
 40
0.6341731770258279
 10
570.0164586533961
 20
245.3058236356294
 30
0.0
 10
570.1033468380416
 20
245.3324065128981
 30
0.0
 10
570.3070616106564
 20
245.3947317280044
 30
0.0
 10
570.4753766785528
 20
245.5264568493768
 30
0.0
 10
570.5719022021257
 20
245.6019987272791
 30
0.0
 11
570.0164586533961
 21
245.3058236356294
 31
0.0
 11
570.2706833530631
 21
245.3981973807301
 31
0.0
 11
570.5719022021257
 21
245.6019987272791
 31
0.0
  0
ELLIPSE
  5
E90
102
{ACAD_REACTORS
330
E91
102
}
330
18
100
AcDbEntity
  8
ROGO
 62
     4
100
AcDbEllipse
 10
568.9597275501478
 20
246.7624545563412
 30
0.0
 11
0.424581284706075
 21
0.3733661104353215
 31
0.0
210
0.0
220
0.0
230
1.0
 40
0.6788083417438792
 41
0.0
 42
6.283185307179586
  0
HATCH
  5
E91
330
18
100
AcDbEntity
  8
ROGO
 62
     4
100
AcDbHatch
 10
0.0
 20
0.0
 30
0.0
210
0.0
220
0.0
230
1.0
  2
SOLID
 70
     1
 71
     1
 91
        2
 92
        5
 93
        6
 72
     4
 94
        3
 73
     0
 74
     0
 95
       38
 96
       34
 40
0.0
 40
0.0
 40
0.0
 40
0.0
 40
0.5164800423611548
 40
0.6786836885910848
 40
0.88710434560167
 40
1.060788566413433
 40
1.20733358396365
 40
1.401978810630435
 40
1.501434849986208
 40
1.613448456300606
 40
1.778535433376704
 40
1.965543155621333
 40
2.086853233586049
 40
2.218636674910137
 40
2.365128983511507
 40
2.587438484857767
 40
2.798655694361229
 40
2.896849520951487
 40
3.008826444388521
 40
3.141482119684725
 40
3.235915913773394
 40
3.315078629400928
 40
3.428105103696636
 40
3.552301837626102
 40
3.676497880048442
 40
3.785169590044758
 40
4.034047122621728
 40
4.132240949211986
 40
4.328628719031952
 40
4.502226771166864
 40
4.834567227246322
 40
5.244640938625969
 40
5.836847051382449
 40
5.836847051382449
 40
5.836847051382449
 40
5.836847051382449
 10
568.5490215107251
 20
248.3763733075441
 10
568.4055245486566
 20
248.3662362586867
 10
568.2169615074347
 20
248.3529156090086
 10
567.9775305353777
 20
248.2873186610594
 10
567.8470141654083
 20
248.209171573172
 10
567.711185794969
 20
248.1517297177492
 10
567.5953794587242
 20
248.0666697208442
 10
567.4782437944692
 20
248.022839123929
 10
567.3962218166397
 20
247.9438047233781
 10
567.3012880677091
 20
247.8955271003365
 10
567.2256906379342
 20
247.7874677446306
 10
567.1411941530537
 20
247.6864361627804
 10
567.0431676005512
 20
247.6126876138671
 10
566.9627158933077
 20
247.5352300605798
 10
566.888912638615
 20
247.4156897825093
 10
566.8452325693229
 20
247.2568561505274
 10
566.7221057857733
 20
247.1565743234449
 10
566.70356674723
 20
247.036005645377
 10
566.6354615684997
 20
246.96487215419
 10
566.6058470548543
 20
246.8730490362821
 10
566.5945684225663
 20
246.7889228409245
 10
566.5810313744311
 20
246.7103547981227
 10
566.5456210202346
 20
246.6277046876831
 10
566.5571790820179
 20
246.5256100201083
 10
566.5538865372131
 20
246.4267483648086
 10
566.5558242036954
 20
246.2932820516743
 10
566.5488308970085
 20
246.1633361829034
 10
566.6045997773047
 20
246.0219242567704
 10
566.6376019498927
 20
245.8958750883238
 10
566.7279837680536
 20
245.7213447294189
 10
566.8838905103081
 20
245.5199744322756
 10
567.180360222003
 20
245.2755490444795
 10
567.4654245178182
 20
245.25075322666
 10
567.6338573391173
 20
245.2361023931005
 72
     1
 10
567.633857339117
 20
245.2361023931005
 11
569.4210473344209
 21
245.2361023931005
 72
     4
 94
        3
 73
     0
 74
     0
 95
       11
 96
        7
 40
0.1647869275458135
 40
0.1647869275458135
 40
0.1647869275458135
 40
0.1647869275458135
 40
0.2545010798212315
 40
0.5111620267764023
 40
0.7602998271033902
 40
0.8850764140209603
 40
0.8850764140209603
 40
0.8850764140209603
 40
0.8850764140209603
 10
569.4210473344203
 20
245.2361023931005
 10
569.4459859447723
 20
245.2356217733915
 10
569.5422707941106
 20
245.233766160925
 10
569.7068227557762
 20
245.2574059847234
 10
569.8799533406117
 20
245.2800595518453
 10
569.9831690477323
 20
245.2965574612048
 10
570.0164586533961
 20
245.3058236356294
 72
     4
 94
        3
 73
     0
 74
     0
 95
        9
 96
        5
 40
0.0
 40
0.0
 40
0.0
 40
0.0
 40
0.3245123838720408
 40
0.7608395406220814
 40
0.7608395406220814
 40
0.7608395406220814
 40
0.7608395406220814
 10
570.0164586533961
 20
245.3058236356294
 10
570.1033468380415
 20
245.3324065128981
 10
570.3070616106563
 20
245.3947317280044
 10
570.4753766785528
 20
245.5264568493767
 10
570.5719022021257
 20
245.6019987272791
 72
     4
 94
        3
 73
     0
 74
     0
 95
       25
 96
       21
 40
0.0
 40
0.0
 40
0.0
 40
0.0
 40
0.165525918914855
 40
0.3412380755365305
 40
0.5940540902285263
 40
0.7697671103696209
 40
0.9377330196075423
 40
1.11479469302833
 40
1.274661249598185
 40
1.574522170874768
 40
1.815540668866877
 40
2.15849091873445
 40
2.536227739636605
 40
2.738070817316548
 40
2.925680654369045
 40
3.162706124480894
 40
3.395643218188267
 40
3.648478129958861
 40
3.928509979727306
 40
4.337226830236035
 40
4.337226830236035
 40
4.337226830236035
 40
4.337226830236035
 10
570.5719022021257
 20
245.6019987272791
 10
570.6073687524654
 20
245.6313069791328
 10
570.6746391016203
 20
245.7010131619345
 10
570.7939541428771
 20
245.8139913536698
 10
570.8990968198276
 20
245.9456199124515
 10
571.0287978816048
 20
246.0523002462299
 10
571.0963198488614
 20
246.1827248623554
 10
571.1936474346607
 20
246.2853010448873
 10
571.2752893416441
 20
246.4437198406297
 10
571.3445584646574
 20
246.6256928521195
 10
571.4105970085666
 20
246.8628912143033
 10
571.4359036598623
 20
247.1304862247095
 10
571.3984466687988
 20
247.3893842629847
 10
571.3079600471518
 20
247.5829020424404
 10
571.241435430831
 20
247.7441791670544
 10
571.1404759911614
 20
247.8969370007916
 10
571.0252949158497
 20
248.0630780382047
 10
570.8630251762915
 20
248.2005035737039
 10
570.6509552873045
 20
248.3662609144689
 10
570.4534280208502
 20
248.3726072618164
 10
570.3362115060281
 20
248.3763733075441
 72
     1
 10
570.3362115060282
 20
248.3763733075441
 11
568.5490215107251
 21
248.3763733075441
 97
        6
330
E8B
330
E8C
330
E8A
330
E8D
330
E8E
330
E8F
 92
       20
 93
        1
 72
     3
 10
568.9597275501478
 20
246.7624545563412
 11
0.424581284706075
 21
0.3733661104353215
 40
0.6788083417438792
 50
0.0
 51
360.0
 73
     1
 97
        1
330
E90
 75
     0
 76
     1
 47
0.088756267210375
 98
        2
 10
569.0845915305815
 20
247.5090178969074
 10
569.0845915305815
 20
247.5090178969074
450
        0
451
        0
460
0.0
461
0.0
452
        0
462
0.0
453
        0
470

  0
LINE
  5
E92
102
{ACAD_REACTORS
330
E93
102
}
330
18
100
AcDbEntity
  8
ROGO
 62
     4
100
AcDbLine
 10
578.9048622285227
 20
247.4823254433102
 30
0.0
 11
579.9212101400756
 21
248.3633294252899
 31
0.0
  0
HATCH
  5
E93
330
18
100
AcDbEntity
  8
ROGO
 62
     4
100
AcDbHatch
 10
0.0
 20
0.0
 30
0.0
210
0.0
220
0.0
230
1.0
  2
SOLID
 70
     1
 71
     1
 91
        1
 92
        7
 72
     0
 73
     1
 93
       11
 10
578.9048622285227
 20
247.4823254433105
 10
579.3441592677178
 20
248.3633294252899
 10
577.5435617379736
 20
248.3633294252899
 10
575.1069919430419
 20
243.4768232570715
 10
576.9075894727861
 20
243.4768232570715
 10
577.5435617379734
 20
244.7522566155239
 10
578.1795340031606
 20
243.4768232570715
 10
579.9800921372792
 20
243.4768232570715
 10
578.7618072398134
 20
245.9200763411807
 10
581.7217682741939
 20
248.36332942529
 10
579.9212101400756
 20
248.3633294252899
 97
       11
330
E7D
330
E92
330
E78
330
E76
330
E77
330
E4A
330
E7B
330
E79
330
E7E
330
E7A
330
E7C
 75
     0
 76
     1
 47
0.015942268611278
 98
        1
 10
578.5155375506094
 20
246.7780528273066
450
        0
451
        0
460
0.0
461
0.0
452
        0
462
0.0
453
        0
470

  0
TEXT
  5
EEE
330
18
100
AcDbEntity
  8
文字
100
AcDbText
 10
539.1330076437093
 20
230.1963177421504
 30
0.0
 40
6.0
  1
MAGNETIC  STAND
 41
0.6
  7
STYLE3
100
AcDbText
  0
TEXT
  5
EEF
330
18
100
AcDbEntity
  8
文字
100
AcDbText
 10
553.5363998797768
 20
214.4644051441534
 30
0.0
 40
6.0
  1
YM. 1
 41
0.6
  7
STYLE3
100
AcDbText
  0
ARC
  5
EF1
330
18
100
AcDbEntity
  8
外形線
100
AcDbCircle
 10
430.4948711479581
 20
234.1979714098306
 30
0.0
 40
12.75
100
AcDbArc
 50
67.35126581428158
 51
35.48565818370636
  0
ARC
  5
F0B
330
18
100
AcDbEntity
  8
外形線
  6
ByBlock
100
AcDbCircle
 10
430.4948711479581
 20
237.0050353682141
 30
0.0
 40
12.18841690904144
100
AcDbArc
 50
62.59650737038924
 51
117.4034926296107
  0
INSERT
  5
F0D
330
18
100
AcDbEntity
  8
外形線
  6
ByBlock
100
AcDbBlockReference
  2
_OPEN
 10
422.923065822731
 20
246.2764339254252
 30
0.0
 41
2.5
 42
2.5
 43
2.5
 50
218.2963781464375
  0
HATCH
  5
F1A
330
18
100
AcDbEntity
  8
外形線
100
AcDbHatch
 10
0.0
 20
0.0
 30
0.0
210
0.0
220
0.0
230
1.0
  2
SOLID
 70
     1
 71
     1
 91
        1
 92
        1
 93
        1
 72
     2
 10
420.8974516202348
 20
245.2096044999271
 40
0.2844188053173298
 50
0.0
 51
360.0
 73
     1
 97
        1
330
F1B
 75
     0
 76
     1
 98
        1
 10
867.5451031901648
 20
0.0
450
        0
451
        0
460
0.0
461
0.0
452
        0
462
0.0
453
        0
470

  0
CIRCLE
  5
F1B
102
{ACAD_REACTORS
330
F1A
102
}
330
18
100
AcDbEntity
  8
外形線
100
AcDbCircle
 10
420.8974516202348
 20
245.2096044999271
 30
0.0
 40
0.2844188053173298
  0
TEXT
  5
F1D
330
18
100
AcDbEntity
  8
文字
100
AcDbText
 10
440.1034143391742
 20
244.3895858816806
 30
0.0
 40
2.0
  1
  FF
 50
299.7568895036886
  7
STYLE3
100
AcDbText
  0
TEXT
  5
F1E
330
18
100
AcDbEntity
  8
文字
100
AcDbText
 10
417.8933908375724
 20
240.6367495442296
 30
0.0
 40
2.0
  1
ON
 50
45.0
  7
STYLE3
100
AcDbText
  0
LINE
  5
F22
330
18
100
AcDbEntity
  8
外形線
100
AcDbLine
 10
425.585095533987
 20
222.4312130023314
 30
0.0
 11
453.8837114972412
 21
257.9037135701471
 31
0.0
  0
LINE
  5
F23
330
18
100
AcDbEntity
  8
外形線
100
AcDbLine
 10
420.1130453140398
 20
226.796607187325
 30
0.0
 11
448.4116612772941
 21
262.2691077551407
 31
0.0
  0
LINE
  5
F29
330
18
100
AcDbEntity
  8
外形線
100
AcDbLine
 10
453.8837114972412
 20
257.9037135701471
 30
0.0
 11
448.4116612772941
 21
262.2691077551407
 31
0.0
  0
LINE
  5
F2A
330
18
100
AcDbEntity
  8
0
  6
ByBlock
 62
     0
100
AcDbLine
 10
436.36285819774
 20
248.1527639591265
 30
0.0
 11
436.781971497129
 21
247.6912153993414
 31
0.0
  0
LINE
  5
F2B
330
18
100
AcDbEntity
  8
0
  6
ByBlock
 62
     0
100
AcDbLine
 10
436.3897872994829
 20
247.1996099373727
 30
0.0
 11
435.8464170125095
 21
247.4987510031064
 31
0.0
  0
LINE
  5
F2C
330
18
100
AcDbEntity
  8
0
  6
ByBlock
 62
     0
100
AcDbLine
 10
436.5860420573376
 20
247.4456165625192
 30
0.0
 11
436.1046376051248
 21
247.8257574811165
 31
0.0
  0
DIMENSION
  5
F39
330
18
100
AcDbEntity
  8
文字
100
AcDbDimension
  2
*D21
 10
452.4948711479581
 20
213.9968200452539
 30
0.0
 11
430.4948711479581
 21
215.8718200452538
 31
0.0
 12
-6.555360894248451
 22
0.0
 32
0.0
 70
    32
  1
45
 71
     5
 42
-1.0
  3
STYLE3
100
AcDbAlignedDimension
 13
408.4948711479581
 23
214.1273362608357
 33
0.0
 14
452.4948711479581
 24
214.9104361927641
 34
0.0
100
AcDbRotatedDimension
1001
ACAD
1000
DSTYLE
1002
{
1070
   271
1070
     2
1002
}
  0
LINE
  5
F3A
330
18
100
AcDbEntity
  8
外形線
100
AcDbLine
 10
523.3977845338785
 20
262.2691077551408
 30
0.0
 11
530.7457188677651
 21
262.2691077551407
 31
0.0
  0
LINE
  5
F3B
330
18
100
AcDbEntity
  8
外形線
100
AcDbLine
 10
522.0495117347769
 20
257.9037135701471
 30
0.0
 11
530.745718867765
 21
257.9037135701471
 31
0.0
  0
LINE
  5
F3C
330
18
100
AcDbEntity
  8
外形線
100
AcDbLine
 10
530.6891512586521
 20
222.4312130023314
 30
0.0
 11
532.7457188677649
 21
222.4312130023314
 31
0.0
  0
LINE
  5
F3E
330
18
100
AcDbEntity
  8
外形線
100
AcDbLine
 10
530.7457188677649
 20
244.82006511333
 30
0.0
 11
530.7457188677651
 21
262.2691077551407
 31
0.0
  0
LINE
  5
F3F
330
18
100
AcDbEntity
  8
外形線
100
AcDbLine
 10
530.7457188677649
 20
244.82006511333
 30
0.0
 11
532.745718867765
 21
244.8200651133299
 31
0.0
  0
LINE
  5
F42
330
18
100
AcDbEntity
  8
外形線
100
AcDbLine
 10
518.3977845338784
 20
257.2691077551408
 30
0.0
 11
525.8267982340113
 21
226.2660850849907
 31
0.0
  0
ARC
  5
F43
330
18
100
AcDbEntity
  8
外形線
100
AcDbCircle
 10
530.6891512586521
 20
227.4312130023314
 30
0.0
 40
5.0
100
AcDbArc
 50
193.4752662042417
 51
270.0
  0
ARC
  5
F44
330
18
100
AcDbEntity
  8
外形線
100
AcDbCircle
 10
522.0495117347769
 20
254.9037135701471
 30
0.0
 40
3.0
100
AcDbArc
 50
90.0
 51
193.4752662042417
  0
LINE
  5
F55
330
18
100
AcDbEntity
  8
外形線
100
AcDbLine
 10
530.745718867765
 20
251.8200651133299
 30
0.0
 11
532.7457188677652
 21
251.8200651133299
 31
0.0
  0
ARC
  5
F56
330
18
100
AcDbEntity
  8
外形線
100
AcDbCircle
 10
523.3977845338785
 20
257.2691077551407
 30
0.0
 40
5.0
100
AcDbArc
 50
90.0
 51
179.9999999999992
  0
LINE
  5
F7C
330
18
100
AcDbEntity
  8
0
  6
ByBlock
 62
     2
100
AcDbLine
 10
532.745718867765
 20
256.1979714098306
 30
0.0
 11
532.745718867765
 21
264.5579898901299
 31
0.0
  0
LINE
  5
F7D
330
18
100
AcDbEntity
  8
0
  6
ByBlock
 62
     2
100
AcDbLine
 10
592.7457188677649
 20
256.1979714098306
 30
0.0
 11
592.7457188677649
 21
264.5579898901299
 31
0.0
  0
LINE
  5
F7E
330
18
100
AcDbEntity
  8
0
  6
ByBlock
 62
     2
100
AcDbLine
 10
535.245718867765
 20
263.30798989013
 30
0.0
 11
590.2457188677649
 21
263.30798989013
 31
0.0
  0
INSERT
  5
F7F
330
18
100
AcDbEntity
  8
0
  6
ByBlock
 62
     2
100
AcDbBlockReference
  2
_OPEN
 10
532.745718867765
 20
263.30798989013
 30
0.0
 41
2.5
 42
2.5
 43
2.5
 50
180.0
  0
INSERT
  5
F80
330
18
100
AcDbEntity
  8
0
  6
ByBlock
 62
     2
100
AcDbBlockReference
  2
_OPEN
 10
592.7457188677649
 20
263.30798989013
 30
0.0
 41
2.5
 42
2.5
 43
2.5
  0
MTEXT
  5
F81
330
18
100
AcDbEntity
  8
0
  6
ByBlock
 62
     6
100
AcDbMText
 10
579.3376488762763
 20
265.1829898901299
 30
0.0
 40
2.5
 41
0.0
 71
     5
 72
     1
  1
\A1;60
  7
STYLE3
 73
     1
 44
1.0
  0
POINT
  5
F82
330
18
100
AcDbEntity
  8
DEFPOINTS
  6
ByBlock
 62
     0
100
AcDbPoint
 10
532.745718867765
 20
256.1979714098306
 30
0.0
  0
POINT
  5
F83
330
18
100
AcDbEntity
  8
DEFPOINTS
  6
ByBlock
 62
     0
100
AcDbPoint
 10
592.7457188677649
 20
256.1979714098306
 30
0.0
  0
POINT
  5
F84
330
18
100
AcDbEntity
  8
DEFPOINTS
  6
ByBlock
 62
     0
100
AcDbPoint
 10
592.7457188677649
 20
263.30798989013
 30
0.0
  0
DIMENSION
  5
F91
330
18
100
AcDbEntity
  8
寸法線
100
AcDbDimension
  2
*D22
 10
549.7376522525944
 20
393.3765616789187
 30
0.0
 11
544.7376522525944
 21
395.2515616789187
 31
0.0
 70
    32
  1
φ10
 71
     5
 42
-1.0
  3
STYLE3
100
AcDbAlignedDimension
 13
539.7376522525944
 23
392.2121264893153
 33
0.0
 14
549.7376522525944
 24
391.6299085647092
 34
0.0
100
AcDbRotatedDimension
1001
ACAD
1000
DSTYLE
1002
{
1070
   271
1070
     2
1002
}
  0
DIMENSION
  5
F9E
330
18
100
AcDbEntity
  8
寸法線
100
AcDbDimension
  2
*D23
 10
568.7457188677649
 20
393.3765616789187
 30
0.0
 11
562.7457188677648
 21
395.2515616789187
 31
0.0
 70
    32
  1
φ12
 71
     5
 42
-1.0
  3
STYLE3
100
AcDbAlignedDimension
 13
556.7457188677646
 23
391.1932452861567
 33
0.0
 14
568.7457188677649
 24
390.7565820076042
 34
0.0
100
AcDbRotatedDimension
1001
ACAD
1000
DSTYLE
1002
{
1070
   271
1070
     2
1002
}
  0
DIMENSION
  5
FCC
330
18
100
AcDbEntity
  8
寸法線
100
AcDbDimension
  2
*D24
 10
469.5246214685919
 20
340.8909828872227
 30
0.0
 11
467.6496214685919
 21
361.3909828872227
 31
0.0
 70
    32
  1
φ42
 71
     5
 42
-1.0
  3
STYLE3
100
AcDbAlignedDimension
 13
456.4948711479578
 23
381.8909828872227
 33
0.0
 14
456.4948711479578
 24
340.8909828872227
 34
0.0
 50
90.0
100
AcDbRotatedDimension
1001
ACAD
1000
DSTYLE
1002
{
1070
   271
1070
     2
1002
}
  0
CIRCLE
  5
106B
330
18
100
AcDbEntity
  8
寸法線
100
AcDbCircle
 10
414.9868045327877
 20
450.7306923063701
 30
0.0
 40
0.25
  0
LINE
  5
106C
330
18
100
AcDbEntity
  8
中心線
100
AcDbLine
 10
399.9868045327876
 20
440.359285124432
 30
0.0
 11
399.9868045327876
 21
430.0547672263014
 31
0.0
  0
LINE
  5
10B8
330
18
100
AcDbEntity
  8
外形線
100
AcDbLine
 10
273.4001104403403
 20
267.5335269142686
 30
0.0
 11
365.4001104403403
 21
267.5335269142686
 31
0.0
  0
LINE
  5
10B9
330
18
100
AcDbEntity
  8
外形線
100
AcDbLine
 10
273.4001104403403
 20
268.7896839142687
 30
0.0
 11
365.4001104403403
 21
268.7896839142687
 31
0.0
  0
TEXT
  5
10BA
330
18
100
AcDbEntity
  8
文字
  6
Continuous
100
AcDbText
 10
274.0644944403403
 20
271.3019969142686
 30
0.0
 40
4.0
  1
Model No.YM-1Magnetic Stand
  7
STYLE3
100
AcDbText
  0
TEXT
  5
10BB
330
18
100
AcDbEntity
  8
0
  6
Continuous
100
AcDbText
 10
494.1275094403403
 20
192.3939539142686
 30
0.0
 40
3.5
  1
仕様及び外観は予告なく変更される場合がございますのでご了承下さい。
  7
STYLE3
100
AcDbText
  0
TEXT
  5
10BC
330
18
100
AcDbEntity
  8
0
  6
Continuous
100
AcDbText
 10
493.8360144403402
 20
188.4648059142686
 30
0.0
 40
2.1
  1
Design and specifications are subject to change without notice for future improvement.
  7
STYLE3
100
AcDbText
  0
LINE
  5
10BD
330
18
100
AcDbEntity
  8
外形線
100
AcDbLine
 10
492.3785474403403
 20
186.5668159142686
 30
0.0
 11
633.1699654403402
 21
186.5668159142686
 31
0.0
  0
LINE
  5
10BE
330
18
100
AcDbEntity
  8
外形線
100
AcDbLine
 10
492.3785474403403
 20
197.3470209142686
 30
0.0
 11
633.1699654403402
 21
197.3470209142686
 31
0.0
  0
TEXT
  5
10BF
330
18
100
AcDbEntity
  8
0
  6
Continuous
100
AcDbText
 10
496.1679664403403
 20
182.1964609142686
 30
0.0
 40
3.0
  1
三　　角　　法
  7
STYLE3
100
AcDbText
  0
TEXT
  5
10C0
330
18
100
AcDbEntity
  8
0
  6
Continuous
100
AcDbText
 10
493.5445234403403
 20
178.7001779142686
 30
0.0
 40
2.1
  1
3RD Angle Projection
  7
STYLE3
100
AcDbText
  0
LINE
  5
10C1
330
18
100
AcDbEntity
  8
外形線
100
AcDbLine
 10
492.3785474403403
 20
176.9520379142686
 30
0.0
 11
492.3785474403403
 21
197.3470209142686
 31
0.0
  0
TEXT
  5
10C2
330
18
100
AcDbEntity
  8
0
  6
Continuous
100
AcDbText
 10
595.7502774403403
 20
182.4878179142686
 30
0.0
 40
3.0
  1
株式会社　尾崎製作所
  7
STYLE3
100
AcDbText
  0
TEXT
  5
10C3
330
18
100
AcDbEntity
  8
0
  6
Continuous
100
AcDbText
 10
596.6247564403403
 20
178.7001789142686
 30
0.0
 40
2.1
  1
OZAKI MFG. CO., LTD.
  7
STYLE3
100
AcDbText
  0
TEXT
  5
10C4
330
18
100
AcDbEntity
  8
0
  6
Continuous
100
AcDbText
 10
537.1487924403403
 20
180.4483209142686
 30
0.0
 40
2.399999999999999
  1
mm
  7
STYLE3
100
AcDbText
  0
LINE
  5
10C5
330
18
100
AcDbEntity
  8
外形線
100
AcDbLine
 10
527.6492754403403
 20
186.5668159142686
 30
0.0
 11
527.6492754403403
 21
176.9520379142686
 31
0.0
  0
TEXT
  5
10C6
330
18
100
AcDbEntity
  8
0
  6
Continuous
100
AcDbText
 10
529.1067444403402
 20
182.2024149142686
 30
0.0
 40
3.0
  1
単位
  7
STYLE3
100
AcDbText
  0
TEXT
  5
10C7
330
18
100
AcDbEntity
  8
0
  6
Continuous
100
AcDbText
 10
529.2784654403403
 20
178.7001789142686
 30
0.0
 40
2.1
  1
Unit
  7
STYLE3
100
AcDbText
  0
TEXT
  5
10C8
330
18
100
AcDbEntity
  8
0
  6
Continuous
100
AcDbText
 10
546.8878554403403
 20
178.9915359142686
 30
0.0
 40
2.1
  1
Scale
  7
STYLE3
100
AcDbText
  0
TEXT
  5
10C9
330
18
100
AcDbEntity
  8
0
  6
Continuous
100
AcDbText
 10
546.4246404403403
 20
181.9110579142686
 30
0.0
 40
3.0
  1
尺 度
  7
STYLE3
100
AcDbText
  0
LINE
  5
10CA
330
18
100
AcDbEntity
  8
外形線
100
AcDbLine
 10
545.1388924403403
 20
186.5668159142686
 30
0.0
 11
545.1388924403403
 21
176.9520379142686
 31
0.0
  0
LINE
  5
10CB
330
18
100
AcDbEntity
  8
外形線
100
AcDbLine
 10
564.6689644403402
 20
186.5668159142686
 30
0.0
 11
564.6689644403402
 21
176.9520379142686
 31
0.0
  0
TEXT
  5
10CC
330
18
100
AcDbEntity
  8
0
  6
Continuous
100
AcDbText
 10
556.5071444403403
 20
180.7396779142686
 30
0.0
 40
2.399999999999999
  1
1/1
  7
STYLE3
100
AcDbText
  0
TEXT
  5
10CD
330
18
100
AcDbEntity
  8
0
  6
Continuous
100
AcDbText
 10
575.3457234403404
 20
180.4483199142686
 30
0.0
 40
2.1
  1
2010.06.15
  7
STYLE3
100
AcDbText
  0
TEXT
  5
10CE
330
18
100
AcDbEntity
  8
0
  6
Continuous
100
AcDbText
 10
566.6009154403403
 20
178.7001799142686
 30
0.0
 40
2.1
  1
Date
  7
STYLE3
100
AcDbText
  0
TEXT
  5
10CF
330
18
100
AcDbEntity
  8
0
  6
Continuous
100
AcDbText
 10
566.2175544403403
 20
182.0332629142686
 30
0.0
 40
3.0
  1
日 付
  7
STYLE3
100
AcDbText
  0
LINE
  5
10D0
330
18
100
AcDbEntity
  8
外形線
100
AcDbLine
 10
594.4013144403402
 20
186.5668159142686
 30
0.0
 11
594.4013144403402
 21
176.9520379142686
 31
0.0
  0
ENDSEC
  0
SECTION
  2
OBJECTS
  0
DICTIONARY
  5
C
330
0
100
AcDbDictionary
281
     1
  3
ACAD_COLOR
350
1091
  3
ACAD_GROUP
350
D
  3
ACAD_IMAGE_DICT
350
E44
  3
ACAD_LAYOUT
350
1092
  3
ACAD_MATERIAL
350
1090
  3
ACAD_MLINESTYLE
350
1B
  3
ACAD_PLOTSETTINGS
350
1093
  3
ACAD_PLOTSTYLENAME
350
108E
  3
ACDBVARIABLEDICTIONARY
350
6B9
  0
DICTIONARY
  5
1091
102
{ACAD_REACTORS
330
C
102
}
330
C
100
AcDbDictionary
281
     1
  0
DICTIONARY
  5
D
102
{ACAD_REACTORS
330
C
102
}
330
C
100
AcDbDictionary
281
     1
  0
DICTIONARY
  5
E44
102
{ACAD_REACTORS
330
C
102
}
330
C
100
AcDbDictionary
281
     1
  3
ROGO01
350
E45
  0
DICTIONARY
  5
1092
102
{ACAD_REACTORS
330
C
102
}
330
C
100
AcDbDictionary
281
     1
  3
Model
350
1094
  3
レイアウト1
350
1095
  0
DICTIONARY
  5
1090
102
{ACAD_REACTORS
330
C
102
}
330
C
100
AcDbDictionary
281
     1
  0
DICTIONARY
  5
1B
102
{ACAD_REACTORS
330
C
102
}
330
C
100
AcDbDictionary
281
     1
  3
STANDARD
350
1C
  0
DICTIONARY
  5
1093
102
{ACAD_REACTORS
330
C
102
}
330
C
100
AcDbDictionary
281
     1
  0
ACDBDICTIONARYWDFLT
  5
108E
102
{ACAD_REACTORS
330
C
102
}
330
C
100
AcDbDictionary
281
     1
  3
Normal
350
108F
100
AcDbDictionaryWithDefault
340
108F
  0
DICTIONARY
  5
6B9
102
{ACAD_REACTORS
330
C
102
}
330
C
100
AcDbDictionary
281
     1
  3
SORTENTS
350
6BA
  0
IMAGEDEF
  5
E45
102
{ACAD_REACTORS
330
E44
102
}
330
E44
100
AcDbRasterImageDef
 90
        0
  1
D:\ﾃｽﾄ\rogo01.TIF
 10
3388.0
 20
4668.0
 11
0.0635
 21
0.0635
280
     1
281
     5
  0
LAYOUT
  5
1094
102
{ACAD_REACTORS
330
1092
102
}
330
1092
100
AcDbPlotSettings
  1

  2
EPSON PX-101
  4

  6

 40
0.0
 41
0.0
 42
0.0
 43
0.0
 44
0.0
 45
0.0
 46
0.0
 47
0.0
 48
0.0
 49
0.0
140
0.0
141
0.0
142
1.0
143
1.0
 70
  1712
 72
     0
 73
     0
 74
     0
  7
AutoCad LT 98fukui.ctb
 75
     0
147
1.0
 76
     0
 77
     2
 78
   300
148
0.0
149
0.0
100
AcDbLayout
  1
Model
 70
     1
 71
     0
 10
0.0
 20
0.0
 11
12.0
 21
9.0
 12
0.0
 22
0.0
 32
0.0
 14
0.0
 24
0.0
 34
0.0
 15
0.0
 25
0.0
 35
0.0
146
0.0
 13
0.0
 23
0.0
 33
0.0
 16
1.0
 26
0.0
 36
0.0
 17
0.0
 27
1.0
 37
0.0
 76
     0
330
18
  0
LAYOUT
  5
1095
102
{ACAD_REACTORS
330
1092
102
}
330
1092
100
AcDbPlotSettings
  1

  2
EPSON PX-101
  4

  6

 40
0.0
 41
0.0
 42
0.0
 43
0.0
 44
0.0
 45
0.0
 46
0.0
 47
0.0
 48
0.0
 49
0.0
140
0.0
141
0.0
142
1.0
143
1.0
 70
   688
 72
     0
 73
     0
 74
     5
  7
AutoCad LT 98fukui.ctb
 75
    16
147
1.0
 76
     0
 77
     2
 78
   300
148
0.0
149
0.0
100
AcDbLayout
  1
レイアウト1
 70
     1
 71
     1
 10
0.0
 20
0.0
 11
420.0
 21
297.0
 12
0.0
 22
0.0
 32
0.0
 14
1.000000000000000E+20
 24
1.000000000000000E+20
 34
1.000000000000000E+20
 15
-1.000000000000000E+20
 25
-1.000000000000000E+20
 35
-1.000000000000000E+20
146
0.0
 13
0.0
 23
0.0
 33
0.0
 16
1.0
 26
0.0
 36
0.0
 17
0.0
 27
1.0
 37
0.0
 76
     0
330
15
  0
MLINESTYLE
  5
1C
102
{ACAD_REACTORS
330
1B
102
}
330
1B
100
AcDbMlineStyle
  2
STANDARD
 70
     0
  3

 62
   256
 51
90.0
 52
90.0
 71
     2
 49
0.5
 62
   256
  6
BYLAYER
 49
-0.5
 62
   256
  6
BYLAYER
  0
ACDBPLACEHOLDER
  5
108F
102
{ACAD_REACTORS
330
108E
102
}
330
108E
  0
DICTIONARYVAR
  5
6BA
102
{ACAD_REACTORS
330
6B9
102
}
330
6B9
100
DictionaryVariables
280
     0
  1
96
  0
ENDSEC
  0
EOF
