  0
SECTION
  2
HEADER
  9
$ACADVER
  1
AC1018
  9
$ACADMAINTVER
 70
     0
  9
$DWGCODEPAGE
  3
ANSI_932
  9
$INSBASE
 10
0.0
 20
0.0
 30
0.0
  9
$EXTMIN
 10
257.5285017784872
 20
177.7473118875734
 30
-1.000061032362211
  9
$EXTMAX
 10
635.8702057860933
 20
461.0819986990406
 30
0.0000610416757212
  9
$LIMMIN
 10
0.0
 20
0.0
  9
$LIMMAX
 10
420.0
 20
297.0
  9
$ORTHOMODE
 70
     0
  9
$REGENMODE
 70
     1
  9
$FILLMODE
 70
     1
  9
$QTEXTMODE
 70
     0
  9
$MIRRTEXT
 70
     1
  9
$LTSCALE
 40
1.0
  9
$ATTMODE
 70
     1
  9
$TEXTSIZE
 40
3.0
  9
$TRACEWID
 40
1.0
  9
$TEXTSTYLE
  7
STYLE3
  9
$CLAYER
  8
寸法線
  9
$CELTYPE
  6
BYLAYER
  9
$CECOLOR
 62
   256
  9
$CELTSCALE
 40
1.0
  9
$DISPSILH
 70
     0
  9
$DIMSCALE
 40
1.0
  9
$DIMASZ
 40
2.5
  9
$DIMEXO
 40
0.0
  9
$DIMDLI
 40
3.75
  9
$DIMRND
 40
0.0
  9
$DIMDLE
 40
0.0
  9
$DIMEXE
 40
1.25
  9
$DIMTP
 40
0.0
  9
$DIMTM
 40
0.0
  9
$DIMTXT
 40
2.5
  9
$DIMCEN
 40
2.5
  9
$DIMTSZ
 40
0.0
  9
$DIMTOL
 70
     0
  9
$DIMLIM
 70
     0
  9
$DIMTIH
 70
     0
  9
$DIMTOH
 70
     0
  9
$DIMSE1
 70
     0
  9
$DIMSE2
 70
     0
  9
$DIMTAD
 70
     1
  9
$DIMZIN
 70
     8
  9
$DIMBLK
  1

  9
$DIMASO
 70
     1
  9
$DIMSHO
 70
     1
  9
$DIMPOST
  1

  9
$DIMAPOST
  1

  9
$DIMALT
 70
     0
  9
$DIMALTD
 70
     4
  9
$DIMALTF
 40
0.0394
  9
$DIMLFAC
 40
1.0
  9
$DIMTOFL
 70
     1
  9
$DIMTVP
 40
0.0
  9
$DIMTIX
 70
     0
  9
$DIMSOXD
 70
     0
  9
$DIMSAH
 70
     1
  9
$DIMBLK1
  1
OPEN
  9
$DIMBLK2
  1
OPEN
  9
$DIMSTYLE
  2
STYLE3
  9
$DIMCLRD
 70
     2
  9
$DIMCLRE
 70
     2
  9
$DIMCLRT
 70
     6
  9
$DIMTFAC
 40
1.0
  9
$DIMGAP
 40
0.625
  9
$DIMJUST
 70
     0
  9
$DIMSD1
 70
     0
  9
$DIMSD2
 70
     0
  9
$DIMTOLJ
 70
     1
  9
$DIMTZIN
 70
     0
  9
$DIMALTZ
 70
     0
  9
$DIMALTTZ
 70
     0
  9
$DIMUPT
 70
     0
  9
$DIMDEC
 70
     2
  9
$DIMTDEC
 70
     4
  9
$DIMALTU
 70
     8
  9
$DIMALTTD
 70
     4
  9
$DIMTXSTY
  7
STYLE3
  9
$DIMAUNIT
 70
     0
  9
$DIMADEC
 70
     0
  9
$DIMALTRND
 40
0.0
  9
$DIMAZIN
 70
     0
  9
$DIMDSEP
 70
    46
  9
$DIMATFIT
 70
     3
  9
$DIMFRAC
 70
     0
  9
$DIMLDRBLK
  1

  9
$DIMLUNIT
 70
     2
  9
$DIMLWD
 70
    -2
  9
$DIMLWE
 70
    -2
  9
$DIMTMOVE
 70
     0
  9
$LUNITS
 70
     2
  9
$LUPREC
 70
     4
  9
$SKETCHINC
 40
1.0
  9
$FILLETRAD
 40
0.0
  9
$AUNITS
 70
     0
  9
$AUPREC
 70
     0
  9
$MENU
  1
.
  9
$ELEVATION
 40
0.0
  9
$PELEVATION
 40
0.0
  9
$THICKNESS
 40
0.0
  9
$LIMCHECK
 70
     0
  9
$CHAMFERA
 40
1.0
  9
$CHAMFERB
 40
1.0
  9
$CHAMFERC
 40
20.0
  9
$CHAMFERD
 40
0.0
  9
$SKPOLY
 70
     0
  9
$TDCREATE
 40
2451048.427124537
  9
$TDUCREATE
 40
2451048.052124537
  9
$TDUPDATE
 40
2455363.677681921
  9
$TDUUPDATE
 40
2455363.302681921
  9
$TDINDWG
 40
0.7288614005
  9
$TDUSRTIMER
 40
0.7288614005
  9
$USRTIMER
 70
     1
  9
$ANGBASE
 50
0.0
  9
$ANGDIR
 70
     0
  9
$PDMODE
 70
     0
  9
$PDSIZE
 40
0.0
  9
$PLINEWID
 40
0.0
  9
$SPLFRAME
 70
     0
  9
$SPLINETYPE
 70
     6
  9
$SPLINESEGS
 70
     8
  9
$HANDSEED
  5
14FB
  9
$SURFTAB1
 70
     6
  9
$SURFTAB2
 70
     6
  9
$SURFTYPE
 70
     6
  9
$SURFU
 70
     6
  9
$SURFV
 70
     6
  9
$UCSBASE
  2

  9
$UCSNAME
  2

  9
$UCSORG
 10
0.0
 20
0.0
 30
0.0
  9
$UCSXDIR
 10
1.0
 20
0.0
 30
0.0
  9
$UCSYDIR
 10
0.0
 20
1.0
 30
0.0
  9
$UCSORTHOREF
  2

  9
$UCSORTHOVIEW
 70
     0
  9
$UCSORGTOP
 10
0.0
 20
0.0
 30
0.0
  9
$UCSORGBOTTOM
 10
0.0
 20
0.0
 30
0.0
  9
$UCSORGLEFT
 10
0.0
 20
0.0
 30
0.0
  9
$UCSORGRIGHT
 10
0.0
 20
0.0
 30
0.0
  9
$UCSORGFRONT
 10
0.0
 20
0.0
 30
0.0
  9
$UCSORGBACK
 10
0.0
 20
0.0
 30
0.0
  9
$PUCSBASE
  2

  9
$PUCSNAME
  2

  9
$PUCSORG
 10
0.0
 20
0.0
 30
0.0
  9
$PUCSXDIR
 10
1.0
 20
0.0
 30
0.0
  9
$PUCSYDIR
 10
0.0
 20
1.0
 30
0.0
  9
$PUCSORTHOREF
  2

  9
$PUCSORTHOVIEW
 70
     0
  9
$PUCSORGTOP
 10
0.0
 20
0.0
 30
0.0
  9
$PUCSORGBOTTOM
 10
0.0
 20
0.0
 30
0.0
  9
$PUCSORGLEFT
 10
0.0
 20
0.0
 30
0.0
  9
$PUCSORGRIGHT
 10
0.0
 20
0.0
 30
0.0
  9
$PUCSORGFRONT
 10
0.0
 20
0.0
 30
0.0
  9
$PUCSORGBACK
 10
0.0
 20
0.0
 30
0.0
  9
$USERI1
 70
     0
  9
$USERI2
 70
     0
  9
$USERI3
 70
     0
  9
$USERI4
 70
     0
  9
$USERI5
 70
     0
  9
$USERR1
 40
0.0
  9
$USERR2
 40
0.0
  9
$USERR3
 40
0.0
  9
$USERR4
 40
0.0
  9
$USERR5
 40
0.0
  9
$WORLDVIEW
 70
     1
  9
$SHADEDGE
 70
     3
  9
$SHADEDIF
 70
    70
  9
$TILEMODE
 70
     1
  9
$MAXACTVP
 70
    48
  9
$PINSBASE
 10
0.0
 20
0.0
 30
0.0
  9
$PLIMCHECK
 70
     0
  9
$PEXTMIN
 10
1.000000000000000E+20
 20
1.000000000000000E+20
 30
1.000000000000000E+20
  9
$PEXTMAX
 10
-1.000000000000000E+20
 20
-1.000000000000000E+20
 30
-1.000000000000000E+20
  9
$PLIMMIN
 10
0.0
 20
0.0
  9
$PLIMMAX
 10
420.0
 20
297.0
  9
$UNITMODE
 70
     0
  9
$VISRETAIN
 70
     1
  9
$PLINEGEN
 70
     0
  9
$PSLTSCALE
 70
     1
  9
$TREEDEPTH
 70
  3020
  9
$CMLSTYLE
  2
STANDARD
  9
$CMLJUST
 70
     0
  9
$CMLSCALE
 40
20.0
  9
$PROXYGRAPHICS
 70
     1
  9
$MEASUREMENT
 70
     1
  9
$CELWEIGHT
370
    -1
  9
$ENDCAPS
280
     0
  9
$JOINSTYLE
280
     0
  9
$LWDISPLAY
290
     0
  9
$INSUNITS
 70
     0
  9
$HYPERLINKBASE
  1

  9
$STYLESHEET
  1

  9
$XEDIT
290
     1
  9
$CEPSNTYPE
380
     0
  9
$PSTYLEMODE
290
     1
  9
$FINGERPRINTGUID
  2
{909BBFFA-3276-4476-AAD6-44E28A7C65D1}
  9
$VERSIONGUID
  2
{CFEAC9B9-CE3C-4E39-A516-8A6AE647BDD2}
  9
$EXTNAMES
290
     1
  9
$PSVPSCALE
 40
0.0
  9
$OLESTARTUP
290
     0
  9
$SORTENTS
280
    96
  9
$INDEXCTL
280
     0
  9
$HIDETEXT
280
     0
  9
$XCLIPFRAME
290
     0
  9
$HALOGAP
280
     0
  9
$OBSCOLOR
 70
   257
  9
$OBSLTYPE
280
     0
  9
$INTERSECTIONDISPLAY
280
     0
  9
$INTERSECTIONCOLOR
 70
   257
  9
$DIMASSOC
280
     1
  9
$PROJECTNAME
  1

  0
ENDSEC
  0
SECTION
  2
CLASSES
  0
CLASS
  1
DICTIONARYVAR
  2
AcDbDictionaryVar
  3
ObjectDBX Classes
 90
        0
 91
        1
280
     0
281
     0
  0
CLASS
  1
IMAGEDEF
  2
AcDbRasterImageDef
  3
ISM
 90
        0
 91
        1
280
     0
281
     0
  0
CLASS
  1
ACDBDICTIONARYWDFLT
  2
AcDbDictionaryWithDefault
  3
ObjectDBX Classes
 90
        0
 91
        1
280
     0
281
     0
  0
ENDSEC
  0
SECTION
  2
TABLES
  0
TABLE
  2
VPORT
  5
8
330
0
100
AcDbSymbolTable
 70
     2
  0
VPORT
  5
14FA
330
8
100
AcDbSymbolTableRecord
100
AcDbViewportTableRecord
  2
*Active
 70
     0
 10
0.0
 20
0.0
 11
1.0
 21
1.0
 12
446.6993537822902
 22
319.4146552933071
 13
0.0
 23
0.0
 14
10.0
 24
10.0
 15
10.0
 25
10.0
 16
0.0
 26
0.0
 36
1.0
 17
0.0
 27
0.0
 37
0.0
 40
285.4893232130753
 41
1.530456852791878
 42
50.0
 43
0.0
 44
0.0
 50
0.0
 51
0.0
 71
     0
 72
   100
 73
     1
 74
     1
 75
     0
 76
     0
 77
     0
 78
     0
281
     0
 65
     1
110
0.0
120
0.0
130
0.0
111
1.0
121
0.0
131
0.0
112
0.0
122
1.0
132
0.0
 79
     0
146
0.0
  0
ENDTAB
  0
TABLE
  2
LTYPE
  5
5
330
0
100
AcDbSymbolTable
 70
    13
  0
LTYPE
  5
12
330
5
100
AcDbSymbolTableRecord
100
AcDbLinetypeTableRecord
  2
BYBLOCK
 70
     0
  3

 72
    65
 73
     0
 40
0.0
  0
LTYPE
  5
13
330
5
100
AcDbSymbolTableRecord
100
AcDbLinetypeTableRecord
  2
BYLAYER
 70
     0
  3

 72
    65
 73
     0
 40
0.0
  0
LTYPE
  5
14
330
5
100
AcDbSymbolTableRecord
100
AcDbLinetypeTableRecord
  2
CONTINUOUS
 70
     0
  3
Solid line
 72
    65
 73
     0
 40
0.0
  0
LTYPE
  5
22
330
5
100
AcDbSymbolTableRecord
100
AcDbLinetypeTableRecord
  2
CENTER2
 70
     0
  3
Center (.5x) ___ _ ___ _ ___ _ ___ _ ___ _ ___
 72
    65
 73
     4
 40
28.575
 49
19.05
 74
     0
 49
-3.174999999999999
 74
     0
 49
3.174999999999999
 74
     0
 49
-3.174999999999999
 74
     0
  0
LTYPE
  5
23
330
5
100
AcDbSymbolTableRecord
100
AcDbLinetypeTableRecord
  2
HIDDEN2
 70
     0
  3
Hidden (.5x) _ _ _ _ _ _ _ _ _ _ _ _ _ _ _ _ _
 72
    65
 73
     2
 40
4.762499999999999
 49
3.174999999999999
 74
     0
 49
-1.587499999999999
 74
     0
  0
LTYPE
  5
24
330
5
100
AcDbSymbolTableRecord
100
AcDbLinetypeTableRecord
  2
PHANTOM2
 70
     0
  3
Phantom (.5x) ___ _ _ ___ _ _ ___ _ _ ___ _ _
 72
    65
 73
     6
 40
31.75
 49
15.875
 74
     0
 49
-3.174999999999999
 74
     0
 49
3.174999999999999
 74
     0
 49
-3.174999999999999
 74
     0
 49
3.174999999999999
 74
     0
 49
-3.174999999999999
 74
     0
  0
ENDTAB
  0
TABLE
  2
LAYER
  5
2
330
0
100
AcDbSymbolTable
 70
    19
  0
LAYER
  5
E
330
2
100
AcDbSymbolTableRecord
100
AcDbLayerTableRecord
  2
0
 70
     0
 62
     7
  6
CONTINUOUS
370
    -3
390
14B8
  0
LAYER
  5
25
330
2
100
AcDbSymbolTableRecord
100
AcDbLayerTableRecord
  2
外形線
 70
     0
 62
     7
  6
CONTINUOUS
370
    -3
390
14B8
  0
LAYER
  5
26
330
2
100
AcDbSymbolTableRecord
100
AcDbLayerTableRecord
  2
寸法線
 70
     0
 62
     2
  6
CONTINUOUS
370
    -3
390
14B8
  0
LAYER
  5
27
330
2
100
AcDbSymbolTableRecord
100
AcDbLayerTableRecord
  2
中心線
 70
     0
 62
     4
  6
CENTER2
370
    -3
390
14B8
  0
LAYER
  5
28
330
2
100
AcDbSymbolTableRecord
100
AcDbLayerTableRecord
  2
隠れ線
 70
     0
 62
     6
  6
HIDDEN2
370
    -3
390
14B8
  0
LAYER
  5
29
330
2
100
AcDbSymbolTableRecord
100
AcDbLayerTableRecord
  2
想像線
 70
     0
 62
     1
  6
PHANTOM2
370
    -3
390
14B8
  0
LAYER
  5
2A
330
2
100
AcDbSymbolTableRecord
100
AcDbLayerTableRecord
  2
ﾊｯﾁﾝｸ
 70
     0
 62
     6
  6
CONTINUOUS
370
    -3
390
14B8
  0
LAYER
  5
2B
330
2
100
AcDbSymbolTableRecord
100
AcDbLayerTableRecord
  2
文字
 70
     0
 62
     6
  6
CONTINUOUS
370
    -3
390
14B8
  0
LAYER
  5
53
330
2
100
AcDbSymbolTableRecord
100
AcDbLayerTableRecord
  2
DEFPOINTS
 70
     0
 62
     7
  6
CONTINUOUS
290
     0
370
    -3
390
14B8
  0
LAYER
  5
A5
330
2
100
AcDbSymbolTableRecord
100
AcDbLayerTableRecord
  2
C
 70
     0
 62
     7
  6
CONTINUOUS
370
    -3
390
14B8
  0
LAYER
  5
B42
330
2
100
AcDbSymbolTableRecord
100
AcDbLayerTableRecord
  2
ROGO
 70
     0
 62
     6
  6
CONTINUOUS
370
    -3
390
14B8
  0
LAYER
  5
134A
330
2
100
AcDbSymbolTableRecord
100
AcDbLayerTableRecord
  2
隠れ線2
 70
     0
 62
     1
  6
HIDDEN2
370
    -3
390
14B8
  0
ENDTAB
  0
TABLE
  2
STYLE
  5
3
330
0
100
AcDbSymbolTable
 70
     6
  0
STYLE
  5
F
330
3
100
AcDbSymbolTableRecord
100
AcDbTextStyleTableRecord
  2
STANDARD
 70
     0
 40
0.0
 41
1.0
 50
0.0
 71
     0
 42
2.5
  3
txt
  4

  0
STYLE
  5
3F
330
3
100
AcDbSymbolTableRecord
100
AcDbTextStyleTableRecord
  2
STYLE3
 70
     0
 40
0.0
 41
1.0
 50
0.0
 71
     0
 42
3.0
  3
romans.shx
  4
bigfont.shx
  0
ENDTAB
  0
TABLE
  2
VIEW
  5
6
330
0
100
AcDbSymbolTable
 70
     0
  0
ENDTAB
  0
TABLE
  2
UCS
  5
7
330
0
100
AcDbSymbolTable
 70
     0
  0
ENDTAB
  0
TABLE
  2
APPID
  5
9
330
0
100
AcDbSymbolTable
 70
     1
  0
APPID
  5
10
330
9
100
AcDbSymbolTableRecord
100
AcDbRegAppTableRecord
  2
ACAD
 70
     0
  0
ENDTAB
  0
TABLE
  2
DIMSTYLE
  5
A
330
0
100
AcDbSymbolTable
 70
    12
100
AcDbDimStyleTable
 71
     0
  0
DIMSTYLE
105
1D
330
A
100
AcDbSymbolTableRecord
100
AcDbDimStyleTableRecord
  2
STANDARD
 70
     0
 41
2.5
 42
0.625
 43
3.75
 44
1.25
 73
     0
 74
     0
 77
     1
 78
     8
140
2.5
141
2.5
143
0.0394
147
0.625
171
     4
172
     1
273
     8
274
     4
277
     6
340
F
  0
DIMSTYLE
105
8F
102
{ACAD_REACTORS
330
D06
330
D1E
330
DA8
330
DB7
330
DD1
330
E45
330
E51
330
12B4
330
1378
330
1392
330
1403
330
1425
330
143D
330
1455
330
1462
330
1490
102
}
330
A
100
AcDbSymbolTableRecord
100
AcDbDimStyleTableRecord
  2
STYLE3
 70
     0
 41
2.5
 42
0.0
 43
3.75
 44
1.25
 73
     0
 74
     0
 77
     1
 78
     8
140
2.5
141
2.5
143
0.0394
147
0.625
171
     4
172
     1
173
     1
176
     2
177
     2
178
     6
271
     1
273
     8
274
     4
340
3F
341
45
343
45
344
45
  0
ENDTAB
  0
TABLE
  2
BLOCK_RECORD
  5
1
330
0
100
AcDbSymbolTable
 70
    49
  0
BLOCK_RECORD
  5
18
330
1
100
AcDbSymbolTableRecord
100
AcDbBlockTableRecord
  2
*MODEL_SPACE
340
14BD
  0
BLOCK_RECORD
  5
15
330
1
100
AcDbSymbolTableRecord
100
AcDbBlockTableRecord
  2
*PAPER_SPACE
340
14BE
  0
BLOCK_RECORD
  5
45
330
1
100
AcDbSymbolTableRecord
100
AcDbBlockTableRecord
  2
_OPEN
340
0
102
{BLKREFS
331
13B0
331
13B1
331
73C
331
73E
331
745
331
746
331
74D
331
74E
331
755
331
756
331
75C
331
794
331
795
331
79C
331
79D
331
7A3
331
7A4
331
7AB
331
7AC
331
7B1
331
7B2
331
7B4
331
7B5
331
7C6
331
7C7
331
7D4
331
9CC
331
9F2
331
9F3
331
9FC
331
9FD
331
A01
331
A05
331
A06
331
A0A
331
A0B
331
A49
331
A57
331
A58
331
AC5
331
AC6
331
ACE
331
ACF
331
AD7
331
AD8
331
AE0
331
AE1
331
AE9
331
AEA
331
AF2
331
AFF
331
B00
331
B0B
331
B0C
331
B16
331
B17
331
B22
331
D0B
331
D0C
331
D23
331
D24
331
13D9
331
13DA
331
13E6
331
13E7
331
DBD
331
DBE
331
DCA
331
DCB
331
1411
331
1412
331
1407
331
1408
331
10AB
331
10AC
331
10B7
331
10B8
331
10C3
331
10C4
331
10CF
331
10D0
331
10DB
331
10DC
331
10E9
331
10EA
331
10F7
331
10F8
331
1103
331
1104
331
110F
331
1110
331
111B
331
111C
331
1126
331
1127
331
1131
331
1132
331
113D
331
113E
331
12AD
331
12AE
331
137D
331
137E
331
1399
331
139A
331
13A6
331
13A7
331
13BB
331
13BC
331
13FC
331
13FD
331
142A
331
142B
331
1442
331
1443
331
147D
331
147E
331
1467
331
1468
331
1495
331
1496
331
E4A
331
E4B
331
E82
331
E83
331
141E
331
141F
331
1436
331
1437
331
144E
331
144F
331
145B
331
145C
331
1472
331
1473
331
1489
331
148A
102
}
  0
BLOCK_RECORD
  5
CFA
330
1
100
AcDbSymbolTableRecord
100
AcDbBlockTableRecord
  2
*D13
340
0
  0
BLOCK_RECORD
  5
D12
330
1
100
AcDbSymbolTableRecord
100
AcDbBlockTableRecord
  2
*D14
340
0
  0
BLOCK_RECORD
  5
D9A
330
1
100
AcDbSymbolTableRecord
100
AcDbBlockTableRecord
  2
*D15
340
0
  0
BLOCK_RECORD
  5
DA9
330
1
100
AcDbSymbolTableRecord
100
AcDbBlockTableRecord
  2
*D16
340
0
  0
BLOCK_RECORD
  5
DC5
330
1
100
AcDbSymbolTableRecord
100
AcDbBlockTableRecord
  2
*D18
340
0
  0
BLOCK_RECORD
  5
E3A
330
1
100
AcDbSymbolTableRecord
100
AcDbBlockTableRecord
  2
*D20
340
0
  0
BLOCK_RECORD
  5
E46
330
1
100
AcDbSymbolTableRecord
100
AcDbBlockTableRecord
  2
*D21
340
0
  0
BLOCK_RECORD
  5
12A8
330
1
100
AcDbSymbolTableRecord
100
AcDbBlockTableRecord
  2
*D36
340
0
  0
BLOCK_RECORD
  5
136C
330
1
100
AcDbSymbolTableRecord
100
AcDbBlockTableRecord
  2
*D38
340
0
  0
BLOCK_RECORD
  5
1384
330
1
100
AcDbSymbolTableRecord
100
AcDbBlockTableRecord
  2
*D39
340
0
  0
BLOCK_RECORD
  5
13F7
330
1
100
AcDbSymbolTableRecord
100
AcDbBlockTableRecord
  2
*D42
340
0
  0
BLOCK_RECORD
  5
1419
330
1
100
AcDbSymbolTableRecord
100
AcDbBlockTableRecord
  2
*D43
340
0
  0
BLOCK_RECORD
  5
1431
330
1
100
AcDbSymbolTableRecord
100
AcDbBlockTableRecord
  2
*D44
340
0
  0
BLOCK_RECORD
  5
1449
330
1
100
AcDbSymbolTableRecord
100
AcDbBlockTableRecord
  2
*D45
340
0
  0
BLOCK_RECORD
  5
1456
330
1
100
AcDbSymbolTableRecord
100
AcDbBlockTableRecord
  2
*D46
340
0
  0
BLOCK_RECORD
  5
1484
330
1
100
AcDbSymbolTableRecord
100
AcDbBlockTableRecord
  2
*D47
340
0
  0
ENDTAB
  0
ENDSEC
  0
SECTION
  2
BLOCKS
  0
BLOCK
  5
19
330
18
100
AcDbEntity
  8
0
100
AcDbBlockBegin
  2
*MODEL_SPACE
 70
     0
 10
0.0
 20
0.0
 30
0.0
  3
*MODEL_SPACE
  1

  0
ENDBLK
  5
1A
330
18
100
AcDbEntity
  8
0
100
AcDbBlockEnd
  0
BLOCK
  5
16
330
15
100
AcDbEntity
 67
     1
  8
0
100
AcDbBlockBegin
  2
*PAPER_SPACE
 70
     0
 10
0.0
 20
0.0
 30
0.0
  3
*PAPER_SPACE
  1

  0
ENDBLK
  5
17
330
15
100
AcDbEntity
 67
     1
  8
0
100
AcDbBlockEnd
  0
BLOCK
  5
46
330
45
100
AcDbEntity
  8
0
100
AcDbBlockBegin
  2
_OPEN
 70
     0
 10
0.0
 20
0.0
 30
0.0
  3
_OPEN
  1

  0
LINE
  5
47
330
45
100
AcDbEntity
  8
0
  6
ByBlock
 62
     0
100
AcDbLine
 10
-1.0
 20
0.1666666666666666
 30
0.0
 11
0.0
 21
0.0
 31
0.0
  0
LINE
  5
48
330
45
100
AcDbEntity
  8
0
  6
ByBlock
 62
     0
100
AcDbLine
 10
0.0
 20
0.0
 30
0.0
 11
-1.0
 21
-0.1666666666666666
 31
0.0
  0
LINE
  5
49
330
45
100
AcDbEntity
  8
0
  6
ByBlock
 62
     0
100
AcDbLine
 10
0.0
 20
0.0
 30
0.0
 11
-1.0
 21
0.0
 31
0.0
  0
ENDBLK
  5
4A
330
45
100
AcDbEntity
  8
0
100
AcDbBlockEnd
  0
BLOCK
  5
D07
330
CFA
100
AcDbEntity
  8
0
100
AcDbBlockBegin
  2
*D13
 70
     1
 10
0.0
 20
0.0
 30
0.0
  3
*D13
  1

  0
LINE
  5
D08
330
CFA
100
AcDbEntity
  8
0
  6
ByBlock
 62
     2
100
AcDbLine
 10
508.0552745846839
 20
389.0879052562469
 30
0.0
 11
508.0552745846839
 21
395.0164395355249
 31
0.0
  0
LINE
  5
D09
330
CFA
100
AcDbEntity
  8
0
  6
ByBlock
 62
     2
100
AcDbLine
 10
518.0552745846839
 20
390.0236123759462
 30
0.0
 11
518.0552745846839
 21
395.0164395355249
 31
0.0
  0
LINE
  5
D0A
330
CFA
100
AcDbEntity
  8
0
  6
ByBlock
 62
     2
100
AcDbLine
 10
510.5552745846838
 20
393.7664395355249
 30
0.0
 11
515.5552745846839
 21
393.7664395355249
 31
0.0
  0
INSERT
  5
D0B
330
CFA
100
AcDbEntity
  8
0
  6
ByBlock
 62
     2
100
AcDbBlockReference
  2
_OPEN
 10
508.0552745846839
 20
393.7664395355249
 30
0.0
 41
2.5
 42
2.5
 43
2.5
 50
180.0
  0
INSERT
  5
D0C
330
CFA
100
AcDbEntity
  8
0
  6
ByBlock
 62
     2
100
AcDbBlockReference
  2
_OPEN
 10
518.0552745846839
 20
393.7664395355249
 30
0.0
 41
2.5
 42
2.5
 43
2.5
  0
MTEXT
  5
D0D
330
CFA
100
AcDbEntity
  8
0
  6
ByBlock
 62
     6
100
AcDbMText
 10
513.055274584684
 20
395.6414395355249
 30
0.0
 40
2.5
 41
0.0
 71
     5
 72
     1
  1
\A1;φ10
  7
STYLE3
 73
     1
 44
1.0
  0
POINT
  5
D0E
330
CFA
100
AcDbEntity
  8
DEFPOINTS
  6
ByBlock
 62
     0
100
AcDbPoint
 10
508.0552745846839
 20
389.0879052562469
 30
0.0
  0
POINT
  5
D0F
330
CFA
100
AcDbEntity
  8
DEFPOINTS
  6
ByBlock
 62
     0
100
AcDbPoint
 10
518.0552745846839
 20
390.0236123759462
 30
0.0
  0
POINT
  5
D10
330
CFA
100
AcDbEntity
  8
DEFPOINTS
  6
ByBlock
 62
     0
100
AcDbPoint
 10
518.0552745846839
 20
393.7664395355249
 30
0.0
  0
ENDBLK
  5
D11
330
CFA
100
AcDbEntity
  8
0
100
AcDbBlockEnd
  0
BLOCK
  5
D1F
330
D12
100
AcDbEntity
  8
0
100
AcDbBlockBegin
  2
*D14
 70
     1
 10
0.0
 20
0.0
 30
0.0
  3
*D14
  1

  0
LINE
  5
D20
330
D12
100
AcDbEntity
  8
0
  6
ByBlock
 62
     2
100
AcDbLine
 10
525.0633411998542
 20
387.2164916764575
 30
0.0
 11
525.0633411998542
 21
395.0164395355249
 31
0.0
  0
LINE
  5
D21
330
D12
100
AcDbEntity
  8
0
  6
ByBlock
 62
     2
100
AcDbLine
 10
537.0633411998544
 20
384.7836536929267
 30
0.0
 11
537.0633411998544
 21
395.0164395355249
 31
0.0
  0
LINE
  5
D22
330
D12
100
AcDbEntity
  8
0
  6
ByBlock
 62
     2
100
AcDbLine
 10
527.5633411998541
 20
393.7664395355249
 30
0.0
 11
534.5633411998544
 21
393.7664395355249
 31
0.0
  0
INSERT
  5
D23
330
D12
100
AcDbEntity
  8
0
  6
ByBlock
 62
     2
100
AcDbBlockReference
  2
_OPEN
 10
525.0633411998542
 20
393.7664395355249
 30
0.0
 41
2.5
 42
2.5
 43
2.5
 50
180.0
  0
INSERT
  5
D24
330
D12
100
AcDbEntity
  8
0
  6
ByBlock
 62
     2
100
AcDbBlockReference
  2
_OPEN
 10
537.0633411998544
 20
393.7664395355249
 30
0.0
 41
2.5
 42
2.5
 43
2.5
  0
MTEXT
  5
D25
330
D12
100
AcDbEntity
  8
0
  6
ByBlock
 62
     6
100
AcDbMText
 10
531.0633411998543
 20
395.6414395355249
 30
0.0
 40
2.5
 41
0.0
 71
     5
 72
     1
  1
\A1;φ12
  7
STYLE3
 73
     1
 44
1.0
  0
POINT
  5
D26
330
D12
100
AcDbEntity
  8
DEFPOINTS
  6
ByBlock
 62
     0
100
AcDbPoint
 10
525.0633411998542
 20
387.2164916764575
 30
0.0
  0
POINT
  5
D27
330
D12
100
AcDbEntity
  8
DEFPOINTS
  6
ByBlock
 62
     0
100
AcDbPoint
 10
537.0633411998544
 20
384.7836536929267
 30
0.0
  0
POINT
  5
D28
330
D12
100
AcDbEntity
  8
DEFPOINTS
  6
ByBlock
 62
     0
100
AcDbPoint
 10
537.0633411998544
 20
393.7664395355249
 30
0.0
  0
ENDBLK
  5
D29
330
D12
100
AcDbEntity
  8
0
100
AcDbBlockEnd
  0
BLOCK
  5
13D3
330
D9A
100
AcDbEntity
  8
0
100
AcDbBlockBegin
  2
*D15
 70
     1
 10
0.0
 20
0.0
 30
0.0
  3
*D15
  1

  0
LINE
  5
13D4
330
D9A
100
AcDbEntity
  8
0
  6
ByBlock
 62
     2
100
AcDbLine
 10
312.3980672021055
 20
220.7051645015346
 30
0.0
 11
312.3980672021055
 21
213.1187855588582
 31
0.0
  0
LINE
  5
13D5
330
D9A
100
AcDbEntity
  8
0
  6
ByBlock
 62
     2
100
AcDbLine
 10
317.8980672021055
 20
220.7051645015346
 30
0.0
 11
317.8980672021055
 21
213.1187855588582
 31
0.0
  0
LINE
  5
13D6
330
D9A
100
AcDbEntity
  8
0
  6
ByBlock
 62
     2
100
AcDbLine
 10
309.8980672021055
 20
214.3687855588582
 30
0.0
 11
307.3980672021055
 21
214.3687855588582
 31
0.0
  0
LINE
  5
13D7
330
D9A
100
AcDbEntity
  8
0
  6
ByBlock
 62
     2
100
AcDbLine
 10
320.3980672021055
 20
214.3687855588582
 30
0.0
 11
322.8980672021055
 21
214.3687855588582
 31
0.0
  0
LINE
  5
13D8
330
D9A
100
AcDbEntity
  8
0
  6
ByBlock
 62
     2
100
AcDbLine
 10
312.3980672021055
 20
214.3687855588582
 30
0.0
 11
317.8980672021055
 21
214.3687855588582
 31
0.0
  0
INSERT
  5
13D9
330
D9A
100
AcDbEntity
  8
0
  6
ByBlock
 62
     2
100
AcDbBlockReference
  2
_OPEN
 10
312.3980672021055
 20
214.3687855588582
 30
0.0
 41
2.5
 42
2.5
 43
2.5
  0
INSERT
  5
13DA
330
D9A
100
AcDbEntity
  8
0
  6
ByBlock
 62
     2
100
AcDbBlockReference
  2
_OPEN
 10
317.8980672021055
 20
214.3687855588582
 30
0.0
 41
2.5
 42
2.5
 43
2.5
 50
180.0
  0
MTEXT
  5
13DB
330
D9A
100
AcDbEntity
  8
0
  6
ByBlock
 62
     6
100
AcDbMText
 10
315.1480672021055
 20
216.2437855588582
 30
0.0
 40
2.5
 41
0.0
 71
     5
 72
     1
  1
\A1;5
  7
STYLE3
 73
     1
 44
1.0
  0
POINT
  5
13DC
330
D9A
100
AcDbEntity
  8
DEFPOINTS
  6
ByBlock
 62
     0
100
AcDbPoint
 10
312.3980672021055
 20
220.7051645015346
 30
0.0
  0
POINT
  5
13DD
330
D9A
100
AcDbEntity
  8
DEFPOINTS
  6
ByBlock
 62
     0
100
AcDbPoint
 10
317.8980672021055
 20
220.7051645015346
 30
0.0
  0
POINT
  5
13DE
330
D9A
100
AcDbEntity
  8
DEFPOINTS
  6
ByBlock
 62
     0
100
AcDbPoint
 10
317.8980672021055
 20
214.3687855588582
 30
0.0
  0
ENDBLK
  5
13DF
330
D9A
100
AcDbEntity
  8
0
100
AcDbBlockEnd
  0
BLOCK
  5
13E0
330
DA9
100
AcDbEntity
  8
0
100
AcDbBlockBegin
  2
*D16
 70
     1
 10
0.0
 20
0.0
 30
0.0
  3
*D16
  1

  0
LINE
  5
13E1
330
DA9
100
AcDbEntity
  8
0
  6
ByBlock
 62
     2
100
AcDbLine
 10
350.8980672021055
 20
220.7051645015346
 30
0.0
 11
350.8980672021055
 21
213.1187855588582
 31
0.0
  0
LINE
  5
13E2
330
DA9
100
AcDbEntity
  8
0
  6
ByBlock
 62
     2
100
AcDbLine
 10
356.3980672021055
 20
220.7051645015346
 30
0.0
 11
356.3980672021055
 21
213.1187855588582
 31
0.0
  0
LINE
  5
13E3
330
DA9
100
AcDbEntity
  8
0
  6
ByBlock
 62
     2
100
AcDbLine
 10
348.3980672021055
 20
214.3687855588582
 30
0.0
 11
345.8980672021055
 21
214.3687855588582
 31
0.0
  0
LINE
  5
13E4
330
DA9
100
AcDbEntity
  8
0
  6
ByBlock
 62
     2
100
AcDbLine
 10
358.8980672021055
 20
214.3687855588582
 30
0.0
 11
361.3980672021055
 21
214.3687855588582
 31
0.0
  0
LINE
  5
13E5
330
DA9
100
AcDbEntity
  8
0
  6
ByBlock
 62
     2
100
AcDbLine
 10
350.8980672021055
 20
214.3687855588582
 30
0.0
 11
356.3980672021055
 21
214.3687855588582
 31
0.0
  0
INSERT
  5
13E6
330
DA9
100
AcDbEntity
  8
0
  6
ByBlock
 62
     2
100
AcDbBlockReference
  2
_OPEN
 10
350.8980672021055
 20
214.3687855588582
 30
0.0
 41
2.5
 42
2.5
 43
2.5
  0
INSERT
  5
13E7
330
DA9
100
AcDbEntity
  8
0
  6
ByBlock
 62
     2
100
AcDbBlockReference
  2
_OPEN
 10
356.3980672021055
 20
214.3687855588582
 30
0.0
 41
2.5
 42
2.5
 43
2.5
 50
180.0
  0
MTEXT
  5
13E8
330
DA9
100
AcDbEntity
  8
0
  6
ByBlock
 62
     6
100
AcDbMText
 10
353.6480672021055
 20
216.2437855588582
 30
0.0
 40
2.5
 41
0.0
 71
     5
 72
     1
  1
\A1;5
  7
STYLE3
 73
     1
 44
1.0
  0
POINT
  5
13E9
330
DA9
100
AcDbEntity
  8
DEFPOINTS
  6
ByBlock
 62
     0
100
AcDbPoint
 10
350.8980672021055
 20
220.7051645015346
 30
0.0
  0
POINT
  5
13EA
330
DA9
100
AcDbEntity
  8
DEFPOINTS
  6
ByBlock
 62
     0
100
AcDbPoint
 10
356.3980672021055
 20
220.7051645015346
 30
0.0
  0
POINT
  5
13EB
330
DA9
100
AcDbEntity
  8
DEFPOINTS
  6
ByBlock
 62
     0
100
AcDbPoint
 10
356.3980672021055
 20
214.3687855588582
 30
0.0
  0
ENDBLK
  5
13EC
330
DA9
100
AcDbEntity
  8
0
100
AcDbBlockEnd
  0
BLOCK
  5
DC6
330
DC5
100
AcDbEntity
  8
0
100
AcDbBlockBegin
  2
*D18
 70
     1
 10
0.0
 20
0.0
 30
0.0
  3
*D18
  1

  0
LINE
  5
DC7
330
DC5
100
AcDbEntity
  8
0
  6
ByBlock
 62
     2
100
AcDbLine
 10
522.0633411998544
 20
211.3426792272968
 30
0.0
 11
522.0633411998544
 21
204.7729704776934
 31
0.0
  0
LINE
  5
DC8
330
DC5
100
AcDbEntity
  8
0
  6
ByBlock
 62
     2
100
AcDbLine
 10
593.0633411998544
 20
211.3426792272968
 30
0.0
 11
593.0633411998544
 21
204.7729704776934
 31
0.0
  0
LINE
  5
DC9
330
DC5
100
AcDbEntity
  8
0
  6
ByBlock
 62
     2
100
AcDbLine
 10
524.5633411998544
 20
206.0229704776934
 30
0.0
 11
590.5633411998544
 21
206.0229704776934
 31
0.0
  0
INSERT
  5
DCA
330
DC5
100
AcDbEntity
  8
0
  6
ByBlock
 62
     2
100
AcDbBlockReference
  2
_OPEN
 10
522.0633411998544
 20
206.0229704776934
 30
0.0
 41
2.5
 42
2.5
 43
2.5
 50
180.0
  0
INSERT
  5
DCB
330
DC5
100
AcDbEntity
  8
0
  6
ByBlock
 62
     2
100
AcDbBlockReference
  2
_OPEN
 10
593.0633411998544
 20
206.0229704776934
 30
0.0
 41
2.5
 42
2.5
 43
2.5
  0
MTEXT
  5
DCC
330
DC5
100
AcDbEntity
  8
0
  6
ByBlock
 62
     6
100
AcDbMText
 10
557.5633411998544
 20
207.8979704776934
 30
0.0
 40
2.5
 41
0.0
 71
     5
 72
     1
  1
\A1;71
  7
STYLE3
 73
     1
 44
1.0
  0
POINT
  5
DCD
330
DC5
100
AcDbEntity
  8
DEFPOINTS
  6
ByBlock
 62
     0
100
AcDbPoint
 10
522.0633411998544
 20
211.3426792272968
 30
0.0
  0
POINT
  5
DCE
330
DC5
100
AcDbEntity
  8
DEFPOINTS
  6
ByBlock
 62
     0
100
AcDbPoint
 10
593.0633411998544
 20
211.3426792272968
 30
0.0
  0
POINT
  5
DCF
330
DC5
100
AcDbEntity
  8
DEFPOINTS
  6
ByBlock
 62
     0
100
AcDbPoint
 10
593.0633411998544
 20
206.0229704776934
 30
0.0
  0
ENDBLK
  5
DD0
330
DC5
100
AcDbEntity
  8
0
100
AcDbBlockEnd
  0
BLOCK
  5
140E
330
E3A
100
AcDbEntity
  8
0
100
AcDbBlockBegin
  2
*D20
 70
     1
 10
0.0
 20
0.0
 30
0.0
  3
*D20
  1

  0
LINE
  5
140F
330
E3A
100
AcDbEntity
  8
0
  6
ByBlock
 62
     2
100
AcDbLine
 10
354.8980672021055
 20
275.7051645015346
 30
0.0
 11
373.4747574672054
 21
275.7051645015346
 31
0.0
  0
LINE
  5
1410
330
E3A
100
AcDbEntity
  8
0
  6
ByBlock
 62
     2
100
AcDbLine
 10
372.2247574672055
 20
290.7051645015346
 30
0.0
 11
372.2247574672055
 21
278.2051645015346
 31
0.0
  0
INSERT
  5
1411
330
E3A
100
AcDbEntity
  8
0
  6
ByBlock
 62
     2
100
AcDbBlockReference
  2
_OPEN
 10
372.2247574672055
 20
293.2051645015346
 30
0.0
 41
2.5
 42
2.5
 43
2.5
 50
90.0
  0
INSERT
  5
1412
330
E3A
100
AcDbEntity
  8
0
  6
ByBlock
 62
     2
100
AcDbBlockReference
  2
_OPEN
 10
372.2247574672055
 20
275.7051645015346
 30
0.0
 41
2.5
 42
2.5
 43
2.5
 50
270.0
  0
MTEXT
  5
1413
330
E3A
100
AcDbEntity
  8
0
  6
ByBlock
 62
     6
100
AcDbMText
 10
370.3497574672054
 20
284.4551645015346
 30
0.0
 40
2.5
 41
0.0
 71
     5
 72
     1
  1
\A1;18
  7
STYLE3
 11
0.0000000000000001
 21
1.0
 31
0.0
 73
     1
 44
1.0
  0
POINT
  5
1414
330
E3A
100
AcDbEntity
  8
DEFPOINTS
  6
ByBlock
 62
     0
100
AcDbPoint
 10
350.063154507704
 20
293.2051645015346
 30
0.0
  0
POINT
  5
1415
330
E3A
100
AcDbEntity
  8
DEFPOINTS
  6
ByBlock
 62
     0
100
AcDbPoint
 10
354.8980672021055
 20
275.7051645015346
 30
0.0
  0
POINT
  5
1416
330
E3A
100
AcDbEntity
  8
DEFPOINTS
  6
ByBlock
 62
     0
100
AcDbPoint
 10
372.2247574672055
 20
275.7051645015346
 30
0.0
  0
ENDBLK
  5
1417
330
E3A
100
AcDbEntity
  8
0
100
AcDbBlockEnd
  0
BLOCK
  5
1404
330
E46
100
AcDbEntity
  8
0
100
AcDbBlockBegin
  2
*D21
 70
     1
 10
0.0
 20
0.0
 30
0.0
  3
*D21
  1

  0
LINE
  5
1405
330
E46
100
AcDbEntity
  8
0
  6
ByBlock
 62
     2
100
AcDbLine
 10
356.3980672021055
 20
220.7051645015346
 30
0.0
 11
373.4747574672054
 21
220.7051645015346
 31
0.0
  0
LINE
  5
1406
330
E46
100
AcDbEntity
  8
0
  6
ByBlock
 62
     2
100
AcDbLine
 10
372.2247574672055
 20
273.2051645015346
 30
0.0
 11
372.2247574672055
 21
223.2051645015346
 31
0.0
  0
INSERT
  5
1407
330
E46
100
AcDbEntity
  8
0
  6
ByBlock
 62
     2
100
AcDbBlockReference
  2
_OPEN
 10
372.2247574672055
 20
275.7051645015346
 30
0.0
 41
2.5
 42
2.5
 43
2.5
 50
90.0
  0
INSERT
  5
1408
330
E46
100
AcDbEntity
  8
0
  6
ByBlock
 62
     2
100
AcDbBlockReference
  2
_OPEN
 10
372.2247574672055
 20
220.7051645015346
 30
0.0
 41
2.5
 42
2.5
 43
2.5
 50
270.0
  0
MTEXT
  5
1409
330
E46
100
AcDbEntity
  8
0
  6
ByBlock
 62
     6
100
AcDbMText
 10
370.3497574672054
 20
248.2051645015346
 30
0.0
 40
2.5
 41
0.0
 71
     5
 72
     1
  1
\A1;55
  7
STYLE3
 11
0.0000000000000001
 21
1.0
 31
0.0
 73
     1
 44
1.0
  0
POINT
  5
140A
330
E46
100
AcDbEntity
  8
DEFPOINTS
  6
ByBlock
 62
     0
100
AcDbPoint
 10
354.8980672021055
 20
275.7051645015346
 30
0.0
  0
POINT
  5
140B
330
E46
100
AcDbEntity
  8
DEFPOINTS
  6
ByBlock
 62
     0
100
AcDbPoint
 10
356.3980672021055
 20
220.7051645015346
 30
0.0
  0
POINT
  5
140C
330
E46
100
AcDbEntity
  8
DEFPOINTS
  6
ByBlock
 62
     0
100
AcDbPoint
 10
372.2247574672055
 20
220.7051645015346
 30
0.0
  0
ENDBLK
  5
140D
330
E46
100
AcDbEntity
  8
0
100
AcDbBlockEnd
  0
BLOCK
  5
12A9
330
12A8
100
AcDbEntity
  8
0
100
AcDbBlockBegin
  2
*D36
 70
     1
 10
0.0
 20
0.0
 30
0.0
  3
*D36
  1

  0
LINE
  5
12AA
330
12A8
100
AcDbEntity
  8
0
  6
ByBlock
 62
     2
100
AcDbLine
 10
407.3877711423573
 20
437.3053157460882
 30
0.0
 11
407.3877711423573
 21
444.1897926079287
 31
0.0
  0
LINE
  5
12AB
330
12A8
100
AcDbEntity
  8
0
  6
ByBlock
 62
     2
100
AcDbLine
 10
423.3858377575277
 20
441.6291868235803
 30
0.0
 11
423.3858377575277
 21
444.1897926079287
 31
0.0
  0
LINE
  5
12AC
330
12A8
100
AcDbEntity
  8
0
  6
ByBlock
 62
     2
100
AcDbLine
 10
409.8877711423573
 20
442.9397926079287
 30
0.0
 11
420.8858377575277
 21
442.9397926079287
 31
0.0
  0
INSERT
  5
12AD
330
12A8
100
AcDbEntity
  8
0
  6
ByBlock
 62
     2
100
AcDbBlockReference
  2
_OPEN
 10
407.3877711423573
 20
442.9397926079287
 30
0.0
 41
2.5
 42
2.5
 43
2.5
 50
180.0
  0
INSERT
  5
12AE
330
12A8
100
AcDbEntity
  8
0
  6
ByBlock
 62
     2
100
AcDbBlockReference
  2
_OPEN
 10
423.3858377575277
 20
442.9397926079287
 30
0.0
 41
2.5
 42
2.5
 43
2.5
  0
MTEXT
  5
12AF
330
12A8
100
AcDbEntity
  8
0
  6
ByBlock
 62
     6
100
AcDbMText
 10
415.3868044499425
 20
444.8147926079287
 30
0.0
 40
2.5
 41
0.0
 71
     5
 72
     1
  1
\A1;16
  7
STYLE3
 73
     1
 44
1.0
  0
POINT
  5
12B0
330
12A8
100
AcDbEntity
  8
DEFPOINTS
  6
ByBlock
 62
     0
100
AcDbPoint
 10
407.3877711423573
 20
437.3053157460882
 30
0.0
  0
POINT
  5
12B1
330
12A8
100
AcDbEntity
  8
DEFPOINTS
  6
ByBlock
 62
     0
100
AcDbPoint
 10
423.3858377575277
 20
441.6291868235803
 30
0.0
  0
POINT
  5
12B2
330
12A8
100
AcDbEntity
  8
DEFPOINTS
  6
ByBlock
 62
     0
100
AcDbPoint
 10
423.3858377575277
 20
442.9397926079287
 30
0.0
  0
ENDBLK
  5
12B3
330
12A8
100
AcDbEntity
  8
0
100
AcDbBlockEnd
  0
BLOCK
  5
1379
330
136C
100
AcDbEntity
  8
0
100
AcDbBlockBegin
  2
*D38
 70
     1
 10
0.0
 20
0.0
 30
0.0
  3
*D38
  1

  0
LINE
  5
137A
330
136C
100
AcDbEntity
  8
0
  6
ByBlock
 62
     2
100
AcDbLine
 10
564.9135299761254
 20
432.1697252655694
 30
0.0
 11
564.9135299761254
 21
444.4110357707215
 31
0.0
  0
LINE
  5
137B
330
136C
100
AcDbEntity
  8
0
  6
ByBlock
 62
     2
100
AcDbLine
 10
546.9054633609551
 20
442.6689923129647
 30
0.0
 11
546.9054633609551
 21
444.4110357707215
 31
0.0
  0
LINE
  5
137C
330
136C
100
AcDbEntity
  8
0
  6
ByBlock
 62
     2
100
AcDbLine
 10
562.4135299761254
 20
443.1610357707215
 30
0.0
 11
549.405463360955
 21
443.1610357707215
 31
0.0
  0
INSERT
  5
137D
330
136C
100
AcDbEntity
  8
0
  6
ByBlock
 62
     2
100
AcDbBlockReference
  2
_OPEN
 10
564.9135299761254
 20
443.1610357707215
 30
0.0
 41
2.5
 42
2.5
 43
2.5
  0
INSERT
  5
137E
330
136C
100
AcDbEntity
  8
0
  6
ByBlock
 62
     2
100
AcDbBlockReference
  2
_OPEN
 10
546.9054633609551
 20
443.1610357707215
 30
0.0
 41
2.5
 42
2.5
 43
2.5
 50
180.0
  0
MTEXT
  5
137F
330
136C
100
AcDbEntity
  8
0
  6
ByBlock
 62
     6
100
AcDbMText
 10
555.9094966685401
 20
445.0360357707214
 30
0.0
 40
2.5
 41
0.0
 71
     5
 72
     1
  1
\A1;18
  7
STYLE3
 73
     1
 44
1.0
  0
POINT
  5
1380
330
136C
100
AcDbEntity
  8
DEFPOINTS
  6
ByBlock
 62
     0
100
AcDbPoint
 10
564.9135299761254
 20
432.1697252655694
 30
0.0
  0
POINT
  5
1381
330
136C
100
AcDbEntity
  8
DEFPOINTS
  6
ByBlock
 62
     0
100
AcDbPoint
 10
546.9054633609551
 20
442.6689923129647
 30
0.0
  0
POINT
  5
1382
330
136C
100
AcDbEntity
  8
DEFPOINTS
  6
ByBlock
 62
     0
100
AcDbPoint
 10
546.9054633609551
 20
443.1610357707215
 30
0.0
  0
ENDBLK
  5
1383
330
136C
100
AcDbEntity
  8
0
100
AcDbBlockEnd
  0
BLOCK
  5
1393
330
1384
100
AcDbEntity
  8
0
100
AcDbBlockBegin
  2
*D39
 70
     1
 10
0.0
 20
0.0
 30
0.0
  3
*D39
  1

  0
LINE
  5
1394
330
1384
100
AcDbEntity
  8
0
  6
ByBlock
 62
     2
100
AcDbLine
 10
557.9135299761254
 20
429.7859183106373
 30
0.0
 11
557.9135299761254
 21
440.340390174489
 31
0.0
  0
LINE
  5
1395
330
1384
100
AcDbEntity
  8
0
  6
ByBlock
 62
     2
100
AcDbLine
 10
562.4135299761254
 20
430.7859183106372
 30
0.0
 11
562.4135299761254
 21
440.340390174489
 31
0.0
  0
LINE
  5
1396
330
1384
100
AcDbEntity
  8
0
  6
ByBlock
 62
     2
100
AcDbLine
 10
555.4135299761254
 20
439.090390174489
 30
0.0
 11
552.9135299761255
 21
439.090390174489
 31
0.0
  0
LINE
  5
1397
330
1384
100
AcDbEntity
  8
0
  6
ByBlock
 62
     2
100
AcDbLine
 10
564.9135299761254
 20
439.090390174489
 30
0.0
 11
583.6635299761254
 21
439.090390174489
 31
0.0
  0
LINE
  5
1398
330
1384
100
AcDbEntity
  8
0
  6
ByBlock
 62
     2
100
AcDbLine
 10
557.9135299761254
 20
439.090390174489
 30
0.0
 11
562.4135299761254
 21
439.090390174489
 31
0.0
  0
INSERT
  5
1399
330
1384
100
AcDbEntity
  8
0
  6
ByBlock
 62
     2
100
AcDbBlockReference
  2
_OPEN
 10
557.9135299761254
 20
439.090390174489
 30
0.0
 41
2.5
 42
2.5
 43
2.5
  0
INSERT
  5
139A
330
1384
100
AcDbEntity
  8
0
  6
ByBlock
 62
     2
100
AcDbBlockReference
  2
_OPEN
 10
562.4135299761254
 20
439.090390174489
 30
0.0
 41
2.5
 42
2.5
 43
2.5
 50
180.0
  0
MTEXT
  5
139B
330
1384
100
AcDbEntity
  8
0
  6
ByBlock
 62
     6
100
AcDbMText
 10
575.5385299761254
 20
440.9653901744889
 30
0.0
 40
2.5
 41
0.0
 71
     5
 72
     1
  1
\A1;耳金装着部
  7
STYLE3
 73
     1
 44
1.0
  0
POINT
  5
139C
330
1384
100
AcDbEntity
  8
DEFPOINTS
  6
ByBlock
 62
     0
100
AcDbPoint
 10
557.9135299761254
 20
429.7859183106373
 30
0.0
  0
POINT
  5
139D
330
1384
100
AcDbEntity
  8
DEFPOINTS
  6
ByBlock
 62
     0
100
AcDbPoint
 10
562.4135299761254
 20
430.7859183106372
 30
0.0
  0
POINT
  5
139E
330
1384
100
AcDbEntity
  8
DEFPOINTS
  6
ByBlock
 62
     0
100
AcDbPoint
 10
562.4135299761254
 20
439.090390174489
 30
0.0
  0
ENDBLK
  5
139F
330
1384
100
AcDbEntity
  8
0
100
AcDbBlockEnd
  0
BLOCK
  5
13F8
330
13F7
100
AcDbEntity
  8
0
100
AcDbBlockBegin
  2
*D42
 70
     1
 10
0.0
 20
0.0
 30
0.0
  3
*D42
  1

  0
LINE
  5
13F9
330
13F7
100
AcDbEntity
  8
0
  6
ByBlock
 62
     2
100
AcDbLine
 10
312.3980672021055
 20
213.1187855588582
 30
0.0
 11
312.3980672021055
 21
206.8643178609153
 31
0.0
  0
LINE
  5
13FA
330
13F7
100
AcDbEntity
  8
0
  6
ByBlock
 62
     2
100
AcDbLine
 10
356.3980672021055
 20
213.1187855588582
 30
0.0
 11
356.3980672021055
 21
206.8643178609153
 31
0.0
  0
LINE
  5
13FB
330
13F7
100
AcDbEntity
  8
0
  6
ByBlock
 62
     2
100
AcDbLine
 10
314.8980672021055
 20
208.1143178609153
 30
0.0
 11
353.8980672021055
 21
208.1143178609153
 31
0.0
  0
INSERT
  5
13FC
330
13F7
100
AcDbEntity
  8
0
  6
ByBlock
 62
     2
100
AcDbBlockReference
  2
_OPEN
 10
312.3980672021055
 20
208.1143178609153
 30
0.0
 41
2.5
 42
2.5
 43
2.5
 50
180.0
  0
INSERT
  5
13FD
330
13F7
100
AcDbEntity
  8
0
  6
ByBlock
 62
     2
100
AcDbBlockReference
  2
_OPEN
 10
356.3980672021055
 20
208.1143178609153
 30
0.0
 41
2.5
 42
2.5
 43
2.5
  0
MTEXT
  5
13FE
330
13F7
100
AcDbEntity
  8
0
  6
ByBlock
 62
     6
100
AcDbMText
 10
334.3980672021055
 20
209.9893178609153
 30
0.0
 40
2.5
 41
0.0
 71
     5
 72
     1
  1
\A1;44
  7
STYLE3
 73
     1
 44
1.0
  0
POINT
  5
13FF
330
13F7
100
AcDbEntity
  8
DEFPOINTS
  6
ByBlock
 62
     0
100
AcDbPoint
 10
312.3980672021055
 20
213.1187855588582
 30
0.0
  0
POINT
  5
1400
330
13F7
100
AcDbEntity
  8
DEFPOINTS
  6
ByBlock
 62
     0
100
AcDbPoint
 10
356.3980672021055
 20
213.1187855588582
 30
0.0
  0
POINT
  5
1401
330
13F7
100
AcDbEntity
  8
DEFPOINTS
  6
ByBlock
 62
     0
100
AcDbPoint
 10
356.3980672021055
 20
208.1143178609153
 30
0.0
  0
ENDBLK
  5
1402
330
13F7
100
AcDbEntity
  8
0
100
AcDbBlockEnd
  0
BLOCK
  5
1426
330
1419
100
AcDbEntity
  8
0
100
AcDbBlockBegin
  2
*D43
 70
     1
 10
0.0
 20
0.0
 30
0.0
  3
*D43
  1

  0
LINE
  5
1427
330
1419
100
AcDbEntity
  8
0
  6
ByBlock
 62
     2
100
AcDbLine
 10
334.3980672021056
 20
447.274110232187
 30
0.0
 11
373.4747574672054
 21
447.274110232187
 31
0.0
  0
LINE
  5
1428
330
1419
100
AcDbEntity
  8
0
  6
ByBlock
 62
     2
100
AcDbLine
 10
365.0727015197694
 20
293.2051645015346
 30
0.0
 11
373.4747574672054
 21
293.2051645015346
 31
0.0
  0
LINE
  5
1429
330
1419
100
AcDbEntity
  8
0
  6
ByBlock
 62
     2
100
AcDbLine
 10
372.2247574672055
 20
444.7741102321869
 30
0.0
 11
372.2247574672055
 21
295.7051645015346
 31
0.0
  0
INSERT
  5
142A
330
1419
100
AcDbEntity
  8
0
  6
ByBlock
 62
     2
100
AcDbBlockReference
  2
_OPEN
 10
372.2247574672055
 20
447.274110232187
 30
0.0
 41
2.5
 42
2.5
 43
2.5
 50
90.0
  0
INSERT
  5
142B
330
1419
100
AcDbEntity
  8
0
  6
ByBlock
 62
     2
100
AcDbBlockReference
  2
_OPEN
 10
372.2247574672055
 20
293.2051645015346
 30
0.0
 41
2.5
 42
2.5
 43
2.5
 50
270.0
  0
MTEXT
  5
142C
330
1419
100
AcDbEntity
  8
0
  6
ByBlock
 62
     6
100
AcDbMText
 10
370.3497574672054
 20
370.2396373668609
 30
0.0
 40
2.5
 41
0.0
 71
     5
 72
     1
  1
\A1;186
  7
STYLE3
 11
0.0000000000000001
 21
1.0
 31
0.0
 73
     1
 44
1.0
  0
POINT
  5
142D
330
1419
100
AcDbEntity
  8
DEFPOINTS
  6
ByBlock
 62
     0
100
AcDbPoint
 10
334.3980672021056
 20
447.274110232187
 30
0.0
  0
POINT
  5
142E
330
1419
100
AcDbEntity
  8
DEFPOINTS
  6
ByBlock
 62
     0
100
AcDbPoint
 10
365.0727015197694
 20
293.2051645015346
 30
0.0
  0
POINT
  5
142F
330
1419
100
AcDbEntity
  8
DEFPOINTS
  6
ByBlock
 62
     0
100
AcDbPoint
 10
372.2247574672055
 20
293.2051645015346
 30
0.0
  0
ENDBLK
  5
1430
330
1419
100
AcDbEntity
  8
0
100
AcDbBlockEnd
  0
BLOCK
  5
143E
330
1431
100
AcDbEntity
  8
0
100
AcDbBlockBegin
  2
*D44
 70
     1
 10
0.0
 20
0.0
 30
0.0
  3
*D44
  1

  0
LINE
  5
143F
330
1431
100
AcDbEntity
  8
0
  6
ByBlock
 62
     2
100
AcDbLine
 10
373.4747574672054
 20
447.274110232187
 30
0.0
 11
380.5602063375268
 21
447.274110232187
 31
0.0
  0
LINE
  5
1440
330
1431
100
AcDbEntity
  8
0
  6
ByBlock
 62
     2
100
AcDbLine
 10
373.4747574672054
 20
220.7051645015346
 30
0.0
 11
380.5602063375268
 21
220.7051645015346
 31
0.0
  0
LINE
  5
1441
330
1431
100
AcDbEntity
  8
0
  6
ByBlock
 62
     2
100
AcDbLine
 10
379.3102063375268
 20
444.7741102321869
 30
0.0
 11
379.3102063375268
 21
223.2051645015346
 31
0.0
  0
INSERT
  5
1442
330
1431
100
AcDbEntity
  8
0
  6
ByBlock
 62
     2
100
AcDbBlockReference
  2
_OPEN
 10
379.3102063375268
 20
447.274110232187
 30
0.0
 41
2.5
 42
2.5
 43
2.5
 50
90.0
  0
INSERT
  5
1443
330
1431
100
AcDbEntity
  8
0
  6
ByBlock
 62
     2
100
AcDbBlockReference
  2
_OPEN
 10
379.3102063375268
 20
220.7051645015346
 30
0.0
 41
2.5
 42
2.5
 43
2.5
 50
270.0
  0
MTEXT
  5
1444
330
1431
100
AcDbEntity
  8
0
  6
ByBlock
 62
     6
100
AcDbMText
 10
377.4352063375268
 20
333.9896373668608
 30
0.0
 40
2.5
 41
0.0
 71
     5
 72
     1
  1
\A1;259
  7
STYLE3
 11
0.0000000000000001
 21
1.0
 31
0.0
 73
     1
 44
1.0
  0
POINT
  5
1445
330
1431
100
AcDbEntity
  8
DEFPOINTS
  6
ByBlock
 62
     0
100
AcDbPoint
 10
373.4747574672054
 20
447.274110232187
 30
0.0
  0
POINT
  5
1446
330
1431
100
AcDbEntity
  8
DEFPOINTS
  6
ByBlock
 62
     0
100
AcDbPoint
 10
373.4747574672054
 20
220.7051645015346
 30
0.0
  0
POINT
  5
1447
330
1431
100
AcDbEntity
  8
DEFPOINTS
  6
ByBlock
 62
     0
100
AcDbPoint
 10
379.3102063375268
 20
220.7051645015346
 30
0.0
  0
ENDBLK
  5
1448
330
1431
100
AcDbEntity
  8
0
100
AcDbBlockEnd
  0
BLOCK
  5
1479
330
1449
100
AcDbEntity
  8
0
100
AcDbBlockBegin
  2
*D45
 70
     1
 10
0.0
 20
0.0
 30
0.0
  3
*D45
  1

  0
LINE
  5
147A
330
1449
100
AcDbEntity
  8
0
  6
ByBlock
 62
     2
100
AcDbLine
 10
478.4257594207032
 20
440.148403584875
 30
0.0
 11
512.0087895506783
 21
440.148403584875
 31
0.0
  0
LINE
  5
147B
330
1449
100
AcDbEntity
  8
0
  6
ByBlock
 62
     2
100
AcDbLine
 10
475.9257594207033
 20
314.2918761182443
 30
0.0
 11
512.0087895506783
 21
314.2918761182443
 31
0.0
  0
LINE
  5
147C
330
1449
100
AcDbEntity
  8
0
  6
ByBlock
 62
     2
100
AcDbLine
 10
510.7587895506783
 20
437.648403584875
 30
0.0
 11
510.7587895506783
 21
316.7918761182443
 31
0.0
  0
INSERT
  5
147D
330
1449
100
AcDbEntity
  8
0
  6
ByBlock
 62
     2
100
AcDbBlockReference
  2
_OPEN
 10
510.7587895506783
 20
440.148403584875
 30
0.0
 41
2.5
 42
2.5
 43
2.5
 50
90.0
  0
INSERT
  5
147E
330
1449
100
AcDbEntity
  8
0
  6
ByBlock
 62
     2
100
AcDbBlockReference
  2
_OPEN
 10
510.7587895506783
 20
314.2918761182443
 30
0.0
 41
2.5
 42
2.5
 43
2.5
 50
270.0
  0
MTEXT
  5
147F
330
1449
100
AcDbEntity
  8
0
  6
ByBlock
 62
     6
100
AcDbMText
 10
508.8837895506783
 20
377.2201398515596
 30
0.0
 40
2.5
 41
0.0
 71
     5
 72
     1
  1
\A1;151.5
  7
STYLE3
 11
0.0000000000000001
 21
1.0
 31
0.0
 73
     1
 44
1.0
  0
POINT
  5
1480
330
1449
100
AcDbEntity
  8
DEFPOINTS
  6
ByBlock
 62
     0
100
AcDbPoint
 10
478.4257594207032
 20
440.148403584875
 30
0.0
  0
POINT
  5
1481
330
1449
100
AcDbEntity
  8
DEFPOINTS
  6
ByBlock
 62
     0
100
AcDbPoint
 10
475.9257594207033
 20
314.2918761182443
 30
0.0
  0
POINT
  5
1482
330
1449
100
AcDbEntity
  8
DEFPOINTS
  6
ByBlock
 62
     0
100
AcDbPoint
 10
510.7587895506783
 20
314.2918761182443
 30
0.0
  0
ENDBLK
  5
1483
330
1449
100
AcDbEntity
  8
0
100
AcDbBlockEnd
  0
BLOCK
  5
1463
330
1456
100
AcDbEntity
  8
0
100
AcDbBlockBegin
  2
*D46
 70
     1
 10
0.0
 20
0.0
 30
0.0
  3
*D46
  1

  0
LINE
  5
1464
330
1456
100
AcDbEntity
  8
0
  6
ByBlock
 62
     2
100
AcDbLine
 10
480.9257594207032
 20
423.6484035848749
 30
0.0
 11
506.3800083883247
 21
423.6484035848749
 31
0.0
  0
LINE
  5
1465
330
1456
100
AcDbEntity
  8
0
  6
ByBlock
 62
     2
100
AcDbLine
 10
502.4811697190211
 20
440.148403584875
 30
0.0
 11
506.3800083883247
 21
440.148403584875
 31
0.0
  0
LINE
  5
1466
330
1456
100
AcDbEntity
  8
0
  6
ByBlock
 62
     2
100
AcDbLine
 10
505.1300083883247
 20
426.1484035848749
 30
0.0
 11
505.1300083883247
 21
437.648403584875
 31
0.0
  0
INSERT
  5
1467
330
1456
100
AcDbEntity
  8
0
  6
ByBlock
 62
     2
100
AcDbBlockReference
  2
_OPEN
 10
505.1300083883247
 20
423.6484035848749
 30
0.0
 41
2.5
 42
2.5
 43
2.5
 50
270.0
  0
INSERT
  5
1468
330
1456
100
AcDbEntity
  8
0
  6
ByBlock
 62
     2
100
AcDbBlockReference
  2
_OPEN
 10
505.1300083883247
 20
440.148403584875
 30
0.0
 41
2.5
 42
2.5
 43
2.5
 50
90.0
  0
MTEXT
  5
1469
330
1456
100
AcDbEntity
  8
0
  6
ByBlock
 62
     6
100
AcDbMText
 10
503.2550083883247
 20
431.898403584875
 30
0.0
 40
2.5
 41
0.0
 71
     5
 72
     1
  1
\A1;16.5
  7
STYLE3
 11
0.0000000000000001
 21
1.0
 31
0.0
 73
     1
 44
1.0
  0
POINT
  5
146A
330
1456
100
AcDbEntity
  8
DEFPOINTS
  6
ByBlock
 62
     0
100
AcDbPoint
 10
480.9257594207032
 20
423.6484035848749
 30
0.0
  0
POINT
  5
146B
330
1456
100
AcDbEntity
  8
DEFPOINTS
  6
ByBlock
 62
     0
100
AcDbPoint
 10
502.4811697190211
 20
440.148403584875
 30
0.0
  0
POINT
  5
146C
330
1456
100
AcDbEntity
  8
DEFPOINTS
  6
ByBlock
 62
     0
100
AcDbPoint
 10
505.1300083883247
 20
440.148403584875
 30
0.0
  0
ENDBLK
  5
146D
330
1456
100
AcDbEntity
  8
0
100
AcDbBlockEnd
  0
BLOCK
  5
1491
330
1484
100
AcDbEntity
  8
0
100
AcDbBlockBegin
  2
*D47
 70
     1
 10
0.0
 20
0.0
 30
0.0
  3
*D47
  1

  0
LINE
  5
1492
330
1484
100
AcDbEntity
  8
0
  6
ByBlock
 62
     2
100
AcDbLine
 10
431.9176928055331
 20
344.2300056200537
 30
0.0
 11
422.9148659663025
 21
344.2300056200537
 31
0.0
  0
LINE
  5
1493
330
1484
100
AcDbEntity
  8
0
  6
ByBlock
 62
     2
100
AcDbLine
 10
431.917692805533
 20
385.2300056200538
 30
0.0
 11
422.9148659663025
 21
385.2300056200538
 31
0.0
  0
LINE
  5
1494
330
1484
100
AcDbEntity
  8
0
  6
ByBlock
 62
     2
100
AcDbLine
 10
424.1648659663026
 20
346.7300056200538
 30
0.0
 11
424.1648659663026
 21
382.7300056200538
 31
0.0
  0
INSERT
  5
1495
330
1484
100
AcDbEntity
  8
0
  6
ByBlock
 62
     2
100
AcDbBlockReference
  2
_OPEN
 10
424.1648659663026
 20
344.2300056200537
 30
0.0
 41
2.5
 42
2.5
 43
2.5
 50
270.0
  0
INSERT
  5
1496
330
1484
100
AcDbEntity
  8
0
  6
ByBlock
 62
     2
100
AcDbBlockReference
  2
_OPEN
 10
424.1648659663026
 20
385.2300056200538
 30
0.0
 41
2.5
 42
2.5
 43
2.5
 50
90.0
  0
MTEXT
  5
1497
330
1484
100
AcDbEntity
  8
0
  6
ByBlock
 62
     6
100
AcDbMText
 10
422.2898659663026
 20
364.7300056200537
 30
0.0
 40
2.5
 41
0.0
 71
     5
 72
     1
  1
\A1;2-φ42
  7
STYLE3
 11
0.0000000000000001
 21
1.0
 31
0.0
 73
     1
 44
1.0
  0
POINT
  5
1498
330
1484
100
AcDbEntity
  8
DEFPOINTS
  6
ByBlock
 62
     0
100
AcDbPoint
 10
431.9176928055331
 20
344.2300056200537
 30
0.0
  0
POINT
  5
1499
330
1484
100
AcDbEntity
  8
DEFPOINTS
  6
ByBlock
 62
     0
100
AcDbPoint
 10
431.917692805533
 20
385.2300056200538
 30
0.0
  0
POINT
  5
149A
330
1484
100
AcDbEntity
  8
DEFPOINTS
  6
ByBlock
 62
     0
100
AcDbPoint
 10
424.1648659663026
 20
385.2300056200538
 30
0.0
  0
ENDBLK
  5
149B
330
1484
100
AcDbEntity
  8
0
100
AcDbBlockEnd
  0
ENDSEC
  0
SECTION
  2
ENTITIES
  0
LWPOLYLINE
  5
1A0
330
18
100
AcDbEntity
  8
C
100
AcDbPolyline
 90
        5
 70
     0
 43
0.8
 10
257.938376579527
 20
460.6740380963358
 10
635.4383765795269
 20
460.6740380963358
 10
635.4383765795269
 20
178.1740380963358
 10
257.938376579527
 20
178.1740380963358
 10
257.938376579527
 20
460.6740380963358
  0
LINE
  5
2AC
330
18
100
AcDbEntity
  8
中心線
100
AcDbLine
 10
318.4000005869351
 20
446.6678010203259
 30
0.0
 11
318.4000005869351
 21
310.0544517321965
 31
0.0
  0
LINE
  5
2DF
330
18
100
AcDbEntity
  8
中心線
100
AcDbLine
 10
304.0445754759948
 20
364.7300056200537
 30
0.0
 11
346.9265462608376
 21
364.7300056200537
 31
0.0
  0
ARC
  5
306
330
18
100
AcDbEntity
  8
外形線
100
AcDbCircle
 10
304.8591811076132
 20
388.1833929343576
 30
0.0
 40
11.5
100
AcDbArc
 50
265.4818921589387
 51
334.5181078410609
  0
ARC
  5
307
330
18
100
AcDbEntity
  8
外形線
100
AcDbCircle
 10
331.9408200662568
 20
388.1833929343575
 30
0.0
 40
11.5
100
AcDbArc
 50
205.4818921589386
 51
274.5181078410606
  0
ARC
  5
308
330
18
100
AcDbEntity
  8
外形線
100
AcDbCircle
 10
333.1224324512704
 20
373.2300056200537
 30
0.0
 40
3.5
100
AcDbArc
 50
325.4818921589393
 51
94.51810784106019
  0
ARC
  5
309
330
18
100
AcDbEntity
  8
外形線
100
AcDbCircle
 10
303.6775687225997
 20
373.2300056200538
 30
0.0
 40
3.5
100
AcDbArc
 50
85.48189215893803
 51
214.5181078410615
  0
LINE
  5
30B
330
18
100
AcDbEntity
  8
外形線
100
AcDbLine
 10
342.8980672021056
 20
376.7300056200538
 30
0.0
 11
342.8980672021056
 21
352.7300056200538
 31
0.0
  0
LINE
  5
30C
330
18
100
AcDbEntity
  8
外形線
100
AcDbLine
 10
333.1224324512705
 20
352.730005620054
 30
0.0
 11
342.8980672021056
 21
352.7300056200538
 31
0.0
  0
LINE
  5
311
330
18
100
AcDbEntity
  8
外形線
100
AcDbLine
 10
328.3980672021056
 20
352.7300056200538
 30
0.0
 11
328.3980672021055
 21
330.7277457336284
 31
0.0
  0
LINE
  5
312
330
18
100
AcDbEntity
  8
外形線
100
AcDbLine
 10
323.4000005869351
 20
348.9775534841316
 30
0.0
 11
323.4000005869351
 21
335.8367609099609
 31
0.0
  0
LINE
  5
313
330
18
100
AcDbEntity
  8
外形線
100
AcDbLine
 10
313.4000005869351
 20
348.9775534841316
 30
0.0
 11
313.400000586935
 21
334.4815018064153
 31
0.0
  0
LINE
  5
317
330
18
100
AcDbEntity
  8
外形線
100
AcDbLine
 10
313.4000005869351
 20
315.3063223226167
 30
0.0
 11
323.4000005869351
 21
315.3063223226167
 31
0.0
  0
ARC
  5
318
330
18
100
AcDbEntity
  8
外形線
100
AcDbCircle
 10
318.4000005869351
 20
321.5513203210151
 30
0.0
 40
8.0
100
AcDbArc
 50
231.3178125465117
 51
308.6821874534892
  0
LINE
  5
319
330
18
100
AcDbEntity
  8
外形線
100
AcDbLine
 10
313.4000005869351
 20
333.2209480689901
 30
0.0
 11
313.4000005869351
 21
315.3063223226167
 31
0.0
  0
LINE
  5
31A
330
18
100
AcDbEntity
  8
外形線
100
AcDbLine
 10
451.9176928055328
 20
331.1753774971616
 30
0.0
 11
451.9176928055328
 21
306.4055432839787
 31
0.0
  0
LINE
  5
31B
330
18
100
AcDbEntity
  8
外形線
100
AcDbLine
 10
323.4000005869352
 20
334.5762071725357
 30
0.0
 11
323.4000005869351
 21
315.3063223226167
 31
0.0
  0
CIRCLE
  5
322
330
18
100
AcDbEntity
  8
外形線
100
AcDbCircle
 10
318.4000005869351
 20
364.7300056200537
 30
0.0
 40
7.25
  0
ARC
  5
323
330
18
100
AcDbEntity
  8
外形線
100
AcDbCircle
 10
304.8591811076132
 20
341.2766183057501
 30
0.0
 40
11.5
100
AcDbArc
 50
25.48189215893787
 51
94.5181078410607
  0
ARC
  5
324
330
18
100
AcDbEntity
  8
外形線
100
AcDbCircle
 10
291.3183616282914
 20
364.7300056200538
 30
0.0
 40
11.5
100
AcDbArc
 50
325.4818921589393
 51
34.51810784106124
  0
ARC
  5
325
330
18
100
AcDbEntity
  8
外形線
100
AcDbCircle
 10
303.6775687225997
 20
356.2300056200539
 30
0.0
 40
3.5
100
AcDbArc
 50
145.4818921589403
 51
274.5181078410602
  0
ARC
  5
326
330
18
100
AcDbEntity
  8
外形線
100
AcDbCircle
 10
345.4816395455788
 20
364.7300056200539
 30
0.0
 40
11.5
100
AcDbArc
 50
145.4818921589397
 51
214.5181078410621
  0
ARC
  5
327
330
18
100
AcDbEntity
  8
外形線
100
AcDbCircle
 10
331.9408200662568
 20
341.2766183057499
 30
0.0
 40
11.5
100
AcDbArc
 50
85.48189215893874
 51
154.5181078410611
  0
ARC
  5
328
330
18
100
AcDbEntity
  8
外形線
100
AcDbCircle
 10
318.4000005869351
 20
347.7300056200537
 30
0.0
 40
3.5
100
AcDbArc
 50
205.4818921589376
 51
334.5181078410616
  0
ARC
  5
329
330
18
100
AcDbEntity
  8
外形線
100
AcDbCircle
 10
333.1224324512706
 20
356.2300056200537
 30
0.0
 40
3.5
100
AcDbArc
 50
265.481892158938
 51
34.51810784106225
  0
CIRCLE
  5
32A
330
18
100
AcDbEntity
  8
外形線
 62
     4
100
AcDbCircle
 10
318.4000005869351
 20
364.7300056200537
 30
0.0
 40
4.5
  0
CIRCLE
  5
32B
330
18
100
AcDbEntity
  8
外形線
100
AcDbCircle
 10
318.4000005869351
 20
364.7300056200537
 30
0.0
 40
3.5
  0
LINE
  5
32C
330
18
100
AcDbEntity
  8
外形線
100
AcDbLine
 10
340.3980672021056
 20
352.7300056200539
 30
0.0
 11
340.3980672021057
 21
332.0071106911142
 31
0.0
  0
LINE
  5
32D
330
18
100
AcDbEntity
  8
外形線
100
AcDbLine
 10
463.9176928055326
 20
331.1753774971616
 30
0.0
 11
463.9176928055329
 21
306.4055432839787
 31
0.0
  0
ARC
  5
333
330
18
100
AcDbEntity
  8
外形線
100
AcDbCircle
 10
334.3980672021056
 20
437.274110232187
 30
0.0
 40
10.0
100
AcDbArc
 50
53.13010235415461
 51
126.8698976458454
  0
LINE
  5
334
330
18
100
AcDbEntity
  8
外形線
100
AcDbLine
 10
328.3980672021054
 20
445.2741102321868
 30
0.0
 11
340.3980672021056
 21
445.2741102321868
 31
0.0
  0
LINE
  5
335
330
18
100
AcDbEntity
  8
外形線
100
AcDbLine
 10
333.1224324512704
 20
376.7300056200538
 30
0.0
 11
342.8980672021056
 21
376.7300056200538
 31
0.0
  0
LINE
  5
336
330
18
100
AcDbEntity
  8
外形線
100
AcDbLine
 10
328.3980672021054
 20
445.2741102321868
 30
0.0
 11
328.3980672021054
 21
376.7300056200538
 31
0.0
  0
LINE
  5
337
330
18
100
AcDbEntity
  8
外形線
100
AcDbLine
 10
323.4000005869351
 20
424.5952697333219
 30
0.0
 11
323.4000005869351
 21
380.4824577559758
 31
0.0
  0
LINE
  5
338
330
18
100
AcDbEntity
  8
外形線
100
AcDbLine
 10
313.4000005869351
 20
424.5952697333222
 30
0.0
 11
313.4000005869351
 21
380.482457755976
 31
0.0
  0
ARC
  5
339
330
18
100
AcDbEntity
  8
外形線
100
AcDbCircle
 10
318.4000005869351
 20
381.7300056200537
 30
0.0
 40
3.5
100
AcDbArc
 50
25.48189215893847
 51
154.5181078410615
  0
LINE
  5
33D
330
18
100
AcDbEntity
  8
外形線
100
AcDbLine
 10
317.1550106271361
 20
423.6484035848747
 30
0.0
 11
313.4000005869351
 21
423.6484035848747
 31
0.0
  0
LINE
  5
33E
330
18
100
AcDbEntity
  8
中心線
 48
0.5
100
AcDbLine
 10
305.7653561983847
 20
432.6484035848749
 30
0.0
 11
331.2578809585485
 21
432.6484035848749
 31
0.0
  0
LINE
  5
34E
330
18
100
AcDbEntity
  8
外形線
100
AcDbLine
 10
319.6449905467339
 20
423.6484035848751
 30
0.0
 11
323.4000005869351
 21
423.6484035848749
 31
0.0
  0
LINE
  5
352
330
18
100
AcDbEntity
  8
外形線
100
AcDbLine
 10
340.3980672021056
 20
445.274110232187
 30
0.0
 11
340.3980672021056
 21
376.7300056200538
 31
0.0
  0
LINE
  5
353
330
18
100
AcDbEntity
  8
外形線
100
AcDbLine
 10
340.3980672021053
 20
329.6960950231491
 30
0.0
 11
340.3980672021055
 21
307.7051645015346
 31
0.0
  0
LINE
  5
354
330
18
100
AcDbEntity
  8
外形線
100
AcDbLine
 10
328.3980672021055
 20
328.4167300656633
 30
0.0
 11
328.3980672021054
 21
307.7051645015346
 31
0.0
  0
LINE
  5
359
330
18
100
AcDbEntity
  8
中心線
100
AcDbLine
 10
334.3980672021055
 20
218.3233816128288
 30
0.0
 11
334.3980672021055
 21
450.9916720978181
 31
0.0
  0
LINE
  5
35B
330
18
100
AcDbEntity
  8
外形線
100
AcDbLine
 10
356.3980672021055
 20
220.7051645015346
 30
0.0
 11
356.3980672021054
 21
274.2051645015346
 31
0.0
  0
LINE
  5
35C
330
18
100
AcDbEntity
  8
外形線
100
AcDbLine
 10
312.3980672021055
 20
220.7051645015346
 30
0.0
 11
312.3980672021055
 21
274.2051645015346
 31
0.0
  0
LINE
  5
35D
330
18
100
AcDbEntity
  8
外形線
100
AcDbLine
 10
312.3980672021055
 20
220.7051645015346
 30
0.0
 11
317.8980672021055
 21
220.7051645015346
 31
0.0
  0
LINE
  5
35E
330
18
100
AcDbEntity
  8
外形線
100
AcDbLine
 10
313.8980672021055
 20
275.7051645015346
 30
0.0
 11
317.3980672021055
 21
275.7051645015346
 31
0.0
  0
ARC
  5
35F
330
18
100
AcDbEntity
  8
外形線
100
AcDbCircle
 10
313.8980672021055
 20
274.2051645015346
 30
0.0
 40
1.5
100
AcDbArc
 50
90.0
 51
180.0
  0
ARC
  5
360
330
18
100
AcDbEntity
  8
外形線
100
AcDbCircle
 10
354.8980672021055
 20
274.2051645015346
 30
0.0
 40
1.5
100
AcDbArc
 50
0.0
 51
90.0
  0
LINE
  5
362
330
18
100
AcDbEntity
  8
外形線
100
AcDbLine
 10
332.8980672021056
 20
226.1647180155276
 30
0.0
 11
332.8980672021055
 21
229.1647180155277
 31
0.0
  0
LINE
  5
372
330
18
100
AcDbEntity
  8
外形線
100
AcDbLine
 10
317.8980672021055
 20
220.7051645015346
 30
0.0
 11
332.8980672021056
 21
226.1647180155276
 31
0.0
  0
LINE
  5
374
330
18
100
AcDbEntity
  8
外形線
100
AcDbLine
 10
332.8980672021055
 20
229.1647180155277
 30
0.0
 11
334.3980672021055
 21
229.1647180155277
 31
0.0
  0
LINE
  5
375
330
18
100
AcDbEntity
  8
外形線
100
AcDbLine
 10
350.8980672021055
 20
220.7051645015346
 30
0.0
 11
335.8980672021055
 21
226.1647180155276
 31
0.0
  0
LINE
  5
376
330
18
100
AcDbEntity
  8
外形線
100
AcDbLine
 10
356.3980672021055
 20
220.7051645015346
 30
0.0
 11
350.8980672021055
 21
220.7051645015346
 31
0.0
  0
LINE
  5
377
330
18
100
AcDbEntity
  8
外形線
100
AcDbLine
 10
335.8980672021055
 20
229.1647180155277
 30
0.0
 11
334.3980672021055
 21
229.1647180155277
 31
0.0
  0
LINE
  5
378
330
18
100
AcDbEntity
  8
外形線
100
AcDbLine
 10
335.8980672021055
 20
226.1647180155276
 30
0.0
 11
335.8980672021055
 21
229.1647180155277
 31
0.0
  0
LINE
  5
379
330
18
100
AcDbEntity
  8
外形線
100
AcDbLine
 10
317.3980672021055
 20
251.2051645015346
 30
0.0
 11
327.3980672021056
 21
251.2051645015346
 31
0.0
  0
LINE
  5
380
330
18
100
AcDbEntity
  8
外形線
100
AcDbLine
 10
317.3980672021055
 20
251.2051645015346
 30
0.0
 11
317.3980672021055
 21
275.7051645015347
 31
0.0
  0
LINE
  5
381
330
18
100
AcDbEntity
  8
外形線
100
AcDbLine
 10
327.3980672021056
 20
251.2051645015346
 30
0.0
 11
327.3980672021054
 21
275.7051645015347
 31
0.0
  0
LINE
  5
382
330
18
100
AcDbEntity
  8
中心線
100
AcDbLine
 10
312.8286426945436
 20
266.7051645015346
 30
0.0
 11
316.7274160722306
 21
266.7051645015346
 31
0.0
  0
LINE
  5
383
330
18
100
AcDbEntity
  8
中心線
100
AcDbLine
 10
314.8980672021056
 20
264.8726323660852
 30
0.0
 11
314.8980672021056
 21
268.542840321841
 31
0.0
  0
CIRCLE
  5
384
330
18
100
AcDbEntity
  8
外形線
100
AcDbCircle
 10
314.8980672021055
 20
266.7051645015346
 30
0.0
 40
1.3
  0
LINE
  5
388
330
18
100
AcDbEntity
  8
外形線
100
AcDbLine
 10
313.978828386563
 20
267.6244033170771
 30
0.0
 11
315.817306017648
 21
265.7859256859921
 31
0.0
  0
LINE
  5
3A5
330
18
100
AcDbEntity
  8
外形線
100
AcDbLine
 10
519.9176928055329
 20
220.7051645015346
 30
0.0
 11
519.9176928055329
 21
275.7051645015346
 31
0.0
  0
LINE
  5
3A6
330
18
100
AcDbEntity
  8
外形線
100
AcDbLine
 10
448.9176928055328
 20
220.7051645015346
 30
0.0
 11
448.9176928055328
 21
278.2301853696627
 31
0.0
  0
LINE
  5
3A7
330
18
100
AcDbEntity
  8
外形線
100
AcDbLine
 10
519.9176928055329
 20
220.7051645015346
 30
0.0
 11
448.9176928055328
 21
220.7051645015346
 31
0.0
  0
LINE
  5
3AB
330
18
100
AcDbEntity
  8
外形線
100
AcDbLine
 10
519.9176928055329
 20
275.7051645015346
 30
0.0
 11
450.4176928055328
 21
275.7051645015346
 31
0.0
  0
ARC
  5
3B0
330
18
100
AcDbEntity
  8
外形線
100
AcDbCircle
 10
450.4176928055328
 20
274.2051645015346
 30
0.0
 40
1.5
100
AcDbArc
 50
90.0
 51
180.0
  0
LINE
  5
3B7
330
18
100
AcDbEntity
  8
中心線
100
AcDbLine
 10
475.394665755352
 20
293.2051645015346
 30
0.0
 11
438.3433050324938
 21
293.2051645015346
 31
0.0
  0
ARC
  5
3B9
330
18
100
AcDbEntity
  8
外形線
100
AcDbCircle
 10
457.9176928055328
 20
293.2051645015346
 30
0.0
 40
15.5
100
AcDbArc
 50
352.9952735909237
 51
67.22602759933969
  0
ARC
  5
3BA
330
18
100
AcDbEntity
  8
外形線
100
AcDbCircle
 10
443.9176928055328
 20
278.2301853696627
 30
0.0
 40
5.0
100
AcDbArc
 50
0.0
 51
46.92721865324792
  0
LINE
  5
3BB
330
18
100
AcDbEntity
  8
外形線
100
AcDbLine
 10
517.9176928055328
 20
285.7051645015346
 30
0.0
 11
478.2646827549086
 21
285.7051645015346
 31
0.0
  0
LINE
  5
3BC
330
18
100
AcDbEntity
  8
外形線
100
AcDbLine
 10
517.9176928055327
 20
277.7051645015346
 30
0.0
 11
467.9176928055328
 21
277.7051645015346
 31
0.0
  0
LINE
  5
3BE
330
18
100
AcDbEntity
  8
外形線
100
AcDbLine
 10
517.9176928055327
 20
277.7051645015346
 30
0.0
 11
517.9176928055328
 21
285.7051645015346
 31
0.0
  0
ARC
  5
3BF
330
18
100
AcDbEntity
  8
外形線
100
AcDbCircle
 10
478.2646827549086
 20
290.7051645015346
 30
0.0
 40
5.0
100
AcDbArc
 50
172.9952735909235
 51
270.0
  0
LINE
  5
3C0
330
18
100
AcDbEntity
  8
外形線
100
AcDbLine
 10
465.9176928055329
 20
275.7051645015346
 30
0.0
 11
465.9176928055329
 21
275.7051645015346
 31
0.0
  0
ARC
  5
3C2
330
18
100
AcDbEntity
  8
外形線
100
AcDbCircle
 10
467.9176928055328
 20
275.7051645015346
 30
0.0
 40
2.0
100
AcDbArc
 50
90.0
 51
180.0
  0
LINE
  5
3C3
102
{ACAD_REACTORS
330
14AC
102
}
330
18
100
AcDbEntity
  8
中心線
 48
0.5
100
AcDbLine
 10
508.9176928055327
 20
272.7388497222764
 30
0.0
 11
508.9176928055328
 21
298.5084918364748
 31
0.0
  0
LINE
  5
3C4
330
18
100
AcDbEntity
  8
中心線
 48
0.5
100
AcDbLine
 10
496.9176928055327
 20
272.7388497222766
 30
0.0
 11
496.9176928055328
 21
287.6270441767454
 31
0.0
  0
LINE
  5
3C5
102
{ACAD_REACTORS
330
14AC
102
}
330
18
100
AcDbEntity
  8
中心線
 48
0.5
100
AcDbLine
 10
484.9176928055327
 20
272.8231411837446
 30
0.0
 11
484.9176928055328
 21
294.9289519621943
 31
0.0
  0
CIRCLE
  5
3C6
330
18
100
AcDbEntity
  8
外形線
100
AcDbCircle
 10
457.9176928055328
 20
293.2051645015346
 30
0.0
 40
14.5
  0
CIRCLE
  5
3C7
330
18
100
AcDbEntity
  8
外形線
100
AcDbCircle
 10
457.9176928055328
 20
293.2051645015346
 30
0.0
 40
10.0
  0
ARC
  5
3CA
330
18
100
AcDbEntity
  8
外形線
100
AcDbCircle
 10
484.9993317641765
 20
293.2051645015347
 30
0.0
 40
11.5
100
AcDbArc
 50
145.4818921589397
 51
214.5181078410621
  0
ARC
  5
3CB
330
18
100
AcDbEntity
  8
外形線
100
AcDbCircle
 10
472.6401246698681
 20
301.7051645015346
 30
0.0
 40
3.5
100
AcDbArc
 50
325.4818921589393
 51
94.51810784106019
  0
ARC
  5
3CC
330
18
100
AcDbEntity
  8
外形線
100
AcDbCircle
 10
472.6401246698683
 20
284.7051645015346
 30
0.0
 40
3.5
100
AcDbArc
 50
29.28865179243287
 51
34.51810784106225
  0
ARC
  5
3CF
330
18
100
AcDbEntity
  8
外形線
100
AcDbCircle
 10
444.3768733262109
 20
269.751777187231
 30
0.0
 40
11.5
100
AcDbArc
 50
69.78641488872795
 51
94.5181078410607
  0
ARC
  5
3D0
330
18
100
AcDbEntity
  8
外形線
100
AcDbCircle
 10
430.8360538468892
 20
293.2051645015347
 30
0.0
 40
11.5
100
AcDbArc
 50
325.4818921589393
 51
34.51810784106124
  0
ARC
  5
3D1
330
18
100
AcDbEntity
  8
外形線
100
AcDbCircle
 10
443.1952609411974
 20
284.7051645015348
 30
0.0
 40
3.5
100
AcDbArc
 50
145.4818921589403
 51
274.5181078410602
  0
ARC
  5
3D2
330
18
100
AcDbEntity
  8
外形線
100
AcDbCircle
 10
443.1952609411974
 20
301.7051645015347
 30
0.0
 40
3.5
100
AcDbArc
 50
85.48189215893803
 51
214.5181078410615
  0
ARC
  5
3D3
330
18
100
AcDbEntity
  8
外形線
100
AcDbCircle
 10
444.3768733262109
 20
316.6585518158385
 30
0.0
 40
11.5
100
AcDbArc
 50
265.4818921589387
 51
310.9745272604866
  0
ARC
  5
3D5
330
18
100
AcDbEntity
  8
外形線
100
AcDbCircle
 10
471.4585122848546
 20
316.6585518158384
 30
0.0
 40
11.5
100
AcDbArc
 50
229.0254727395157
 51
274.5181078410606
  0
ARC
  5
3D6
330
18
100
AcDbEntity
  8
外形線
100
AcDbCircle
 10
457.9176928055328
 20
293.2051645015346
 30
0.0
 40
15.5
100
AcDbArc
 50
112.7739724006599
 51
226.9272186532473
  0
LINE
  5
3D8
330
18
100
AcDbEntity
  8
中心線
100
AcDbLine
 10
350.063154507704
 20
293.2051645015346
 30
0.0
 11
290.6376253552519
 21
293.2051645015346
 31
0.0
  0
LINE
  5
3E4
330
18
100
AcDbEntity
  8
外形線
100
AcDbLine
 10
516.4176928055328
 20
274.7051645015346
 30
0.0
 11
452.4176928055328
 21
274.7051645015346
 31
0.0
  0
LINE
  5
3E5
330
18
100
AcDbEntity
  8
外形線
100
AcDbLine
 10
518.9176928055328
 20
224.2051645015346
 30
0.0
 11
518.9176928055328
 21
272.2051645015346
 31
0.0
  0
LINE
  5
3E6
330
18
100
AcDbEntity
  8
外形線
100
AcDbLine
 10
516.4176928055328
 20
221.7051645015346
 30
0.0
 11
452.4176928055328
 21
221.7051645015346
 31
0.0
  0
LINE
  5
3E7
330
18
100
AcDbEntity
  8
外形線
100
AcDbLine
 10
449.9176928055328
 20
224.2051645015346
 30
0.0
 11
449.9176928055328
 21
272.2051645015346
 31
0.0
  0
ARC
  5
3E8
330
18
100
AcDbEntity
  8
外形線
100
AcDbCircle
 10
452.4176928055328
 20
272.2051645015346
 30
0.0
 40
2.5
100
AcDbArc
 50
90.0
 51
180.0
  0
ARC
  5
3E9
330
18
100
AcDbEntity
  8
外形線
100
AcDbCircle
 10
516.4176928055328
 20
272.2051645015346
 30
0.0
 40
2.5
100
AcDbArc
 50
0.0
 51
90.0
  0
ARC
  5
3EA
330
18
100
AcDbEntity
  8
外形線
100
AcDbCircle
 10
516.4176928055328
 20
224.2051645015346
 30
0.0
 40
2.5
100
AcDbArc
 50
270.0
 51
0.0
  0
ARC
  5
3EB
330
18
100
AcDbEntity
  8
外形線
100
AcDbCircle
 10
452.4176928055328
 20
224.2051645015346
 30
0.0
 40
2.5
100
AcDbArc
 50
180.0
 51
270.0
  0
LINE
  5
3EC
330
18
100
AcDbEntity
  8
外形線
100
AcDbLine
 10
516.4176928055328
 20
273.7051645015346
 30
0.0
 11
452.4176928055328
 21
273.7051645015346
 31
0.0
  0
LINE
  5
3ED
330
18
100
AcDbEntity
  8
外形線
100
AcDbLine
 10
516.4176928055328
 20
222.7051645015346
 30
0.0
 11
452.4176928055328
 21
222.7051645015346
 31
0.0
  0
LINE
  5
3EE
330
18
100
AcDbEntity
  8
外形線
100
AcDbLine
 10
517.9176928055328
 20
224.2051645015346
 30
0.0
 11
517.9176928055328
 21
272.2051645015346
 31
0.0
  0
LINE
  5
3EF
330
18
100
AcDbEntity
  8
外形線
100
AcDbLine
 10
450.9176928055328
 20
224.2051645015346
 30
0.0
 11
450.9176928055328
 21
272.2051645015346
 31
0.0
  0
ARC
  5
3F0
330
18
100
AcDbEntity
  8
外形線
100
AcDbCircle
 10
516.4176928055328
 20
224.2051645015346
 30
0.0
 40
1.5
100
AcDbArc
 50
270.0
 51
0.0
  0
ARC
  5
3F1
330
18
100
AcDbEntity
  8
外形線
100
AcDbCircle
 10
516.4176928055328
 20
272.2051645015346
 30
0.0
 40
1.5
100
AcDbArc
 50
0.0
 51
90.0
  0
ARC
  5
3F2
330
18
100
AcDbEntity
  8
外形線
100
AcDbCircle
 10
452.4176928055328
 20
272.2051645015346
 30
0.0
 40
1.5
100
AcDbArc
 50
90.0
 51
180.0
  0
ARC
  5
3F3
330
18
100
AcDbEntity
  8
外形線
100
AcDbCircle
 10
452.4176928055328
 20
224.2051645015346
 30
0.0
 40
1.5
100
AcDbArc
 50
180.0
 51
270.0
  0
HATCH
  5
40E
330
18
100
AcDbEntity
  8
ﾊｯﾁﾝｸ
100
AcDbHatch
 10
0.0
 20
0.0
 30
0.0
210
0.0
220
0.0
230
1.0
  2
SOLID
 70
     1
 71
     0
 91
        2
 92
        7
 72
     1
 73
     1
 93
       12
 10
517.9176928055328
 20
224.2051645015346
 42
-0.4142135623730951
 10
516.4176928055328
 20
222.7051645015346
 42
0.0
 10
457.9176928055328
 20
222.7051645015346
 42
0.0
 10
457.9176928055328
 20
221.7051645015346
 42
0.0
 10
516.4176928055328
 20
221.7051645015346
 42
0.4142135623730951
 10
518.9176928055328
 20
224.2051645015346
 42
0.0
 10
518.9176928055328
 20
272.2051645015346
 42
0.4142135623730951
 10
516.4176928055328
 20
274.7051645015346
 42
0.0
 10
457.9176928055328
 20
274.7051645015346
 42
0.0
 10
457.9176928055328
 20
273.7051645015346
 42
0.0
 10
516.4176928055328
 20
273.7051645015346
 42
-0.4142135623730951
 10
517.9176928055328
 20
272.2051645015346
 42
0.0
 97
        0
 92
        7
 72
     1
 73
     1
 93
       12
 10
450.9176928055328
 20
272.2051645015346
 42
-0.4142135623730951
 10
452.4176928055328
 20
273.7051645015346
 42
0.0
 10
457.9176928055328
 20
273.7051645015346
 42
0.0
 10
457.9176928055328
 20
274.7051645015346
 42
0.0
 10
452.4176928055328
 20
274.7051645015346
 42
0.4142135623730951
 10
449.9176928055328
 20
272.2051645015346
 42
0.0
 10
449.9176928055328
 20
224.2051645015346
 42
0.4142135623730951
 10
452.4176928055328
 20
221.7051645015346
 42
0.0
 10
457.9176928055328
 20
221.7051645015346
 42
0.0
 10
457.9176928055328
 20
222.7051645015346
 42
0.0
 10
452.4176928055328
 20
222.7051645015346
 42
-0.4142135623730951
 10
450.9176928055328
 20
224.2051645015346
 42
0.0
 97
        0
 75
     0
 76
     1
 47
0.1589884620431151
 98
        2
 10
518.179271640388
 20
256.1860889386194
 10
450.7124526447663
 20
264.7714661099632
450
        0
451
        0
460
0.0
461
0.0
452
        0
462
0.0
453
        0
470

  0
LINE
  5
40F
330
18
100
AcDbEntity
  8
外形線
100
AcDbLine
 10
341.3980672021056
 20
278.7051645015346
 30
0.0
 11
327.3980672021055
 21
278.7051645015347
 31
0.0
  0
LINE
  5
410
330
18
100
AcDbEntity
  8
外形線
100
AcDbLine
 10
341.3980672021056
 20
307.7051645015346
 30
0.0
 11
327.3980672021055
 21
307.7051645015346
 31
0.0
  0
LINE
  5
411
330
18
100
AcDbEntity
  8
外形線
100
AcDbLine
 10
341.3980672021056
 20
278.7051645015346
 30
0.0
 11
341.3980672021056
 21
307.7051645015346
 31
0.0
  0
LINE
  5
412
330
18
100
AcDbEntity
  8
外形線
100
AcDbLine
 10
327.3980672021054
 20
275.7051645015346
 30
0.0
 11
327.3980672021055
 21
308.7051645015346
 31
0.0
  0
LINE
  5
414
330
18
100
AcDbEntity
  8
外形線
100
AcDbLine
 10
343.3980672021059
 20
303.2051645015346
 30
0.0
 11
341.3980672021056
 21
303.2051645015346
 31
0.0
  0
LINE
  5
415
330
18
100
AcDbEntity
  8
外形線
100
AcDbLine
 10
343.3980672021059
 20
283.2051645015346
 30
0.0
 11
341.3980672021056
 21
283.2051645015346
 31
0.0
  0
LINE
  5
416
330
18
100
AcDbEntity
  8
外形線
100
AcDbLine
 10
343.3980672021056
 20
283.2051645015346
 30
0.0
 11
343.3980672021055
 21
303.2051645015346
 31
0.0
  0
ARC
  5
417
330
18
100
AcDbEntity
  8
外形線
100
AcDbCircle
 10
293.8980672021059
 20
293.2051645015346
 30
0.0
 40
50.49999999999966
100
AcDbArc
 50
348.5788137250008
 51
11.4211862749993
  0
LINE
  5
424
330
18
100
AcDbEntity
  8
外形線
100
AcDbLine
 10
327.3980672021055
 20
308.7051645015346
 30
0.0
 11
317.3980672021055
 21
308.7051645015346
 31
0.0
  0
LINE
  5
425
330
18
100
AcDbEntity
  8
外形線
100
AcDbLine
 10
317.3980672021055
 20
260.2051645015346
 30
0.0
 11
327.3980672021056
 21
260.2051645015346
 31
0.0
  0
LINE
  5
426
330
18
100
AcDbEntity
  8
外形線
100
AcDbLine
 10
317.3980672021055
 20
275.7051645015347
 30
0.0
 11
317.3980672021055
 21
308.7051645015346
 31
0.0
  0
LINE
  5
427
330
18
100
AcDbEntity
  8
外形線
100
AcDbLine
 10
315.3980672021055
 20
278.7051645015347
 30
0.0
 11
315.3980672021055
 21
307.7051645015346
 31
0.0
  0
LINE
  5
429
330
18
100
AcDbEntity
  8
外形線
100
AcDbLine
 10
327.3980672021054
 20
275.7051645015346
 30
0.0
 11
354.8980672021055
 21
275.7051645015346
 31
0.0
  0
LINE
  5
42A
330
18
100
AcDbEntity
  8
外形線
100
AcDbLine
 10
315.3980672021055
 20
307.7051645015346
 30
0.0
 11
317.3980672021055
 21
307.7051645015346
 31
0.0
  0
LINE
  5
42B
330
18
100
AcDbEntity
  8
外形線
100
AcDbLine
 10
315.3980672021055
 20
278.7051645015347
 30
0.0
 11
317.3980672021055
 21
278.7051645015347
 31
0.0
  0
ARC
  5
42C
330
18
100
AcDbEntity
  8
外形線
100
AcDbCircle
 10
302.4814005354392
 20
309.7051645015345
 30
0.0
 40
6.083333333333398
100
AcDbArc
 50
138.8879095608329
 51
221.1120904391659
  0
LINE
  5
42D
330
18
100
AcDbEntity
  8
外形線
100
AcDbLine
 10
307.3980672021057
 20
313.7051645015346
 30
0.0
 11
307.3980672021055
 21
272.7051645015345
 31
0.0
  0
ARC
  5
42E
330
18
100
AcDbEntity
  8
外形線
100
AcDbCircle
 10
302.4814005354392
 20
276.7051645015346
 30
0.0
 40
6.083333333333398
100
AcDbArc
 50
138.8879095608341
 51
221.1120904391671
  0
LINE
  5
42F
330
18
100
AcDbEntity
  8
外形線
100
AcDbLine
 10
307.3980672021057
 20
272.7051645015345
 30
0.0
 11
297.8980672021058
 21
272.7051645015346
 31
0.0
  0
LINE
  5
430
330
18
100
AcDbEntity
  8
外形線
100
AcDbLine
 10
307.3980672021058
 20
305.7051645015345
 30
0.0
 11
297.8980672021058
 21
305.7051645015345
 31
0.0
  0
LINE
  5
431
330
18
100
AcDbEntity
  8
外形線
100
AcDbLine
 10
307.3980672021058
 20
280.7051645015345
 30
0.0
 11
297.8980672021058
 21
280.7051645015345
 31
0.0
  0
LINE
  5
432
330
18
100
AcDbEntity
  8
外形線
100
AcDbLine
 10
315.3980672021055
 20
286.2051645015346
 30
0.0
 11
307.3980672021055
 21
286.2051645015346
 31
0.0
  0
LINE
  5
433
330
18
100
AcDbEntity
  8
外形線
100
AcDbLine
 10
315.3980672021055
 20
300.2051645015346
 30
0.0
 11
307.3980672021054
 21
300.2051645015346
 31
0.0
  0
LINE
  5
434
330
18
100
AcDbEntity
  8
外形線
100
AcDbLine
 10
296.3980672021055
 20
296.2588895420811
 30
0.0
 11
296.3980672021055
 21
276.7051645015346
 31
0.0
  0
LINE
  5
435
330
18
100
AcDbEntity
  8
外形線
100
AcDbLine
 10
296.3980672021058
 20
276.7051645015346
 30
0.0
 11
296.3980672021057
 21
293.2051645015345
 31
0.0
  0
LINE
  5
436
330
18
100
AcDbEntity
  8
外形線
100
AcDbLine
 10
297.8980672021057
 20
280.7051645015345
 30
0.0
 11
296.3980672021057
 21
290.1514394609861
 31
0.0
  0
LINE
  5
437
330
18
100
AcDbEntity
  8
外形線
100
AcDbLine
 10
296.3980672021058
 20
309.7051645015346
 30
0.0
 11
296.3980672021057
 21
293.2051645015345
 31
0.0
  0
LINE
  5
438
330
18
100
AcDbEntity
  8
外形線
100
AcDbLine
 10
297.8980672021057
 20
305.7051645015345
 30
0.0
 11
296.3980672021057
 21
296.258889542083
 31
0.0
  0
LINE
  5
439
330
18
100
AcDbEntity
  8
外形線
100
AcDbLine
 10
307.3980672021057
 20
313.7051645015347
 30
0.0
 11
297.8980672021058
 21
313.7051645015346
 31
0.0
  0
MTEXT
  5
B9D
330
18
100
AcDbEntity
  8
DEFPOINTS
  6
Continuous
100
AcDbMText
 10
1356.265418477205
 20
149.3891677997557
 30
0.0
 40
1.0
 41
0.0
 71
     4
 72
     1
  1
\A1;
 73
     1
 44
1.0
  0
LINE
  5
B9E
102
{ACAD_REACTORS
330
BDA
102
}
330
18
100
AcDbEntity
  8
ROGO
 62
     4
100
AcDbLine
 10
464.1553705558095
 20
263.6861484562545
 30
0.0
 11
468.7625085929098
 21
263.6861484562545
 31
0.0
  0
LINE
  5
B9F
102
{ACAD_REACTORS
330
BD9
330
BDA
330
BE8
102
}
330
18
100
AcDbEntity
  8
ROGO
 62
     4
100
AcDbLine
 10
461.2546547269732
 20
257.8236376422374
 30
0.0
 11
500.9380183470411
 21
257.8236376422374
 31
0.0
  0
LINE
  5
BA0
102
{ACAD_REACTORS
330
BDA
102
}
330
18
100
AcDbEntity
  8
ROGO
 62
     4
100
AcDbLine
 10
464.1553705558095
 20
263.6861484562545
 30
0.0
 11
461.2546547269732
 21
257.8236376422373
 31
0.0
  0
SPLINE
  5
BA1
102
{ACAD_REACTORS
330
BDA
102
}
330
18
100
AcDbEntity
  8
ROGO
 62
     4
100
AcDbSpline
210
0.0
220
0.0
230
1.0
 70
     8
 71
     3
 72
    18
 73
    14
 74
     0
 42
0.0000000001
 43
0.0000000001
 40
0.1087402787915014
 40
0.1087402787915014
 40
0.1087402787915014
 40
0.1087402787915014
 40
0.5992371417938475
 40
1.083176791562496
 40
1.448211145705696
 40
1.714037220764907
 40
2.164002567013297
 40
2.740236056362883
 40
3.395137510199602
 40
4.071816045172726
 40
4.784906178399433
 40
5.506895915094292
 40
6.060470601257719
 40
6.060470601257719
 40
6.060470601257719
 40
6.060470601257719
 10
468.7625085929098
 20
263.6861484562546
 30
0.0
 10
468.91010727187
 20
263.6320560138326
 30
0.0
 10
469.2003585514429
 20
263.5176963243603
 30
0.0
 10
469.5546020815777
 20
263.2566897249564
 30
0.0
 10
469.7477912070769
 20
262.9553789330342
 30
0.0
 10
469.9336175171999
 20
262.6584910978833
 30
0.0
 10
469.9596235700883
 20
262.2325552860076
 30
0.0
 10
469.9170238985251
 20
261.6940691843742
 30
0.0
 10
469.6420042674503
 20
261.1322145057435
 30
0.0
 10
469.2005815843607
 20
260.6407944177383
 30
0.0
 10
468.6525245183807
 20
260.2474681881906
 30
0.0
 10
468.0745794380742
 20
259.9387172267752
 30
0.0
 10
467.6614641322069
 20
259.9356408821791
 30
0.0
 10
467.482178655365
 20
259.9343057975188
 30
0.0
  0
LINE
  5
BA2
102
{ACAD_REACTORS
330
BDA
102
}
330
18
100
AcDbEntity
  8
ROGO
 62
     4
100
AcDbLine
 10
467.4821786562481
 20
259.9343057975188
 30
0.0
 11
464.9347264605873
 21
259.9343057975188
 31
0.0
  0
LINE
  5
BA3
102
{ACAD_REACTORS
330
BDA
102
}
330
18
100
AcDbEntity
  8
ROGO
 62
     4
100
AcDbLine
 10
465.9757615710661
 20
262.235300138502
 30
0.0
 11
465.5243392957592
 21
261.2375238959724
 31
0.0
  0
SPLINE
  5
BA4
102
{ACAD_REACTORS
330
BDA
102
}
330
18
100
AcDbEntity
  8
ROGO
 62
     4
100
AcDbSpline
210
0.0
220
0.0
230
1.0
 70
     8
 71
     3
 72
    15
 73
    11
 74
     9
 42
0.0000000001
 43
0.0000000001
 44
0.0000000001
 40
0.0
 40
0.0
 40
0.0
 40
0.0
 40
0.4399157226213117
 40
0.6404930950247764
 40
0.8681617655417529
 40
1.023260249278231
 40
1.268550109906303
 40
1.41547203584833
 40
1.667541915898828
 40
1.75156526287584
 40
1.75156526287584
 40
1.75156526287584
 40
1.75156526287584
 10
467.1357244256303
 20
262.235300138502
 30
0.0
 10
467.3009482400851
 20
262.2360569517661
 30
0.0
 10
467.5415050259653
 20
262.2371588302509
 30
0.0
 10
467.6730500441499
 20
261.9395893904526
 30
0.0
 10
467.6140852949114
 20
261.7480010914884
 30
0.0
 10
467.5399617994141
 20
261.551299622209
 30
0.0
 10
467.4089687950072
 20
261.4176380071537
 30
0.0
 10
467.233156996164
 20
261.2888993396193
 30
0.0
 10
467.0670064445761
 20
261.2733149474494
 30
0.0
 10
466.9589441617973
 20
261.2446821090089
 30
0.0
 10
466.9319285781709
 20
261.2375238959723
 30
0.0
 11
467.1357244256303
 21
262.235300138502
 31
0.0
 11
467.5636960568554
 21
262.1334859652451
 31
0.0
 11
467.6452146302125
 21
261.9502211172298
 31
0.0
 11
467.6044559294673
 21
261.7262305999115
 31
0.0
 11
467.5433172924162
 21
261.5836907573519
 31
0.0
 11
467.3802801457018
 21
261.4004259093364
 31
0.0
 11
467.2580028715994
 21
261.318974570731
 31
0.0
 11
467.013447151528
 21
261.2578867306236
 31
0.0
 11
466.9319285781709
 21
261.2375238959723
 31
0.0
  0
LINE
  5
BA5
102
{ACAD_REACTORS
330
BDA
102
}
330
18
100
AcDbEntity
  8
ROGO
 62
     4
100
AcDbLine
 10
467.1357244256303
 20
262.235300138502
 30
0.0
 11
465.9757615710661
 21
262.235300138502
 31
0.0
  0
LINE
  5
BA6
102
{ACAD_REACTORS
330
BDA
102
}
330
18
100
AcDbEntity
  8
ROGO
 62
     4
100
AcDbLine
 10
466.931928578171
 20
261.2375238959723
 30
0.0
 11
465.5243392957593
 21
261.2375238959724
 31
0.0
  0
LINE
  5
BA7
102
{ACAD_REACTORS
330
BD9
330
BDA
102
}
330
18
100
AcDbEntity
  8
ROGO
 62
     4
100
AcDbLine
 10
464.9347264605873
 20
259.9343057975188
 30
0.0
 11
463.9798003153632
 21
257.8236376422374
 31
0.0
  0
LINE
  5
BA8
102
{ACAD_REACTORS
330
BD6
102
}
330
18
100
AcDbEntity
  8
ROGO
 62
     4
100
AcDbLine
 10
471.4842914306401
 20
263.6861484562545
 30
0.0
 11
469.6279145756114
 21
259.9343057975188
 31
0.0
  0
LINE
  5
BA9
102
{ACAD_REACTORS
330
BD6
102
}
330
18
100
AcDbEntity
  8
ROGO
 62
     4
100
AcDbLine
 10
476.5588147120228
 20
263.6861484562545
 30
0.0
 11
476.1335741527812
 21
262.8267132257056
 31
0.0
  0
LINE
  5
BAA
102
{ACAD_REACTORS
330
BD6
102
}
330
18
100
AcDbEntity
  8
ROGO
 62
     4
100
AcDbLine
 10
469.6279145756112
 20
259.9343057975188
 30
0.0
 11
474.7024378569939
 21
259.9343057975188
 31
0.0
  0
LINE
  5
BAB
102
{ACAD_REACTORS
330
BD6
102
}
330
18
100
AcDbEntity
  8
ROGO
 62
     4
100
AcDbLine
 10
473.4665329464441
 20
262.8267132257056
 30
0.0
 11
473.1340476719398
 21
262.1547416737509
 31
0.0
  0
LINE
  5
BAC
102
{ACAD_REACTORS
330
BD6
102
}
330
18
100
AcDbEntity
  8
ROGO
 62
     4
100
AcDbLine
 10
473.4665329464441
 20
262.8267132257056
 30
0.0
 11
476.1335741527812
 21
262.8267132257056
 31
0.0
  0
LINE
  5
BAD
102
{ACAD_REACTORS
330
BD6
102
}
330
18
100
AcDbEntity
  8
ROGO
 62
     4
100
AcDbLine
 10
473.1340476719398
 20
262.1547416737509
 30
0.0
 11
475.8010888782769
 21
262.1547416737509
 31
0.0
  0
LINE
  5
BAE
102
{ACAD_REACTORS
330
BD6
102
}
330
18
100
AcDbEntity
  8
ROGO
 62
     4
100
AcDbLine
 10
472.4606158198249
 20
260.7936977975189
 30
0.0
 11
475.127657026162
 21
260.7936977975189
 31
0.0
  0
LINE
  5
BAF
102
{ACAD_REACTORS
330
BD6
102
}
330
18
100
AcDbEntity
  8
ROGO
 62
     4
100
AcDbLine
 10
472.7931151701575
 20
261.4656977975188
 30
0.0
 11
475.4601563764945
 21
261.4656977975189
 31
0.0
  0
LINE
  5
BB0
102
{ACAD_REACTORS
330
BD6
102
}
330
18
100
AcDbEntity
  8
ROGO
 62
     4
100
AcDbLine
 10
475.8010888782769
 20
262.1547416737509
 30
0.0
 11
475.4601563764945
 21
261.4656977975188
 31
0.0
  0
LINE
  5
BB1
102
{ACAD_REACTORS
330
BD6
102
}
330
18
100
AcDbEntity
  8
ROGO
 62
     4
100
AcDbLine
 10
475.127657026162
 20
260.7936977975189
 30
0.0
 11
474.7024378569939
 21
259.9343057975188
 31
0.0
  0
LINE
  5
BB2
102
{ACAD_REACTORS
330
BD6
102
}
330
18
100
AcDbEntity
  8
ROGO
 62
     4
100
AcDbLine
 10
472.7931151701575
 20
261.4656977975188
 30
0.0
 11
472.4606158198249
 21
260.7936977975189
 31
0.0
  0
LINE
  5
BB3
102
{ACAD_REACTORS
330
BDE
102
}
330
18
100
AcDbEntity
  8
ROGO
 62
     4
100
AcDbLine
 10
478.0287983268733
 20
263.6861484562545
 30
0.0
 11
475.3232716694472
 21
259.9343057975188
 31
0.0
  0
LINE
  5
BB4
102
{ACAD_REACTORS
330
BDE
102
}
330
18
100
AcDbEntity
  8
ROGO
 62
     4
100
AcDbLine
 10
479.3834493458209
 20
262.6832656649637
 30
0.0
 11
478.4595443849259
 21
261.4020563169098
 31
0.0
  0
LINE
  5
BB5
102
{ACAD_REACTORS
330
BDE
102
}
330
18
100
AcDbEntity
  8
ROGO
 62
     4
100
AcDbLine
 10
477.9162364959399
 20
260.6486334263497
 30
0.0
 11
480.2873136067524
 21
260.6486334263497
 31
0.0
  0
LINE
  5
BB6
102
{ACAD_REACTORS
330
BDE
102
}
330
18
100
AcDbEntity
  8
ROGO
 62
     4
100
AcDbLine
 10
478.459544384926
 20
261.4020563169098
 30
0.0
 11
479.9526133050364
 21
261.4020563169098
 31
0.0
  0
LINE
  5
BB7
102
{ACAD_REACTORS
330
BDE
102
}
330
18
100
AcDbEntity
  8
ROGO
 62
     4
100
AcDbLine
 10
477.9162364959399
 20
260.6486334263497
 30
0.0
 11
477.4011209599946
 21
259.9343057975189
 31
0.0
  0
LINE
  5
BB8
102
{ACAD_REACTORS
330
BDE
102
}
330
18
100
AcDbEntity
  8
ROGO
 62
     4
100
AcDbLine
 10
475.3232716694472
 20
259.9343057975188
 30
0.0
 11
477.4011209599946
 21
259.9343057975188
 31
0.0
  0
LINE
  5
BB9
102
{ACAD_REACTORS
330
BDE
102
}
330
18
100
AcDbEntity
  8
ROGO
 62
     4
100
AcDbLine
 10
478.0287983268733
 20
263.6861484562545
 30
0.0
 11
481.0299511347916
 21
263.6861484562546
 31
0.0
  0
LINE
  5
BBA
102
{ACAD_REACTORS
330
BDE
102
}
330
18
100
AcDbEntity
  8
ROGO
 62
     4
100
AcDbLine
 10
482.6966683073155
 20
259.9343057975189
 30
0.0
 11
480.6046462440922
 21
259.9343057975188
 31
0.0
  0
LINE
  5
BBB
102
{ACAD_REACTORS
330
BD7
102
}
330
18
100
AcDbEntity
  8
ROGO
 62
     4
100
AcDbLine
 10
483.7241523501891
 20
259.9343057975188
 30
0.0
 11
486.9556638216308
 21
259.9343057975188
 31
0.0
  0
LINE
  5
BBC
102
{ACAD_REACTORS
330
BD7
102
}
330
18
100
AcDbEntity
  8
ROGO
 62
     4
100
AcDbLine
 10
488.8264537445144
 20
263.6861484562545
 30
0.0
 11
488.1303986001126
 21
262.2902197356348
 31
0.0
  0
LINE
  5
BBD
102
{ACAD_REACTORS
330
BD7
102
}
330
18
100
AcDbEntity
  8
ROGO
 62
     4
100
AcDbLine
 10
485.7824931048236
 20
262.2902197356348
 30
0.0
 11
488.1303986001126
 21
262.290219735635
 31
0.0
  0
LINE
  5
BBE
102
{ACAD_REACTORS
330
BD7
102
}
330
18
100
AcDbEntity
  8
ROGO
 62
     4
100
AcDbLine
 10
485.2526229639356
 20
261.3302197356349
 30
0.0
 11
487.651711594999
 21
261.3302197356349
 31
0.0
  0
SPLINE
  5
BBF
102
{ACAD_REACTORS
330
BD7
102
}
330
18
100
AcDbEntity
  8
ROGO
 62
     4
100
AcDbSpline
210
0.0
220
0.0
230
1.0
 70
     8
 71
     3
 72
    26
 73
    22
 74
    20
 42
0.0000000001
 43
0.0000000001
 44
0.0000000001
 40
0.0
 40
0.0
 40
0.0
 40
0.0
 40
0.6806272418834842
 40
1.136254477903046
 40
1.46479881993943
 40
1.710112249467388
 40
2.028296642642871
 40
2.260540230712908
 40
2.679918019583991
 40
3.021285510494717
 40
3.253470102552452
 40
3.481138982867335
 40
3.888394348201088
 40
4.176372499429463
 40
4.331470983165889
 40
4.551783797772921
 40
4.710876624553408
 40
4.941349605730148
 40
5.071777377612503
 40
5.355602839329045
 40
5.485200010717836
 40
5.485200010717836
 40
5.485200010717836
 40
5.485200010717836
 10
485.0692070527823
 20
263.6861484562545
 30
0.0
 10
484.8381916506147
 20
263.6723656812114
 30
0.0
 10
484.4525293247119
 20
263.6493564055065
 30
0.0
 10
484.0290744369642
 20
263.3921121087682
 30
0.0
 10
483.7188265957918
 20
263.2425615792184
 30
0.0
 10
483.4975582117229
 20
263.0392603751626
 30
0.0
 10
483.335367589244
 20
262.8292650822444
 30
0.0
 10
483.1308958615371
 20
262.5790572304575
 30
0.0
 10
482.9641550103771
 20
262.2877003119874
 30
0.0
 10
482.8792440317109
 20
261.9665741946636
 30
0.0
 10
482.8040306927001
 20
261.7106348159238
 30
0.0
 10
482.7482512213491
 20
261.4254237790882
 30
0.0
 10
482.7624430979574
 20
261.1172955273104
 30
0.0
 10
482.7827665147699
 20
260.8311217815851
 30
0.0
 10
482.8735056288389
 20
260.6268365732233
 30
0.0
 10
482.9768414070959
 20
260.4813995819967
 30
0.0
 10
483.1033746523957
 20
260.3212168600003
 30
0.0
 10
483.2418296933027
 20
260.2151283619138
 30
0.0
 10
483.3563433136187
 20
260.022941918655
 30
0.0
 10
483.5567955429401
 20
259.9984175424375
 30
0.0
 10
483.684210954585
 20
259.9496067142173
 30
0.0
 10
483.7241523501892
 20
259.9343057975188
 30
0.0
 11
485.0692070527823
 21
263.6861484562545
 31
0.0
 11
484.3966797014855
 21
263.5814565074153
 31
0.0
 11
483.9890868346999
 21
263.3778288247484
 31
0.0
 11
483.7037724138831
 21
263.2149268113843
 31
0.0
 11
483.5203565027295
 21
263.0520241341734
 31
0.0
 11
483.3165606552702
 21
262.8076707822038
 31
0.0
 11
483.1739034448617
 21
262.6244059341883
 31
0.0
 11
482.9701064255354
 21
262.2578755743106
 31
0.0
 11
482.868209087739
 21
261.9320708837356
 31
0.0
 11
482.8070704506879
 21
261.7080803664172
 31
0.0
 11
482.7663105780759
 21
261.484089849099
 31
0.0
 11
482.7663105780759
 21
261.0768344837652
 31
0.0
 11
482.8070704506879
 21
260.7917554624929
 31
0.0
 11
482.868209087739
 21
260.6492156199335
 31
0.0
 11
482.9904863618414
 21
260.4659507719178
 31
0.0
 11
483.0923848715046
 21
260.3437737640097
 31
0.0
 11
483.2554208463519
 21
260.1808717506455
 31
0.0
 11
483.3369394197092
 21
260.0790575773887
 31
0.0
 11
483.6018750760869
 21
259.9772440679786
 31
0.0
 11
483.7241523501892
 21
259.9343057975188
 31
0.0
  0
SPLINE
  5
BC0
102
{ACAD_REACTORS
330
BD7
102
}
330
18
100
AcDbEntity
  8
ROGO
 62
     4
100
AcDbSpline
210
0.0
220
0.0
230
1.0
 70
     8
 71
     3
 72
    16
 73
    12
 74
    10
 42
0.0000000001
 43
0.0000000001
 44
0.0000000001
 40
0.0
 40
0.0
 40
0.0
 40
0.0
 40
0.3588305787511923
 40
0.5340934395628975
 40
0.6205210870828104
 40
0.7116017533954993
 40
0.8420290070680149
 40
0.9607895174090053
 40
1.084653962880985
 40
1.29232165588877
 40
1.497869274526363
 40
1.497869274526363
 40
1.497869274526363
 40
1.497869274526363
 10
485.7824931048237
 20
262.2902197356348
 30
0.0
 10
485.6609767973339
 20
262.2716937547663
 30
0.0
 10
485.4801085367301
 20
262.2441191682363
 30
0.0
 10
485.3165492470412
 20
262.1146474340199
 30
0.0
 10
485.2243131638293
 20
262.0376203702586
 30
0.0
 10
485.1929340373965
 20
261.9356146725951
 30
0.0
 10
485.1086595577948
 20
261.8572899553505
 30
0.0
 10
485.0391934152882
 20
261.7496465818758
 30
0.0
 10
485.0226064751116
 20
261.6017966648497
 30
0.0
 10
485.0347816689621
 20
261.3943118387432
 30
0.0
 10
485.1802579963022
 20
261.3515105701737
 30
0.0
 10
485.2526229639358
 20
261.3302197356349
 30
0.0
 11
485.7824931048237
 21
262.2902197356348
 31
0.0
 11
485.436040046956
 21
262.1967870703565
 31
0.0
 11
485.2933828365475
 21
262.0949735609464
 31
0.0
 11
485.2322441994965
 21
262.0338850569922
 31
0.0
 11
485.1914843268844
 21
261.9524337183868
 31
0.0
 11
485.1099657535273
 21
261.8506202089768
 31
0.0
 11
485.0488271164761
 21
261.74880603572
 31
0.0
 11
485.02844718017
 21
261.6266296916585
 31
0.0
 11
485.0692070527822
 21
261.423001345145
 31
0.0
 11
485.2526229639358
 21
261.3302197356349
 31
0.0
  0
LINE
  5
BC1
102
{ACAD_REACTORS
330
BD7
102
}
330
18
100
AcDbEntity
  8
ROGO
 62
     4
100
AcDbLine
 10
487.6517115949988
 20
261.3302197356349
 30
0.0
 11
486.9556638216308
 21
259.9343057975188
 31
0.0
  0
LINE
  5
BC2
102
{ACAD_REACTORS
330
BD7
102
}
330
18
100
AcDbEntity
  8
ROGO
 62
     4
100
AcDbLine
 10
485.0692070527833
 20
263.6861484562546
 30
0.0
 11
488.8264537445145
 21
263.6861484562546
 31
0.0
  0
LINE
  5
BC3
102
{ACAD_REACTORS
330
BD8
102
}
330
18
100
AcDbEntity
  8
ROGO
 62
     4
100
AcDbLine
 10
495.8129231242686
 20
259.9343057975188
 30
0.0
 11
499.0444345957105
 21
259.9343057975188
 31
0.0
  0
LINE
  5
BC4
102
{ACAD_REACTORS
330
BD8
102
}
330
18
100
AcDbEntity
  8
ROGO
 62
     4
100
AcDbLine
 10
497.1579778268628
 20
263.6861484562545
 30
0.0
 11
500.9152245185941
 21
263.6861484562545
 31
0.0
  0
SPLINE
  5
BC5
102
{ACAD_REACTORS
330
BD8
102
}
330
18
100
AcDbEntity
  8
ROGO
 62
     4
100
AcDbSpline
210
0.0
220
0.0
230
1.0
 70
     8
 71
     3
 72
    16
 73
    12
 74
    10
 42
0.0000000001
 43
0.0000000001
 44
0.0000000001
 40
0.0
 40
0.0
 40
0.0
 40
0.0
 40
0.3588305787513021
 40
0.5340934395630138
 40
0.6205210870828062
 40
0.7116017533955459
 40
0.8420290070681502
 40
0.960789517409082
 40
1.08465396288095
 40
1.292321655888824
 40
1.497869274526544
 40
1.497869274526544
 40
1.497869274526544
 40
1.497869274526544
 10
497.8712638789033
 20
262.2902197356348
 30
0.0
 10
497.7497475714135
 20
262.2716937547664
 30
0.0
 10
497.5688793108094
 20
262.2441191682365
 30
0.0
 10
497.4053200211212
 20
262.1146474340197
 30
0.0
 10
497.313083937909
 20
262.0376203702587
 30
0.0
 10
497.2817048114761
 20
261.9356146725952
 30
0.0
 10
497.1974303318741
 20
261.8572899553503
 30
0.0
 10
497.1279641893682
 20
261.7496465818758
 30
0.0
 10
497.1113772491911
 20
261.6017966648496
 30
0.0
 10
497.1235524430416
 20
261.394311838743
 30
0.0
 10
497.2690287703819
 20
261.3515105701734
 30
0.0
 10
497.3413937380154
 20
261.3302197356347
 30
0.0
 11
497.8712638789033
 21
262.2902197356348
 31
0.0
 11
497.5248108210355
 21
262.1967870703565
 31
0.0
 11
497.3821536106272
 21
262.0949735609463
 31
0.0
 11
497.3210149735762
 21
262.0338850569922
 31
0.0
 11
497.280255100964
 21
261.9524337183868
 31
0.0
 11
497.1987365276069
 21
261.8506202089767
 31
0.0
 11
497.1375978905557
 21
261.7488060357199
 31
0.0
 11
497.1172179542496
 21
261.6266296916585
 31
0.0
 11
497.1579778268617
 21
261.4230013451449
 31
0.0
 11
497.3413937380154
 21
261.3302197356347
 31
0.0
  0
SPLINE
  5
BC6
102
{ACAD_REACTORS
330
BD8
102
}
330
18
100
AcDbEntity
  8
ROGO
 62
     4
100
AcDbSpline
210
0.0
220
0.0
230
1.0
 70
     8
 71
     3
 72
    26
 73
    22
 74
    20
 42
0.0000000001
 43
0.0000000001
 44
0.0000000001
 40
0.0
 40
0.0
 40
0.0
 40
0.0
 40
0.6806272418834842
 40
1.136254477903046
 40
1.46479881993943
 40
1.710112249467303
 40
2.028296642642946
 40
2.260540230712894
 40
2.679918019584126
 40
3.021285510494852
 40
3.253470102552422
 40
3.481138982867304
 40
3.888394348201058
 40
4.176372499429433
 40
4.331470983165964
 40
4.551783797772949
 40
4.710876624553509
 40
4.941349605730248
 40
5.071777377612533
 40
5.355602839329095
 40
5.485200010717867
 40
5.485200010717867
 40
5.485200010717867
 40
5.485200010717867
 10
497.1579778268618
 20
263.6861484562545
 30
0.0
 10
496.9269624246942
 20
263.6723656812114
 30
0.0
 10
496.5413000987915
 20
263.6493564055065
 30
0.0
 10
496.1178452110437
 20
263.3921121087682
 30
0.0
 10
495.8075973698716
 20
263.2425615792186
 30
0.0
 10
495.5863289858024
 20
263.0392603751624
 30
0.0
 10
495.4241383633235
 20
262.8292650822443
 30
0.0
 10
495.2196666356164
 20
262.5790572304575
 30
0.0
 10
495.0529257844566
 20
262.2877003119872
 30
0.0
 10
494.9680148057905
 20
261.9665741946635
 30
0.0
 10
494.8928014667798
 20
261.7106348159238
 30
0.0
 10
494.8370219954287
 20
261.4254237790883
 30
0.0
 10
494.8512138720369
 20
261.1172955273103
 30
0.0
 10
494.8715372888496
 20
260.8311217815851
 30
0.0
 10
494.9622764029182
 20
260.6268365732232
 30
0.0
 10
495.0656121811754
 20
260.4813995819965
 30
0.0
 10
495.1921454264754
 20
260.3212168600003
 30
0.0
 10
495.3306004673822
 20
260.2151283619138
 30
0.0
 10
495.4451140876982
 20
260.0229419186549
 30
0.0
 10
495.6455663170195
 20
259.9984175424373
 30
0.0
 10
495.7729817286645
 20
259.9496067142173
 30
0.0
 10
495.8129231242687
 20
259.9343057975187
 30
0.0
 11
497.1579778268618
 21
263.6861484562545
 31
0.0
 11
496.4854504755651
 21
263.5814565074153
 31
0.0
 11
496.0778576087794
 21
263.3778288247484
 31
0.0
 11
495.7925431879626
 21
263.2149268113843
 31
0.0
 11
495.6091272768092
 21
263.0520241341734
 31
0.0
 11
495.4053314293497
 21
262.8076707822037
 31
0.0
 11
495.2626742189413
 21
262.6244059341883
 31
0.0
 11
495.058877199615
 21
262.2578755743104
 31
0.0
 11
494.9569798618186
 21
261.9320708837354
 31
0.0
 11
494.8958412247675
 21
261.7080803664172
 31
0.0
 11
494.8550813521555
 21
261.484089849099
 31
0.0
 11
494.8550813521555
 21
261.0768344837652
 31
0.0
 11
494.8958412247675
 21
260.7917554624929
 31
0.0
 11
494.9569798618186
 21
260.6492156199333
 31
0.0
 11
495.0792571359208
 21
260.4659507719178
 31
0.0
 11
495.1811556455843
 21
260.3437737640096
 31
0.0
 11
495.3441916204316
 21
260.1808717506454
 31
0.0
 11
495.4257101937888
 21
260.0790575773886
 31
0.0
 11
495.6906458501664
 21
259.9772440679785
 31
0.0
 11
495.8129231242687
 21
259.9343057975187
 31
0.0
  0
LINE
  5
BC7
102
{ACAD_REACTORS
330
BD8
102
}
330
18
100
AcDbEntity
  8
ROGO
 62
     4
100
AcDbLine
 10
499.7404823690785
 20
261.3302197356349
 30
0.0
 11
499.0444345957105
 21
259.9343057975187
 31
0.0
  0
LINE
  5
BC8
102
{ACAD_REACTORS
330
BD8
102
}
330
18
100
AcDbEntity
  8
ROGO
 62
     4
100
AcDbLine
 10
497.3413937380152
 20
261.3302197356349
 30
0.0
 11
499.7404823690785
 21
261.3302197356349
 31
0.0
  0
LINE
  5
BC9
102
{ACAD_REACTORS
330
BD8
102
}
330
18
100
AcDbEntity
  8
ROGO
 62
     4
100
AcDbLine
 10
497.8712638789032
 20
262.2902197356348
 30
0.0
 11
500.2191693741922
 21
262.2902197356348
 31
0.0
  0
LINE
  5
BCA
102
{ACAD_REACTORS
330
BD8
102
}
330
18
100
AcDbEntity
  8
ROGO
 62
     4
100
AcDbLine
 10
500.9152245185941
 20
263.6861484562545
 30
0.0
 11
500.2191693741922
 21
262.2902197356348
 31
0.0
  0
LINE
  5
BCB
102
{ACAD_REACTORS
330
BE8
102
}
330
18
100
AcDbEntity
  8
ROGO
 62
     4
100
AcDbLine
 10
501.7010163160859
 20
263.6861484562545
 30
0.0
 11
503.8612555803836
 21
263.6861484562544
 31
0.0
  0
LINE
  5
BCC
102
{ACAD_REACTORS
330
BD9
330
BE8
102
}
330
18
100
AcDbEntity
  8
ROGO
 62
     4
100
AcDbLine
 10
501.7010163160859
 20
263.6861484562545
 30
0.0
 11
498.7777790827434
 21
257.8236376422374
 31
0.0
  0
LINE
  5
BCD
102
{ACAD_REACTORS
330
BE8
102
}
330
18
100
AcDbEntity
  8
ROGO
 62
     4
100
AcDbLine
 10
503.8612555803836
 20
263.6861484562544
 30
0.0
 11
503.3342156966328
 21
262.6291774438898
 31
0.0
  0
LINE
  5
BCE
102
{ACAD_REACTORS
330
BE8
102
}
330
18
100
AcDbEntity
  8
ROGO
 62
     4
100
AcDbLine
 10
501.7010163160859
 20
259.3538192482932
 30
0.0
 11
502.4640142851308
 21
257.8236376422374
 31
0.0
  0
LINE
  5
BCF
102
{ACAD_REACTORS
330
BE8
102
}
330
18
100
AcDbEntity
  8
ROGO
 62
     4
100
AcDbLine
 10
503.1625876684595
 20
260.7548930492459
 30
0.0
 11
504.6242062851306
 21
257.8236376422374
 31
0.0
  0
LINE
  5
BD0
102
{ACAD_REACTORS
330
BE8
102
}
330
18
100
AcDbEntity
  8
ROGO
 62
     4
100
AcDbLine
 10
501.7010163160859
 20
259.3538192482932
 30
0.0
 11
500.9380183470411
 21
257.8236376422374
 31
0.0
  0
LINE
  5
BD1
102
{ACAD_REACTORS
330
BE8
102
}
330
18
100
AcDbEntity
  8
ROGO
 62
     4
100
AcDbLine
 10
503.1625876684595
 20
260.7548930492459
 30
0.0
 11
506.7137555122631
 21
263.6861484562545
 31
0.0
  0
LINE
  5
BD2
102
{ACAD_REACTORS
330
BE8
102
}
330
18
100
AcDbEntity
  8
ROGO
 62
     4
100
AcDbLine
 10
504.5535635122631
 20
263.6861484562545
 30
0.0
 11
506.7137555122631
 21
263.6861484562545
 31
0.0
  0
LINE
  5
BD3
102
{ACAD_REACTORS
330
BE8
102
}
330
18
100
AcDbEntity
  8
ROGO
 62
     4
100
AcDbLine
 10
502.4640142851308
 20
257.8236376422374
 30
0.0
 11
504.6242062851306
 21
257.8236376422374
 31
0.0
  0
LINE
  5
BD4
102
{ACAD_REACTORS
330
BD6
102
}
330
18
100
AcDbEntity
  8
ROGO
 62
     4
100
AcDbLine
 10
471.4842914306401
 20
263.6861484562545
 30
0.0
 11
476.5588147120228
 21
263.6861484562546
 31
0.0
  0
LINE
  5
BD5
102
{ACAD_REACTORS
330
BD9
102
}
330
18
100
AcDbEntity
  8
ROGO
 62
     4
100
AcDbLine
 10
464.2049077110926
 20
258.4112668030696
 30
0.0
 11
499.0707899609894
 21
258.4112668030696
 31
0.0
  0
HATCH
  5
BD6
330
18
100
AcDbEntity
  8
ROGO
 62
     4
100
AcDbHatch
 10
0.0
 20
0.0
 30
0.0
210
0.0
220
0.0
230
1.0
  2
SOLID
 70
     1
 71
     1
 91
        1
 92
        1
 93
       12
 72
     1
 10
471.4842914306401
 20
263.6861484562545
 11
476.5588147120228
 21
263.6861484562546
 72
     1
 10
476.5588147120228
 20
263.6861484562545
 11
476.1335741527812
 21
262.8267132257056
 72
     1
 10
476.1335741527812
 20
262.8267132257056
 11
473.4665329464441
 21
262.8267132257056
 72
     1
 10
473.4665329464441
 20
262.8267132257056
 11
473.1340476719398
 21
262.1547416737509
 72
     1
 10
473.1340476719398
 20
262.1547416737509
 11
475.8010888782769
 21
262.1547416737509
 72
     1
 10
475.8010888782769
 20
262.1547416737509
 11
475.4601563764945
 21
261.4656977975188
 72
     1
 10
475.4601563764945
 20
261.4656977975189
 11
472.7931151701575
 21
261.4656977975188
 72
     1
 10
472.7931151701575
 20
261.4656977975188
 11
472.4606158198249
 21
260.7936977975189
 72
     1
 10
472.4606158198249
 20
260.7936977975189
 11
475.127657026162
 21
260.7936977975189
 72
     1
 10
475.127657026162
 20
260.7936977975189
 11
474.7024378569939
 21
259.9343057975188
 72
     1
 10
474.7024378569939
 20
259.9343057975188
 11
469.6279145756112
 21
259.9343057975188
 72
     1
 10
469.6279145756114
 20
259.9343057975188
 11
471.4842914306401
 21
263.6861484562545
 97
       12
330
BD4
330
BA9
330
BAC
330
BAB
330
BAD
330
BB0
330
BAF
330
BB2
330
BAE
330
BB1
330
BAA
330
BA8
 75
     0
 76
     1
 98
        1
 10
263.9124943486145
 20
4.263016890222147
450
        0
451
        0
460
0.0
461
0.0
452
        0
462
0.0
453
        0
470

  0
HATCH
  5
BD7
330
18
100
AcDbEntity
  8
ROGO
 62
     4
100
AcDbHatch
 10
0.0
 20
0.0
 30
0.0
210
0.0
220
0.0
230
1.0
  2
SOLID
 70
     1
 71
     1
 91
        1
 92
        5
 93
        8
 72
     1
 10
488.1303986001126
 20
262.2902197356349
 11
488.8264537445145
 21
263.6861484562546
 72
     1
 10
488.8264537445145
 20
263.6861484562546
 11
485.0692070527826
 21
263.6861484562547
 72
     4
 94
        3
 73
     0
 74
     0
 95
       26
 96
       22
 40
0.0
 40
0.0
 40
0.0
 40
0.0
 40
0.6806272418834842
 40
1.136254477903046
 40
1.46479881993943
 40
1.710112249467388
 40
2.028296642642871
 40
2.260540230712908
 40
2.679918019583991
 40
3.021285510494717
 40
3.253470102552452
 40
3.481138982867335
 40
3.888394348201088
 40
4.176372499429463
 40
4.331470983165889
 40
4.551783797772921
 40
4.710876624553408
 40
4.941349605730148
 40
5.071777377612503
 40
5.355602839329045
 40
5.485200010717836
 40
5.485200010717836
 40
5.485200010717836
 40
5.485200010717836
 10
485.0692070527823
 20
263.6861484562545
 10
484.8381916506148
 20
263.6723656812114
 10
484.4525293247121
 20
263.6493564055065
 10
484.029074436964
 20
263.3921121087682
 10
483.718826595792
 20
263.2425615792185
 10
483.4975582117229
 20
263.0392603751626
 10
483.3353675892441
 20
262.8292650822444
 10
483.1308958615369
 20
262.5790572304575
 10
482.9641550103771
 20
262.2877003119874
 10
482.8792440317109
 20
261.9665741946636
 10
482.8040306927002
 20
261.7106348159239
 10
482.7482512213489
 20
261.4254237790882
 10
482.7624430979576
 20
261.1172955273104
 10
482.7827665147699
 20
260.8311217815851
 10
482.8735056288389
 20
260.6268365732233
 10
482.976841407096
 20
260.4813995819967
 10
483.1033746523957
 20
260.3212168600003
 10
483.2418296933026
 20
260.2151283619138
 10
483.3563433136187
 20
260.022941918655
 10
483.5567955429399
 20
259.9984175424374
 10
483.684210954585
 20
259.9496067142173
 10
483.7241523501892
 20
259.9343057975188
 72
     1
 10
483.7241523501892
 20
259.9343057975188
 11
486.9556638216308
 21
259.9343057975188
 72
     1
 10
486.9556638216308
 20
259.9343057975188
 11
487.6517115949988
 21
261.3302197356349
 72
     1
 10
487.6517115949988
 20
261.3302197356349
 11
485.2526229639358
 21
261.3302197356349
 72
     4
 94
        3
 73
     0
 74
     0
 95
       16
 96
       12
 40
0.0
 40
0.0
 40
0.0
 40
0.0
 40
0.2055476186375928
 40
0.4132153116453774
 40
0.537079757117358
 40
0.6558402674583485
 40
0.7862675211308641
 40
0.8773481874435528
 40
0.9637758349634658
 40
1.139038695775171
 40
1.497869274526363
 40
1.497869274526363
 40
1.497869274526363
 40
1.497869274526363
 10
485.2526229639358
 20
261.3302197356349
 10
485.1802579963023
 20
261.3515105701737
 10
485.0347816689622
 20
261.3943118387432
 10
485.0226064751117
 20
261.6017966648497
 10
485.0391934152883
 20
261.7496465818759
 10
485.1086595577946
 20
261.8572899553505
 10
485.1929340373965
 20
261.9356146725952
 10
485.2243131638293
 20
262.0376203702587
 10
485.3165492470414
 20
262.1146474340199
 10
485.4801085367298
 20
262.2441191682362
 10
485.6609767973338
 20
262.2716937547663
 10
485.7824931048237
 20
262.2902197356348
 72
     1
 10
485.7824931048236
 20
262.2902197356347
 11
488.1303986001126
 21
262.2902197356349
 97
        8
330
BC2
330
BBF
330
BBB
330
BC1
330
BBE
330
BC0
330
BBD
330
BBC
 75
     0
 76
     1
 47
0.0514683685270805
 98
        1
 10
486.3832553305163
 20
262.8509442952632
450
        0
451
        0
460
0.0
461
0.0
452
        0
462
0.0
453
        0
470

  0
HATCH
  5
BD8
330
18
100
AcDbEntity
  8
ROGO
 62
     4
100
AcDbHatch
 10
0.0
 20
0.0
 30
0.0
210
0.0
220
0.0
230
1.0
  2
SOLID
 70
     1
 71
     1
 91
        1
 92
        5
 93
        8
 72
     4
 94
        3
 73
     0
 74
     0
 95
       26
 96
       22
 40
0.0
 40
0.0
 40
0.0
 40
0.0
 40
0.6806272418834842
 40
1.136254477903046
 40
1.46479881993943
 40
1.710112249467303
 40
2.028296642642946
 40
2.260540230712894
 40
2.679918019584126
 40
3.021285510494852
 40
3.253470102552422
 40
3.481138982867304
 40
3.888394348201058
 40
4.176372499429433
 40
4.331470983165964
 40
4.551783797772949
 40
4.710876624553509
 40
4.941349605730248
 40
5.071777377612533
 40
5.355602839329095
 40
5.485200010717867
 40
5.485200010717867
 40
5.485200010717867
 40
5.485200010717867
 10
497.1579778268618
 20
263.6861484562545
 10
496.9269624246942
 20
263.6723656812114
 10
496.5413000987914
 20
263.6493564055065
 10
496.1178452110437
 20
263.3921121087682
 10
495.8075973698717
 20
263.2425615792186
 10
495.5863289858024
 20
263.0392603751624
 10
495.4241383633236
 20
262.8292650822443
 10
495.2196666356164
 20
262.5790572304575
 10
495.0529257844566
 20
262.2877003119872
 10
494.9680148057906
 20
261.9665741946635
 10
494.8928014667797
 20
261.7106348159238
 10
494.8370219954288
 20
261.4254237790883
 10
494.8512138720369
 20
261.1172955273103
 10
494.8715372888496
 20
260.8311217815851
 10
494.9622764029181
 20
260.6268365732233
 10
495.0656121811753
 20
260.4813995819965
 10
495.1921454264755
 20
260.3212168600003
 10
495.330600467382
 20
260.2151283619138
 10
495.4451140876986
 20
260.022941918655
 10
495.6455663170194
 20
259.9984175424373
 10
495.7729817286645
 20
259.9496067142173
 10
495.8129231242687
 20
259.9343057975187
 72
     1
 10
495.8129231242686
 20
259.9343057975188
 11
499.0444345957105
 21
259.9343057975188
 72
     1
 10
499.0444345957105
 20
259.9343057975188
 11
499.7404823690784
 21
261.3302197356349
 72
     1
 10
499.7404823690784
 20
261.3302197356349
 11
497.3413937380152
 21
261.3302197356349
 72
     4
 94
        3
 73
     0
 74
     0
 95
       16
 96
       12
 40
0.0
 40
0.0
 40
0.0
 40
0.0
 40
0.2055476186377199
 40
0.4132153116455937
 40
0.537079757117462
 40
0.6558402674583938
 40
0.7862675211309983
 40
0.8773481874437379
 40
0.9637758349635303
 40
1.139038695775242
 40
1.497869274526544
 40
1.497869274526544
 40
1.497869274526544
 40
1.497869274526544
 10
497.3413937380154
 20
261.3302197356347
 10
497.2690287703819
 20
261.3515105701734
 10
497.1235524430417
 20
261.3943118387429
 10
497.1113772491912
 20
261.6017966648497
 10
497.127964189368
 20
261.7496465818758
 10
497.1974303318742
 20
261.8572899553503
 10
497.2817048114759
 20
261.9356146725952
 10
497.3130839379092
 20
262.0376203702587
 10
497.4053200211211
 20
262.1146474340198
 10
497.5688793108092
 20
262.2441191682365
 10
497.7497475714134
 20
262.2716937547663
 10
497.8712638789033
 20
262.2902197356348
 72
     1
 10
497.8712638789033
 20
262.2902197356348
 11
500.2191693741922
 21
262.2902197356348
 72
     1
 10
500.2191693741922
 20
262.2902197356348
 11
500.9152245185941
 21
263.6861484562545
 72
     1
 10
500.9152245185941
 20
263.6861484562545
 11
497.157977826862
 21
263.6861484562545
 97
        8
330
BC4
330
BC6
330
BC3
330
BC7
330
BC8
330
BC5
330
BC9
330
BCA
 75
     0
 76
     1
 47
0.0514683685270805
 98
        1
 10
497.806313340247
 20
262.9991733043143
450
        0
451
        0
460
0.0
461
0.0
452
        0
462
0.0
453
        0
470

  0
HATCH
  5
BD9
330
18
100
AcDbEntity
  8
ROGO
 62
     4
100
AcDbHatch
 10
0.0
 20
0.0
 30
0.0
210
0.0
220
0.0
230
1.0
  2
SOLID
 70
     1
 71
     1
 91
        1
 92
        7
 72
     0
 73
     1
 93
        4
 10
464.245660416569
 20
258.4112668030695
 10
463.9798003153632
 20
257.8236376422374
 10
498.7777790827434
 20
257.8236376422374
 10
499.0707899609894
 20
258.4112668030696
 97
        4
330
BD5
330
BA7
330
B9F
330
BCC
 75
     0
 76
     1
 47
0.0514683685270805
 98
        1
 10
486.2349040191069
 20
258.255848333913
450
        0
451
        0
460
0.0
461
0.0
452
        0
462
0.0
453
        0
470

  0
HATCH
  5
BDA
330
18
100
AcDbEntity
  8
ROGO
 62
     4
100
AcDbHatch
 10
0.0
 20
0.0
 30
0.0
210
0.0
220
0.0
230
1.0
  2
SOLID
 70
     1
 71
     1
 91
        2
 92
        5
 93
        6
 72
     1
 10
461.2546547269733
 20
257.8236376422374
 11
463.9798003153633
 21
257.8236376422374
 72
     1
 10
463.9798003153633
 20
257.8236376422374
 11
464.9347264605873
 21
259.9343057975188
 72
     1
 10
464.9347264605873
 20
259.9343057975188
 11
467.4821786553652
 21
259.9343057975188
 72
     4
 94
        3
 73
     0
 74
     0
 95
       18
 96
       14
 40
0.108740278791501
 40
0.108740278791501
 40
0.108740278791501
 40
0.108740278791501
 40
0.6623149649549278
 40
1.384304701649787
 40
2.097394834876493
 40
2.774073369849618
 40
3.428974823686337
 40
4.005208313035923
 40
4.455173659284313
 40
4.720999734343524
 40
5.086034088486724
 40
5.569973738255373
 40
6.060470601257719
 40
6.060470601257719
 40
6.060470601257719
 40
6.060470601257719
 10
467.482178655365
 20
259.9343057975188
 10
467.6614641322069
 20
259.9356408821791
 10
468.0745794380742
 20
259.9387172267752
 10
468.6525245183807
 20
260.2474681881906
 10
469.2005815843607
 20
260.6407944177383
 10
469.6420042674503
 20
261.1322145057435
 10
469.9170238985251
 20
261.6940691843742
 10
469.9596235700883
 20
262.2325552860076
 10
469.9336175171999
 20
262.6584910978833
 10
469.7477912070769
 20
262.9553789330342
 10
469.5546020815777
 20
263.2566897249564
 10
469.2003585514429
 20
263.5176963243603
 10
468.91010727187
 20
263.6320560138326
 10
468.7625085929098
 20
263.6861484562546
 72
     1
 10
468.7625085929099
 20
263.6861484562545
 11
464.1553705558094
 21
263.6861484562545
 72
     1
 10
464.1553705558094
 20
263.6861484562545
 11
461.2546547269733
 21
257.8236376422374
 97
        6
330
BA1
330
B9E
330
BA0
330
B9F
330
BA7
330
BA2
 92
       20
 93
        4
 72
     1
 10
465.5243392957592
 20
261.2375238959725
 11
465.9757615710662
 21
262.235300138502
 72
     1
 10
465.9757615710662
 20
262.235300138502
 11
467.1357244256298
 21
262.235300138502
 72
     4
 94
        3
 73
     0
 74
     0
 95
       15
 96
       11
 40
0.0
 40
0.0
 40
0.0
 40
0.0
 40
0.4399157226213117
 40
0.6404930950247764
 40
0.8681617655417529
 40
1.023260249278231
 40
1.268550109906303
 40
1.41547203584833
 40
1.667541915898828
 40
1.75156526287584
 40
1.75156526287584
 40
1.75156526287584
 40
1.75156526287584
 10
467.1357244256303
 20
262.235300138502
 10
467.300948240085
 20
262.2360569517661
 10
467.541505025965
 20
262.2371588302509
 10
467.6730500441501
 20
261.9395893904526
 10
467.6140852949114
 20
261.7480010914884
 10
467.539961799414
 20
261.5512996222089
 10
467.4089687950073
 20
261.4176380071537
 10
467.233156996164
 20
261.2888993396193
 10
467.0670064445761
 20
261.2733149474494
 10
466.9589441617973
 20
261.2446821090089
 10
466.9319285781709
 20
261.2375238959723
 72
     1
 10
466.9319285781709
 20
261.2375238959723
 11
465.5243392957592
 21
261.2375238959725
 97
        4
330
BA3
330
BA5
330
BA4
330
BA6
 75
     0
 76
     1
 47
0.0514683685270805
 98
        2
 10
464.1799949938293
 20
261.8627520080003
 10
464.1799949938293
 20
261.8627520080003
450
        0
451
        0
460
0.0
461
0.0
452
        0
462
0.0
453
        0
470

  0
LINE
  5
BDB
102
{ACAD_REACTORS
330
BDE
102
}
330
18
100
AcDbEntity
  8
ROGO
 62
     4
100
AcDbLine
 10
481.0299511347917
 20
263.6861484562545
 30
0.0
 11
482.6966683073155
 21
259.9343057975188
 31
0.0
  0
LINE
  5
BDC
102
{ACAD_REACTORS
330
BDE
102
}
330
18
100
AcDbEntity
  8
ROGO
 62
     4
100
AcDbLine
 10
479.383449345821
 20
262.6832656649638
 30
0.0
 11
479.9526133050364
 21
261.4020563169098
 31
0.0
  0
LINE
  5
BDD
102
{ACAD_REACTORS
330
BDE
102
}
330
18
100
AcDbEntity
  8
ROGO
 62
     4
100
AcDbLine
 10
480.2873136067524
 20
260.6486334263497
 30
0.0
 11
480.6046462440922
 21
259.9343057975188
 31
0.0
  0
HATCH
  5
BDE
330
18
100
AcDbEntity
  8
ROGO
 62
     4
100
AcDbHatch
 10
0.0
 20
0.0
 30
0.0
210
0.0
220
0.0
230
1.0
  2
SOLID
 70
     1
 71
     1
 91
        2
 92
        7
 72
     0
 73
     1
 93
        8
 10
481.0299511347917
 20
263.6861484562546
 10
478.0287983268733
 20
263.6861484562545
 10
475.3232716694471
 20
259.9343057975188
 10
477.4011209599946
 20
259.9343057975188
 10
477.9162364959399
 20
260.6486334263497
 10
480.2873136067525
 20
260.6486334263497
 10
480.6046462440922
 20
259.9343057975189
 10
482.6966683073155
 20
259.9343057975189
 97
        8
330
BB9
330
BB3
330
BB8
330
BB7
330
BB5
330
BDD
330
BBA
330
BDB
 92
       22
 72
     0
 73
     1
 93
        3
 10
479.9526133050364
 20
261.4020563169098
 10
478.4595443849259
 20
261.4020563169098
 10
479.3834493458209
 20
262.6832656649637
 97
        3
330
BB6
330
BB4
330
BDC
 75
     0
 76
     1
 47
0.0128389261915577
 98
        2
 10
480.7949371562324
 20
262.786028693943
 10
480.7949371562324
 20
262.786028693943
450
        0
451
        0
460
0.0
461
0.0
452
        0
462
0.0
453
        0
470

  0
SPLINE
  5
BDF
102
{ACAD_REACTORS
330
BE6
102
}
330
18
100
AcDbEntity
  8
ROGO
 62
     4
100
AcDbSpline
210
0.0
220
0.0
230
1.0
 70
     8
 71
     3
 72
    38
 73
    34
 74
    32
 42
0.0000000001
 43
0.0000000001
 44
0.0000000001
 40
0.0
 40
0.0
 40
0.0
 40
0.0
 40
0.5164800423611548
 40
0.6786836885910848
 40
0.88710434560167
 40
1.060788566413433
 40
1.20733358396365
 40
1.401978810630435
 40
1.501434849986208
 40
1.613448456300606
 40
1.778535433376704
 40
1.965543155621333
 40
2.086853233586049
 40
2.218636674910137
 40
2.365128983511507
 40
2.587438484857767
 40
2.798655694361229
 40
2.896849520951487
 40
3.008826444388521
 40
3.141482119684725
 40
3.235915913773394
 40
3.315078629400928
 40
3.428105103696636
 40
3.552301837626102
 40
3.676497880048442
 40
3.785169590044758
 40
4.034047122621728
 40
4.132240949211986
 40
4.328628719031952
 40
4.502226771166864
 40
4.834567227246322
 40
5.244640938625969
 40
5.836847051382421
 40
5.836847051382421
 40
5.836847051382421
 40
5.836847051382421
 10
490.9099546589223
 20
263.7017976538897
 30
0.0
 10
490.7377963799916
 20
263.68963588503
 30
0.0
 10
490.5115707639313
 20
263.6736546399238
 30
0.0
 10
490.2243171281899
 20
263.5949557079097
 30
0.0
 10
490.0677321155013
 20
263.5011999380301
 30
0.0
 10
489.9047741117378
 20
263.4322849531714
 30
0.0
 10
489.7658372363522
 20
263.330235526745
 30
0.0
 10
489.6253055200781
 20
263.2776504404782
 30
0.0
 10
489.526900910433
 20
263.182830130842
 30
0.0
 10
489.4130056014817
 20
263.1249097931993
 30
0.0
 10
489.3223087448095
 20
262.9952672388725
 30
0.0
 10
489.2209353832901
 20
262.8740561484197
 30
0.0
 10
489.1033295306985
 20
262.7855774581984
 30
0.0
 10
489.0068088291
 20
262.6926489468773
 30
0.0
 10
488.9182645064591
 20
262.5492323320663
 30
0.0
 10
488.8658600133987
 20
262.3586741186787
 30
0.0
 10
488.7181405436578
 20
262.2383625350068
 30
0.0
 10
488.6958986165632
 20
262.0937121130751
 30
0.0
 10
488.6141904731468
 20
262.0083707982446
 30
0.0
 10
488.5786609147015
 20
261.8982074211445
 30
0.0
 10
488.5651295486333
 20
261.7972783087996
 30
0.0
 10
488.5488886827978
 20
261.7030175047188
 30
0.0
 10
488.5064056535623
 20
261.6038593026105
 30
0.0
 10
488.5202722608803
 20
261.481372791368
 30
0.0
 10
488.5163220807601
 20
261.3627650370064
 30
0.0
 10
488.5186467663978
 20
261.2026408752594
 30
0.0
 10
488.5102566539806
 20
261.0467403126323
 30
0.0
 10
488.577164512595
 20
260.8770835235796
 30
0.0
 10
488.6167583628888
 20
260.7258579673896
 30
0.0
 10
488.7251925627278
 20
260.5164678466711
 30
0.0
 10
488.9122392850648
 20
260.2748769217885
 30
0.0
 10
489.267924273686
 20
259.9816313123805
 30
0.0
 10
489.6099257895698
 20
259.9518829103311
 30
0.0
 10
489.8120004830847
 20
259.9343057975188
 30
0.0
 11
490.9099546589223
 21
263.7017976538897
 31
0.0
 11
490.3972214105015
 21
263.6396989411714
 31
0.0
 11
490.2418477358496
 21
263.5931259438934
 31
0.0
 11
490.0554000586839
 21
263.499978566323
 31
0.0
 11
489.9000263840321
 21
263.4223562126858
 31
0.0
 11
489.7757279325883
 21
263.3447331675416
 31
0.0
 11
489.6048172566795
 21
263.2515864814783
 31
0.0
 11
489.5271298090063
 21
263.1894884602671
 31
0.0
 11
489.4339053600763
 21
263.1273897475488
 31
0.0
 11
489.3251439098894
 21
263.0031937051265
 31
0.0
 11
489.2008454584456
 21
262.863473330278
 31
0.0
 11
489.1076210095154
 21
262.7858502851337
 31
0.0
 11
489.0143977812799
 21
262.6927035990704
 31
0.0
 11
488.9367103336066
 21
262.5685075566481
 31
0.0
 11
488.8434871053714
 21
262.3666884690815
 31
0.0
 11
488.7191874332329
 21
262.195918737874
 31
0.0
 11
488.6881134307193
 21
262.1027713603037
 31
0.0
 11
488.6259642049974
 21
262.0096246742403
 31
0.0
 11
488.5793519805324
 21
261.8854279403109
 31
0.0
 11
488.5638137585811
 21
261.7922812542476
 31
0.0
 11
488.5482767573241
 21
261.7146582091034
 31
0.0
 11
488.5172027548105
 21
261.6059871906141
 31
0.0
 11
488.5172027548105
 21
261.4817904566846
 31
0.0
 11
488.5172027548105
 21
261.3575944142623
 31
0.0
 11
488.5172027548105
 21
261.248922704266
 31
0.0
 11
488.5327397560675
 21
261.0005306194212
 31
0.0
 11
488.5638137585811
 21
260.9073832418509
 31
0.0
 11
488.6259642049974
 21
260.7210891782173
 31
0.0
 11
488.7036504319762
 21
260.5658437794358
 31
0.0
 11
488.905636331093
 21
260.301927362165
 31
0.0
 11
489.2319206816539
 21
260.0535345858132
 31
0.0
 11
489.8120004830847
 21
259.9343057975188
 31
0.0
  0
SPLINE
  5
BE0
102
{ACAD_REACTORS
330
BE6
102
}
330
18
100
AcDbEntity
  8
ROGO
 62
     4
100
AcDbSpline
210
0.0
220
0.0
230
1.0
 70
     8
 71
     3
 72
    25
 73
    21
 74
     0
 42
0.0000000001
 43
0.0000000001
 40
0.0
 40
0.0
 40
0.0
 40
0.0
 40
0.4087168505087288
 40
0.6887487002771746
 40
0.9415836120477687
 40
1.17452070575514
 40
1.41154617586699
 40
1.599156012919487
 40
1.80099909059943
 40
2.178735911501585
 40
2.521686161369157
 40
2.762704659361267
 40
3.06256558063785
 40
3.222432137207705
 40
3.399493810628493
 40
3.567459719866414
 40
3.743172740007509
 40
3.995988754699505
 40
4.17170091132118
 40
4.337226830236035
 40
4.337226830236035
 40
4.337226830236035
 40
4.337226830236035
 10
493.0541084394519
 20
263.7017976538897
 30
0.0
 10
493.1947371549533
 20
263.6972793983008
 30
0.0
 10
493.4317174627206
 20
263.6896654654265
 30
0.0
 10
493.686145058781
 20
263.4908006386393
 30
0.0
 10
493.880825689522
 20
263.3259264605964
 30
0.0
 10
494.0190124176953
 20
263.1266012996417
 30
0.0
 10
494.1401369566736
 20
262.9433324319927
 30
0.0
 10
494.2199488445855
 20
262.7498426758039
 30
0.0
 10
494.3285087807992
 20
262.5176726885556
 30
0.0
 10
494.3734472312199
 20
262.2070637387527
 30
0.0
 10
494.3430859645436
 20
261.8860207300512
 30
0.0
 10
494.2638572345508
 20
261.6014456337556
 30
0.0
 10
494.1807526668366
 20
261.3831263047723
 30
0.0
 10
494.0828040413585
 20
261.1930657847992
 30
0.0
 10
493.9660367633466
 20
261.0700015833734
 30
0.0
 10
493.8850283189494
 20
260.9135266509518
 30
0.0
 10
493.7294214597574
 20
260.7855385570277
 30
0.0
 10
493.6032781460242
 20
260.6276192128734
 30
0.0
 10
493.460131755625
 20
260.4920753604774
 30
0.0
 10
493.3794251861853
 20
260.4084464369868
 30
0.0
 10
493.3368747364888
 20
260.3732843114277
 30
0.0
  0
LINE
  5
BE1
102
{ACAD_REACTORS
330
BE6
102
}
330
18
100
AcDbEntity
  8
ROGO
 62
     4
100
AcDbLine
 10
490.9099546589223
 20
263.7017976538897
 30
0.0
 11
493.0541084394519
 21
263.7017976538897
 31
0.0
  0
LINE
  5
BE2
102
{ACAD_REACTORS
330
BE6
102
}
330
18
100
AcDbEntity
  8
ROGO
 62
     4
100
AcDbLine
 10
489.8120004830847
 20
259.9343057975188
 30
0.0
 11
491.9561542636143
 21
259.9343057975188
 31
0.0
  0
SPLINE
  5
BE3
102
{ACAD_REACTORS
330
BE6
102
}
330
18
100
AcDbEntity
  8
ROGO
 62
     4
100
AcDbSpline
210
0.0
220
0.0
230
1.0
 70
     8
 71
     3
 72
    11
 73
     7
 74
     0
 42
0.0000000001
 43
0.0000000001
 40
0.1647869275458134
 40
0.1647869275458134
 40
0.1647869275458134
 40
0.1647869275458134
 40
0.2895635144633836
 40
0.5387013147903714
 40
0.7953622617455423
 40
0.8850764140209602
 40
0.8850764140209602
 40
0.8850764140209602
 40
0.8850764140209602
 10
492.6704898596658
 20
260.0179527886862
 30
0.0
 10
492.630551165949
 20
260.0068358380677
 30
0.0
 10
492.5067197047086
 20
259.9870427243994
 30
0.0
 10
492.2990089414569
 20
259.9598644547612
 30
0.0
 10
492.1015902497528
 20
259.9315029388052
 30
0.0
 10
491.9860739788142
 20
259.9337291813959
 30
0.0
 10
491.9561542636143
 20
259.9343057975188
 30
0.0
  0
SPLINE
  5
BE4
102
{ACAD_REACTORS
330
BE6
102
}
330
18
100
AcDbEntity
  8
ROGO
 62
     4
100
AcDbSpline
210
0.0
220
0.0
230
1.0
 70
     8
 71
     3
 72
     9
 73
     5
 74
     3
 42
0.0000000001
 43
0.0000000001
 44
0.0000000001
 40
0.0
 40
0.0
 40
0.0
 40
0.0
 40
0.3245123838720408
 40
0.7608395406220343
 40
0.7608395406220343
 40
0.7608395406220343
 40
0.7608395406220343
 10
492.6704898596658
 20
260.0179527886862
 30
0.0
 10
492.7747326262886
 20
260.0498451878954
 30
0.0
 10
493.0191362996526
 20
260.124618908621
 30
0.0
 10
493.2210697203292
 20
260.2826541022622
 30
0.0
 10
493.3368747364888
 20
260.3732843114277
 30
0.0
 11
492.6704898596658
 21
260.0179527886862
 31
0.0
 11
492.9754920431649
 21
260.128776772314
 31
0.0
 11
493.3368747364888
 21
260.3732843114277
 31
0.0
  0
ELLIPSE
  5
BE5
102
{ACAD_REACTORS
330
BE6
102
}
330
18
100
AcDbEntity
  8
ROGO
 62
     4
100
AcDbEllipse
 10
491.4026929292958
 20
261.7655233904068
 30
0.0
 11
0.5093848830495063
 21
0.4479402633830319
 31
0.0
210
0.0
220
0.0
230
1.0
 40
0.6788083417438792
 41
0.0
 42
6.283185307179586
  0
HATCH
  5
BE6
330
18
100
AcDbEntity
  8
ROGO
 62
     4
100
AcDbHatch
 10
0.0
 20
0.0
 30
0.0
210
0.0
220
0.0
230
1.0
  2
SOLID
 70
     1
 71
     1
 91
        2
 92
        5
 93
        6
 72
     4
 94
        3
 73
     0
 74
     0
 95
       38
 96
       34
 40
0.0
 40
0.0
 40
0.0
 40
0.0
 40
0.5164800423611548
 40
0.6786836885910848
 40
0.88710434560167
 40
1.060788566413433
 40
1.20733358396365
 40
1.401978810630435
 40
1.501434849986208
 40
1.613448456300606
 40
1.778535433376704
 40
1.965543155621333
 40
2.086853233586049
 40
2.218636674910137
 40
2.365128983511507
 40
2.587438484857767
 40
2.798655694361229
 40
2.896849520951487
 40
3.008826444388521
 40
3.141482119684725
 40
3.235915913773394
 40
3.315078629400928
 40
3.428105103696636
 40
3.552301837626102
 40
3.676497880048442
 40
3.785169590044758
 40
4.034047122621728
 40
4.132240949211986
 40
4.328628719031952
 40
4.502226771166864
 40
4.834567227246322
 40
5.244640938625969
 40
5.836847051382421
 40
5.836847051382421
 40
5.836847051382421
 40
5.836847051382421
 10
490.9099546589223
 20
263.7017976538897
 10
490.7377963799917
 20
263.68963588503
 10
490.5115707639314
 20
263.673654639924
 10
490.2243171281898
 20
263.5949557079097
 10
490.0677321155014
 20
263.5011999380301
 10
489.9047741117378
 20
263.4322849531713
 10
489.7658372363523
 20
263.3302355267451
 10
489.6253055200782
 20
263.2776504404782
 10
489.5269009104329
 20
263.182830130842
 10
489.4130056014818
 20
263.1249097931994
 10
489.3223087448095
 20
262.9952672388725
 10
489.2209353832902
 20
262.8740561484197
 10
489.1033295306983
 20
262.7855774581985
 10
489.0068088291002
 20
262.6926489468773
 10
488.918264506459
 20
262.5492323320663
 10
488.8658600133988
 20
262.3586741186787
 10
488.7181405436579
 20
262.2383625350068
 10
488.6958986165632
 20
262.0937121130751
 10
488.6141904731471
 20
262.0083707982445
 10
488.5786609147015
 20
261.8982074211445
 10
488.5651295486333
 20
261.7972783087996
 10
488.5488886827979
 20
261.7030175047188
 10
488.506405653562
 20
261.6038593026106
 10
488.5202722608803
 20
261.4813727913679
 10
488.5163220807602
 20
261.3627650370065
 10
488.5186467663977
 20
261.2026408752594
 10
488.5102566539806
 20
261.0467403126323
 10
488.577164512595
 20
260.8770835235797
 10
488.6167583628888
 20
260.7258579673895
 10
488.7251925627278
 20
260.5164678466711
 10
488.9122392850648
 20
260.2748769217885
 10
489.267924273686
 20
259.9816313123805
 10
489.6099257895699
 20
259.9518829103311
 10
489.8120004830847
 20
259.9343057975188
 72
     1
 10
489.8120004830847
 20
259.9343057975188
 11
491.9561542636148
 21
259.9343057975188
 72
     4
 94
        3
 73
     0
 74
     0
 95
       11
 96
        7
 40
0.1647869275458135
 40
0.1647869275458135
 40
0.1647869275458135
 40
0.1647869275458135
 40
0.2545010798212315
 40
0.5111620267764023
 40
0.7602998271033902
 40
0.8850764140209603
 40
0.8850764140209603
 40
0.8850764140209603
 40
0.8850764140209603
 10
491.9561542636143
 20
259.9343057975188
 10
491.9860739788142
 20
259.9337291813959
 10
492.1015902497528
 20
259.9315029388052
 10
492.2990089414569
 20
259.9598644547612
 10
492.5067197047086
 20
259.9870427243994
 10
492.630551165949
 20
260.0068358380677
 10
492.6704898596658
 20
260.0179527886862
 72
     4
 94
        3
 73
     0
 74
     0
 95
        9
 96
        5
 40
0.0
 40
0.0
 40
0.0
 40
0.0
 40
0.3245123838720408
 40
0.7608395406220343
 40
0.7608395406220343
 40
0.7608395406220343
 40
0.7608395406220343
 10
492.6704898596658
 20
260.0179527886862
 10
492.7747326262886
 20
260.0498451878954
 10
493.0191362996526
 20
260.124618908621
 10
493.2210697203291
 20
260.2826541022622
 10
493.3368747364888
 20
260.3732843114277
 72
     4
 94
        3
 73
     0
 74
     0
 95
       25
 96
       21
 40
0.0
 40
0.0
 40
0.0
 40
0.0
 40
0.165525918914855
 40
0.3412380755365305
 40
0.5940540902285263
 40
0.7697671103696209
 40
0.9377330196075423
 40
1.11479469302833
 40
1.274661249598185
 40
1.574522170874768
 40
1.815540668866877
 40
2.15849091873445
 40
2.536227739636605
 40
2.738070817316548
 40
2.925680654369045
 40
3.162706124480894
 40
3.395643218188267
 40
3.648478129958861
 40
3.928509979727306
 40
4.337226830236035
 40
4.337226830236035
 40
4.337226830236035
 40
4.337226830236035
 10
493.3368747364888
 20
260.3732843114277
 10
493.3794251861853
 20
260.4084464369868
 10
493.460131755625
 20
260.4920753604774
 10
493.6032781460242
 20
260.6276192128734
 10
493.7294214597574
 20
260.7855385570277
 10
493.8850283189494
 20
260.9135266509518
 10
493.9660367633466
 20
261.0700015833734
 10
494.0828040413585
 20
261.1930657847992
 10
494.1807526668366
 20
261.3831263047723
 10
494.2638572345508
 20
261.6014456337556
 10
494.3430859645436
 20
261.8860207300512
 10
494.3734472312199
 20
262.2070637387527
 10
494.3285087807992
 20
262.5176726885556
 10
494.2199488445855
 20
262.7498426758039
 10
494.1401369566736
 20
262.9433324319927
 10
494.0190124176953
 20
263.1266012996417
 10
493.880825689522
 20
263.3259264605964
 10
493.686145058781
 20
263.4908006386393
 10
493.4317174627206
 20
263.6896654654265
 10
493.1947371549533
 20
263.6972793983008
 10
493.0541084394519
 20
263.7017976538897
 72
     1
 10
493.054108439452
 20
263.7017976538897
 11
490.9099546589222
 21
263.7017976538897
 97
        6
330
BE0
330
BE1
330
BDF
330
BE2
330
BE3
330
BE4
 92
       20
 93
        1
 72
     3
 10
491.4026929292958
 20
261.7655233904068
 11
0.5093848830495063
 21
0.4479402633830319
 40
0.6788083417438792
 50
0.0
 51
360.0
 73
     1
 97
        1
330
BE5
 75
     0
 76
     1
 47
0.088756267210375
 98
        2
 10
491.552496574349
 20
262.6612013056183
 10
491.552496574349
 20
262.6612013056183
450
        0
451
        0
460
0.0
461
0.0
452
        0
462
0.0
453
        0
470

  0
LINE
  5
BE7
102
{ACAD_REACTORS
330
BE8
102
}
330
18
100
AcDbEntity
  8
ROGO
 62
     4
100
AcDbLine
 10
503.3342156966328
 20
262.6291774438898
 30
0.0
 11
504.5535635122631
 21
263.6861484562545
 31
0.0
  0
HATCH
  5
BE8
330
18
100
AcDbEntity
  8
ROGO
 62
     4
100
AcDbHatch
 10
0.0
 20
0.0
 30
0.0
210
0.0
220
0.0
230
1.0
  2
SOLID
 70
     1
 71
     1
 91
        1
 92
        7
 72
     0
 73
     1
 93
       11
 10
503.3342156966326
 20
262.6291774438898
 10
503.8612555803836
 20
263.6861484562545
 10
501.701016316086
 20
263.6861484562545
 10
498.7777790827434
 20
257.8236376422374
 10
500.9380183470411
 20
257.8236376422373
 10
501.7010163160859
 20
259.3538192482932
 10
502.4640142851307
 20
257.8236376422374
 10
504.6242062851306
 20
257.8236376422373
 10
503.1625876684595
 20
260.7548930492459
 10
506.7137555122632
 20
263.6861484562546
 10
504.5535635122631
 20
263.6861484562544
 97
       11
330
BD2
330
BE7
330
BCD
330
BCB
330
BCC
330
B9F
330
BD0
330
BCE
330
BD3
330
BCF
330
BD1
 75
     0
 76
     1
 47
0.015942268611278
 98
        1
 10
502.8671293867298
 20
261.7842371767126
450
        0
451
        0
460
0.0
461
0.0
452
        0
462
0.0
453
        0
470

  0
LINE
  5
C00
330
18
100
AcDbEntity
  8
外形線
100
AcDbLine
 10
534.5773572809251
 20
274.3369504677158
 30
0.0
 11
526.8366134392866
 21
242.0330045479701
 31
0.0
  0
ARC
  5
C01
330
18
100
AcDbEntity
  8
外形線
100
AcDbCircle
 10
521.9742604146457
 20
243.1981324653107
 30
0.0
 40
5.0
100
AcDbArc
 50
270.0
 51
346.5247337957583
  0
LINE
  5
C03
330
18
100
AcDbEntity
  8
外形線
100
AcDbLine
 10
531.6599454661406
 20
278.0360272181202
 30
0.0
 11
521.9176928055327
 21
278.03602721812
 31
0.0
  0
LINE
  5
C06
330
18
100
AcDbEntity
  8
外形線
100
AcDbLine
 10
521.9176928055328
 20
263.8359670062113
 30
0.0
 11
521.9176928055327
 21
278.03602721812
 31
0.0
  0
LINE
  5
C07
330
18
100
AcDbEntity
  8
外形線
100
AcDbLine
 10
521.9176928055328
 20
263.8359670062113
 30
0.0
 11
519.9176928055329
 21
263.8359670062113
 31
0.0
  0
LINE
  5
C20
330
18
100
AcDbEntity
  8
外形線
100
AcDbLine
 10
521.9742604146457
 20
238.1981324653108
 30
0.0
 11
519.9176928055329
 21
238.1981324653108
 31
0.0
  0
LINE
  5
C21
330
18
100
AcDbEntity
  8
外形線
100
AcDbLine
 10
522.2837024153299
 20
235.1981324653108
 30
0.0
 11
519.9176928055329
 21
235.1981324653108
 31
0.0
  0
LINE
  5
C26
330
18
100
AcDbEntity
  8
外形線
100
AcDbLine
 10
535.1320357214111
 20
272.360379850083
 30
0.0
 11
527.1460554399708
 21
239.03300454797
 31
0.0
  0
ARC
  5
C27
330
18
100
AcDbEntity
  8
外形線
100
AcDbCircle
 10
522.2837024153299
 20
240.1981324653108
 30
0.0
 40
5.0
100
AcDbArc
 50
270.0
 51
346.5247337957578
  0
ARC
  5
C2A
330
18
100
AcDbEntity
  8
外形線
100
AcDbCircle
 10
530.2696826967705
 20
273.5255077674237
 30
0.0
 40
5.0
100
AcDbArc
 50
346.5247337957578
 51
37.32804517504289
  0
ARC
  5
C2B
330
18
100
AcDbEntity
  8
外形線
100
AcDbCircle
 10
531.6599454661407
 20
275.0360272181203
 30
0.0
 40
3.0
100
AcDbArc
 50
346.5247337957578
 51
90.00000000000158
  0
LINE
  5
C32
102
{ACAD_REACTORS
330
14AC
102
}
330
18
100
AcDbEntity
  8
外形線
100
AcDbLine
 10
491.9176928055328
 20
289.7051645015346
 30
0.0
 11
477.9176928055328
 21
289.7051645015346
 31
0.0
  0
LINE
  5
C33
102
{ACAD_REACTORS
330
14AC
102
}
330
18
100
AcDbEntity
  8
外形線
100
AcDbLine
 10
491.9176928055328
 20
293.2051645015346
 30
0.0
 11
477.9176928055328
 21
293.2051645015346
 31
0.0
  0
LINE
  5
C34
102
{ACAD_REACTORS
330
14AC
102
}
330
18
100
AcDbEntity
  8
外形線
100
AcDbLine
 10
491.9176928055328
 20
289.7051645015346
 30
0.0
 11
491.9176928055328
 21
293.2051645015346
 31
0.0
  0
LINE
  5
C35
102
{ACAD_REACTORS
330
14AC
102
}
330
18
100
AcDbEntity
  8
外形線
100
AcDbLine
 10
477.9176928055328
 20
289.7051645015346
 30
0.0
 11
477.9176928055328
 21
293.2051645015346
 31
0.0
  0
LINE
  5
C36
330
18
100
AcDbEntity
  8
外形線
100
AcDbLine
 10
486.9176928055326
 20
275.7051645015346
 30
0.0
 11
486.9176928055326
 21
277.7051645015346
 31
0.0
  0
LINE
  5
C37
330
18
100
AcDbEntity
  8
外形線
100
AcDbLine
 10
482.9176928055326
 20
275.7051645015346
 30
0.0
 11
482.9176928055326
 21
277.7051645015346
 31
0.0
  0
LINE
  5
C39
330
18
100
AcDbEntity
  8
中心線
100
AcDbLine
 10
486.2176928055325
 20
275.7051645015346
 30
0.0
 11
486.2176928055325
 21
277.7051645015346
 31
0.0
  0
LINE
  5
C3A
330
18
100
AcDbEntity
  8
中心線
100
AcDbLine
 10
483.6176928055326
 20
275.7051645015346
 30
0.0
 11
483.6176928055326
 21
277.7051645015346
 31
0.0
  0
LINE
  5
C3D
330
18
100
AcDbEntity
  8
外形線
100
AcDbLine
 10
486.9176928055327
 20
285.7051645015346
 30
0.0
 11
486.9176928055329
 21
289.7051645015346
 31
0.0
  0
LINE
  5
C3E
330
18
100
AcDbEntity
  8
中心線
100
AcDbLine
 10
486.2176928055326
 20
285.7051645015346
 30
0.0
 11
486.2176928055329
 21
289.7051645015346
 31
0.0
  0
LINE
  5
C3F
330
18
100
AcDbEntity
  8
中心線
100
AcDbLine
 10
483.6176928055329
 20
285.7051645015346
 30
0.0
 11
483.6176928055329
 21
289.7051645015346
 31
0.0
  0
LINE
  5
C40
330
18
100
AcDbEntity
  8
外形線
100
AcDbLine
 10
482.9176928055328
 20
285.7051645015346
 30
0.0
 11
482.9176928055328
 21
289.7051645015346
 31
0.0
  0
LINE
  5
C41
330
18
100
AcDbEntity
  8
隠れ線
 62
     4
 48
0.5
100
AcDbLine
 10
486.9176928055327
 20
277.7051645015346
 30
0.0
 11
486.9176928055329
 21
285.7051645015346
 31
0.0
  0
LINE
  5
C42
330
18
100
AcDbEntity
  8
隠れ線
 62
     4
 48
0.5
100
AcDbLine
 10
486.2176928055326
 20
277.7051645015346
 30
0.0
 11
486.2176928055328
 21
285.7051645015346
 31
0.0
  0
LINE
  5
C43
330
18
100
AcDbEntity
  8
隠れ線
 62
     4
 48
0.5
100
AcDbLine
 10
483.6176928055327
 20
277.7051645015346
 30
0.0
 11
483.617692805533
 21
285.7051645015346
 31
0.0
  0
LINE
  5
C44
330
18
100
AcDbEntity
  8
隠れ線
 62
     4
 48
0.5
100
AcDbLine
 10
482.9176928055326
 20
277.7051645015346
 30
0.0
 11
482.9176928055327
 21
285.7051645015346
 31
0.0
  0
LINE
  5
C45
330
18
100
AcDbEntity
  8
外形線
 48
0.5
100
AcDbLine
 10
500.9176928055327
 20
275.7051645015346
 30
0.0
 11
500.9176928055327
 21
277.7051645015346
 31
0.0
  0
LINE
  5
C46
330
18
100
AcDbEntity
  8
外形線
 48
0.5
100
AcDbLine
 10
492.9176928055327
 20
275.7051645015346
 30
0.0
 11
492.9176928055327
 21
277.7051645015346
 31
0.0
  0
LINE
  5
C48
330
18
100
AcDbEntity
  8
隠れ線
 62
     4
 48
0.5
100
AcDbLine
 10
500.9176928055328
 20
282.2051645015345
 30
0.0
 11
492.9176928055328
 21
282.2051645015346
 31
0.0
  0
LINE
  5
C49
330
18
100
AcDbEntity
  8
隠れ線
 62
     4
 48
0.5
100
AcDbLine
 10
492.9176928055328
 20
282.2051645015346
 30
0.0
 11
496.9176928055328
 21
284.7051645015346
 31
0.0
  0
LINE
  5
C4A
330
18
100
AcDbEntity
  8
隠れ線
 62
     4
 48
0.5
100
AcDbLine
 10
496.9176928055328
 20
284.7051645015346
 30
0.0
 11
500.9176928055328
 21
282.2051645015345
 31
0.0
  0
LINE
  5
C4B
330
18
100
AcDbEntity
  8
外形線
 48
0.5
100
AcDbLine
 10
500.4176928055327
 20
275.7051645015346
 30
0.0
 11
500.4176928055327
 21
277.7051645015346
 31
0.0
  0
LINE
  5
C4C
330
18
100
AcDbEntity
  8
外形線
 48
0.5
100
AcDbLine
 10
493.4176928055327
 20
275.7051645015346
 30
0.0
 11
493.4176928055327
 21
277.7051645015346
 31
0.0
  0
LINE
  5
C4E
330
18
100
AcDbEntity
  8
隠れ線
 62
     4
 48
0.5
100
AcDbLine
 10
500.9176928055327
 20
277.7051645015345
 30
0.0
 11
500.9176928055328
 21
282.2051645015345
 31
0.0
  0
LINE
  5
C4F
330
18
100
AcDbEntity
  8
隠れ線
 62
     4
 48
0.5
100
AcDbLine
 10
500.4176928055327
 20
277.7051645015345
 30
0.0
 11
500.4176928055328
 21
282.2051645015345
 31
0.0
  0
LINE
  5
C50
330
18
100
AcDbEntity
  8
隠れ線
 62
     4
 48
0.5
100
AcDbLine
 10
493.4176928055327
 20
277.7051645015346
 30
0.0
 11
493.4176928055328
 21
282.2051645015346
 31
0.0
  0
LINE
  5
C51
330
18
100
AcDbEntity
  8
隠れ線
 62
     4
 48
0.5
100
AcDbLine
 10
492.9176928055327
 20
277.7051645015346
 30
0.0
 11
492.9176928055328
 21
282.2051645015346
 31
0.0
  0
LINE
  5
C52
102
{ACAD_REACTORS
330
14AC
102
}
330
18
100
AcDbEntity
  8
外形線
100
AcDbLine
 10
517.9176928055329
 20
296.7051645015346
 30
0.0
 11
499.9176928055329
 21
296.7051645015347
 31
0.0
  0
LINE
  5
C53
102
{ACAD_REACTORS
330
14AC
102
}
330
18
100
AcDbEntity
  8
外形線
100
AcDbLine
 10
517.9176928055328
 20
293.2051645015346
 30
0.0
 11
499.9176928055329
 21
293.2051645015346
 31
0.0
  0
LINE
  5
C55
330
18
100
AcDbEntity
  8
外形線
100
AcDbLine
 10
512.9176928055327
 20
289.2051645015347
 30
0.0
 11
504.9176928055326
 21
289.2051645015346
 31
0.0
  0
LINE
  5
C56
330
18
100
AcDbEntity
  8
外形線
100
AcDbLine
 10
512.9176928055327
 20
286.7051645015346
 30
0.0
 11
504.9176928055324
 21
286.7051645015346
 31
0.0
  0
LINE
  5
C57
102
{ACAD_REACTORS
330
14AC
102
}
330
18
100
AcDbEntity
  8
外形線
 48
0.5
100
AcDbLine
 10
517.9176928055328
 20
293.2051645015346
 30
0.0
 11
517.9176928055329
 21
296.7051645015346
 31
0.0
  0
LINE
  5
C58
102
{ACAD_REACTORS
330
14AC
102
}
330
18
100
AcDbEntity
  8
外形線
 48
0.5
100
AcDbLine
 10
499.9176928055329
 20
293.2051645015346
 30
0.0
 11
499.9176928055329
 21
296.7051645015347
 31
0.0
  0
LINE
  5
C59
330
18
100
AcDbEntity
  8
外形線
 48
0.5
100
AcDbLine
 10
512.9176928055327
 20
286.7051645015346
 30
0.0
 11
512.9176928055327
 21
289.2051645015347
 31
0.0
  0
LINE
  5
C5A
330
18
100
AcDbEntity
  8
外形線
 48
0.5
100
AcDbLine
 10
504.9176928055325
 20
286.7051645015346
 30
0.0
 11
504.9176928055326
 21
289.2051645015346
 31
0.0
  0
LINE
  5
C5B
330
18
100
AcDbEntity
  8
外形線
100
AcDbLine
 10
504.9176928055327
 20
289.7051645015346
 30
0.0
 11
505.4176928055327
 21
289.2051645015346
 31
0.0
  0
LINE
  5
C5C
330
18
100
AcDbEntity
  8
外形線
 48
0.5
100
AcDbLine
 10
512.4176928055327
 20
289.2051645015347
 30
0.0
 11
512.9176928055327
 21
289.7051645015347
 31
0.0
  0
LINE
  5
C5D
330
18
100
AcDbEntity
  8
外形線
100
AcDbLine
 10
504.9176928055325
 20
286.7051645015346
 30
0.0
 11
505.9176928055324
 21
285.7051645015346
 31
0.0
  0
LINE
  5
C5E
330
18
100
AcDbEntity
  8
外形線
 48
0.5
100
AcDbLine
 10
511.9176928055327
 20
285.7051645015346
 30
0.0
 11
512.9176928055327
 21
286.7051645015346
 31
0.0
  0
LINE
  5
C5F
330
18
100
AcDbEntity
  8
外形線
 48
0.5
100
AcDbLine
 10
512.9176928055328
 20
289.7051645015348
 30
0.0
 11
512.9176928055328
 21
293.2051645015345
 31
0.0
  0
LINE
  5
C60
330
18
100
AcDbEntity
  8
外形線
 48
0.5
100
AcDbLine
 10
504.9176928055326
 20
289.7051645015346
 30
0.0
 11
504.9176928055328
 21
293.2051645015345
 31
0.0
  0
LINE
  5
C61
330
18
100
AcDbEntity
  8
外形線
100
AcDbLine
 10
504.9176928055327
 20
289.7051645015346
 30
0.0
 11
512.9176928055328
 21
289.7051645015348
 31
0.0
  0
LINE
  5
C66
330
18
100
AcDbEntity
  8
外形線
 48
0.5
100
AcDbLine
 10
510.9176928055327
 20
275.7051645015347
 30
0.0
 11
510.9176928055327
 21
277.7051645015346
 31
0.0
  0
LINE
  5
C67
330
18
100
AcDbEntity
  8
外形線
 48
0.5
100
AcDbLine
 10
506.9176928055327
 20
275.7051645015347
 30
0.0
 11
506.9176928055327
 21
277.7051645015346
 31
0.0
  0
LINE
  5
C68
330
18
100
AcDbEntity
  8
外形線
 62
     4
 48
0.5
100
AcDbLine
 10
510.2176928055326
 20
275.7051645015347
 30
0.0
 11
510.2176928055326
 21
277.7051645015346
 31
0.0
  0
LINE
  5
C69
330
18
100
AcDbEntity
  8
外形線
 62
     4
 48
0.5
100
AcDbLine
 10
507.6176928055328
 20
275.7051645015347
 30
0.0
 11
507.6176928055327
 21
277.7051645015346
 31
0.0
  0
LINE
  5
C6A
330
18
100
AcDbEntity
  8
隠れ線
 62
     4
 48
0.5
100
AcDbLine
 10
510.9176928055327
 20
277.7051645015346
 30
0.0
 11
510.917692805533
 21
285.7051645015346
 31
0.0
  0
LINE
  5
C6B
330
18
100
AcDbEntity
  8
隠れ線
 62
     4
 48
0.5
100
AcDbLine
 10
510.2176928055326
 20
277.7051645015346
 30
0.0
 11
510.2176928055327
 21
285.7051645015346
 31
0.0
  0
LINE
  5
C6C
330
18
100
AcDbEntity
  8
隠れ線
 62
     4
 48
0.5
100
AcDbLine
 10
507.6176928055327
 20
277.7051645015346
 30
0.0
 11
507.617692805533
 21
285.7051645015346
 31
0.0
  0
LINE
  5
C6D
330
18
100
AcDbEntity
  8
隠れ線
 62
     4
 48
0.5
100
AcDbLine
 10
506.9176928055326
 20
277.7051645015346
 30
0.0
 11
506.9176928055327
 21
285.7051645015346
 31
0.0
  0
LINE
  5
CF9
330
18
100
AcDbEntity
  8
中心線
100
AcDbLine
 10
296.3682693875492
 20
364.7300056200539
 30
0.0
 11
339.5976146854808
 21
364.7300056200539
 31
0.0
  0
DIMENSION
  5
D06
330
18
100
AcDbEntity
  8
寸法線
100
AcDbDimension
  2
*D13
 10
323.4000005869351
 20
403.1289248097627
 30
0.0
 11
318.4000005869351
 21
405.0039248097627
 31
0.0
 12
-194.6552739977488
 22
9.362485274237883
 32
0.0
 70
    32
  1
φ10
 71
     5
 42
-1.0
  3
STYLE3
100
AcDbAlignedDimension
 13
313.4000005869351
 23
398.4503905304848
 33
0.0
 14
323.4000005869351
 24
399.3860976501841
 34
0.0
100
AcDbRotatedDimension
1001
ACAD
1000
DSTYLE
1002
{
1070
   271
1070
     2
1002
}
  0
DIMENSION
  5
D1E
330
18
100
AcDbEntity
  8
寸法線
100
AcDbDimension
  2
*D14
 10
340.3980672021056
 20
403.1289248097627
 30
0.0
 11
334.3980672021055
 21
405.0039248097627
 31
0.0
 12
-196.6652739977488
 22
9.362485274237883
 32
0.0
 70
    32
  1
φ12
 71
     5
 42
-1.0
  3
STYLE3
100
AcDbAlignedDimension
 13
328.3980672021054
 23
396.5789769506954
 33
0.0
 14
340.3980672021056
 24
394.1461389671646
 34
0.0
100
AcDbRotatedDimension
1001
ACAD
1000
DSTYLE
1002
{
1070
   271
1070
     2
1002
}
  0
DIMENSION
  5
DA8
330
18
100
AcDbEntity
  8
寸法線
100
AcDbDimension
  2
*D15
 10
317.8980672021055
 20
214.3687855588582
 30
0.0
 11
315.1480672021055
 21
216.2437855588582
 31
0.0
 70
    32
  1
5
 71
     5
 42
-1.0
  3
STYLE3
100
AcDbAlignedDimension
 13
312.3980672021055
 23
220.7051645015346
 33
0.0
 14
317.8980672021055
 24
220.7051645015346
 34
0.0
100
AcDbRotatedDimension
1001
ACAD
1000
DSTYLE
1002
{
1070
   271
1070
     2
1002
}
  0
DIMENSION
  5
DB7
330
18
100
AcDbEntity
  8
寸法線
100
AcDbDimension
  2
*D16
 10
356.3980672021055
 20
214.3687855588582
 30
0.0
 11
353.6480672021055
 21
216.2437855588582
 31
0.0
 70
    32
  1
5
 71
     5
 42
-1.0
  3
STYLE3
100
AcDbAlignedDimension
 13
350.8980672021055
 23
220.7051645015346
 33
0.0
 14
356.3980672021055
 24
220.7051645015346
 34
0.0
100
AcDbRotatedDimension
1001
ACAD
1000
DSTYLE
1002
{
1070
   271
1070
     2
1002
}
  0
DIMENSION
  5
DD1
330
18
100
AcDbEntity
  8
寸法線
100
AcDbDimension
  2
*D18
 10
519.9176928055329
 20
215.3854557519312
 30
0.0
 11
484.4176928055328
 21
217.2604557519312
 31
0.0
 12
-73.1456483943216
 22
9.362485274237769
 32
0.0
 70
    32
 71
     5
 42
-1.0
  3
STYLE3
100
AcDbAlignedDimension
 13
448.9176928055328
 23
220.7051645015346
 33
0.0
 14
519.9176928055329
 24
220.7051645015346
 34
0.0
100
AcDbRotatedDimension
1001
ACAD
1000
DSTYLE
1002
{
1070
   271
1070
     2
1002
}
  0
DIMENSION
  5
E45
330
18
100
AcDbEntity
  8
文字
100
AcDbDimension
  2
*D20
 10
372.2247574672055
 20
275.7051645015346
 30
0.0
 11
370.3497574672054
 21
284.4551645015346
 31
0.0
 70
    32
  1
18
 71
     5
 42
-1.0
  3
STYLE3
100
AcDbAlignedDimension
 13
350.063154507704
 23
293.2051645015346
 33
0.0
 14
354.8980672021055
 24
275.7051645015346
 34
0.0
 50
90.0
100
AcDbRotatedDimension
1001
ACAD
1000
DSTYLE
1002
{
1070
    75
1070
     1
1070
   271
1070
     2
1070
   279
1070
     1
1002
}
  0
DIMENSION
  5
E51
330
18
100
AcDbEntity
  8
文字
100
AcDbDimension
  2
*D21
 10
372.2247574672055
 20
220.7051645015346
 30
0.0
 11
370.3497574672054
 21
248.2051645015346
 31
0.0
 70
    32
 71
     5
 42
-1.0
  3
STYLE3
100
AcDbAlignedDimension
 13
354.8980672021055
 23
275.7051645015346
 33
0.0
 14
356.3980672021055
 24
220.7051645015346
 34
0.0
 50
90.0
100
AcDbRotatedDimension
1001
ACAD
1000
DSTYLE
1002
{
1070
    75
1070
     1
1070
   271
1070
     2
1070
   279
1070
     1
1002
}
  0
ARC
  5
1151
330
18
100
AcDbEntity
  8
外形線
100
AcDbCircle
 10
318.4000005869351
 20
440.3484035848749
 30
0.0
 40
1.8
100
AcDbArc
 50
3.039838465730964
 51
176.960161534269
  0
ARC
  5
1152
330
18
100
AcDbEntity
  8
外形線
100
AcDbCircle
 10
314.5500005869351
 20
439.3167991940152
 30
0.0
 40
1.8
100
AcDbArc
 50
33.03983846572933
 51
206.9601615342695
  0
ARC
  5
1153
330
18
100
AcDbEntity
  8
外形線
100
AcDbCircle
 10
311.7316049777949
 20
436.4984035848749
 30
0.0
 40
1.8
100
AcDbArc
 50
63.03983846572808
 51
236.9601615342717
  0
ARC
  5
1154
330
18
100
AcDbEntity
  8
外形線
100
AcDbCircle
 10
310.700000586935
 20
432.6484035848751
 30
0.0
 40
1.8
100
AcDbArc
 50
93.03983846572373
 51
266.9601615342726
  0
ARC
  5
1155
330
18
100
AcDbEntity
  8
外形線
100
AcDbCircle
 10
311.731604977795
 20
428.7984035848751
 30
0.0
 40
1.8
100
AcDbArc
 50
123.0398384657333
 51
296.9601615342638
  0
ARC
  5
1156
330
18
100
AcDbEntity
  8
外形線
100
AcDbCircle
 10
314.550000586935
 20
425.980007975735
 30
0.0
 40
1.8
100
AcDbArc
 50
153.0398384657321
 51
326.9601615342641
  0
ARC
  5
1157
330
18
100
AcDbEntity
  8
外形線
100
AcDbCircle
 10
318.4000005869349
 20
424.9484035848749
 30
0.0
 40
1.8
100
AcDbArc
 50
183.0398384657273
 51
356.9601615342691
  0
ARC
  5
1158
330
18
100
AcDbEntity
  8
外形線
100
AcDbCircle
 10
322.250000586935
 20
425.9800079757345
 30
0.0
 40
1.8
100
AcDbArc
 50
213.0398384657228
 51
26.96016153427436
  0
ARC
  5
1159
330
18
100
AcDbEntity
  8
外形線
100
AcDbCircle
 10
325.068396196075
 20
428.7984035848749
 30
0.0
 40
1.8
100
AcDbArc
 50
243.0398384657362
 51
56.96016153426263
  0
ARC
  5
115A
330
18
100
AcDbEntity
  8
外形線
100
AcDbCircle
 10
326.100000586935
 20
432.6484035848748
 30
0.0
 40
1.8
100
AcDbArc
 50
273.039838465731
 51
86.96016153426532
  0
ARC
  5
115B
330
18
100
AcDbEntity
  8
外形線
100
AcDbCircle
 10
325.0683961960752
 20
436.4984035848749
 30
0.0
 40
1.8
100
AcDbArc
 50
303.0398384657333
 51
116.9601615342678
  0
ARC
  5
115C
330
18
100
AcDbEntity
  8
外形線
100
AcDbCircle
 10
322.250000586935
 20
439.316799194015
 30
0.0
 40
1.8
100
AcDbArc
 50
333.0398384657337
 51
146.9601615342656
  0
CIRCLE
  5
115D
330
18
100
AcDbEntity
  8
外形線
100
AcDbCircle
 10
318.4000005869351
 20
432.6484035848749
 30
0.0
 40
5.5
  0
CIRCLE
  5
115E
330
18
100
AcDbEntity
  8
外形線
100
AcDbCircle
 10
318.4000005869351
 20
432.6484035848749
 30
0.0
 40
6.5
  0
ARC
  5
115F
330
18
100
AcDbEntity
  8
外形線
100
AcDbCircle
 10
318.4000005869351
 20
432.6484035848749
 30
0.0
 40
8.0
100
AcDbArc
 50
132.9842618424259
 51
137.0157381575747
  0
ARC
  5
1160
330
18
100
AcDbEntity
  8
外形線
100
AcDbCircle
 10
318.4000005869351
 20
432.6484035848749
 30
0.0
 40
8.0
100
AcDbArc
 50
162.9842618424264
 51
167.0157381575732
  0
ARC
  5
1161
330
18
100
AcDbEntity
  8
外形線
100
AcDbCircle
 10
318.4000005869351
 20
432.6484035848749
 30
0.0
 40
8.0
100
AcDbArc
 50
192.984261842425
 51
197.0157381575736
  0
ARC
  5
1162
330
18
100
AcDbEntity
  8
外形線
100
AcDbCircle
 10
318.4000005869351
 20
432.6484035848749
 30
0.0
 40
8.0
100
AcDbArc
 50
222.9842618424247
 51
227.0157381575726
  0
ARC
  5
1163
330
18
100
AcDbEntity
  8
外形線
100
AcDbCircle
 10
318.4000005869351
 20
432.6484035848749
 30
0.0
 40
8.0
100
AcDbArc
 50
252.9842618424239
 51
257.0157381575724
  0
ARC
  5
1164
330
18
100
AcDbEntity
  8
外形線
100
AcDbCircle
 10
318.4000005869351
 20
432.6484035848749
 30
0.0
 40
8.0
100
AcDbArc
 50
282.9842618424242
 51
287.0157381575728
  0
ARC
  5
1165
330
18
100
AcDbEntity
  8
外形線
100
AcDbCircle
 10
318.4000005869351
 20
432.6484035848749
 30
0.0
 40
8.0
100
AcDbArc
 50
312.9842618424242
 51
317.015738157573
  0
ARC
  5
1166
330
18
100
AcDbEntity
  8
外形線
100
AcDbCircle
 10
318.4000005869351
 20
432.6484035848749
 30
0.0
 40
8.0
100
AcDbArc
 50
342.9842618424242
 51
347.0157381575732
  0
ARC
  5
1167
330
18
100
AcDbEntity
  8
外形線
100
AcDbCircle
 10
318.4000005869351
 20
432.6484035848749
 30
0.0
 40
8.0
100
AcDbArc
 50
12.9842618424242
 51
17.01573815757435
  0
ARC
  5
1168
330
18
100
AcDbEntity
  8
外形線
100
AcDbCircle
 10
318.4000005869351
 20
432.6484035848749
 30
0.0
 40
8.0
100
AcDbArc
 50
42.98426184242562
 51
47.01573815757468
  0
ARC
  5
1169
330
18
100
AcDbEntity
  8
外形線
100
AcDbCircle
 10
318.4000005869351
 20
432.6484035848749
 30
0.0
 40
8.0
100
AcDbArc
 50
72.98426184242554
 51
77.01573815757412
  0
ARC
  5
116A
330
18
100
AcDbEntity
  8
外形線
100
AcDbCircle
 10
318.4000005869351
 20
432.6484035848749
 30
0.0
 40
8.0
100
AcDbArc
 50
102.9842618424259
 51
107.0157381575744
  0
ARC
  5
117B
330
18
100
AcDbEntity
  8
外形線
100
AcDbCircle
 10
436.5010261388666
 20
381.2300056200537
 30
0.0
 40
6.083333333333398
100
AcDbArc
 50
138.8879095608329
 51
221.1120904391659
  0
LINE
  5
117C
330
18
100
AcDbEntity
  8
外形線
100
AcDbLine
 10
463.9176928055328
 20
445.274110232187
 30
0.0
 11
463.9176928055328
 21
376.7300056200538
 31
0.0
  0
LINE
  5
117D
330
18
100
AcDbEntity
  8
外形線
100
AcDbLine
 10
451.9176928055326
 20
445.2741102321868
 30
0.0
 11
451.9176928055328
 21
376.7300056200538
 31
0.0
  0
LINE
  5
117E
330
18
100
AcDbEntity
  8
外形線
100
AcDbLine
 10
441.417692805533
 20
385.2300056200538
 30
0.0
 11
441.4176928055328
 21
344.2300056200537
 31
0.0
  0
LINE
  5
117F
330
18
100
AcDbEntity
  8
中心線
100
AcDbLine
 10
475.9257594207032
 20
441.5322105398072
 30
0.0
 11
475.9257594207032
 21
312.3654674001612
 31
0.0
  0
LINE
  5
1180
330
18
100
AcDbEntity
  8
外形線
100
AcDbLine
 10
470.9257594207033
 20
423.648403584875
 30
0.0
 11
470.9257594207033
 21
373.730005620054
 31
0.0
  0
LINE
  5
1181
330
18
100
AcDbEntity
  8
外形線
100
AcDbLine
 10
480.9257594207032
 20
423.6484035848749
 30
0.0
 11
480.9257594207031
 21
371.7300056200538
 31
0.0
  0
LINE
  5
1186
330
18
100
AcDbEntity
  8
外形線
100
AcDbLine
 10
466.4176928055328
 20
376.7300056200538
 30
0.0
 11
449.4176928055328
 21
376.7300056200538
 31
0.0
  0
LINE
  5
1187
330
18
100
AcDbEntity
  8
外形線
100
AcDbLine
 10
466.4176928055327
 20
352.7300056200538
 30
0.0
 11
449.4176928055328
 21
352.7300056200538
 31
0.0
  0
LINE
  5
1188
330
18
100
AcDbEntity
  8
中心線
100
AcDbLine
 10
427.5642010794221
 20
364.7300056200537
 30
0.0
 11
491.2556362704458
 21
364.7300056200537
 31
0.0
  0
LINE
  5
11A1
330
18
100
AcDbEntity
  8
外形線
100
AcDbLine
 10
470.9257594207032
 20
355.7300056200538
 30
0.0
 11
470.9257594207031
 21
338.2177351605351
 31
0.0
  0
LINE
  5
11A2
330
18
100
AcDbEntity
  8
外形線
100
AcDbLine
 10
480.9257594207032
 20
357.7300056200538
 30
0.0
 11
480.9257594207033
 21
339.5729942640806
 31
0.0
  0
LINE
  5
11A4
330
18
100
AcDbEntity
  8
外形線
100
AcDbLine
 10
470.9257594207033
 20
336.9571814231099
 30
0.0
 11
470.9257594207032
 21
316.0468781198459
 31
0.0
  0
LINE
  5
11A5
330
18
100
AcDbEntity
  8
外形線
100
AcDbLine
 10
480.9257594207032
 20
338.3124405266555
 30
0.0
 11
480.9257594207032
 21
316.0468781198458
 31
0.0
  0
ARC
  5
11A6
330
18
100
AcDbEntity
  8
外形線
100
AcDbCircle
 10
475.9257594207033
 20
322.2918761182443
 30
0.0
 40
8.0
100
AcDbArc
 50
231.3178125465108
 51
308.6821874534883
  0
LINE
  5
11A7
330
18
100
AcDbEntity
  8
外形線
100
AcDbLine
 10
480.9257594207032
 20
316.0468781198458
 30
0.0
 11
470.9257594207033
 21
316.0468781198459
 31
0.0
  0
LINE
  5
11AE
330
18
100
AcDbEntity
  8
外形線
100
AcDbLine
 10
473.417692805533
 20
373.730005620054
 30
0.0
 11
473.4176928055328
 21
355.7300056200538
 31
0.0
  0
ARC
  5
11AF
330
18
100
AcDbEntity
  8
外形線
100
AcDbCircle
 10
468.9257594207032
 20
364.7300056200537
 30
0.0
 40
17.0
100
AcDbArc
 50
335.6842608288236
 51
24.31573917117648
  0
LINE
  5
11B0
330
18
100
AcDbEntity
  8
外形線
100
AcDbLine
 10
484.4176928055328
 20
371.7300056200538
 30
0.0
 11
484.4176928055328
 21
357.7300056200538
 31
0.0
  0
LINE
  5
11B1
330
18
100
AcDbEntity
  8
外形線
100
AcDbLine
 10
466.4176928055328
 20
376.7300056200538
 30
0.0
 11
466.4176928055327
 21
352.7300056200538
 31
0.0
  0
LINE
  5
11B2
330
18
100
AcDbEntity
  8
外形線
100
AcDbLine
 10
484.4176928055328
 20
357.7300056200538
 30
0.0
 11
473.4176928055328
 21
357.7300056200538
 31
0.0
  0
LINE
  5
11B3
330
18
100
AcDbEntity
  8
外形線
100
AcDbLine
 10
473.4176928055328
 20
355.7300056200538
 30
0.0
 11
466.4176928055326
 21
355.7300056200538
 31
0.0
  0
LINE
  5
11B4
330
18
100
AcDbEntity
  8
外形線
100
AcDbLine
 10
484.4176928055328
 20
371.7300056200538
 30
0.0
 11
473.4176928055328
 21
371.730005620054
 31
0.0
  0
LINE
  5
11B5
330
18
100
AcDbEntity
  8
外形線
100
AcDbLine
 10
473.417692805533
 20
373.730005620054
 30
0.0
 11
466.4176928055327
 21
373.7300056200538
 31
0.0
  0
LINE
  5
11C4
330
18
100
AcDbEntity
  8
外形線
100
AcDbLine
 10
451.9176928055329
 20
352.7300056200538
 30
0.0
 11
451.9176928055331
 21
330.7908582344817
 31
0.0
  0
LINE
  5
11C5
330
18
100
AcDbEntity
  8
外形線
100
AcDbLine
 10
463.9176928055328
 20
352.7300056200539
 30
0.0
 11
463.9176928055328
 21
332.0702231919674
 31
0.0
  0
ARC
  5
11C6
330
18
100
AcDbEntity
  8
外形線
100
AcDbCircle
 10
436.5010261388666
 20
348.2300056200538
 30
0.0
 40
6.083333333333398
100
AcDbArc
 50
138.8879095608341
 51
221.1120904391671
  0
LINE
  5
11C7
330
18
100
AcDbEntity
  8
外形線
100
AcDbLine
 10
441.417692805533
 20
344.2300056200537
 30
0.0
 11
431.917692805533
 21
344.2300056200537
 31
0.0
  0
LINE
  5
11CE
330
18
100
AcDbEntity
  8
外形線
100
AcDbLine
 10
441.417692805533
 20
377.2300056200537
 30
0.0
 11
431.9176928055331
 21
377.2300056200537
 31
0.0
  0
LINE
  5
11CF
330
18
100
AcDbEntity
  8
外形線
100
AcDbLine
 10
441.417692805533
 20
352.2300056200537
 30
0.0
 11
431.9176928055331
 21
352.2300056200537
 31
0.0
  0
LINE
  5
11D0
330
18
100
AcDbEntity
  8
外形線
100
AcDbLine
 10
449.4176928055328
 20
376.7300056200538
 30
0.0
 11
449.4176928055328
 21
352.7300056200538
 31
0.0
  0
LINE
  5
11D6
330
18
100
AcDbEntity
  8
外形線
100
AcDbLine
 10
449.4176928055328
 20
357.7300056200538
 30
0.0
 11
441.4176928055328
 21
357.7300056200538
 31
0.0
  0
LINE
  5
11DA
330
18
100
AcDbEntity
  8
外形線
100
AcDbLine
 10
449.4176928055328
 20
371.7300056200538
 30
0.0
 11
441.4176928055328
 21
371.7300056200538
 31
0.0
  0
LINE
  5
11DB
330
18
100
AcDbEntity
  8
外形線
100
AcDbLine
 10
430.4176928055328
 20
367.7837306606003
 30
0.0
 11
430.4176928055328
 21
348.2300056200537
 31
0.0
  0
LINE
  5
11DC
330
18
100
AcDbEntity
  8
外形線
100
AcDbLine
 10
430.4176928055331
 20
348.2300056200537
 30
0.0
 11
430.4176928055331
 21
364.7300056200537
 31
0.0
  0
LINE
  5
11DD
330
18
100
AcDbEntity
  8
外形線
100
AcDbLine
 10
431.917692805533
 20
352.2300056200537
 30
0.0
 11
430.4176928055331
 21
361.6762805795053
 31
0.0
  0
LINE
  5
11DE
330
18
100
AcDbEntity
  8
外形線
100
AcDbLine
 10
430.4176928055331
 20
381.2300056200538
 30
0.0
 11
430.4176928055331
 21
364.7300056200537
 31
0.0
  0
LINE
  5
11DF
330
18
100
AcDbEntity
  8
外形線
100
AcDbLine
 10
431.917692805533
 20
377.2300056200537
 30
0.0
 11
430.4176928055331
 21
367.7837306606022
 31
0.0
  0
LINE
  5
11E0
330
18
100
AcDbEntity
  8
中心線
100
AcDbLine
 10
499.0063064895187
 20
432.6484035848749
 30
0.0
 11
438.4803785725482
 21
432.6484035848749
 31
0.0
  0
LINE
  5
11E3
330
18
100
AcDbEntity
  8
外形線
100
AcDbLine
 10
466.4257594207032
 20
437.6484035848751
 30
0.0
 11
463.9176928055329
 21
437.6484035848752
 31
0.0
  0
LINE
  5
11E4
330
18
100
AcDbEntity
  8
外形線
100
AcDbLine
 10
466.4257594207032
 20
427.648403584875
 30
0.0
 11
463.9176928055329
 21
427.6484035848751
 31
0.0
  0
ARC
  5
11EA
330
18
100
AcDbEntity
  8
外形線
100
AcDbCircle
 10
488.4257594207033
 20
432.6484035848751
 30
0.0
 40
3.0
100
AcDbArc
 50
270.0
 51
90.00000000000108
  0
LINE
  5
11EB
330
18
100
AcDbEntity
  8
外形線
100
AcDbLine
 10
494.4257594207033
 20
437.1484035848751
 30
0.0
 11
488.4257594207033
 21
437.148403584875
 31
0.0
  0
LINE
  5
11EC
330
18
100
AcDbEntity
  8
外形線
100
AcDbLine
 10
494.4257594207033
 20
428.1484035848751
 30
0.0
 11
488.4257594207034
 21
428.148403584875
 31
0.0
  0
ARC
  5
11ED
330
18
100
AcDbEntity
  8
外形線
100
AcDbCircle
 10
488.4257594207033
 20
432.6484035848751
 30
0.0
 40
7.5
100
AcDbArc
 50
323.1301023541566
 51
36.86989764584402
  0
LINE
  5
11EE
330
18
100
AcDbEntity
  8
外形線
100
AcDbLine
 10
494.4257594207033
 20
437.1484035848752
 30
0.0
 11
494.4257594207033
 21
428.1484035848751
 31
0.0
  0
LINE
  5
11EF
330
18
100
AcDbEntity
  8
外形線
100
AcDbLine
 10
466.4257594207032
 20
439.148403584875
 30
0.0
 11
466.4257594207032
 21
426.148403584875
 31
0.0
  0
LINE
  5
11F0
330
18
100
AcDbEntity
  8
外形線
100
AcDbLine
 10
473.4257594207032
 20
440.148403584875
 30
0.0
 11
473.4257594207032
 21
423.6484035848751
 31
0.0
  0
LINE
  5
11F1
330
18
100
AcDbEntity
  8
外形線
100
AcDbLine
 10
478.4257594207032
 20
440.148403584875
 30
0.0
 11
478.4257594207033
 21
423.648403584875
 31
0.0
  0
LINE
  5
11F2
330
18
100
AcDbEntity
  8
外形線
100
AcDbLine
 10
468.9257594207032
 20
439.148403584875
 30
0.0
 11
468.9257594207033
 21
426.148403584875
 31
0.0
  0
LINE
  5
11F3
330
18
100
AcDbEntity
  8
外形線
100
AcDbLine
 10
488.4257594207033
 20
429.648403584875
 30
0.0
 11
488.4257594207033
 21
427.148403584875
 31
0.0
  0
LINE
  5
11F4
330
18
100
AcDbEntity
  8
外形線
100
AcDbLine
 10
488.4257594207033
 20
427.148403584875
 30
0.0
 11
478.4257594207033
 21
427.148403584875
 31
0.0
  0
LINE
  5
11F5
330
18
100
AcDbEntity
  8
外形線
100
AcDbLine
 10
478.4257594207033
 20
423.648403584875
 30
0.0
 11
480.9257594207032
 21
423.6484035848749
 31
0.0
  0
LINE
  5
11F6
330
18
100
AcDbEntity
  8
外形線
100
AcDbLine
 10
473.4257594207032
 20
423.6484035848751
 30
0.0
 11
470.9257594207033
 21
423.648403584875
 31
0.0
  0
LINE
  5
11F7
330
18
100
AcDbEntity
  8
外形線
100
AcDbLine
 10
468.9257594207033
 20
426.148403584875
 30
0.0
 11
466.4257594207032
 21
426.148403584875
 31
0.0
  0
LINE
  5
11F8
330
18
100
AcDbEntity
  8
外形線
100
AcDbLine
 10
478.4257594207032
 20
440.148403584875
 30
0.0
 11
473.4257594207032
 21
440.148403584875
 31
0.0
  0
LINE
  5
11F9
330
18
100
AcDbEntity
  8
外形線
100
AcDbLine
 10
488.4257594207033
 20
438.1484035848751
 30
0.0
 11
488.4257594207033
 21
435.6484035848752
 31
0.0
  0
LINE
  5
11FB
330
18
100
AcDbEntity
  8
外形線
100
AcDbLine
 10
488.4257594207033
 20
435.648403584875
 30
0.0
 11
485.4257594207033
 21
432.6484035848751
 31
0.0
  0
LINE
  5
11FC
330
18
100
AcDbEntity
  8
外形線
100
AcDbLine
 10
488.4257594207033
 20
429.6484035848751
 30
0.0
 11
485.4257594207033
 21
432.6484035848751
 31
0.0
  0
LINE
  5
11FD
330
18
100
AcDbEntity
  8
外形線
100
AcDbLine
 10
488.4257594207033
 20
438.1484035848751
 30
0.0
 11
478.4257594207033
 21
438.1484035848751
 31
0.0
  0
POINT
  5
11FE
330
18
100
AcDbEntity
  8
DEFPOINTS
  6
ByBlock
 62
     0
100
AcDbPoint
 10
488.4257594207033
 20
438.1484035848751
 30
0.0
  0
POINT
  5
11FF
330
18
100
AcDbEntity
  8
DEFPOINTS
  6
ByBlock
 62
     0
100
AcDbPoint
 10
478.4257594207032
 20
440.148403584875
 30
0.0
  0
POINT
  5
1200
330
18
100
AcDbEntity
  8
DEFPOINTS
  6
ByBlock
 62
     0
100
AcDbPoint
 10
478.4257594207032
 20
440.148403584875
 30
0.0
  0
LINE
  5
1201
330
18
100
AcDbEntity
  8
外形線
100
AcDbLine
 10
473.4257594207032
 20
435.7984035848751
 30
0.0
 11
468.9257594207032
 21
435.7984035848751
 31
0.0
  0
LINE
  5
1202
330
18
100
AcDbEntity
  8
外形線
100
AcDbLine
 10
473.4257594207032
 20
429.498403584875
 30
0.0
 11
468.9257594207032
 21
429.498403584875
 31
0.0
  0
POINT
  5
1203
330
18
100
AcDbEntity
  8
DEFPOINTS
  6
ByBlock
 62
     0
100
AcDbPoint
 10
473.4257594207032
 20
440.148403584875
 30
0.0
  0
POINT
  5
1204
330
18
100
AcDbEntity
  8
DEFPOINTS
  6
ByBlock
 62
     0
100
AcDbPoint
 10
473.4257594207032
 20
440.148403584875
 30
0.0
  0
POINT
  5
1205
330
18
100
AcDbEntity
  8
DEFPOINTS
  6
ByBlock
 62
     0
100
AcDbPoint
 10
468.9257594207032
 20
439.148403584875
 30
0.0
  0
LINE
  5
1206
330
18
100
AcDbEntity
  8
外形線
100
AcDbLine
 10
468.9257594207032
 20
439.148403584875
 30
0.0
 11
466.4257594207032
 21
439.148403584875
 31
0.0
  0
ARC
  5
1218
330
18
100
AcDbEntity
  8
外形線
100
AcDbCircle
 10
457.9176928055328
 20
437.274110232187
 30
0.0
 40
10.0
100
AcDbArc
 50
53.13010235415461
 51
126.8698976458454
  0
LINE
  5
1219
330
18
100
AcDbEntity
  8
外形線
100
AcDbLine
 10
441.417692805533
 20
385.2300056200539
 30
0.0
 11
431.917692805533
 21
385.2300056200538
 31
0.0
  0
LINE
  5
121A
330
18
100
AcDbEntity
  8
外形線
100
AcDbLine
 10
451.9176928055326
 20
445.2741102321868
 30
0.0
 11
463.9176928055328
 21
445.2741102321868
 31
0.0
  0
LINE
  5
121B
330
18
100
AcDbEntity
  8
外形線
100
AcDbLine
 10
441.4257594207031
 20
441.8984035848751
 30
0.0
 11
441.4257594207032
 21
423.3984035848751
 31
0.0
  0
LINE
  5
121C
330
18
100
AcDbEntity
  8
外形線
100
AcDbLine
 10
448.4257594207032
 20
441.898403584875
 30
0.0
 11
448.4257594207033
 21
423.3984035848751
 31
0.0
  0
LINE
  5
121D
330
18
100
AcDbEntity
  8
外形線
100
AcDbLine
 10
448.4257594207033
 20
423.3984035848751
 30
0.0
 11
441.4257594207032
 21
423.3984035848751
 31
0.0
  0
LINE
  5
121E
330
18
100
AcDbEntity
  8
外形線
100
AcDbLine
 10
448.4257594207029
 20
427.0984035848751
 30
0.0
 11
441.4257594207028
 21
427.0984035848751
 31
0.0
  0
LINE
  5
121F
330
18
100
AcDbEntity
  8
外形線
100
AcDbLine
 10
448.4257594207032
 20
441.898403584875
 30
0.0
 11
441.4257594207031
 21
441.8984035848751
 31
0.0
  0
LINE
  5
1220
330
18
100
AcDbEntity
  8
外形線
100
AcDbLine
 10
448.4257594207031
 20
438.1984035848751
 30
0.0
 11
441.4257594207031
 21
438.1984035848751
 31
0.0
  0
LINE
  5
1221
330
18
100
AcDbEntity
  8
外形線
100
AcDbLine
 10
448.4257594207031
 20
434.4984035848751
 30
0.0
 11
441.4257594207031
 21
434.4984035848751
 31
0.0
  0
LINE
  5
1222
330
18
100
AcDbEntity
  8
外形線
100
AcDbLine
 10
448.4257594207031
 20
430.7984035848751
 30
0.0
 11
441.425759420703
 21
430.7984035848751
 31
0.0
  0
LINE
  5
1278
330
18
100
AcDbEntity
  8
想像線
 48
0.5
100
AcDbLine
 10
324.7362902666527
 20
328.0263343078844
 30
0.0
 11
345.2120058825295
 21
330.2093270610841
 31
0.0
  0
LINE
  5
1279
330
18
100
AcDbEntity
  8
想像線
 48
0.5
100
AcDbLine
 10
310.9625569315911
 20
332.8906112986617
 30
0.0
 11
327.0701195555992
 21
335.0736033868733
 31
0.0
  0
LINE
  5
1282
330
18
100
AcDbEntity
  8
想像線
 48
0.5
100
AcDbLine
 10
310.9625569315911
 20
334.1511650360869
 30
0.0
 11
327.0701195555992
 21
336.3341571242985
 31
0.0
  0
LINE
  5
1283
330
18
100
AcDbEntity
  8
想像線
 48
0.5
100
AcDbLine
 10
324.7362902666527
 20
330.3373499758493
 30
0.0
 11
345.2120058825295
 21
332.5203427290491
 31
0.0
  0
DIMENSION
  5
12B4
330
18
100
AcDbEntity
  8
寸法線
100
AcDbDimension
  2
*D36
 10
334.3980672021055
 20
452.3022778821665
 30
0.0
 11
326.3990338945203
 21
454.1772778821665
 31
0.0
 12
-88.98777055542224
 22
9.362485274237769
 32
0.0
 70
    32
 71
     5
 42
-1.0
  3
STYLE3
100
AcDbAlignedDimension
 13
318.4000005869351
 23
446.6678010203259
 33
0.0
 14
334.3980672021055
 24
450.9916720978181
 34
0.0
100
AcDbRotatedDimension
1001
ACAD
1000
DSTYLE
1002
{
1070
   271
1070
     2
1002
}
  0
LINE
  5
12F3
330
18
100
AcDbEntity
  8
想像線
 48
0.5
100
AcDbLine
 10
447.6639424806197
 20
330.3373499758493
 30
0.0
 11
468.1396580964966
 21
332.5203427290491
 31
0.0
  0
LINE
  5
12F4
330
18
100
AcDbEntity
  8
想像線
 48
0.5
100
AcDbLine
 10
447.6639424806197
 20
328.0263343078844
 30
0.0
 11
468.1396580964966
 21
330.2093270610841
 31
0.0
  0
LINE
  5
12F5
330
18
100
AcDbEntity
  8
想像線
 48
0.5
100
AcDbLine
 10
467.8937183147095
 20
336.5462612919877
 30
0.0
 11
484.0012809387176
 21
338.7292533801994
 31
0.0
  0
LINE
  5
12F6
330
18
100
AcDbEntity
  8
想像線
 48
0.5
100
AcDbLine
 10
467.8937183147095
 20
337.8068150294129
 30
0.0
 11
484.0012809387176
 21
339.9898071176246
 31
0.0
  0
LINE
  5
1326
330
18
100
AcDbEntity
  8
中心線
100
AcDbLine
 10
457.9176928055328
 20
266.7033898893259
 30
0.0
 11
457.9176928055328
 21
452.0314775872024
 31
0.0
  0
LINE
  5
133F
330
18
100
AcDbEntity
  8
外形線
100
AcDbLine
 10
451.9176928055327
 20
427.6484035848751
 30
0.0
 11
448.4257594207032
 21
427.6484035848751
 31
0.0
  0
LINE
  5
1340
330
18
100
AcDbEntity
  8
外形線
100
AcDbLine
 10
451.9176928055327
 20
437.6484035848752
 30
0.0
 11
448.4257594207032
 21
437.6484035848752
 31
0.0
  0
LINE
  5
1357
330
18
100
AcDbEntity
  8
隠れ線2
100
AcDbLine
 10
463.9176928055328
 20
437.6484035848752
 30
0.0
 11
451.9176928055326
 21
437.6484035848752
 31
0.0
  0
LINE
  5
1358
330
18
100
AcDbEntity
  8
隠れ線2
100
AcDbLine
 10
451.9176928055327
 20
427.6484035848751
 30
0.0
 11
463.9176928055328
 21
427.6484035848751
 31
0.0
  0
LINE
  5
1361
330
18
100
AcDbEntity
  8
隠れ線2
100
AcDbLine
 10
488.4257594207033
 20
437.148403584875
 30
0.0
 11
479.9257594207032
 21
437.148403584875
 31
0.0
  0
LINE
  5
1362
330
18
100
AcDbEntity
  8
隠れ線2
100
AcDbLine
 10
488.4257594207034
 20
428.1484035848749
 30
0.0
 11
479.9257594207032
 21
428.1484035848749
 31
0.0
  0
LINE
  5
1363
330
18
100
AcDbEntity
  8
隠れ線2
100
AcDbLine
 10
479.9257594207032
 20
437.148403584875
 30
0.0
 11
479.9257594207033
 21
428.1484035848749
 31
0.0
  0
ARC
  5
1364
330
18
100
AcDbEntity
  8
隠れ線2
100
AcDbCircle
 10
488.4257594207033
 20
432.6484035848751
 30
0.0
 40
3.0
100
AcDbArc
 50
90.0
 51
270.0
  0
LINE
  5
1365
330
18
100
AcDbEntity
  8
隠れ線2
100
AcDbLine
 10
482.9257594207032
 20
428.1484035848749
 30
0.0
 11
482.9257594207033
 21
437.148403584875
 31
0.0
  0
LINE
  5
1366
330
18
100
AcDbEntity
  8
隠れ線2
 48
0.5
100
AcDbLine
 10
455.9257594207033
 20
430.648403584875
 30
0.0
 11
455.9257594207033
 21
434.6484035848749
 31
0.0
  0
LINE
  5
1367
330
18
100
AcDbEntity
  8
隠れ線2
100
AcDbLine
 10
482.9257594207032
 20
434.6484035848749
 30
0.0
 11
455.9257594207033
 21
434.6484035848749
 31
0.0
  0
LINE
  5
1368
330
18
100
AcDbEntity
  8
隠れ線2
100
AcDbLine
 10
482.9257594207032
 20
430.6484035848749
 30
0.0
 11
455.9257594207032
 21
430.648403584875
 31
0.0
  0
LINE
  5
1369
330
18
100
AcDbEntity
  8
隠れ線2
 48
0.5
100
AcDbLine
 10
470.9257594207032
 20
430.6484035848749
 30
0.0
 11
470.9257594207033
 21
434.6484035848749
 31
0.0
  0
LINE
  5
136A
330
18
100
AcDbEntity
  8
隠れ線2
100
AcDbLine
 10
470.9257594207033
 20
431.2484035848751
 30
0.0
 11
455.9257594207032
 21
431.2484035848751
 31
0.0
  0
LINE
  5
136B
330
18
100
AcDbEntity
  8
隠れ線2
100
AcDbLine
 10
470.9257594207033
 20
434.0484035848748
 30
0.0
 11
455.9257594207033
 21
434.0484035848748
 31
0.0
  0
DIMENSION
  5
1378
330
18
100
AcDbEntity
  8
寸法線
100
AcDbDimension
  2
*D38
 10
457.9176928055328
 20
452.5235210449592
 30
0.0
 11
466.9217261131179
 21
454.3985210449592
 31
0.0
 12
-88.98777055542224
 22
9.362485274237769
 32
0.0
 70
    32
  1
18
 71
     5
 42
-1.0
  3
STYLE3
100
AcDbAlignedDimension
 13
475.9257594207032
 23
441.5322105398072
 33
0.0
 14
457.9176928055328
 24
452.0314775872024
 34
0.0
100
AcDbRotatedDimension
1001
ACAD
1000
DSTYLE
1002
{
1070
   271
1070
     2
1002
}
  0
DIMENSION
  5
1392
330
18
100
AcDbEntity
  8
寸法線
100
AcDbDimension
  2
*D39
 10
473.4257594207032
 20
448.4528754487268
 30
0.0
 11
486.5507594207032
 21
450.3278754487268
 31
0.0
 12
-88.98777055542224
 22
9.362485274237769
 32
0.0
 70
    32
  1
耳金装着部
 71
     5
 42
-1.0
  3
STYLE3
100
AcDbAlignedDimension
 13
468.9257594207032
 23
439.148403584875
 33
0.0
 14
473.4257594207032
 24
440.148403584875
 34
0.0
100
AcDbRotatedDimension
1001
ACAD
1000
DSTYLE
1002
{
1070
   271
1070
     2
1002
}
  0
LINE
  5
13AC
330
18
100
AcDbEntity
  8
0
  6
ByBlock
 62
     2
100
AcDbLine
 10
501.1451111775051
 20
448.2242148774243
 30
0.0
 11
491.9045528536151
 21
436.9084500929699
 31
0.0
  0
LINE
  5
13AD
330
18
100
AcDbEntity
  8
0
  6
ByBlock
 62
     2
100
AcDbLine
 10
484.9469659877915
 20
428.3883570767803
 30
0.0
 11
483.365696245559
 21
426.4519723003735
 31
0.0
  0
MTEXT
  5
13AE
330
18
100
AcDbEntity
  8
0
  6
ByBlock
 62
     6
100
AcDbMText
 10
512.3512582144333
 20
449.9251629423376
 30
0.0
 40
2.499999999999999
 41
0.0
 71
     5
 72
     1
  1
\U+22056ステム装着部
  7
STYLE3
 73
     1
 44
1.0
  0
LINE
  5
13AF
330
18
100
AcDbEntity
  8
0
  6
ByBlock
 62
     2
100
AcDbLine
 10
486.5282357300242
 20
430.324741853187
 30
0.0
 11
490.3232831113824
 21
434.9720653165632
 31
0.0
  0
INSERT
  5
13B0
330
18
100
AcDbEntity
  8
0
  6
ByBlock
 62
     2
100
AcDbBlockReference
  2
_OPEN
 10
486.5282357300242
 20
430.324741853187
 30
0.0
 41
2.5
 42
2.5
 43
2.5
 50
50.76460605765682
  0
INSERT
  5
13B1
330
18
100
AcDbEntity
  8
0
  6
ByBlock
 62
     2
100
AcDbBlockReference
  2
_OPEN
 10
490.3232831113824
 20
434.9720653165632
 30
0.0
 41
2.5
 42
2.5
 43
2.5
 50
230.7646060576568
  0
POINT
  5
13B2
330
18
100
AcDbEntity
  8
DEFPOINTS
  6
ByBlock
 62
     0
100
AcDbPoint
 10
490.3232831113824
 20
434.9720653165632
 30
0.0
  0
POINT
  5
13B3
330
18
100
AcDbEntity
  8
DEFPOINTS
  6
ByBlock
 62
     0
100
AcDbPoint
 10
486.5282357300242
 20
430.324741853187
 30
0.0
  0
LINE
  5
13C5
330
18
100
AcDbEntity
  8
寸法線
100
AcDbLine
 10
501.1451111775051
 20
448.2242148774243
 30
0.0
 11
522.9930813320663
 21
448.2242148774243
 31
0.0
  0
LINE
  5
13D1
330
18
100
AcDbEntity
  8
中心線
 48
0.5
100
AcDbLine
 10
327.3980672021054
 20
251.2051645015346
 30
0.0
 11
350.8590588119275
 21
251.2051645015346
 31
0.0
  0
CIRCLE
  5
13D2
330
18
100
AcDbEntity
  8
隠れ線2
100
AcDbCircle
 10
334.3980672021055
 20
251.2051645015346
 30
0.0
 40
13.0
  0
LINE
  5
13F2
330
18
100
AcDbEntity
  8
外形線
100
AcDbLine
 10
310.7017839451045
 20
274.4373869480414
 30
0.0
 11
315.8767355378771
 21
278.7051645015346
 31
0.0
  0
LINE
  5
13F3
330
18
100
AcDbEntity
  8
隠れ線2
100
AcDbLine
 10
339.6636363713721
 20
239.3192997318315
 30
0.0
 11
312.3980672021055
 21
272.3805356636003
 31
0.0
  0
LINE
  5
13F4
330
18
100
AcDbEntity
  8
隠れ線2
100
AcDbLine
 10
345.0640471091153
 20
243.773013223253
 30
0.0
 11
317.3980672021055
 21
277.3197726292596
 31
0.0
  0
LINE
  5
13F5
330
18
100
AcDbEntity
  8
外形線
100
AcDbLine
 10
312.3980672021055
 20
272.3805356636003
 30
0.0
 11
310.7017839451045
 21
274.4373869480414
 31
0.0
  0
LINE
  5
13F6
330
18
100
AcDbEntity
  8
外形線
100
AcDbLine
 10
317.3980672021055
 20
277.3197726292596
 30
0.0
 11
316.2555358703063
 21
278.7051645015346
 31
0.0
  0
DIMENSION
  5
1403
330
18
100
AcDbEntity
  8
寸法線
100
AcDbDimension
  2
*D42
 10
356.3980672021055
 20
208.1143178609153
 30
0.0
 11
334.3980672021055
 21
209.9893178609153
 31
0.0
 70
    32
 71
     5
 42
-1.0
  3
STYLE3
100
AcDbAlignedDimension
 13
312.3980672021055
 23
213.1187855588582
 33
0.0
 14
356.3980672021055
 24
213.1187855588582
 34
0.0
100
AcDbRotatedDimension
1001
ACAD
1000
DSTYLE
1002
{
1070
   271
1070
     2
1002
}
  0
LINE
  5
1418
330
18
100
AcDbEntity
  8
寸法線
100
AcDbLine
 10
350.063154507704
 20
293.2051645015346
 30
0.0
 11
375.005843701892
 21
293.2051645015346
 31
0.0
  0
DIMENSION
  5
1425
330
18
100
AcDbEntity
  8
寸法線
100
AcDbDimension
  2
*D43
 10
372.2247574672055
 20
293.2051645015346
 30
0.0
 11
370.3497574672054
 21
370.2396373668609
 31
0.0
 70
    32
  1
186
 71
     5
 42
-1.0
  3
STYLE3
100
AcDbAlignedDimension
 13
334.3980672021056
 23
447.274110232187
 33
0.0
 14
365.0727015197694
 24
293.2051645015346
 34
0.0
 50
90.0
100
AcDbRotatedDimension
1001
ACAD
1000
DSTYLE
1002
{
1070
   271
1070
     2
1002
}
  0
DIMENSION
  5
143D
330
18
100
AcDbEntity
  8
寸法線
100
AcDbDimension
  2
*D44
 10
379.3102063375268
 20
220.7051645015346
 30
0.0
 11
377.4352063375268
 21
333.9896373668608
 31
0.0
 70
    32
  1
259
 71
     5
 42
-1.0
  3
STYLE3
100
AcDbAlignedDimension
 13
373.4747574672054
 23
447.274110232187
 33
0.0
 14
373.4747574672054
 24
220.7051645015346
 34
0.0
 50
90.0
100
AcDbRotatedDimension
1001
ACAD
1000
DSTYLE
1002
{
1070
   271
1070
     2
1002
}
  0
DIMENSION
  5
1455
330
18
100
AcDbEntity
  8
寸法線
100
AcDbDimension
  2
*D45
 10
510.7587895506783
 20
314.2918761182443
 30
0.0
 11
508.8837895506783
 21
377.2201398515596
 31
0.0
 70
    32
  1
151.5
 71
     5
 42
-1.0
  3
STYLE3
100
AcDbAlignedDimension
 13
478.4257594207032
 23
440.148403584875
 33
0.0
 14
475.9257594207033
 24
314.2918761182443
 34
0.0
 50
90.0
100
AcDbRotatedDimension
1001
ACAD
1000
DSTYLE
1002
{
1070
   271
1070
     2
1002
}
  0
DIMENSION
  5
1462
330
18
100
AcDbEntity
  8
寸法線
100
AcDbDimension
  2
*D46
 10
505.1300083883247
 20
440.148403584875
 30
0.0
 11
503.2550083883247
 21
431.898403584875
 31
0.0
 70
    32
 71
     5
 42
-1.0
  3
STYLE3
100
AcDbAlignedDimension
 13
480.9257594207032
 23
423.6484035848749
 33
0.0
 14
502.4811697190211
 24
440.148403584875
 34
0.0
 50
90.0
100
AcDbRotatedDimension
1001
ACAD
1000
DSTYLE
1002
{
1070
   271
1070
     2
1002
}
  0
DIMENSION
  5
1490
330
18
100
AcDbEntity
  8
寸法線
100
AcDbDimension
  2
*D47
 10
424.1648659663026
 20
385.2300056200538
 30
0.0
 11
422.2898659663026
 21
364.7300056200537
 31
0.0
 70
    32
  1
2-φ42
 71
     5
 42
-1.0
  3
STYLE3
100
AcDbAlignedDimension
 13
431.9176928055331
 23
344.2300056200537
 33
0.0
 14
431.917692805533
 24
385.2300056200538
 34
0.0
 50
90.0
100
AcDbRotatedDimension
1001
ACAD
1000
DSTYLE
1002
{
1070
   271
1070
     2
1002
}
  0
HATCH
  5
14AC
330
18
100
AcDbEntity
  8
寸法線
100
AcDbHatch
 10
0.0
 20
0.0
 30
0.0
210
0.0
220
0.0
230
1.0
  2
ANSI37
 70
     0
 71
     1
 91
        4
 92
        7
 72
     0
 73
     1
 93
        4
 10
484.9176928055328
 20
293.2051645015346
 10
477.9176928055328
 20
293.2051645015346
 10
477.9176928055329
 20
289.7051645015346
 10
484.9176928055328
 20
289.7051645015346
 97
        4
330
C33
330
C35
330
C32
330
3C5
 92
        7
 72
     0
 73
     1
 93
        4
 10
491.9176928055327
 20
293.2051645015346
 10
484.9176928055328
 20
293.2051645015346
 10
484.9176928055328
 20
289.7051645015346
 10
491.9176928055327
 20
289.7051645015346
 97
        4
330
C33
330
3C5
330
C32
330
C34
 92
        7
 72
     0
 73
     1
 93
        4
 10
508.9176928055327
 20
296.7051645015346
 10
499.9176928055329
 20
296.7051645015347
 10
499.9176928055329
 20
293.2051645015347
 10
508.9176928055329
 20
293.2051645015347
 97
        4
330
C52
330
C58
330
C53
330
3C3
 92
        7
 72
     0
 73
     1
 93
        4
 10
517.9176928055329
 20
296.7051645015346
 10
508.9176928055329
 20
296.7051645015346
 10
508.9176928055329
 20
293.2051645015346
 10
517.9176928055328
 20
293.2051645015346
 97
        4
330
C52
330
3C3
330
C53
330
C57
 75
     0
 76
     1
 52
0.0
 41
1.0
 77
     0
 78
     2
 53
45.0
 43
0.0
 44
0.0
 45
-2.245064030267287
 46
2.245064030267288
 79
     0
 53
135.0
 43
0.0
 44
0.0
 45
-2.245064030267288
 46
-2.245064030267287
 79
     0
 47
0.0485424128899413
 98
        4
 10
481.6147953266188
 20
291.0022560144663
 10
486.5685808797539
 20
291.1964262300377
 10
503.6639931598122
 20
294.2060560096978
 10
513.62012911188
 20
294.3031406138544
  0
MTEXT
  5
14AD
330
18
100
AcDbEntity
  8
寸法線
100
AcDbMText
 10
453.0539883213687
 20
249.66027739405
 30
0.0
 40
5.0
 41
91.10519999999999
 71
     1
 72
     5
  1
\fＤＦＰPOP体|b0|i0|c128|p82;MAGNETIC STAND
  7
STYLE3
 73
     1
 44
1.0
  0
MTEXT
  5
14AF
330
18
100
AcDbEntity
  8
寸法線
100
AcDbMText
 10
475.8589344005733
 20
233.592978368726
 30
0.0
 40
5.0
 41
23.158
 71
     1
 72
     5
  1
\fＤＦPOP体|b0|i0|c128|p81;YM. 2
  7
STYLE3
 73
     1
 44
1.0
  0
LINE
  5
14E1
330
18
100
AcDbEntity
  8
外形線
100
AcDbLine
 10
535.3883560320461
 20
360.7635593922667
 30
0.0
 11
630.3883560320461
 21
360.7635593922667
 31
0.0
  0
LINE
  5
14E2
330
18
100
AcDbEntity
  8
外形線
100
AcDbLine
 10
535.3883560320461
 20
362.0197153922667
 30
0.0
 11
630.3883560320461
 21
362.0197153922667
 31
0.0
  0
TEXT
  5
14E3
330
18
100
AcDbEntity
  8
文字
  6
Continuous
100
AcDbText
 10
535.9733840320461
 20
364.5320283922667
 30
0.0
 40
4.0
  1
Model No.YM-2 Magnetic Stand
  7
STYLE3
100
AcDbText
  0
TEXT
  5
14E4
330
18
100
AcDbEntity
  8
0
  6
Continuous
100
AcDbText
 10
495.5403332160409
 20
180.7700734071877
 30
0.0
 40
2.1
  1
3RD Angle Projection
  7
STYLE3
100
AcDbText
  0
TEXT
  5
14E5
330
18
100
AcDbEntity
  8
0
  6
Continuous
100
AcDbText
 10
498.163775216041
 20
184.2663564071877
 30
0.0
 40
3.0
  1
三　　角　　法
  7
STYLE3
100
AcDbText
  0
LINE
  5
14E6
330
18
100
AcDbEntity
  8
外形線
100
AcDbLine
 10
494.3743572160411
 20
199.4169164071877
 30
0.0
 11
635.1657752160409
 21
199.4169164071877
 31
0.0
  0
LINE
  5
14E7
330
18
100
AcDbEntity
  8
外形線
100
AcDbLine
 10
494.3743572160411
 20
188.6367104071877
 30
0.0
 11
635.1657752160409
 21
188.6367104071877
 31
0.0
  0
TEXT
  5
14E8
330
18
100
AcDbEntity
  8
0
  6
Continuous
100
AcDbText
 10
495.8318242160411
 20
190.5347014071877
 30
0.0
 40
2.1
  1
Design and specifications are subject to change without notice for future improvement.
  7
STYLE3
100
AcDbText
  0
TEXT
  5
14E9
330
18
100
AcDbEntity
  8
0
  6
Continuous
100
AcDbText
 10
496.1233182160411
 20
194.4638494071877
 30
0.0
 40
3.5
  1
仕様及び外観は予告なく変更される場合がございますのでご了承下さい。
  7
STYLE3
100
AcDbText
  0
LINE
  5
14EA
330
18
100
AcDbEntity
  8
外形線
100
AcDbLine
 10
494.3743572160411
 20
179.0219334071877
 30
0.0
 11
494.3743572160411
 21
199.4169164071877
 31
0.0
  0
TEXT
  5
14EB
330
18
100
AcDbEntity
  8
0
  6
Continuous
100
AcDbText
 10
598.620566216041
 20
180.7700744071877
 30
0.0
 40
2.1
  1
OZAKI MFG. CO., LTD.
  7
STYLE3
100
AcDbText
  0
TEXT
  5
14EC
330
18
100
AcDbEntity
  8
0
  6
Continuous
100
AcDbText
 10
597.746087216041
 20
184.5577134071877
 30
0.0
 40
3.0
  1
株式会社　尾崎製作所
  7
STYLE3
100
AcDbText
  0
TEXT
  5
14ED
330
18
100
AcDbEntity
  8
0
  6
Continuous
100
AcDbText
 10
539.1446012160411
 20
182.5182164071877
 30
0.0
 40
2.399999999999999
  1
mm
  7
STYLE3
100
AcDbText
  0
LINE
  5
14EE
330
18
100
AcDbEntity
  8
外形線
100
AcDbLine
 10
529.6450852160411
 20
188.6367104071877
 30
0.0
 11
529.6450852160411
 21
179.0219334071877
 31
0.0
  0
TEXT
  5
14EF
330
18
100
AcDbEntity
  8
0
  6
Continuous
100
AcDbText
 10
531.102554216041
 20
184.2723104071877
 30
0.0
 40
3.0
  1
単位
  7
STYLE3
100
AcDbText
  0
TEXT
  5
14F0
330
18
100
AcDbEntity
  8
0
  6
Continuous
100
AcDbText
 10
531.274275216041
 20
180.7700744071877
 30
0.0
 40
2.1
  1
Unit
  7
STYLE3
100
AcDbText
  0
TEXT
  5
14F1
330
18
100
AcDbEntity
  8
0
  6
Continuous
100
AcDbText
 10
548.420450216041
 20
183.9809534071877
 30
0.0
 40
3.0
  1
尺 度
  7
STYLE3
100
AcDbText
  0
TEXT
  5
14F2
330
18
100
AcDbEntity
  8
0
  6
Continuous
100
AcDbText
 10
548.8836652160411
 20
181.0614314071877
 30
0.0
 40
2.1
  1
Scale
  7
STYLE3
100
AcDbText
  0
LINE
  5
14F3
330
18
100
AcDbEntity
  8
外形線
100
AcDbLine
 10
547.1347022160411
 20
188.6367104071877
 30
0.0
 11
547.1347022160411
 21
179.0219334071877
 31
0.0
  0
LINE
  5
14F4
330
18
100
AcDbEntity
  8
外形線
100
AcDbLine
 10
566.6647742160409
 20
188.6367104071877
 30
0.0
 11
566.6647742160409
 21
179.0219334071877
 31
0.0
  0
TEXT
  5
14F5
330
18
100
AcDbEntity
  8
0
  6
Continuous
100
AcDbText
 10
558.5029542160411
 20
182.8095734071877
 30
0.0
 40
2.399999999999999
  1
1/1
  7
STYLE3
100
AcDbText
  0
TEXT
  5
14F6
330
18
100
AcDbEntity
  8
0
  6
Continuous
100
AcDbText
 10
577.341532216041
 20
182.5182154071877
 30
0.0
 40
2.1
  1
2010.06.15
  7
STYLE3
100
AcDbText
  0
TEXT
  5
14F7
330
18
100
AcDbEntity
  8
0
  6
Continuous
100
AcDbText
 10
568.2133642160411
 20
184.1031584071877
 30
0.0
 40
3.0
  1
日 付
  7
STYLE3
100
AcDbText
  0
TEXT
  5
14F8
330
18
100
AcDbEntity
  8
0
  6
Continuous
100
AcDbText
 10
568.596725216041
 20
180.7700754071877
 30
0.0
 40
2.1
  1
Date
  7
STYLE3
100
AcDbText
  0
LINE
  5
14F9
330
18
100
AcDbEntity
  8
外形線
100
AcDbLine
 10
596.3971242160409
 20
188.6367104071877
 30
0.0
 11
596.3971242160409
 21
179.0219334071877
 31
0.0
  0
ENDSEC
  0
SECTION
  2
OBJECTS
  0
DICTIONARY
  5
C
330
0
100
AcDbDictionary
281
     1
  3
ACAD_COLOR
350
14BA
  3
ACAD_GROUP
350
D
  3
ACAD_IMAGE_DICT
350
B9A
  3
ACAD_LAYOUT
350
14BB
  3
ACAD_MATERIAL
350
14B9
  3
ACAD_MLINESTYLE
350
1B
  3
ACAD_PLOTSETTINGS
350
14BC
  3
ACAD_PLOTSTYLENAME
350
14B7
  3
ACDBVARIABLEDICTIONARY
350
3F4
  0
DICTIONARY
  5
14BA
102
{ACAD_REACTORS
330
C
102
}
330
C
100
AcDbDictionary
281
     1
  0
DICTIONARY
  5
D
102
{ACAD_REACTORS
330
C
102
}
330
C
100
AcDbDictionary
281
     1
  0
DICTIONARY
  5
B9A
102
{ACAD_REACTORS
330
C
102
}
330
C
100
AcDbDictionary
281
     1
  3
ROGO01
350
B9B
  0
DICTIONARY
  5
14BB
102
{ACAD_REACTORS
330
C
102
}
330
C
100
AcDbDictionary
281
     1
  3
Model
350
14BD
  3
レイアウト1
350
14BE
  0
DICTIONARY
  5
14B9
102
{ACAD_REACTORS
330
C
102
}
330
C
100
AcDbDictionary
281
     1
  0
DICTIONARY
  5
1B
102
{ACAD_REACTORS
330
C
102
}
330
C
100
AcDbDictionary
281
     1
  3
STANDARD
350
1C
  0
DICTIONARY
  5
14BC
102
{ACAD_REACTORS
330
C
102
}
330
C
100
AcDbDictionary
281
     1
  0
ACDBDICTIONARYWDFLT
  5
14B7
102
{ACAD_REACTORS
330
C
102
}
330
C
100
AcDbDictionary
281
     1
  3
Normal
350
14B8
100
AcDbDictionaryWithDefault
340
14B8
  0
DICTIONARY
  5
3F4
102
{ACAD_REACTORS
330
C
102
}
330
C
100
AcDbDictionary
281
     1
  3
SORTENTS
350
3F5
  0
IMAGEDEF
  5
B9B
102
{ACAD_REACTORS
330
B9A
102
}
330
B9A
100
AcDbRasterImageDef
 90
        0
  1
D:\ﾃｽﾄ\rogo01.TIF
 10
3388.0
 20
4668.0
 11
0.0635
 21
0.0635
280
     1
281
     5
  0
LAYOUT
  5
14BD
102
{ACAD_REACTORS
330
14BB
102
}
330
14BB
100
AcDbPlotSettings
  1

  2
EPSON PX-101
  4

  6

 40
0.0
 41
0.0
 42
0.0
 43
0.0
 44
0.0
 45
0.0
 46
0.0
 47
0.0
 48
0.0
 49
0.0
140
0.0
141
0.0
142
1.0
143
1.0
 70
  1712
 72
     0
 73
     0
 74
     0
  7
AutoCad LT 98fukui.ctb
 75
     0
147
1.0
 76
     0
 77
     2
 78
   300
148
0.0
149
0.0
100
AcDbLayout
  1
Model
 70
     1
 71
     0
 10
0.0
 20
0.0
 11
12.0
 21
9.0
 12
0.0
 22
0.0
 32
0.0
 14
0.0
 24
0.0
 34
0.0
 15
0.0
 25
0.0
 35
0.0
146
0.0
 13
0.0
 23
0.0
 33
0.0
 16
1.0
 26
0.0
 36
0.0
 17
0.0
 27
1.0
 37
0.0
 76
     0
330
18
  0
LAYOUT
  5
14BE
102
{ACAD_REACTORS
330
14BB
102
}
330
14BB
100
AcDbPlotSettings
  1

  2
EPSON PX-101
  4

  6

 40
0.0
 41
0.0
 42
0.0
 43
0.0
 44
0.0
 45
0.0
 46
0.0
 47
0.0
 48
0.0
 49
0.0
140
0.0
141
0.0
142
1.0
143
1.0
 70
   688
 72
     0
 73
     0
 74
     5
  7
AutoCad LT 98fukui.ctb
 75
    16
147
1.0
 76
     0
 77
     2
 78
   300
148
0.0
149
0.0
100
AcDbLayout
  1
レイアウト1
 70
     1
 71
     1
 10
0.0
 20
0.0
 11
420.0
 21
297.0
 12
0.0
 22
0.0
 32
0.0
 14
1.000000000000000E+20
 24
1.000000000000000E+20
 34
1.000000000000000E+20
 15
-1.000000000000000E+20
 25
-1.000000000000000E+20
 35
-1.000000000000000E+20
146
0.0
 13
0.0
 23
0.0
 33
0.0
 16
1.0
 26
0.0
 36
0.0
 17
0.0
 27
1.0
 37
0.0
 76
     0
330
15
  0
MLINESTYLE
  5
1C
102
{ACAD_REACTORS
330
1B
102
}
330
1B
100
AcDbMlineStyle
  2
STANDARD
 70
     0
  3

 62
   256
 51
90.0
 52
90.0
 71
     2
 49
0.5
 62
   256
  6
BYLAYER
 49
-0.5
 62
   256
  6
BYLAYER
  0
ACDBPLACEHOLDER
  5
14B8
102
{ACAD_REACTORS
330
14B7
102
}
330
14B7
  0
DICTIONARYVAR
  5
3F5
102
{ACAD_REACTORS
330
3F4
102
}
330
3F4
100
DictionaryVariables
280
     0
  1
96
  0
ENDSEC
  0
EOF
