  0
SECTION
  2
HEADER
  9
$ACADVER
  1
AC1018
  9
$ACADMAINTVER
 70
     0
  9
$DWGCODEPAGE
  3
ANSI_932
  9
$INSBASE
 10
0.0
 20
0.0
 30
0.0
  9
$EXTMIN
 10
255.8176900309641
 20
176.0635400423978
 30
-1.000030515249854
  9
$EXTMAX
 10
634.1546142674312
 20
459.3857883045838
 30
0.000030519906467
  9
$LIMMIN
 10
0.0
 20
0.0
  9
$LIMMAX
 10
420.0
 20
297.0
  9
$ORTHOMODE
 70
     1
  9
$REGENMODE
 70
     1
  9
$FILLMODE
 70
     1
  9
$QTEXTMODE
 70
     0
  9
$MIRRTEXT
 70
     1
  9
$LTSCALE
 40
1.0
  9
$ATTMODE
 70
     1
  9
$TEXTSIZE
 40
2.0
  9
$TRACEWID
 40
1.0
  9
$TEXTSTYLE
  7
STYLE3
  9
$CLAYER
  8
外形線
  9
$CELTYPE
  6
BYLAYER
  9
$CECOLOR
 62
   256
  9
$CELTSCALE
 40
1.0
  9
$DISPSILH
 70
     0
  9
$DIMSCALE
 40
1.0
  9
$DIMASZ
 40
2.5
  9
$DIMEXO
 40
0.0
  9
$DIMDLI
 40
3.75
  9
$DIMRND
 40
0.0
  9
$DIMDLE
 40
0.0
  9
$DIMEXE
 40
1.25
  9
$DIMTP
 40
0.0
  9
$DIMTM
 40
0.0
  9
$DIMTXT
 40
2.5
  9
$DIMCEN
 40
2.5
  9
$DIMTSZ
 40
0.0
  9
$DIMTOL
 70
     0
  9
$DIMLIM
 70
     0
  9
$DIMTIH
 70
     0
  9
$DIMTOH
 70
     0
  9
$DIMSE1
 70
     0
  9
$DIMSE2
 70
     0
  9
$DIMTAD
 70
     1
  9
$DIMZIN
 70
     8
  9
$DIMBLK
  1

  9
$DIMASO
 70
     1
  9
$DIMSHO
 70
     1
  9
$DIMPOST
  1

  9
$DIMAPOST
  1

  9
$DIMALT
 70
     0
  9
$DIMALTD
 70
     4
  9
$DIMALTF
 40
0.0394
  9
$DIMLFAC
 40
1.0
  9
$DIMTOFL
 70
     1
  9
$DIMTVP
 40
0.0
  9
$DIMTIX
 70
     0
  9
$DIMSOXD
 70
     0
  9
$DIMSAH
 70
     1
  9
$DIMBLK1
  1
OPEN
  9
$DIMBLK2
  1
OPEN
  9
$DIMSTYLE
  2
STYLE3
  9
$DIMCLRD
 70
     2
  9
$DIMCLRE
 70
     2
  9
$DIMCLRT
 70
     6
  9
$DIMTFAC
 40
1.0
  9
$DIMGAP
 40
0.625
  9
$DIMJUST
 70
     0
  9
$DIMSD1
 70
     0
  9
$DIMSD2
 70
     0
  9
$DIMTOLJ
 70
     1
  9
$DIMTZIN
 70
     0
  9
$DIMALTZ
 70
     0
  9
$DIMALTTZ
 70
     0
  9
$DIMUPT
 70
     0
  9
$DIMDEC
 70
     2
  9
$DIMTDEC
 70
     4
  9
$DIMALTU
 70
     8
  9
$DIMALTTD
 70
     4
  9
$DIMTXSTY
  7
STYLE3
  9
$DIMAUNIT
 70
     0
  9
$DIMADEC
 70
     0
  9
$DIMALTRND
 40
0.0
  9
$DIMAZIN
 70
     0
  9
$DIMDSEP
 70
    46
  9
$DIMATFIT
 70
     3
  9
$DIMFRAC
 70
     0
  9
$DIMLDRBLK
  1

  9
$DIMLUNIT
 70
     2
  9
$DIMLWD
 70
    -2
  9
$DIMLWE
 70
    -2
  9
$DIMTMOVE
 70
     0
  9
$LUNITS
 70
     2
  9
$LUPREC
 70
     4
  9
$SKETCHINC
 40
1.0
  9
$FILLETRAD
 40
2.5
  9
$AUNITS
 70
     0
  9
$AUPREC
 70
     0
  9
$MENU
  1
.
  9
$ELEVATION
 40
0.0
  9
$PELEVATION
 40
0.0
  9
$THICKNESS
 40
0.0
  9
$LIMCHECK
 70
     0
  9
$CHAMFERA
 40
3.0
  9
$CHAMFERB
 40
3.0
  9
$CHAMFERC
 40
20.0
  9
$CHAMFERD
 40
0.0
  9
$SKPOLY
 70
     0
  9
$TDCREATE
 40
2451047.607400231
  9
$TDUCREATE
 40
2451047.232400231
  9
$TDUPDATE
 40
2455363.660684132
  9
$TDUUPDATE
 40
2455363.285684132
  9
$TDINDWG
 40
0.3660065046
  9
$TDUSRTIMER
 40
0.3660065046
  9
$USRTIMER
 70
     1
  9
$ANGBASE
 50
0.0
  9
$ANGDIR
 70
     0
  9
$PDMODE
 70
     0
  9
$PDSIZE
 40
0.0
  9
$PLINEWID
 40
0.0
  9
$SPLFRAME
 70
     0
  9
$SPLINETYPE
 70
     6
  9
$SPLINESEGS
 70
     8
  9
$HANDSEED
  5
14AD
  9
$SURFTAB1
 70
     6
  9
$SURFTAB2
 70
     6
  9
$SURFTYPE
 70
     6
  9
$SURFU
 70
     6
  9
$SURFV
 70
     6
  9
$UCSBASE
  2

  9
$UCSNAME
  2

  9
$UCSORG
 10
0.0
 20
0.0
 30
0.0
  9
$UCSXDIR
 10
1.0
 20
0.0
 30
0.0
  9
$UCSYDIR
 10
0.0
 20
1.0
 30
0.0
  9
$UCSORTHOREF
  2

  9
$UCSORTHOVIEW
 70
     0
  9
$UCSORGTOP
 10
0.0
 20
0.0
 30
0.0
  9
$UCSORGBOTTOM
 10
0.0
 20
0.0
 30
0.0
  9
$UCSORGLEFT
 10
0.0
 20
0.0
 30
0.0
  9
$UCSORGRIGHT
 10
0.0
 20
0.0
 30
0.0
  9
$UCSORGFRONT
 10
0.0
 20
0.0
 30
0.0
  9
$UCSORGBACK
 10
0.0
 20
0.0
 30
0.0
  9
$PUCSBASE
  2

  9
$PUCSNAME
  2

  9
$PUCSORG
 10
0.0
 20
0.0
 30
0.0
  9
$PUCSXDIR
 10
1.0
 20
0.0
 30
0.0
  9
$PUCSYDIR
 10
0.0
 20
1.0
 30
0.0
  9
$PUCSORTHOREF
  2

  9
$PUCSORTHOVIEW
 70
     0
  9
$PUCSORGTOP
 10
0.0
 20
0.0
 30
0.0
  9
$PUCSORGBOTTOM
 10
0.0
 20
0.0
 30
0.0
  9
$PUCSORGLEFT
 10
0.0
 20
0.0
 30
0.0
  9
$PUCSORGRIGHT
 10
0.0
 20
0.0
 30
0.0
  9
$PUCSORGFRONT
 10
0.0
 20
0.0
 30
0.0
  9
$PUCSORGBACK
 10
0.0
 20
0.0
 30
0.0
  9
$USERI1
 70
     0
  9
$USERI2
 70
     0
  9
$USERI3
 70
     0
  9
$USERI4
 70
     0
  9
$USERI5
 70
     0
  9
$USERR1
 40
0.0
  9
$USERR2
 40
0.0
  9
$USERR3
 40
0.0
  9
$USERR4
 40
0.0
  9
$USERR5
 40
0.0
  9
$WORLDVIEW
 70
     1
  9
$SHADEDGE
 70
     3
  9
$SHADEDIF
 70
    70
  9
$TILEMODE
 70
     1
  9
$MAXACTVP
 70
    48
  9
$PINSBASE
 10
0.0
 20
0.0
 30
0.0
  9
$PLIMCHECK
 70
     0
  9
$PEXTMIN
 10
1.000000000000000E+20
 20
1.000000000000000E+20
 30
1.000000000000000E+20
  9
$PEXTMAX
 10
-1.000000000000000E+20
 20
-1.000000000000000E+20
 30
-1.000000000000000E+20
  9
$PLIMMIN
 10
0.0
 20
0.0
  9
$PLIMMAX
 10
420.0
 20
297.0
  9
$UNITMODE
 70
     0
  9
$VISRETAIN
 70
     1
  9
$PLINEGEN
 70
     0
  9
$PSLTSCALE
 70
     1
  9
$TREEDEPTH
 70
  3020
  9
$CMLSTYLE
  2
STANDARD
  9
$CMLJUST
 70
     0
  9
$CMLSCALE
 40
20.0
  9
$PROXYGRAPHICS
 70
     1
  9
$MEASUREMENT
 70
     1
  9
$CELWEIGHT
370
    -1
  9
$ENDCAPS
280
     0
  9
$JOINSTYLE
280
     0
  9
$LWDISPLAY
290
     0
  9
$INSUNITS
 70
     0
  9
$HYPERLINKBASE
  1

  9
$STYLESHEET
  1

  9
$XEDIT
290
     1
  9
$CEPSNTYPE
380
     0
  9
$PSTYLEMODE
290
     1
  9
$FINGERPRINTGUID
  2
{9AF408D5-D525-4A65-8EBE-D309B7B82586}
  9
$VERSIONGUID
  2
{F9F975A6-20A7-479C-9004-27BE5656F6D9}
  9
$EXTNAMES
290
     1
  9
$PSVPSCALE
 40
0.0
  9
$OLESTARTUP
290
     0
  9
$SORTENTS
280
    96
  9
$INDEXCTL
280
     0
  9
$HIDETEXT
280
     0
  9
$XCLIPFRAME
290
     0
  9
$HALOGAP
280
     0
  9
$OBSCOLOR
 70
   257
  9
$OBSLTYPE
280
     0
  9
$INTERSECTIONDISPLAY
280
     0
  9
$INTERSECTIONCOLOR
 70
   257
  9
$DIMASSOC
280
     1
  9
$PROJECTNAME
  1

  0
ENDSEC
  0
SECTION
  2
CLASSES
  0
CLASS
  1
DICTIONARYVAR
  2
AcDbDictionaryVar
  3
ObjectDBX Classes
 90
        0
 91
        1
280
     0
281
     0
  0
CLASS
  1
IMAGEDEF
  2
AcDbRasterImageDef
  3
ISM
 90
        0
 91
        1
280
     0
281
     0
  0
CLASS
  1
ACDBDICTIONARYWDFLT
  2
AcDbDictionaryWithDefault
  3
ObjectDBX Classes
 90
        0
 91
        1
280
     0
281
     0
  0
ENDSEC
  0
SECTION
  2
TABLES
  0
TABLE
  2
VPORT
  5
8
330
0
100
AcDbSymbolTable
 70
     2
  0
VPORT
  5
14AC
330
8
100
AcDbSymbolTableRecord
100
AcDbViewportTableRecord
  2
*Active
 70
     0
 10
0.0
 20
0.0
 11
1.0
 21
1.0
 12
444.9861521491976
 22
317.7246641734909
 13
0.0
 23
0.0
 14
10.0
 24
10.0
 15
10.0
 25
10.0
 16
0.0
 26
0.0
 36
1.0
 17
0.0
 27
0.0
 37
0.0
 40
285.4767900740659
 41
1.530456852791878
 42
50.0
 43
0.0
 44
0.0
 50
0.0
 51
0.0
 71
     0
 72
   100
 73
     1
 74
     1
 75
     0
 76
     0
 77
     0
 78
     0
281
     0
 65
     1
110
0.0
120
0.0
130
0.0
111
1.0
121
0.0
131
0.0
112
0.0
122
1.0
132
0.0
 79
     0
146
0.0
  0
ENDTAB
  0
TABLE
  2
LTYPE
  5
5
330
0
100
AcDbSymbolTable
 70
    13
  0
LTYPE
  5
12
330
5
100
AcDbSymbolTableRecord
100
AcDbLinetypeTableRecord
  2
BYBLOCK
 70
     0
  3

 72
    65
 73
     0
 40
0.0
  0
LTYPE
  5
13
330
5
100
AcDbSymbolTableRecord
100
AcDbLinetypeTableRecord
  2
BYLAYER
 70
     0
  3

 72
    65
 73
     0
 40
0.0
  0
LTYPE
  5
14
330
5
100
AcDbSymbolTableRecord
100
AcDbLinetypeTableRecord
  2
CONTINUOUS
 70
     0
  3
Solid line
 72
    65
 73
     0
 40
0.0
  0
LTYPE
  5
22
330
5
100
AcDbSymbolTableRecord
100
AcDbLinetypeTableRecord
  2
CENTER2
 70
     0
  3
Center (.5x) ___ _ ___ _ ___ _ ___ _ ___ _ ___
 72
    65
 73
     4
 40
28.575
 49
19.05
 74
     0
 49
-3.174999999999999
 74
     0
 49
3.174999999999999
 74
     0
 49
-3.174999999999999
 74
     0
  0
ENDTAB
  0
TABLE
  2
LAYER
  5
2
330
0
100
AcDbSymbolTable
 70
    18
  0
LAYER
  5
E
330
2
100
AcDbSymbolTableRecord
100
AcDbLayerTableRecord
  2
0
 70
     0
 62
     7
  6
CONTINUOUS
370
    -3
390
146A
  0
LAYER
  5
25
330
2
100
AcDbSymbolTableRecord
100
AcDbLayerTableRecord
  2
外形線
 70
     0
 62
     7
  6
CONTINUOUS
370
    -3
390
146A
  0
LAYER
  5
26
330
2
100
AcDbSymbolTableRecord
100
AcDbLayerTableRecord
  2
寸法線
 70
     0
 62
     2
  6
CONTINUOUS
370
    -3
390
146A
  0
LAYER
  5
27
330
2
100
AcDbSymbolTableRecord
100
AcDbLayerTableRecord
  2
中心線
 70
     0
 62
     4
  6
CENTER2
370
    -3
390
146A
  0
LAYER
  5
2B
330
2
100
AcDbSymbolTableRecord
100
AcDbLayerTableRecord
  2
文字
 70
     0
 62
     6
  6
CONTINUOUS
370
    -3
390
146A
  0
LAYER
  5
53
330
2
100
AcDbSymbolTableRecord
100
AcDbLayerTableRecord
  2
DEFPOINTS
 70
     0
 62
     7
  6
CONTINUOUS
290
     0
370
    -3
390
146A
  0
LAYER
  5
A5
330
2
100
AcDbSymbolTableRecord
100
AcDbLayerTableRecord
  2
C
 70
     0
 62
     7
  6
CONTINUOUS
370
    -3
390
146A
  0
LAYER
  5
DE8
330
2
100
AcDbSymbolTableRecord
100
AcDbLayerTableRecord
  2
円
 70
     0
 62
     3
  6
CONTINUOUS
370
    -3
390
146A
  0
LAYER
  5
DEC
330
2
100
AcDbSymbolTableRecord
100
AcDbLayerTableRecord
  2
ROGO
 70
     0
 62
     6
  6
CONTINUOUS
370
    -3
390
146A
  0
ENDTAB
  0
TABLE
  2
STYLE
  5
3
330
0
100
AcDbSymbolTable
 70
     6
  0
STYLE
  5
F
330
3
100
AcDbSymbolTableRecord
100
AcDbTextStyleTableRecord
  2
STANDARD
 70
     0
 40
0.0
 41
1.0
 50
0.0
 71
     0
 42
2.5
  3
txt
  4

  0
STYLE
  5
3F
330
3
100
AcDbSymbolTableRecord
100
AcDbTextStyleTableRecord
  2
STYLE3
 70
     0
 40
0.0
 41
1.0
 50
0.0
 71
     0
 42
2.0
  3
romans.shx
  4
bigfont.shx
  0
ENDTAB
  0
TABLE
  2
VIEW
  5
6
330
0
100
AcDbSymbolTable
 70
     0
  0
ENDTAB
  0
TABLE
  2
UCS
  5
7
330
0
100
AcDbSymbolTable
 70
     0
  0
ENDTAB
  0
TABLE
  2
APPID
  5
9
330
0
100
AcDbSymbolTable
 70
     1
  0
APPID
  5
10
330
9
100
AcDbSymbolTableRecord
100
AcDbRegAppTableRecord
  2
ACAD
 70
     0
  0
ENDTAB
  0
TABLE
  2
DIMSTYLE
  5
A
330
0
100
AcDbSymbolTable
 70
    12
100
AcDbDimStyleTable
 71
     0
  0
DIMSTYLE
105
1D
330
A
100
AcDbSymbolTableRecord
100
AcDbDimStyleTableRecord
  2
STANDARD
 70
     0
 41
2.5
 42
0.625
 43
3.75
 44
1.25
 73
     0
 74
     0
 77
     1
 78
     8
140
2.5
141
2.5
143
0.0394
147
0.625
171
     4
172
     1
273
     8
274
     4
277
     6
340
F
  0
DIMSTYLE
105
8F
102
{ACAD_REACTORS
330
F91
330
F9E
330
130E
330
131B
330
1327
330
1334
330
1359
330
1368
330
1377
330
1384
330
13AE
330
13F0
330
143C
102
}
330
A
100
AcDbSymbolTableRecord
100
AcDbDimStyleTableRecord
  2
STYLE3
 70
     0
 41
2.5
 42
0.0
 43
3.75
 44
1.25
 73
     0
 74
     0
 77
     1
 78
     8
140
2.5
141
2.5
143
0.0394
147
0.625
171
     4
172
     1
173
     1
176
     2
177
     2
178
     6
271
     1
273
     8
274
     4
340
3F
341
45
343
45
344
45
  0
ENDTAB
  0
TABLE
  2
BLOCK_RECORD
  5
1
330
0
100
AcDbSymbolTable
 70
    28
  0
BLOCK_RECORD
  5
18
330
1
100
AcDbSymbolTableRecord
100
AcDbBlockTableRecord
  2
*MODEL_SPACE
340
146F
  0
BLOCK_RECORD
  5
15
330
1
100
AcDbSymbolTableRecord
100
AcDbBlockTableRecord
  2
*PAPER_SPACE
340
1470
  0
BLOCK_RECORD
  5
45
330
1
100
AcDbSymbolTableRecord
100
AcDbBlockTableRecord
  2
_OPEN
340
0
102
{BLKREFS
331
9E6
331
9E8
331
9EF
331
9F0
331
9F7
331
9F8
331
9FF
331
A00
331
A06
331
A3E
331
A3F
331
A46
331
A47
331
A4D
331
A4E
331
A55
331
A56
331
A5B
331
A5C
331
A5E
331
A5F
331
A70
331
A71
331
A7E
331
C76
331
C9C
331
C9D
331
CA6
331
CA7
331
CAB
331
CAF
331
CB0
331
CB4
331
CB5
331
CF3
331
D01
331
D02
331
D6F
331
D70
331
D78
331
D79
331
D81
331
D82
331
D8A
331
D8B
331
D93
331
D94
331
D9C
331
DA9
331
DAA
331
DB5
331
DB6
331
DC0
331
DC1
331
DCC
331
FA3
331
FA4
331
FAE
331
FAF
331
1307
331
1308
331
13C8
331
13C9
331
13BD
331
13BE
331
13D3
331
13D4
331
1352
331
1353
331
1361
331
1362
331
1370
331
1371
331
137D
331
137E
331
13B3
331
13B4
331
13F7
331
13F8
331
1450
331
1451
102
}
  0
BLOCK_RECORD
  5
F85
330
1
100
AcDbSymbolTableRecord
100
AcDbBlockTableRecord
  2
*D12
340
0
  0
BLOCK_RECORD
  5
F92
330
1
100
AcDbSymbolTableRecord
100
AcDbBlockTableRecord
  2
*D13
340
0
  0
BLOCK_RECORD
  5
1302
330
1
100
AcDbSymbolTableRecord
100
AcDbBlockTableRecord
  2
*D16
340
0
  0
BLOCK_RECORD
  5
130F
330
1
100
AcDbSymbolTableRecord
100
AcDbBlockTableRecord
  2
*D17
340
0
  0
BLOCK_RECORD
  5
131C
330
1
100
AcDbSymbolTableRecord
100
AcDbBlockTableRecord
  2
*D18
340
0
  0
BLOCK_RECORD
  5
1328
330
1
100
AcDbSymbolTableRecord
100
AcDbBlockTableRecord
  2
*D19
340
0
  0
BLOCK_RECORD
  5
134D
330
1
100
AcDbSymbolTableRecord
100
AcDbBlockTableRecord
  2
*D20
340
0
  0
BLOCK_RECORD
  5
135A
330
1
100
AcDbSymbolTableRecord
100
AcDbBlockTableRecord
  2
*D21
340
0
  0
BLOCK_RECORD
  5
1369
330
1
100
AcDbSymbolTableRecord
100
AcDbBlockTableRecord
  2
*D22
340
0
  0
BLOCK_RECORD
  5
1378
330
1
100
AcDbSymbolTableRecord
100
AcDbBlockTableRecord
  2
*D23
340
0
  0
BLOCK_RECORD
  5
13A2
330
1
100
AcDbSymbolTableRecord
100
AcDbBlockTableRecord
  2
*D24
340
0
  0
BLOCK_RECORD
  5
13E2
330
1
100
AcDbSymbolTableRecord
100
AcDbBlockTableRecord
  2
*D25
340
0
  0
BLOCK_RECORD
  5
142E
330
1
100
AcDbSymbolTableRecord
100
AcDbBlockTableRecord
  2
*D26
340
0
  0
ENDTAB
  0
ENDSEC
  0
SECTION
  2
BLOCKS
  0
BLOCK
  5
19
330
18
100
AcDbEntity
  8
0
100
AcDbBlockBegin
  2
*MODEL_SPACE
 70
     0
 10
0.0
 20
0.0
 30
0.0
  3
*MODEL_SPACE
  1

  0
ENDBLK
  5
1A
330
18
100
AcDbEntity
  8
0
100
AcDbBlockEnd
  0
BLOCK
  5
16
330
15
100
AcDbEntity
 67
     1
  8
0
100
AcDbBlockBegin
  2
*PAPER_SPACE
 70
     0
 10
0.0
 20
0.0
 30
0.0
  3
*PAPER_SPACE
  1

  0
ENDBLK
  5
17
330
15
100
AcDbEntity
 67
     1
  8
0
100
AcDbBlockEnd
  0
BLOCK
  5
46
330
45
100
AcDbEntity
  8
0
100
AcDbBlockBegin
  2
_OPEN
 70
     0
 10
0.0
 20
0.0
 30
0.0
  3
_OPEN
  1

  0
LINE
  5
47
330
45
100
AcDbEntity
  8
0
  6
ByBlock
 62
     0
100
AcDbLine
 10
-1.0
 20
0.1666666666666666
 30
0.0
 11
0.0
 21
0.0
 31
0.0
  0
LINE
  5
48
330
45
100
AcDbEntity
  8
0
  6
ByBlock
 62
     0
100
AcDbLine
 10
0.0
 20
0.0
 30
0.0
 11
-1.0
 21
-0.1666666666666666
 31
0.0
  0
LINE
  5
49
330
45
100
AcDbEntity
  8
0
  6
ByBlock
 62
     0
100
AcDbLine
 10
0.0
 20
0.0
 30
0.0
 11
-1.0
 21
0.0
 31
0.0
  0
ENDBLK
  5
4A
330
45
100
AcDbEntity
  8
0
100
AcDbBlockEnd
  0
BLOCK
  5
F9F
330
F85
100
AcDbEntity
  8
0
100
AcDbBlockBegin
  2
*D12
 70
     1
 10
0.0
 20
0.0
 30
0.0
  3
*D12
  1

  0
LINE
  5
FA0
330
F85
100
AcDbEntity
  8
0
  6
ByBlock
 62
     2
100
AcDbLine
 10
539.7376522525944
 20
392.2121264893153
 30
0.0
 11
539.7376522525944
 21
394.6265616789187
 31
0.0
  0
LINE
  5
FA1
330
F85
100
AcDbEntity
  8
0
  6
ByBlock
 62
     2
100
AcDbLine
 10
549.7376522525944
 20
391.6299085647092
 30
0.0
 11
549.7376522525944
 21
394.6265616789187
 31
0.0
  0
LINE
  5
FA2
330
F85
100
AcDbEntity
  8
0
  6
ByBlock
 62
     2
100
AcDbLine
 10
542.2376522525944
 20
393.3765616789187
 30
0.0
 11
547.2376522525944
 21
393.3765616789187
 31
0.0
  0
INSERT
  5
FA3
330
F85
100
AcDbEntity
  8
0
  6
ByBlock
 62
     2
100
AcDbBlockReference
  2
_OPEN
 10
539.7376522525944
 20
393.3765616789187
 30
0.0
 41
2.5
 42
2.5
 43
2.5
 50
180.0
  0
INSERT
  5
FA4
330
F85
100
AcDbEntity
  8
0
  6
ByBlock
 62
     2
100
AcDbBlockReference
  2
_OPEN
 10
549.7376522525944
 20
393.3765616789187
 30
0.0
 41
2.5
 42
2.5
 43
2.5
  0
MTEXT
  5
FA5
330
F85
100
AcDbEntity
  8
0
  6
ByBlock
 62
     6
100
AcDbMText
 10
544.7376522525944
 20
395.2515616789187
 30
0.0
 40
2.5
 41
0.0
 71
     5
 72
     1
  1
\A1;φ10
  7
STYLE3
 73
     1
 44
1.0
  0
POINT
  5
FA6
330
F85
100
AcDbEntity
  8
DEFPOINTS
  6
ByBlock
 62
     0
100
AcDbPoint
 10
539.7376522525944
 20
392.2121264893153
 30
0.0
  0
POINT
  5
FA7
330
F85
100
AcDbEntity
  8
DEFPOINTS
  6
ByBlock
 62
     0
100
AcDbPoint
 10
549.7376522525944
 20
391.6299085647092
 30
0.0
  0
POINT
  5
FA8
330
F85
100
AcDbEntity
  8
DEFPOINTS
  6
ByBlock
 62
     0
100
AcDbPoint
 10
549.7376522525944
 20
393.3765616789187
 30
0.0
  0
ENDBLK
  5
FA9
330
F85
100
AcDbEntity
  8
0
100
AcDbBlockEnd
  0
BLOCK
  5
FAA
330
F92
100
AcDbEntity
  8
0
100
AcDbBlockBegin
  2
*D13
 70
     1
 10
0.0
 20
0.0
 30
0.0
  3
*D13
  1

  0
LINE
  5
FAB
330
F92
100
AcDbEntity
  8
0
  6
ByBlock
 62
     2
100
AcDbLine
 10
556.7457188677646
 20
391.1932452861567
 30
0.0
 11
556.7457188677646
 21
394.6265616789187
 31
0.0
  0
LINE
  5
FAC
330
F92
100
AcDbEntity
  8
0
  6
ByBlock
 62
     2
100
AcDbLine
 10
568.7457188677649
 20
390.7565820076042
 30
0.0
 11
568.7457188677649
 21
394.6265616789187
 31
0.0
  0
LINE
  5
FAD
330
F92
100
AcDbEntity
  8
0
  6
ByBlock
 62
     2
100
AcDbLine
 10
559.2457188677647
 20
393.3765616789187
 30
0.0
 11
566.2457188677649
 21
393.3765616789187
 31
0.0
  0
INSERT
  5
FAE
330
F92
100
AcDbEntity
  8
0
  6
ByBlock
 62
     2
100
AcDbBlockReference
  2
_OPEN
 10
556.7457188677646
 20
393.3765616789187
 30
0.0
 41
2.5
 42
2.5
 43
2.5
 50
180.0
  0
INSERT
  5
FAF
330
F92
100
AcDbEntity
  8
0
  6
ByBlock
 62
     2
100
AcDbBlockReference
  2
_OPEN
 10
568.7457188677649
 20
393.3765616789187
 30
0.0
 41
2.5
 42
2.5
 43
2.5
  0
MTEXT
  5
FB0
330
F92
100
AcDbEntity
  8
0
  6
ByBlock
 62
     6
100
AcDbMText
 10
562.7457188677648
 20
395.2515616789187
 30
0.0
 40
2.5
 41
0.0
 71
     5
 72
     1
  1
\A1;φ12
  7
STYLE3
 73
     1
 44
1.0
  0
POINT
  5
FB1
330
F92
100
AcDbEntity
  8
DEFPOINTS
  6
ByBlock
 62
     0
100
AcDbPoint
 10
556.7457188677646
 20
391.1932452861567
 30
0.0
  0
POINT
  5
FB2
330
F92
100
AcDbEntity
  8
DEFPOINTS
  6
ByBlock
 62
     0
100
AcDbPoint
 10
568.7457188677649
 20
390.7565820076042
 30
0.0
  0
POINT
  5
FB3
330
F92
100
AcDbEntity
  8
DEFPOINTS
  6
ByBlock
 62
     0
100
AcDbPoint
 10
568.7457188677649
 20
393.3765616789187
 30
0.0
  0
ENDBLK
  5
FB4
330
F92
100
AcDbEntity
  8
0
100
AcDbBlockEnd
  0
BLOCK
  5
1303
330
1302
100
AcDbEntity
  8
0
100
AcDbBlockBegin
  2
*D16
 70
     1
 10
0.0
 20
0.0
 30
0.0
  3
*D16
  1

  0
LINE
  5
1304
330
1302
100
AcDbEntity
  8
0
  6
ByBlock
 62
     2
100
AcDbLine
 10
460.4948711479583
 20
364.1953100031378
 30
0.0
 11
479.6749100497241
 21
364.1953100031377
 31
0.0
  0
LINE
  5
1305
330
1302
100
AcDbEntity
  8
0
  6
ByBlock
 62
     2
100
AcDbLine
 10
460.4948711479583
 20
318.1953100031378
 30
0.0
 11
479.6749100497241
 21
318.1953100031378
 31
0.0
  0
LINE
  5
1306
330
1302
100
AcDbEntity
  8
0
  6
ByBlock
 62
     2
100
AcDbLine
 10
478.4249100497241
 20
361.6953100031377
 30
0.0
 11
478.4249100497241
 21
320.6953100031378
 31
0.0
  0
INSERT
  5
1307
330
1302
100
AcDbEntity
  8
0
  6
ByBlock
 62
     2
100
AcDbBlockReference
  2
_OPEN
 10
478.4249100497241
 20
364.1953100031377
 30
0.0
 41
2.5
 42
2.5
 43
2.5
 50
90.0
  0
INSERT
  5
1308
330
1302
100
AcDbEntity
  8
0
  6
ByBlock
 62
     2
100
AcDbBlockReference
  2
_OPEN
 10
478.4249100497241
 20
318.1953100031378
 30
0.0
 41
2.5
 42
2.5
 43
2.5
 50
270.0
  0
MTEXT
  5
1309
330
1302
100
AcDbEntity
  8
0
  6
ByBlock
 62
     6
100
AcDbMText
 10
476.5499100497241
 20
341.1953100031378
 30
0.0
 40
2.5
 41
0.0
 71
     5
 72
     1
  1
\A1;46
  7
STYLE3
 11
0.0000000000000001
 21
1.0
 31
0.0
 73
     1
 44
1.0
  0
POINT
  5
130A
330
1302
100
AcDbEntity
  8
DEFPOINTS
  6
ByBlock
 62
     0
100
AcDbPoint
 10
460.4948711479583
 20
364.1953100031378
 30
0.0
  0
POINT
  5
130B
330
1302
100
AcDbEntity
  8
DEFPOINTS
  6
ByBlock
 62
     0
100
AcDbPoint
 10
460.4948711479583
 20
318.1953100031378
 30
0.0
  0
POINT
  5
130C
330
1302
100
AcDbEntity
  8
DEFPOINTS
  6
ByBlock
 62
     0
100
AcDbPoint
 10
478.4249100497241
 20
318.1953100031378
 30
0.0
  0
ENDBLK
  5
130D
330
1302
100
AcDbEntity
  8
0
100
AcDbBlockEnd
  0
BLOCK
  5
13C4
330
130F
100
AcDbEntity
  8
0
100
AcDbBlockBegin
  2
*D17
 70
     1
 10
0.0
 20
0.0
 30
0.0
  3
*D17
  1

  0
LINE
  5
13C5
330
130F
100
AcDbEntity
  8
0
  6
ByBlock
 62
     2
100
AcDbLine
 10
568.7457188677649
 20
391.3474436920877
 30
0.0
 11
606.4118861741432
 21
391.3474436920877
 31
0.0
  0
LINE
  5
13C6
330
130F
100
AcDbEntity
  8
0
  6
ByBlock
 62
     2
100
AcDbLine
 10
593.7457188677649
 20
273.4312350020507
 30
0.0
 11
606.4118861741432
 21
273.4312350020507
 31
0.0
  0
LINE
  5
13C7
330
130F
100
AcDbEntity
  8
0
  6
ByBlock
 62
     2
100
AcDbLine
 10
605.1618861741432
 20
388.8474436920877
 30
0.0
 11
605.1618861741432
 21
275.9312350020507
 31
0.0
  0
INSERT
  5
13C8
330
130F
100
AcDbEntity
  8
0
  6
ByBlock
 62
     2
100
AcDbBlockReference
  2
_OPEN
 10
605.1618861741432
 20
391.3474436920877
 30
0.0
 41
2.5
 42
2.5
 43
2.5
 50
90.0
  0
INSERT
  5
13C9
330
130F
100
AcDbEntity
  8
0
  6
ByBlock
 62
     2
100
AcDbBlockReference
  2
_OPEN
 10
605.1618861741432
 20
273.4312350020507
 30
0.0
 41
2.5
 42
2.5
 43
2.5
 50
270.0
  0
MTEXT
  5
13CA
330
130F
100
AcDbEntity
  8
0
  6
ByBlock
 62
     6
100
AcDbMText
 10
603.2868861741432
 20
332.3893393470692
 30
0.0
 40
2.5
 41
0.0
 71
     5
 72
     1
  1
\A1;175
  7
STYLE3
 11
0.0000000000000001
 21
1.0
 31
0.0
 73
     1
 44
1.0
  0
POINT
  5
13CB
330
130F
100
AcDbEntity
  8
DEFPOINTS
  6
ByBlock
 62
     0
100
AcDbPoint
 10
568.7457188677649
 20
391.3474436920877
 30
0.0
  0
POINT
  5
13CC
330
130F
100
AcDbEntity
  8
DEFPOINTS
  6
ByBlock
 62
     0
100
AcDbPoint
 10
593.7457188677649
 20
273.4312350020507
 30
0.0
  0
POINT
  5
13CD
330
130F
100
AcDbEntity
  8
DEFPOINTS
  6
ByBlock
 62
     0
100
AcDbPoint
 10
605.1618861741432
 20
273.4312350020507
 30
0.0
  0
ENDBLK
  5
13CE
330
130F
100
AcDbEntity
  8
0
100
AcDbBlockEnd
  0
BLOCK
  5
13BA
330
131C
100
AcDbEntity
  8
0
100
AcDbBlockBegin
  2
*D18
 70
     1
 10
0.0
 20
0.0
 30
0.0
  3
*D18
  1

  0
LINE
  5
13BB
330
131C
100
AcDbEntity
  8
0
  6
ByBlock
 62
     2
100
AcDbLine
 10
593.7457188677657
 20
217.9312350020508
 30
0.0
 11
606.4118861741432
 21
217.9312350020508
 31
0.0
  0
LINE
  5
13BC
330
131C
100
AcDbEntity
  8
0
  6
ByBlock
 62
     2
100
AcDbLine
 10
605.1618861741432
 20
270.9312350020507
 30
0.0
 11
605.1618861741432
 21
220.4312350020507
 31
0.0
  0
INSERT
  5
13BD
330
131C
100
AcDbEntity
  8
0
  6
ByBlock
 62
     2
100
AcDbBlockReference
  2
_OPEN
 10
605.1618861741432
 20
273.4312350020507
 30
0.0
 41
2.5
 42
2.5
 43
2.5
 50
90.0
  0
INSERT
  5
13BE
330
131C
100
AcDbEntity
  8
0
  6
ByBlock
 62
     2
100
AcDbBlockReference
  2
_OPEN
 10
605.1618861741432
 20
217.9312350020508
 30
0.0
 41
2.5
 42
2.5
 43
2.5
 50
270.0
  0
MTEXT
  5
13BF
330
131C
100
AcDbEntity
  8
0
  6
ByBlock
 62
     6
100
AcDbMText
 10
603.2868861741432
 20
245.6812350020507
 30
0.0
 40
2.5
 41
0.0
 71
     5
 72
     1
  1
\A1;55
  7
STYLE3
 11
0.0000000000000001
 21
1.0
 31
0.0
 73
     1
 44
1.0
  0
POINT
  5
13C0
330
131C
100
AcDbEntity
  8
DEFPOINTS
  6
ByBlock
 62
     0
100
AcDbPoint
 10
593.7457188677649
 20
273.4312350020507
 30
0.0
  0
POINT
  5
13C1
330
131C
100
AcDbEntity
  8
DEFPOINTS
  6
ByBlock
 62
     0
100
AcDbPoint
 10
593.7457188677657
 20
217.9312350020508
 30
0.0
  0
POINT
  5
13C2
330
131C
100
AcDbEntity
  8
DEFPOINTS
  6
ByBlock
 62
     0
100
AcDbPoint
 10
605.1618861741432
 20
217.9312350020508
 30
0.0
  0
ENDBLK
  5
13C3
330
131C
100
AcDbEntity
  8
0
100
AcDbBlockEnd
  0
BLOCK
  5
13CF
330
1328
100
AcDbEntity
  8
0
100
AcDbBlockBegin
  2
*D19
 70
     1
 10
0.0
 20
0.0
 30
0.0
  3
*D19
  1

  0
LINE
  5
13D0
330
1328
100
AcDbEntity
  8
0
  6
ByBlock
 62
     2
100
AcDbLine
 10
606.4118861741432
 20
391.3474436920877
 30
0.0
 11
616.2449275155162
 21
391.3474436920877
 31
0.0
  0
LINE
  5
13D1
330
1328
100
AcDbEntity
  8
0
  6
ByBlock
 62
     2
100
AcDbLine
 10
606.4118861741432
 20
217.9312350020508
 30
0.0
 11
616.2449275155162
 21
217.9312350020508
 31
0.0
  0
LINE
  5
13D2
330
1328
100
AcDbEntity
  8
0
  6
ByBlock
 62
     2
100
AcDbLine
 10
614.9949275155162
 20
388.8474436920877
 30
0.0
 11
614.9949275155162
 21
220.4312350020507
 31
0.0
  0
INSERT
  5
13D3
330
1328
100
AcDbEntity
  8
0
  6
ByBlock
 62
     2
100
AcDbBlockReference
  2
_OPEN
 10
614.9949275155162
 20
391.3474436920877
 30
0.0
 41
2.5
 42
2.5
 43
2.5
 50
90.0
  0
INSERT
  5
13D4
330
1328
100
AcDbEntity
  8
0
  6
ByBlock
 62
     2
100
AcDbBlockReference
  2
_OPEN
 10
614.9949275155162
 20
217.9312350020508
 30
0.0
 41
2.5
 42
2.5
 43
2.5
 50
270.0
  0
MTEXT
  5
13D5
330
1328
100
AcDbEntity
  8
0
  6
ByBlock
 62
     6
100
AcDbMText
 10
613.1199275155162
 20
304.6393393470692
 30
0.0
 40
2.5
 41
0.0
 71
     5
 72
     1
  1
\A1;230
  7
STYLE3
 11
0.0000000000000001
 21
1.0
 31
0.0
 73
     1
 44
1.0
  0
POINT
  5
13D6
330
1328
100
AcDbEntity
  8
DEFPOINTS
  6
ByBlock
 62
     0
100
AcDbPoint
 10
606.4118861741432
 20
391.3474436920877
 30
0.0
  0
POINT
  5
13D7
330
1328
100
AcDbEntity
  8
DEFPOINTS
  6
ByBlock
 62
     0
100
AcDbPoint
 10
606.4118861741432
 20
217.9312350020508
 30
0.0
  0
POINT
  5
13D8
330
1328
100
AcDbEntity
  8
DEFPOINTS
  6
ByBlock
 62
     0
100
AcDbPoint
 10
614.9949275155162
 20
217.9312350020508
 30
0.0
  0
ENDBLK
  5
13D9
330
1328
100
AcDbEntity
  8
0
100
AcDbBlockEnd
  0
BLOCK
  5
134E
330
134D
100
AcDbEntity
  8
0
100
AcDbBlockBegin
  2
*D20
 70
     1
 10
0.0
 20
0.0
 30
0.0
  3
*D20
  1

  0
LINE
  5
134F
330
134D
100
AcDbEntity
  8
0
  6
ByBlock
 62
     2
100
AcDbLine
 10
533.745718867765
 20
217.9312350020507
 30
0.0
 11
533.745718867765
 21
207.2764479907884
 31
0.0
  0
LINE
  5
1350
330
134D
100
AcDbEntity
  8
0
  6
ByBlock
 62
     2
100
AcDbLine
 10
593.7457188677657
 20
217.9312350020508
 30
0.0
 11
593.7457188677657
 21
207.2764479907884
 31
0.0
  0
LINE
  5
1351
330
134D
100
AcDbEntity
  8
0
  6
ByBlock
 62
     2
100
AcDbLine
 10
536.245718867765
 20
208.5264479907884
 30
0.0
 11
591.2457188677657
 21
208.5264479907884
 31
0.0
  0
INSERT
  5
1352
330
134D
100
AcDbEntity
  8
0
  6
ByBlock
 62
     2
100
AcDbBlockReference
  2
_OPEN
 10
533.745718867765
 20
208.5264479907884
 30
0.0
 41
2.5
 42
2.5
 43
2.5
 50
180.0
  0
INSERT
  5
1353
330
134D
100
AcDbEntity
  8
0
  6
ByBlock
 62
     2
100
AcDbBlockReference
  2
_OPEN
 10
593.7457188677657
 20
208.5264479907884
 30
0.0
 41
2.5
 42
2.5
 43
2.5
  0
MTEXT
  5
1354
330
134D
100
AcDbEntity
  8
0
  6
ByBlock
 62
     6
100
AcDbMText
 10
563.7457188677654
 20
210.4014479907884
 30
0.0
 40
2.5
 41
0.0
 71
     5
 72
     1
  1
\A1;60
  7
STYLE3
 73
     1
 44
1.0
  0
POINT
  5
1355
330
134D
100
AcDbEntity
  8
DEFPOINTS
  6
ByBlock
 62
     0
100
AcDbPoint
 10
533.745718867765
 20
217.9312350020507
 30
0.0
  0
POINT
  5
1356
330
134D
100
AcDbEntity
  8
DEFPOINTS
  6
ByBlock
 62
     0
100
AcDbPoint
 10
593.7457188677657
 20
217.9312350020508
 30
0.0
  0
POINT
  5
1357
330
134D
100
AcDbEntity
  8
DEFPOINTS
  6
ByBlock
 62
     0
100
AcDbPoint
 10
593.7457188677657
 20
208.5264479907884
 30
0.0
  0
ENDBLK
  5
1358
330
134D
100
AcDbEntity
  8
0
100
AcDbBlockEnd
  0
BLOCK
  5
135B
330
135A
100
AcDbEntity
  8
0
100
AcDbBlockBegin
  2
*D21
 70
     1
 10
0.0
 20
0.0
 30
0.0
  3
*D21
  1

  0
LINE
  5
135C
330
135A
100
AcDbEntity
  8
0
  6
ByBlock
 62
     2
100
AcDbLine
 10
404.9948711479582
 20
217.9312350020508
 30
0.0
 11
404.9948711479582
 21
209.84644181625
 31
0.0
  0
LINE
  5
135D
330
135A
100
AcDbEntity
  8
0
  6
ByBlock
 62
     2
100
AcDbLine
 10
410.4948711479582
 20
217.9312350020508
 30
0.0
 11
410.4948711479582
 21
209.84644181625
 31
0.0
  0
LINE
  5
135E
330
135A
100
AcDbEntity
  8
0
  6
ByBlock
 62
     2
100
AcDbLine
 10
402.4948711479582
 20
211.09644181625
 30
0.0
 11
399.9948711479582
 21
211.09644181625
 31
0.0
  0
LINE
  5
135F
330
135A
100
AcDbEntity
  8
0
  6
ByBlock
 62
     2
100
AcDbLine
 10
412.9948711479581
 20
211.09644181625
 30
0.0
 11
421.9829663860534
 21
211.09644181625
 31
0.0
  0
LINE
  5
1360
330
135A
100
AcDbEntity
  8
0
  6
ByBlock
 62
     2
100
AcDbLine
 10
404.9948711479582
 20
211.09644181625
 30
0.0
 11
410.4948711479582
 21
211.09644181625
 31
0.0
  0
INSERT
  5
1361
330
135A
100
AcDbEntity
  8
0
  6
ByBlock
 62
     2
100
AcDbBlockReference
  2
_OPEN
 10
404.9948711479582
 20
211.09644181625
 30
0.0
 41
2.5
 42
2.5
 43
2.5
  0
INSERT
  5
1362
330
135A
100
AcDbEntity
  8
0
  6
ByBlock
 62
     2
100
AcDbBlockReference
  2
_OPEN
 10
410.4948711479582
 20
211.09644181625
 30
0.0
 41
2.5
 42
2.5
 43
2.5
 50
180.0
  0
MTEXT
  5
1363
330
135A
100
AcDbEntity
  8
0
  6
ByBlock
 62
     6
100
AcDbMText
 10
418.7389187670057
 20
212.97144181625
 30
0.0
 40
2.5
 41
0.0
 71
     5
 72
     1
  1
\A1;5.5
  7
STYLE3
 73
     1
 44
1.0
  0
POINT
  5
1364
330
135A
100
AcDbEntity
  8
DEFPOINTS
  6
ByBlock
 62
     0
100
AcDbPoint
 10
404.9948711479582
 20
217.9312350020508
 30
0.0
  0
POINT
  5
1365
330
135A
100
AcDbEntity
  8
DEFPOINTS
  6
ByBlock
 62
     0
100
AcDbPoint
 10
410.4948711479582
 20
217.9312350020508
 30
0.0
  0
POINT
  5
1366
330
135A
100
AcDbEntity
  8
DEFPOINTS
  6
ByBlock
 62
     0
100
AcDbPoint
 10
410.4948711479582
 20
211.09644181625
 30
0.0
  0
ENDBLK
  5
1367
330
135A
100
AcDbEntity
  8
0
100
AcDbBlockEnd
  0
BLOCK
  5
136A
330
1369
100
AcDbEntity
  8
0
100
AcDbBlockBegin
  2
*D22
 70
     1
 10
0.0
 20
0.0
 30
0.0
  3
*D22
  1

  0
LINE
  5
136B
330
1369
100
AcDbEntity
  8
0
  6
ByBlock
 62
     2
100
AcDbLine
 10
450.4948711479581
 20
217.9312350020508
 30
0.0
 11
450.4948711479581
 21
209.84644181625
 31
0.0
  0
LINE
  5
136C
330
1369
100
AcDbEntity
  8
0
  6
ByBlock
 62
     2
100
AcDbLine
 10
455.9948711479582
 20
217.9312350020508
 30
0.0
 11
455.9948711479582
 21
209.84644181625
 31
0.0
  0
LINE
  5
136D
330
1369
100
AcDbEntity
  8
0
  6
ByBlock
 62
     2
100
AcDbLine
 10
447.9948711479582
 20
211.09644181625
 30
0.0
 11
445.4948711479581
 21
211.09644181625
 31
0.0
  0
LINE
  5
136E
330
1369
100
AcDbEntity
  8
0
  6
ByBlock
 62
     2
100
AcDbLine
 10
458.4948711479581
 20
211.09644181625
 30
0.0
 11
467.4829663860534
 21
211.09644181625
 31
0.0
  0
LINE
  5
136F
330
1369
100
AcDbEntity
  8
0
  6
ByBlock
 62
     2
100
AcDbLine
 10
450.4948711479581
 20
211.09644181625
 30
0.0
 11
455.9948711479582
 21
211.09644181625
 31
0.0
  0
INSERT
  5
1370
330
1369
100
AcDbEntity
  8
0
  6
ByBlock
 62
     2
100
AcDbBlockReference
  2
_OPEN
 10
450.4948711479581
 20
211.09644181625
 30
0.0
 41
2.5
 42
2.5
 43
2.5
  0
INSERT
  5
1371
330
1369
100
AcDbEntity
  8
0
  6
ByBlock
 62
     2
100
AcDbBlockReference
  2
_OPEN
 10
455.9948711479582
 20
211.09644181625
 30
0.0
 41
2.5
 42
2.5
 43
2.5
 50
180.0
  0
MTEXT
  5
1372
330
1369
100
AcDbEntity
  8
0
  6
ByBlock
 62
     6
100
AcDbMText
 10
464.2389187670057
 20
212.97144181625
 30
0.0
 40
2.5
 41
0.0
 71
     5
 72
     1
  1
\A1;5.5
  7
STYLE3
 73
     1
 44
1.0
  0
POINT
  5
1373
330
1369
100
AcDbEntity
  8
DEFPOINTS
  6
ByBlock
 62
     0
100
AcDbPoint
 10
450.4948711479581
 20
217.9312350020508
 30
0.0
  0
POINT
  5
1374
330
1369
100
AcDbEntity
  8
DEFPOINTS
  6
ByBlock
 62
     0
100
AcDbPoint
 10
455.9948711479582
 20
217.9312350020508
 30
0.0
  0
POINT
  5
1375
330
1369
100
AcDbEntity
  8
DEFPOINTS
  6
ByBlock
 62
     0
100
AcDbPoint
 10
455.9948711479582
 20
211.09644181625
 30
0.0
  0
ENDBLK
  5
1376
330
1369
100
AcDbEntity
  8
0
100
AcDbBlockEnd
  0
BLOCK
  5
1379
330
1378
100
AcDbEntity
  8
0
100
AcDbBlockBegin
  2
*D23
 70
     1
 10
0.0
 20
0.0
 30
0.0
  3
*D23
  1

  0
LINE
  5
137A
330
1378
100
AcDbEntity
  8
0
  6
ByBlock
 62
     2
100
AcDbLine
 10
404.9948711479582
 20
209.84644181625
 30
0.0
 11
404.9948711479582
 21
205.734451167824
 31
0.0
  0
LINE
  5
137B
330
1378
100
AcDbEntity
  8
0
  6
ByBlock
 62
     2
100
AcDbLine
 10
455.9948711479582
 20
209.84644181625
 30
0.0
 11
455.9948711479582
 21
205.734451167824
 31
0.0
  0
LINE
  5
137C
330
1378
100
AcDbEntity
  8
0
  6
ByBlock
 62
     2
100
AcDbLine
 10
407.4948711479582
 20
206.984451167824
 30
0.0
 11
453.4948711479581
 21
206.984451167824
 31
0.0
  0
INSERT
  5
137D
330
1378
100
AcDbEntity
  8
0
  6
ByBlock
 62
     2
100
AcDbBlockReference
  2
_OPEN
 10
404.9948711479582
 20
206.984451167824
 30
0.0
 41
2.5
 42
2.5
 43
2.5
 50
180.0
  0
INSERT
  5
137E
330
1378
100
AcDbEntity
  8
0
  6
ByBlock
 62
     2
100
AcDbBlockReference
  2
_OPEN
 10
455.9948711479582
 20
206.984451167824
 30
0.0
 41
2.5
 42
2.5
 43
2.5
  0
MTEXT
  5
137F
330
1378
100
AcDbEntity
  8
0
  6
ByBlock
 62
     6
100
AcDbMText
 10
430.4948711479581
 20
208.859451167824
 30
0.0
 40
2.5
 41
0.0
 71
     5
 72
     1
  1
\A1;51
  7
STYLE3
 73
     1
 44
1.0
  0
POINT
  5
1380
330
1378
100
AcDbEntity
  8
DEFPOINTS
  6
ByBlock
 62
     0
100
AcDbPoint
 10
404.9948711479582
 20
209.84644181625
 30
0.0
  0
POINT
  5
1381
330
1378
100
AcDbEntity
  8
DEFPOINTS
  6
ByBlock
 62
     0
100
AcDbPoint
 10
455.9948711479582
 20
209.84644181625
 30
0.0
  0
POINT
  5
1382
330
1378
100
AcDbEntity
  8
DEFPOINTS
  6
ByBlock
 62
     0
100
AcDbPoint
 10
455.9948711479582
 20
206.984451167824
 30
0.0
  0
ENDBLK
  5
1383
330
1378
100
AcDbEntity
  8
0
100
AcDbBlockEnd
  0
BLOCK
  5
13AF
330
13A2
100
AcDbEntity
  8
0
100
AcDbBlockBegin
  2
*D24
 70
     1
 10
0.0
 20
0.0
 30
0.0
  3
*D24
  1

  0
LINE
  5
13B0
330
13A2
100
AcDbEntity
  8
0
  6
ByBlock
 62
     2
100
AcDbLine
 10
539.7376522525944
 20
436.29333729931
 30
0.0
 11
508.3128733772244
 21
436.29333729931
 31
0.0
  0
LINE
  5
13B1
330
13A2
100
AcDbEntity
  8
0
  6
ByBlock
 62
     2
100
AcDbLine
 10
539.7376522525944
 20
296.5552591594959
 30
0.0
 11
508.3128733772244
 21
296.5552591594959
 31
0.0
  0
LINE
  5
13B2
330
13A2
100
AcDbEntity
  8
0
  6
ByBlock
 62
     2
100
AcDbLine
 10
509.5628733772243
 20
433.79333729931
 30
0.0
 11
509.5628733772243
 21
299.0552591594959
 31
0.0
  0
INSERT
  5
13B3
330
13A2
100
AcDbEntity
  8
0
  6
ByBlock
 62
     2
100
AcDbBlockReference
  2
_OPEN
 10
509.5628733772243
 20
436.29333729931
 30
0.0
 41
2.5
 42
2.5
 43
2.5
 50
90.0
  0
INSERT
  5
13B4
330
13A2
100
AcDbEntity
  8
0
  6
ByBlock
 62
     2
100
AcDbBlockReference
  2
_OPEN
 10
509.5628733772243
 20
296.5552591594959
 30
0.0
 41
2.5
 42
2.5
 43
2.5
 50
270.0
  0
MTEXT
  5
13B5
330
13A2
100
AcDbEntity
  8
0
  6
ByBlock
 62
     6
100
AcDbMText
 10
507.6878733772243
 20
366.4242982294029
 30
0.0
 40
2.5
 41
0.0
 71
     5
 72
     1
  1
\A1;165
  7
STYLE3
 11
0.0000000000000001
 21
1.0
 31
0.0
 73
     1
 44
1.0
  0
POINT
  5
13B6
330
13A2
100
AcDbEntity
  8
DEFPOINTS
  6
ByBlock
 62
     0
100
AcDbPoint
 10
539.7376522525944
 20
436.29333729931
 30
0.0
  0
POINT
  5
13B7
330
13A2
100
AcDbEntity
  8
DEFPOINTS
  6
ByBlock
 62
     0
100
AcDbPoint
 10
539.7376522525944
 20
296.5552591594959
 30
0.0
  0
POINT
  5
13B8
330
13A2
100
AcDbEntity
  8
DEFPOINTS
  6
ByBlock
 62
     0
100
AcDbPoint
 10
509.5628733772243
 20
296.5552591594959
 30
0.0
  0
ENDBLK
  5
13B9
330
13A2
100
AcDbEntity
  8
0
100
AcDbBlockEnd
  0
BLOCK
  5
13F1
330
13E2
100
AcDbEntity
  8
0
100
AcDbBlockBegin
  2
*D25
 70
     1
 10
0.0
 20
0.0
 30
0.0
  3
*D25
  1

  0
LINE
  5
13F2
330
13E2
100
AcDbEntity
  8
0
  6
ByBlock
 62
     2
100
AcDbLine
 10
393.4861029658939
 20
427.6445791451472
 30
0.0
 11
364.1893243362718
 21
427.6445791451472
 31
0.0
  0
LINE
  5
13F3
330
13E2
100
AcDbEntity
  8
0
  6
ByBlock
 62
     2
100
AcDbLine
 10
393.4861029658939
 20
423.1445791451472
 30
0.0
 11
364.1893243362718
 21
423.1445791451472
 31
0.0
  0
LINE
  5
13F4
330
13E2
100
AcDbEntity
  8
0
  6
ByBlock
 62
     2
100
AcDbLine
 10
365.4393243362717
 20
430.1445791451472
 30
0.0
 11
365.4393243362717
 21
432.6445791451472
 31
0.0
  0
LINE
  5
13F5
330
13E2
100
AcDbEntity
  8
0
  6
ByBlock
 62
     2
100
AcDbLine
 10
365.4393243362717
 20
420.6445791451472
 30
0.0
 11
365.4393243362717
 21
408.7993410499091
 31
0.0
  0
LINE
  5
13F6
330
13E2
100
AcDbEntity
  8
0
  6
ByBlock
 62
     2
100
AcDbLine
 10
365.4393243362717
 20
427.6445791451472
 30
0.0
 11
365.4393243362717
 21
423.1445791451472
 31
0.0
  0
INSERT
  5
13F7
330
13E2
100
AcDbEntity
  8
0
  6
ByBlock
 62
     2
100
AcDbBlockReference
  2
_OPEN
 10
365.4393243362717
 20
427.6445791451472
 30
0.0
 41
2.5
 42
2.5
 43
2.5
 50
270.0
  0
INSERT
  5
13F8
330
13E2
100
AcDbEntity
  8
0
  6
ByBlock
 62
     2
100
AcDbBlockReference
  2
_OPEN
 10
365.4393243362717
 20
423.1445791451472
 30
0.0
 41
2.5
 42
2.5
 43
2.5
 50
90.0
  0
MTEXT
  5
13F9
330
13E2
100
AcDbEntity
  8
0
  6
ByBlock
 62
     6
100
AcDbMText
 10
363.5643243362717
 20
413.4719600975282
 30
0.0
 40
2.5
 41
0.0
 71
     5
 72
     1
  1
\A1;φ4.5
  7
STYLE3
 11
0.0000000000000001
 21
1.0
 31
0.0
 73
     1
 44
1.0
  0
POINT
  5
13FA
330
13E2
100
AcDbEntity
  8
DEFPOINTS
  6
ByBlock
 62
     0
100
AcDbPoint
 10
393.4861029658939
 20
427.6445791451472
 30
0.0
  0
POINT
  5
13FB
330
13E2
100
AcDbEntity
  8
DEFPOINTS
  6
ByBlock
 62
     0
100
AcDbPoint
 10
393.4861029658939
 20
423.1445791451472
 30
0.0
  0
POINT
  5
13FC
330
13E2
100
AcDbEntity
  8
DEFPOINTS
  6
ByBlock
 62
     0
100
AcDbPoint
 10
365.4393243362717
 20
423.1445791451472
 30
0.0
  0
ENDBLK
  5
13FD
330
13E2
100
AcDbEntity
  8
0
100
AcDbBlockEnd
  0
BLOCK
  5
144A
330
142E
100
AcDbEntity
  8
0
100
AcDbBlockBegin
  2
*D26
 70
     1
 10
0.0
 20
0.0
 30
0.0
  3
*D26
  1

  0
LINE
  5
144B
330
142E
100
AcDbEntity
  8
0
  6
ByBlock
 62
     2
100
AcDbLine
 10
390.4861029658939
 20
415.8945791451473
 30
0.0
 11
390.4861029658939
 21
402.5715963961933
 31
0.0
  0
LINE
  5
144C
330
142E
100
AcDbEntity
  8
0
  6
ByBlock
 62
     2
100
AcDbLine
 10
396.4861029658938
 20
415.8945791451471
 30
0.0
 11
396.4861029658938
 21
402.5715963961933
 31
0.0
  0
LINE
  5
144D
330
142E
100
AcDbEntity
  8
0
  6
ByBlock
 62
     2
100
AcDbLine
 10
398.9861029658938
 20
403.8215963961932
 30
0.0
 11
401.4861029658938
 21
403.8215963961932
 31
0.0
  0
LINE
  5
144E
330
142E
100
AcDbEntity
  8
0
  6
ByBlock
 62
     2
100
AcDbLine
 10
387.9861029658938
 20
403.8215963961932
 30
0.0
 11
376.1408648706558
 21
403.8215963961932
 31
0.0
  0
LINE
  5
144F
330
142E
100
AcDbEntity
  8
0
  6
ByBlock
 62
     2
100
AcDbLine
 10
396.4861029658938
 20
403.8215963961932
 30
0.0
 11
390.4861029658939
 21
403.8215963961932
 31
0.0
  0
INSERT
  5
1450
330
142E
100
AcDbEntity
  8
0
  6
ByBlock
 62
     2
100
AcDbBlockReference
  2
_OPEN
 10
396.4861029658938
 20
403.8215963961932
 30
0.0
 41
2.5
 42
2.5
 43
2.5
 50
180.0
  0
INSERT
  5
1451
330
142E
100
AcDbEntity
  8
0
  6
ByBlock
 62
     2
100
AcDbBlockReference
  2
_OPEN
 10
390.4861029658939
 20
403.8215963961932
 30
0.0
 41
2.5
 42
2.5
 43
2.5
  0
MTEXT
  5
1452
330
142E
100
AcDbEntity
  8
0
  6
ByBlock
 62
     6
100
AcDbMText
 10
380.8134839182748
 20
405.6965963961933
 30
0.0
 40
2.5
 41
0.0
 71
     5
 72
     1
  1
\A1;φ6.5
  7
STYLE3
 73
     1
 44
1.0
  0
POINT
  5
1453
330
142E
100
AcDbEntity
  8
DEFPOINTS
  6
ByBlock
 62
     0
100
AcDbPoint
 10
390.4861029658939
 20
415.8945791451473
 30
0.0
  0
POINT
  5
1454
330
142E
100
AcDbEntity
  8
DEFPOINTS
  6
ByBlock
 62
     0
100
AcDbPoint
 10
396.4861029658938
 20
415.8945791451471
 30
0.0
  0
POINT
  5
1455
330
142E
100
AcDbEntity
  8
DEFPOINTS
  6
ByBlock
 62
     0
100
AcDbPoint
 10
396.4861029658938
 20
403.8215963961932
 30
0.0
  0
ENDBLK
  5
1456
330
142E
100
AcDbEntity
  8
0
100
AcDbBlockEnd
  0
ENDSEC
  0
SECTION
  2
ENTITIES
  0
LWPOLYLINE
  5
1A0
330
18
100
AcDbEntity
  8
C
100
AcDbPolyline
 90
        5
 70
     0
 43
0.8
 10
256.2352605185929
 20
458.9717683211813
 10
633.7352605185929
 20
458.9717683211813
 10
633.7352605185929
 20
176.4717683211813
 10
256.2352605185929
 20
176.4717683211813
 10
256.2352605185929
 20
458.9717683211813
  0
LINE
  5
1FE
330
18
100
AcDbEntity
  8
中心線
100
AcDbLine
 10
430.4948711479581
 20
397.5027187657977
 30
0.0
 11
430.4948711479581
 21
214.0407027978086
 31
0.0
  0
LINE
  5
219
330
18
100
AcDbEntity
  8
外形線
100
AcDbLine
 10
404.9948711479582
 20
217.9312350020508
 30
0.0
 11
410.4948711479583
 21
217.9312350020508
 31
0.0
  0
LINE
  5
275
330
18
100
AcDbEntity
  8
外形線
100
AcDbLine
 10
436.4948711479581
 20
391.3474436920877
 30
0.0
 11
436.4948711479581
 21
357.9285735953579
 31
0.0
  0
LINE
  5
276
330
18
100
AcDbEntity
  8
外形線
100
AcDbLine
 10
424.4948711479579
 20
391.3474436920875
 30
0.0
 11
424.494871147958
 21
357.9285735953579
 31
0.0
  0
LINE
  5
279
330
18
100
AcDbEntity
  8
中心線
100
AcDbLine
 10
396.2530411353173
 20
349.9285735953579
 30
0.0
 11
466.6101989369089
 21
349.9285735953579
 31
0.0
  0
LINE
  5
2AD
330
18
100
AcDbEntity
  8
中心線
100
AcDbLine
 10
412.4868045327877
 20
437.677144254242
 30
0.0
 11
412.4868045327877
 21
292.8738484398113
 31
0.0
  0
LINE
  5
2C5
330
18
100
AcDbEntity
  8
外形線
100
AcDbLine
 10
424.4948711479582
 20
341.9285735953579
 30
0.0
 11
424.4948711479582
 21
319.3739454724657
 31
0.0
  0
LINE
  5
2C6
330
18
100
AcDbEntity
  8
外形線
100
AcDbLine
 10
436.4948711479581
 20
341.9285735953579
 30
0.0
 11
436.4948711479581
 21
319.3739454724658
 31
0.0
  0
LINE
  5
2C8
330
18
100
AcDbEntity
  8
外形線
100
AcDbLine
 10
424.4948711479579
 20
391.3474436920875
 30
0.0
 11
436.4948711479581
 21
391.3474436920875
 31
0.0
  0
LINE
  5
2CE
330
18
100
AcDbEntity
  8
外形線
100
AcDbLine
 10
417.4868045327876
 20
436.2933372993098
 30
0.0
 11
417.4868045327876
 21
433.3945791451472
 31
0.0
  0
LINE
  5
2CF
330
18
100
AcDbEntity
  8
外形線
100
AcDbLine
 10
407.4868045327876
 20
436.2933372993098
 30
0.0
 11
407.4868045327876
 21
433.3945791451472
 31
0.0
  0
LINE
  5
2D0
330
18
100
AcDbEntity
  8
外形線
100
AcDbLine
 10
407.4868045327877
 20
341.9285735953579
 30
0.0
 11
407.4868045327876
 21
325.0938750787485
 31
0.0
  0
LINE
  5
2D1
330
18
100
AcDbEntity
  8
外形線
100
AcDbLine
 10
417.4868045327878
 20
341.928573595358
 30
0.0
 11
417.4868045327877
 21
325.0938750787485
 31
0.0
  0
LINE
  5
2D4
330
18
100
AcDbEntity
  8
外形線
100
AcDbLine
 10
407.4868045327876
 20
436.2933372993098
 30
0.0
 11
417.4868045327876
 21
436.2933372993098
 31
0.0
  0
LINE
  5
2D5
330
18
100
AcDbEntity
  8
中心線
100
AcDbLine
 10
378.4915935784769
 20
425.3945791451472
 30
0.0
 11
449.5294820019888
 21
425.3945791451472
 31
0.0
  0
LINE
  5
30C
330
18
100
AcDbEntity
  8
外形線
100
AcDbLine
 10
407.4868045327877
 20
296.5552591594959
 30
0.0
 11
417.4868045327876
 21
296.555259159496
 31
0.0
  0
ARC
  5
31E
330
18
100
AcDbEntity
  8
外形線
100
AcDbCircle
 10
409.9868045327877
 20
329.4240020976707
 30
0.0
 40
5.0
100
AcDbArc
 50
239.9999999999992
 51
300.0000000000008
  0
ARC
  5
31F
330
18
100
AcDbEntity
  8
外形線
100
AcDbCircle
 10
409.9868045327877
 20
320.7637480598263
 30
0.0
 40
5.0
100
AcDbArc
 50
59.99999999999923
 51
120.0000000000008
  0
ARC
  5
320
330
18
100
AcDbEntity
  8
外形線
100
AcDbCircle
 10
414.9868045327878
 20
329.4240020976708
 30
0.0
 40
5.0
100
AcDbArc
 50
239.9999999999992
 51
300.0000000000008
  0
ARC
  5
321
330
18
100
AcDbEntity
  8
外形線
100
AcDbCircle
 10
414.9868045327877
 20
317.7637480598261
 30
0.0
 40
5.0
100
AcDbArc
 50
59.99999999999923
 51
120.0000000000008
  0
ARC
  5
322
330
18
100
AcDbEntity
  8
外形線
100
AcDbCircle
 10
414.9868045327877
 20
326.4240020976705
 30
0.0
 40
5.0
100
AcDbArc
 50
239.9999999999992
 51
300.0000000000008
  0
ARC
  5
323
330
18
100
AcDbEntity
  8
外形線
100
AcDbCircle
 10
409.9868045327878
 20
317.7637480598263
 30
0.0
 40
5.0
100
AcDbArc
 50
59.99999999999923
 51
120.0000000000008
  0
LINE
  5
324
330
18
100
AcDbEntity
  8
外形線
100
AcDbLine
 10
417.4868045327877
 20
322.0938750787482
 30
0.0
 11
417.4868045327877
 21
296.555259159496
 31
0.0
  0
LINE
  5
325
330
18
100
AcDbEntity
  8
外形線
100
AcDbLine
 10
407.4868045327877
 20
322.0938750787484
 30
0.0
 11
407.4868045327877
 21
296.5552591594959
 31
0.0
  0
ARC
  5
330
330
18
100
AcDbEntity
  8
外形線
100
AcDbCircle
 10
427.4948711479582
 20
324.5700978951723
 30
0.0
 40
5.999999999999943
100
AcDbArc
 50
240.0000000000002
 51
299.9999999999998
  0
ARC
  5
331
330
18
100
AcDbEntity
  8
外形線
100
AcDbCircle
 10
427.4948711479582
 20
314.1777930497592
 30
0.0
 40
5.999999999999943
100
AcDbArc
 50
60.0000000000002
 51
119.9999999999998
  0
ARC
  5
333
330
18
100
AcDbEntity
  8
外形線
100
AcDbCircle
 10
433.494871147958
 20
324.5700978951723
 30
0.0
 40
5.999999999999943
100
AcDbArc
 50
240.0000000000002
 51
299.9999999999998
  0
ARC
  5
334
330
18
100
AcDbEntity
  8
外形線
100
AcDbCircle
 10
433.4948711479581
 20
311.1777930497592
 30
0.0
 40
5.999999999999943
100
AcDbArc
 50
60.0000000000002
 51
119.9999999999998
  0
ARC
  5
335
330
18
100
AcDbEntity
  8
外形線
100
AcDbCircle
 10
433.4948711479581
 20
321.5700978951724
 30
0.0
 40
5.999999999999943
100
AcDbArc
 50
240.0000000000002
 51
299.9999999999998
  0
ARC
  5
336
330
18
100
AcDbEntity
  8
外形線
100
AcDbCircle
 10
427.4948711479581
 20
311.1777930497592
 30
0.0
 40
5.999999999999943
100
AcDbArc
 50
60.0000000000002
 51
119.9999999999998
  0
LINE
  5
337
330
18
100
AcDbEntity
  8
外形線
100
AcDbLine
 10
436.4948711479581
 20
316.3739454724658
 30
0.0
 11
436.4948711479581
 21
273.4312350020507
 31
0.0
  0
LINE
  5
338
330
18
100
AcDbEntity
  8
外形線
100
AcDbLine
 10
424.4948711479582
 20
316.3739454724658
 30
0.0
 11
424.494871147958
 21
273.4312350020507
 31
0.0
  0
LINE
  5
34D
330
18
100
AcDbEntity
  8
中心線
100
AcDbLine
 10
562.7457188677649
 20
213.5646035357452
 30
0.0
 11
562.7457188677649
 21
397.0408066405696
 31
0.0
  0
LINE
  5
38F
330
18
100
AcDbEntity
  8
中心線
100
AcDbLine
 10
544.7376522525944
 20
441.8302012022372
 30
0.0
 11
544.7376522525944
 21
292.5302507444927
 31
0.0
  0
LINE
  5
390
330
18
100
AcDbEntity
  8
外形線
100
AcDbLine
 10
539.7376522525944
 20
436.29333729931
 30
0.0
 11
539.7376522525945
 21
433.3945791451472
 31
0.0
  0
LINE
  5
391
330
18
100
AcDbEntity
  8
外形線
100
AcDbLine
 10
549.7376522525944
 20
436.29333729931
 30
0.0
 11
549.7376522525943
 21
433.3945791451472
 31
0.0
  0
LINE
  5
392
330
18
100
AcDbEntity
  8
中心線
100
AcDbLine
 10
519.281505353157
 20
349.9285735953579
 30
0.0
 11
581.1547603483754
 21
349.9285735953579
 31
0.0
  0
LINE
  5
395
330
18
100
AcDbEntity
  8
外形線
100
AcDbLine
 10
539.7376522525944
 20
331.5589495382947
 30
0.0
 11
539.7376522525944
 21
325.0938750787485
 31
0.0
  0
LINE
  5
396
330
18
100
AcDbEntity
  8
外形線
100
AcDbLine
 10
549.7376522525946
 20
331.5589495382947
 30
0.0
 11
549.7376522525944
 21
325.0938750787485
 31
0.0
  0
LINE
  5
397
330
18
100
AcDbEntity
  8
外形線
100
AcDbLine
 10
539.7376522525944
 20
322.0938750787484
 30
0.0
 11
539.7376522525944
 21
296.5552591594959
 31
0.0
  0
LINE
  5
398
330
18
100
AcDbEntity
  8
外形線
100
AcDbLine
 10
549.7376522525944
 20
322.0938750787482
 30
0.0
 11
549.7376522525944
 21
296.555259159496
 31
0.0
  0
LINE
  5
39A
330
18
100
AcDbEntity
  8
外形線
100
AcDbLine
 10
539.7376522525944
 20
296.5552591594959
 30
0.0
 11
549.7376522525944
 21
296.555259159496
 31
0.0
  0
ARC
  5
39B
330
18
100
AcDbEntity
  8
外形線
100
AcDbCircle
 10
542.2376522525945
 20
317.7637480598263
 30
0.0
 40
5.0
100
AcDbArc
 50
59.99999999999923
 51
120.0000000000008
  0
ARC
  5
39C
330
18
100
AcDbEntity
  8
外形線
100
AcDbCircle
 10
542.2376522525944
 20
320.7637480598263
 30
0.0
 40
5.0
100
AcDbArc
 50
59.99999999999923
 51
120.0000000000008
  0
ARC
  5
39D
330
18
100
AcDbEntity
  8
外形線
100
AcDbCircle
 10
542.2376522525944
 20
329.4240020976707
 30
0.0
 40
5.0
100
AcDbArc
 50
239.9999999999992
 51
300.0000000000008
  0
ARC
  5
39E
330
18
100
AcDbEntity
  8
外形線
100
AcDbCircle
 10
547.2376522525944
 20
326.4240020976705
 30
0.0
 40
5.0
100
AcDbArc
 50
239.9999999999992
 51
300.0000000000008
  0
ARC
  5
39F
330
18
100
AcDbEntity
  8
外形線
100
AcDbCircle
 10
547.2376522525944
 20
317.7637480598261
 30
0.0
 40
5.0
100
AcDbArc
 50
59.99999999999923
 51
120.0000000000008
  0
ARC
  5
3A0
330
18
100
AcDbEntity
  8
外形線
100
AcDbCircle
 10
547.2376522525946
 20
329.4240020976708
 30
0.0
 40
5.0
100
AcDbArc
 50
239.9999999999992
 51
300.0000000000008
  0
LINE
  5
3A9
330
18
100
AcDbEntity
  8
外形線
100
AcDbLine
 10
556.745718867765
 20
342.178573595358
 30
0.0
 11
556.745718867765
 21
319.3739454724657
 31
0.0
  0
LINE
  5
3AA
330
18
100
AcDbEntity
  8
外形線
100
AcDbLine
 10
568.7457188677649
 20
342.1785735953581
 30
0.0
 11
568.7457188677649
 21
319.3739454724658
 31
0.0
  0
LINE
  5
3AB
330
18
100
AcDbEntity
  8
外形線
100
AcDbLine
 10
556.7457188677649
 20
316.3739454724658
 30
0.0
 11
556.7457188677649
 21
273.4312350020508
 31
0.0
  0
LINE
  5
3AC
330
18
100
AcDbEntity
  8
外形線
100
AcDbLine
 10
568.7457188677647
 20
316.3739454724658
 30
0.0
 11
568.7457188677649
 21
273.4312350020508
 31
0.0
  0
ARC
  5
3AE
330
18
100
AcDbEntity
  8
外形線
100
AcDbCircle
 10
565.7457188677649
 20
321.5700978951724
 30
0.0
 40
5.999999999999943
100
AcDbArc
 50
240.0000000000002
 51
299.9999999999998
  0
ARC
  5
3AF
330
18
100
AcDbEntity
  8
外形線
100
AcDbCircle
 10
565.7457188677649
 20
311.1777930497592
 30
0.0
 40
5.999999999999943
100
AcDbArc
 50
60.0000000000002
 51
119.9999999999998
  0
ARC
  5
3B0
330
18
100
AcDbEntity
  8
外形線
100
AcDbCircle
 10
565.7457188677648
 20
324.5700978951723
 30
0.0
 40
5.999999999999943
100
AcDbArc
 50
240.0000000000002
 51
299.9999999999998
  0
ARC
  5
3B1
330
18
100
AcDbEntity
  8
外形線
100
AcDbCircle
 10
559.7457188677649
 20
311.1777930497592
 30
0.0
 40
5.999999999999943
100
AcDbArc
 50
60.0000000000002
 51
119.9999999999998
  0
ARC
  5
3B2
330
18
100
AcDbEntity
  8
外形線
100
AcDbCircle
 10
559.7457188677649
 20
314.1777930497592
 30
0.0
 40
5.999999999999943
100
AcDbArc
 50
60.0000000000002
 51
119.9999999999998
  0
ARC
  5
3B3
330
18
100
AcDbEntity
  8
外形線
100
AcDbCircle
 10
559.7457188677649
 20
324.5700978951723
 30
0.0
 40
5.999999999999943
100
AcDbArc
 50
240.0000000000002
 51
299.9999999999998
  0
LINE
  5
3D8
330
18
100
AcDbEntity
  8
外形線
100
AcDbLine
 10
556.7457188677646
 20
391.3474436920875
 30
0.0
 11
556.7457188677648
 21
357.9285735953579
 31
0.0
  0
LINE
  5
3D9
330
18
100
AcDbEntity
  8
外形線
100
AcDbLine
 10
568.7457188677649
 20
391.3474436920877
 30
0.0
 11
568.7457188677649
 21
357.9285735953579
 31
0.0
  0
LINE
  5
3DF
330
18
100
AcDbEntity
  8
外形線
100
AcDbLine
 10
556.7457188677646
 20
391.3474436920875
 30
0.0
 11
568.7457188677649
 21
391.3474436920875
 31
0.0
  0
POINT
  5
534
330
18
100
AcDbEntity
  8
DEFPOINTS
  6
ByBlock
 62
     0
100
AcDbPoint
 10
409.9868045327877
 20
436.2933372993098
 30
0.0
  0
POINT
  5
53E
330
18
100
AcDbEntity
  8
DEFPOINTS
  6
ByBlock
 62
     0
100
AcDbPoint
 10
409.9868045327877
 20
436.2933372993098
 30
0.0
  0
POINT
  5
5DA
330
18
100
AcDbEntity
  8
DEFPOINTS
  6
ByBlock
 62
     0
100
AcDbPoint
 10
544.7376522525945
 20
292.5302507444929
 30
0.0
 50
45.0
  0
MTEXT
  5
E48
330
18
100
AcDbEntity
  8
DEFPOINTS
  6
Continuous
100
AcDbMText
 10
1308.384434970111
 20
144.4048386888276
 30
0.0
 40
1.0
 41
0.0
 71
     4
 72
     1
  1
\A1;
 73
     1
 44
1.0
  0
DIMENSION
  5
F91
330
18
100
AcDbEntity
  8
寸法線
100
AcDbDimension
  2
*D12
 10
549.7376522525944
 20
376.426726792259
 30
0.0
 11
544.7376522525944
 21
378.301726792259
 31
0.0
 12
0.0
 22
-16.94983488665968
 32
0.0
 70
    32
  1
φ10
 71
     5
 42
-1.0
  3
STYLE3
100
AcDbAlignedDimension
 13
539.7376522525944
 23
375.2622916026556
 33
0.0
 14
549.7376522525944
 24
374.6800736780495
 34
0.0
100
AcDbRotatedDimension
1001
ACAD
1000
DSTYLE
1002
{
1070
   271
1070
     2
1002
}
  0
DIMENSION
  5
F9E
330
18
100
AcDbEntity
  8
寸法線
100
AcDbDimension
  2
*D13
 10
568.7457188677649
 20
376.426726792259
 30
0.0
 11
562.7457188677648
 21
378.301726792259
 31
0.0
 12
0.0
 22
-16.94983488665968
 32
0.0
 70
    32
  1
φ12
 71
     5
 42
-1.0
  3
STYLE3
100
AcDbAlignedDimension
 13
556.7457188677646
 23
374.2434103994971
 33
0.0
 14
568.7457188677649
 24
373.8067471209446
 34
0.0
100
AcDbRotatedDimension
1001
ACAD
1000
DSTYLE
1002
{
1070
   271
1070
     2
1002
}
  0
LINE
  5
1064
330
18
100
AcDbEntity
  8
外形線
100
AcDbLine
 10
419.4868045327877
 20
433.3945791451472
 30
0.0
 11
419.4868045327877
 21
417.3945791451472
 31
0.0
  0
LINE
  5
1065
330
18
100
AcDbEntity
  8
外形線
100
AcDbLine
 10
405.4868045327877
 20
433.3945791451472
 30
0.0
 11
405.4868045327879
 21
417.3945791451472
 31
0.0
  0
LINE
  5
1066
330
18
100
AcDbEntity
  8
外形線
100
AcDbLine
 10
405.4868045327877
 20
433.3945791451472
 30
0.0
 11
411.4868045327877
 21
433.3945791451472
 31
0.0
  0
LINE
  5
1067
330
18
100
AcDbEntity
  8
外形線
100
AcDbLine
 10
405.4868045327877
 20
417.3945791451473
 30
0.0
 11
411.4868045327877
 21
417.3945791451472
 31
0.0
  0
LINE
  5
1068
330
18
100
AcDbEntity
  8
外形線
100
AcDbLine
 10
412.9868045327877
 20
432.3945791451471
 30
0.0
 11
412.9868045327877
 21
418.3945791451472
 31
0.0
  0
LINE
  5
1069
330
18
100
AcDbEntity
  8
外形線
100
AcDbLine
 10
411.9868045327877
 20
432.3945791451471
 30
0.0
 11
411.9868045327877
 21
418.3945791451472
 31
0.0
  0
LINE
  5
106A
330
18
100
AcDbEntity
  8
外形線
100
AcDbLine
 10
411.4868045327877
 20
432.3945791451471
 30
0.0
 11
411.9868045327877
 21
432.3945791451471
 31
0.0
  0
LINE
  5
106B
330
18
100
AcDbEntity
  8
外形線
100
AcDbLine
 10
413.4868045327876
 20
433.3945791451472
 30
0.0
 11
413.4868045327877
 21
432.3945791451471
 31
0.0
  0
LINE
  5
106C
330
18
100
AcDbEntity
  8
外形線
100
AcDbLine
 10
411.4868045327877
 20
433.3945791451472
 30
0.0
 11
411.4868045327877
 21
432.3945791451471
 31
0.0
  0
LINE
  5
106D
330
18
100
AcDbEntity
  8
外形線
100
AcDbLine
 10
412.9868045327877
 20
432.3945791451471
 30
0.0
 11
413.4868045327877
 21
432.3945791451471
 31
0.0
  0
LINE
  5
106E
330
18
100
AcDbEntity
  8
外形線
100
AcDbLine
 10
413.4868045327876
 20
417.3945791451473
 30
0.0
 11
413.4868045327877
 21
418.3945791451472
 31
0.0
  0
LINE
  5
106F
330
18
100
AcDbEntity
  8
外形線
100
AcDbLine
 10
411.4868045327877
 20
417.3945791451473
 30
0.0
 11
411.4868045327877
 21
418.3945791451472
 31
0.0
  0
LINE
  5
1070
330
18
100
AcDbEntity
  8
外形線
100
AcDbLine
 10
411.4868045327877
 20
418.3945791451472
 30
0.0
 11
411.9868045327877
 21
418.3945791451472
 31
0.0
  0
LINE
  5
1071
330
18
100
AcDbEntity
  8
外形線
100
AcDbLine
 10
412.9868045327877
 20
418.3945791451472
 30
0.0
 11
413.4868045327877
 21
418.3945791451472
 31
0.0
  0
LINE
  5
1072
330
18
100
AcDbEntity
  8
外形線
100
AcDbLine
 10
417.4868045327876
 20
417.3945791451471
 30
0.0
 11
417.4868045327876
 21
357.9285735953579
 31
0.0
  0
LINE
  5
1073
330
18
100
AcDbEntity
  8
外形線
100
AcDbLine
 10
407.4868045327876
 20
417.3945791451472
 30
0.0
 11
407.4868045327877
 21
357.9285735953579
 31
0.0
  0
LINE
  5
1074
330
18
100
AcDbEntity
  8
外形線
100
AcDbLine
 10
411.9868045327877
 20
427.8945791451473
 30
0.0
 11
412.9868045327877
 21
427.8945791451473
 31
0.0
  0
LINE
  5
1075
330
18
100
AcDbEntity
  8
外形線
100
AcDbLine
 10
411.9868045327877
 20
422.8945791451472
 30
0.0
 11
412.9868045327877
 21
422.8945791451472
 31
0.0
  0
LINE
  5
1077
330
18
100
AcDbEntity
  8
外形線
100
AcDbLine
 10
419.4868045327877
 20
431.8945791451472
 30
0.0
 11
420.4868045327877
 21
431.8945791451472
 31
0.0
  0
LINE
  5
1078
330
18
100
AcDbEntity
  8
外形線
100
AcDbLine
 10
419.4868045327877
 20
418.8945791451472
 30
0.0
 11
420.4868045327877
 21
418.8945791451472
 31
0.0
  0
LINE
  5
1079
330
18
100
AcDbEntity
  8
外形線
100
AcDbLine
 10
420.4868045327876
 20
433.1445791451471
 30
0.0
 11
420.4868045327877
 21
417.6445791451473
 31
0.0
  0
LINE
  5
107A
330
18
100
AcDbEntity
  8
外形線
100
AcDbLine
 10
428.4868045327877
 20
448.3945791451472
 30
0.0
 11
441.4868045327878
 21
448.3945791451472
 31
0.0
  0
LINE
  5
107B
330
18
100
AcDbEntity
  8
外形線
100
AcDbLine
 10
428.4868045327877
 20
402.3945791451471
 30
0.0
 11
441.4868045327878
 21
402.3945791451472
 31
0.0
  0
LINE
  5
107C
330
18
100
AcDbEntity
  8
外形線
100
AcDbLine
 10
428.4868045327877
 20
448.3945791451472
 30
0.0
 11
428.4868045327877
 21
402.3945791451471
 31
0.0
  0
ARC
  5
107E
330
18
100
AcDbEntity
  8
外形線
100
AcDbCircle
 10
310.1900463595318
 20
425.3945791451473
 30
0.0
 40
133.296056606362
100
AcDbArc
 50
350.0639876970296
 51
9.936012302970281
  0
LINE
  5
107F
330
18
100
AcDbEntity
  8
外形線
100
AcDbLine
 10
441.4868045327877
 20
448.3945791451472
 30
0.0
 11
441.4868045327877
 21
402.3945791451472
 31
0.0
  0
LINE
  5
1080
330
18
100
AcDbEntity
  8
外形線
100
AcDbLine
 10
420.4868045327876
 20
433.1445791451471
 30
0.0
 11
428.4868045327877
 21
433.1445791451471
 31
0.0
  0
LINE
  5
1081
330
18
100
AcDbEntity
  8
外形線
100
AcDbLine
 10
420.4868045327877
 20
417.6445791451473
 30
0.0
 11
428.4868045327877
 21
417.6445791451473
 31
0.0
  0
LINE
  5
1084
330
18
100
AcDbEntity
  8
外形線
100
AcDbLine
 10
384.4861029658939
 20
432.8945791451472
 30
0.0
 11
402.4868045327877
 21
432.8945791451472
 31
0.0
  0
LINE
  5
1085
330
18
100
AcDbEntity
  8
外形線
100
AcDbLine
 10
384.4861029658938
 20
417.8945791451472
 30
0.0
 11
402.4868045327878
 21
417.8945791451472
 31
0.0
  0
LINE
  5
1086
330
18
100
AcDbEntity
  8
外形線
100
AcDbLine
 10
384.4861029658939
 20
432.8945791451472
 30
0.0
 11
384.4861029658938
 21
417.8945791451472
 31
0.0
  0
ARC
  5
1087
330
18
100
AcDbEntity
  8
外形線
100
AcDbCircle
 10
412.1111029658928
 20
425.3945791451471
 30
0.0
 40
28.6249999999991
100
AcDbArc
 50
164.8107132628164
 51
195.1892867371831
  0
LINE
  5
1088
330
18
100
AcDbEntity
  8
外形線
100
AcDbLine
 10
402.4868045327877
 20
432.8945791451472
 30
0.0
 11
405.4868045327877
 21
429.8945791451472
 31
0.0
  0
LINE
  5
1089
330
18
100
AcDbEntity
  8
外形線
100
AcDbLine
 10
402.4868045327878
 20
417.8945791451472
 30
0.0
 11
405.4868045327878
 21
420.8945791451472
 31
0.0
  0
LINE
  5
108A
330
18
100
AcDbEntity
  8
外形線
100
AcDbLine
 10
402.4868045327877
 20
432.8945791451472
 30
0.0
 11
402.4868045327878
 21
417.8945791451472
 31
0.0
  0
CIRCLE
  5
108C
330
18
100
AcDbEntity
  8
外形線
100
AcDbCircle
 10
393.4861029658939
 20
425.3945791451472
 30
0.0
 40
2.25
  0
LINE
  5
108D
330
18
100
AcDbEntity
  8
中心線
100
AcDbLine
 10
393.4861029658938
 20
452.5913712343087
 30
0.0
 11
393.4861029658939
 21
411.4294279793062
 31
0.0
  0
LINE
  5
108F
330
18
100
AcDbEntity
  8
外形線
100
AcDbLine
 10
386.4861029658938
 20
447.8945791451471
 30
0.0
 11
400.4861029658938
 21
447.8945791451471
 31
0.0
  0
LINE
  5
1090
330
18
100
AcDbEntity
  8
外形線
100
AcDbLine
 10
391.4861029658937
 20
449.3945791451472
 30
0.0
 11
395.4861029658939
 21
449.3945791451472
 31
0.0
  0
LINE
  5
1091
330
18
100
AcDbEntity
  8
外形線
100
AcDbLine
 10
400.4861029658938
 20
447.8945791451471
 30
0.0
 11
400.4861029658937
 21
438.8945791451472
 31
0.0
  0
LINE
  5
1092
330
18
100
AcDbEntity
  8
外形線
100
AcDbLine
 10
386.4861029658938
 20
447.8945791451471
 30
0.0
 11
386.4861029658939
 21
438.8945791451472
 31
0.0
  0
LINE
  5
1093
330
18
100
AcDbEntity
  8
外形線
100
AcDbLine
 10
386.4861029658939
 20
438.8945791451472
 30
0.0
 11
400.4861029658937
 21
438.8945791451472
 31
0.0
  0
LINE
  5
1094
330
18
100
AcDbEntity
  8
外形線
100
AcDbLine
 10
398.9861029658938
 20
438.8945791451472
 30
0.0
 11
398.9861029658939
 21
436.3945791451471
 31
0.0
  0
LINE
  5
1095
330
18
100
AcDbEntity
  8
外形線
100
AcDbLine
 10
387.9861029658938
 20
438.8945791451472
 30
0.0
 11
387.9861029658938
 21
436.3945791451471
 31
0.0
  0
LINE
  5
1096
330
18
100
AcDbEntity
  8
外形線
100
AcDbLine
 10
386.9861029658938
 20
435.8945791451471
 30
0.0
 11
399.9861029658938
 21
435.8945791451472
 31
0.0
  0
LINE
  5
1097
330
18
100
AcDbEntity
  8
外形線
100
AcDbLine
 10
387.9861029658938
 20
436.3945791451471
 30
0.0
 11
388.4861029658938
 21
435.8945791451471
 31
0.0
  0
LINE
  5
1098
330
18
100
AcDbEntity
  8
外形線
100
AcDbLine
 10
398.4861029658939
 20
435.8945791451471
 30
0.0
 11
398.9861029658939
 21
436.3945791451471
 31
0.0
  0
LINE
  5
10A6
330
18
100
AcDbEntity
  8
外形線
100
AcDbLine
 10
399.9861029658938
 20
435.8945791451472
 30
0.0
 11
399.9861029658939
 21
434.8945791451471
 31
0.0
  0
LINE
  5
10A7
330
18
100
AcDbEntity
  8
外形線
100
AcDbLine
 10
386.9861029658938
 20
435.8945791451471
 30
0.0
 11
386.9861029658938
 21
434.8945791451471
 31
0.0
  0
LINE
  5
10A8
330
18
100
AcDbEntity
  8
外形線
100
AcDbLine
 10
386.9861029658938
 20
434.8945791451471
 30
0.0
 11
399.9861029658939
 21
434.8945791451471
 31
0.0
  0
LINE
  5
10A9
330
18
100
AcDbEntity
  8
外形線
100
AcDbLine
 10
398.9861029658939
 20
434.8945791451472
 30
0.0
 11
398.9861029658939
 21
432.8945791451472
 31
0.0
  0
LINE
  5
10AA
330
18
100
AcDbEntity
  8
外形線
100
AcDbLine
 10
387.9861029658938
 20
434.8945791451471
 30
0.0
 11
387.9861029658938
 21
432.8945791451473
 31
0.0
  0
LINE
  5
10AC
330
18
100
AcDbEntity
  8
外形線
100
AcDbLine
 10
390.4861029658939
 20
415.8945791451473
 30
0.0
 11
396.4861029658938
 21
415.8945791451471
 31
0.0
  0
LINE
  5
10AD
330
18
100
AcDbEntity
  8
外形線
100
AcDbLine
 10
396.4861029658938
 20
417.8945791451472
 30
0.0
 11
396.4861029658938
 21
415.8945791451471
 31
0.0
  0
LINE
  5
10AE
330
18
100
AcDbEntity
  8
外形線
100
AcDbLine
 10
390.4861029658939
 20
417.8945791451472
 30
0.0
 11
390.4861029658939
 21
415.8945791451473
 31
0.0
  0
ARC
  5
10AF
330
18
100
AcDbEntity
  8
外形線
100
AcDbCircle
 10
393.4861029658939
 20
419.8945791451472
 30
0.0
 40
4.999999999999954
100
AcDbArc
 50
233.1301023541556
 51
306.869897645843
  0
LINE
  5
10B0
330
18
100
AcDbEntity
  8
外形線
100
AcDbLine
 10
396.4861029658938
 20
448.3945791451471
 30
0.0
 11
396.4861029658938
 21
447.8945791451471
 31
0.0
  0
LINE
  5
10B1
330
18
100
AcDbEntity
  8
外形線
100
AcDbLine
 10
390.4861029658938
 20
448.3945791451471
 30
0.0
 11
390.4861029658938
 21
447.8945791451471
 31
0.0
  0
LINE
  5
10B2
330
18
100
AcDbEntity
  8
外形線
100
AcDbLine
 10
390.4861029658938
 20
448.3945791451471
 30
0.0
 11
391.4861029658937
 21
449.3945791451472
 31
0.0
  0
LINE
  5
10B3
330
18
100
AcDbEntity
  8
外形線
100
AcDbLine
 10
395.4861029658939
 20
449.3945791451472
 30
0.0
 11
396.4861029658938
 21
448.3945791451471
 31
0.0
  0
LINE
  5
10B4
330
18
100
AcDbEntity
  8
外形線
100
AcDbLine
 10
390.4861029658938
 20
448.3945791451471
 30
0.0
 11
396.4861029658938
 21
448.3945791451471
 31
0.0
  0
LINE
  5
10BA
330
18
100
AcDbEntity
  8
外形線
100
AcDbLine
 10
539.7376522525944
 20
436.29333729931
 30
0.0
 11
549.7376522525944
 21
436.29333729931
 31
0.0
  0
LINE
  5
10BE
330
18
100
AcDbEntity
  8
中心線
100
AcDbLine
 10
529.7376522525944
 20
455.1619439430974
 30
0.0
 11
529.7376522525944
 21
395.6919287002931
 31
0.0
  0
ARC
  5
10C1
330
18
100
AcDbEntity
  8
外形線
100
AcDbCircle
 10
506.8660411342353
 20
425.3945791451473
 30
0.0
 40
33.38067995608966
100
AcDbArc
 50
318.6322904482512
 51
41.3677095517487
  0
ARC
  5
10C2
330
18
100
AcDbEntity
  8
外形線
100
AcDbCircle
 10
552.6092633709536
 20
425.3945791451474
 30
0.0
 40
33.38067995608966
100
AcDbArc
 50
138.6322904482514
 51
221.3677095517488
  0
ARC
  5
10C4
330
18
100
AcDbEntity
  8
外形線
100
AcDbCircle
 10
529.7376522525944
 20
445.3945791451472
 30
0.0
 40
3.0
100
AcDbArc
 50
43.39112189180493
 51
136.608878108195
  0
ARC
  5
10C5
330
18
100
AcDbEntity
  8
外形線
100
AcDbCircle
 10
529.7376522525944
 20
405.3945791451473
 30
0.0
 40
3.0
100
AcDbArc
 50
223.3911218918049
 51
316.6088781081951
  0
LINE
  5
10C6
330
18
100
AcDbEntity
  8
外形線
100
AcDbLine
 10
539.7376522525944
 20
417.6445791451474
 30
0.0
 11
539.7376522525944
 21
368.2981976524215
 31
0.0
  0
LINE
  5
10CC
330
18
100
AcDbEntity
  8
外形線
100
AcDbLine
 10
526.7376522525944
 20
448.3945791451471
 30
0.0
 11
532.7376522525944
 21
448.3945791451471
 31
0.0
  0
LINE
  5
10CD
330
18
100
AcDbEntity
  8
外形線
100
AcDbLine
 10
526.7376522525944
 20
448.3945791451471
 30
0.0
 11
527.7376522525944
 21
449.3945791451472
 31
0.0
  0
LINE
  5
10D1
330
18
100
AcDbEntity
  8
外形線
100
AcDbLine
 10
522.7376522525944
 20
447.8945791451471
 30
0.0
 11
528.0793398574167
 21
447.8945791451471
 31
0.0
  0
LINE
  5
10D7
330
18
100
AcDbEntity
  8
外形線
100
AcDbLine
 10
522.7376522525944
 20
447.8945791451471
 30
0.0
 11
522.7376522525944
 21
440.2927885517977
 31
0.0
  0
LINE
  5
10DA
330
18
100
AcDbEntity
  8
外形線
100
AcDbLine
 10
526.7376522525944
 20
448.3945791451471
 30
0.0
 11
526.7376522525944
 21
447.8945791451471
 31
0.0
  0
LINE
  5
10DF
330
18
100
AcDbEntity
  8
外形線
100
AcDbLine
 10
536.7376522525944
 20
447.8945791451471
 30
0.0
 11
536.7376522525944
 21
440.2927885517978
 31
0.0
  0
LINE
  5
10E2
330
18
100
AcDbEntity
  8
外形線
100
AcDbLine
 10
531.7376522525944
 20
449.3945791451472
 30
0.0
 11
532.7376522525944
 21
448.3945791451471
 31
0.0
  0
LINE
  5
10E3
330
18
100
AcDbEntity
  8
外形線
100
AcDbLine
 10
532.7376522525944
 20
448.3945791451471
 30
0.0
 11
532.7376522525944
 21
447.8945791451471
 31
0.0
  0
LINE
  5
10E4
330
18
100
AcDbEntity
  8
外形線
100
AcDbLine
 10
527.7376522525944
 20
449.3945791451472
 30
0.0
 11
531.7376522525944
 21
449.3945791451472
 31
0.0
  0
LINE
  5
10E5
330
18
100
AcDbEntity
  8
外形線
100
AcDbLine
 10
531.3959646477721
 20
447.8945791451471
 30
0.0
 11
536.7376522525944
 21
447.8945791451471
 31
0.0
  0
LINE
  5
10E6
330
18
100
AcDbEntity
  8
外形線
100
AcDbLine
 10
539.2739073757959
 20
433.3945791451472
 30
0.0
 11
550.7376522525944
 21
433.3945791451472
 31
0.0
  0
LINE
  5
10E7
330
18
100
AcDbEntity
  8
外形線
100
AcDbLine
 10
539.3345996844833
 20
417.6445791451473
 30
0.0
 11
550.7376522525944
 21
417.6445791451473
 31
0.0
  0
LINE
  5
10E8
330
18
100
AcDbEntity
  8
中心線
100
AcDbLine
 10
516.2387677434431
 20
425.3945791451472
 30
0.0
 11
554.0907668884175
 21
425.3945791451472
 31
0.0
  0
LINE
  5
10E9
330
18
100
AcDbEntity
  8
外形線
100
AcDbLine
 10
550.7376522525944
 20
433.3945791451472
 30
0.0
 11
550.7376522525944
 21
417.6445791451473
 31
0.0
  0
LINE
  5
10EC
330
18
100
AcDbEntity
  8
外形線
100
AcDbLine
 10
549.7376522525943
 20
417.6445791451473
 30
0.0
 11
549.7376522525944
 21
368.2981976524215
 31
0.0
  0
LINE
  5
10FB
330
18
100
AcDbEntity
  8
外形線
100
AcDbLine
 10
422.4948711479582
 20
357.9285735953579
 30
0.0
 11
429.494871147958
 21
357.9285735953579
 31
0.0
  0
LINE
  5
10FC
330
18
100
AcDbEntity
  8
外形線
100
AcDbLine
 10
422.4948711479582
 20
341.928573595358
 30
0.0
 11
429.494871147958
 21
341.9285735953579
 31
0.0
  0
LINE
  5
10FD
330
18
100
AcDbEntity
  8
外形線
100
AcDbLine
 10
438.4948711479581
 20
357.9285735953579
 30
0.0
 11
438.4948711479581
 21
341.9285735953579
 31
0.0
  0
LINE
  5
10FE
330
18
100
AcDbEntity
  8
外形線
100
AcDbLine
 10
422.4948711479582
 20
357.9285735953579
 30
0.0
 11
422.4948711479581
 21
341.928573595358
 31
0.0
  0
LINE
  5
10FF
330
18
100
AcDbEntity
  8
外形線
100
AcDbLine
 10
430.9948711479581
 20
356.9285735953579
 30
0.0
 11
430.9948711479581
 21
342.9285735953578
 31
0.0
  0
LINE
  5
1100
330
18
100
AcDbEntity
  8
外形線
100
AcDbLine
 10
429.994871147958
 20
356.9285735953579
 30
0.0
 11
429.9948711479581
 21
342.9285735953578
 31
0.0
  0
LINE
  5
1101
330
18
100
AcDbEntity
  8
外形線
100
AcDbLine
 10
431.4948711479582
 20
357.9285735953579
 30
0.0
 11
431.4948711479582
 21
356.928573595358
 31
0.0
  0
LINE
  5
1102
330
18
100
AcDbEntity
  8
外形線
100
AcDbLine
 10
429.494871147958
 20
357.9285735953579
 30
0.0
 11
429.4948711479581
 21
356.9285735953579
 31
0.0
  0
LINE
  5
1103
330
18
100
AcDbEntity
  8
外形線
100
AcDbLine
 10
429.4948711479581
 20
356.9285735953579
 30
0.0
 11
429.994871147958
 21
356.928573595358
 31
0.0
  0
LINE
  5
1104
330
18
100
AcDbEntity
  8
外形線
100
AcDbLine
 10
430.9948711479581
 20
356.928573595358
 30
0.0
 11
431.4948711479582
 21
356.928573595358
 31
0.0
  0
LINE
  5
110D
330
18
100
AcDbEntity
  8
外形線
100
AcDbLine
 10
431.4948711479582
 20
341.9285735953578
 30
0.0
 11
431.4948711479582
 21
342.9285735953578
 31
0.0
  0
LINE
  5
110E
330
18
100
AcDbEntity
  8
外形線
100
AcDbLine
 10
429.494871147958
 20
341.9285735953578
 30
0.0
 11
429.4948711479581
 21
342.9285735953578
 31
0.0
  0
LINE
  5
110F
330
18
100
AcDbEntity
  8
外形線
100
AcDbLine
 10
429.4948711479581
 20
342.9285735953578
 30
0.0
 11
429.994871147958
 21
342.9285735953578
 31
0.0
  0
LINE
  5
1110
330
18
100
AcDbEntity
  8
外形線
100
AcDbLine
 10
430.9948711479581
 20
342.9285735953578
 30
0.0
 11
431.4948711479582
 21
342.9285735953578
 31
0.0
  0
LINE
  5
1111
330
18
100
AcDbEntity
  8
外形線
100
AcDbLine
 10
431.4948711479582
 20
357.9285735953579
 30
0.0
 11
438.4948711479581
 21
357.9285735953579
 31
0.0
  0
LINE
  5
1112
330
18
100
AcDbEntity
  8
外形線
100
AcDbLine
 10
431.4948711479582
 20
341.9285735953579
 30
0.0
 11
438.4948711479581
 21
341.9285735953579
 31
0.0
  0
LINE
  5
1113
330
18
100
AcDbEntity
  8
外形線
100
AcDbLine
 10
413.4868045327876
 20
433.3945791451472
 30
0.0
 11
419.4868045327877
 21
433.3945791451472
 31
0.0
  0
LINE
  5
1114
330
18
100
AcDbEntity
  8
外形線
100
AcDbLine
 10
413.4868045327876
 20
417.3945791451472
 30
0.0
 11
419.4868045327877
 21
417.3945791451472
 31
0.0
  0
ARC
  5
1115
330
18
100
AcDbEntity
  8
外形線
100
AcDbCircle
 10
329.1981129747022
 20
349.928573595358
 30
0.0
 40
133.296056606362
100
AcDbArc
 50
350.0639876970296
 51
9.936012302970281
  0
LINE
  5
1116
330
18
100
AcDbEntity
  8
外形線
100
AcDbLine
 10
460.4948711479582
 20
372.9285735953579
 30
0.0
 11
460.4948711479582
 21
326.9285735953579
 31
0.0
  0
LINE
  5
1117
330
18
100
AcDbEntity
  8
外形線
100
AcDbLine
 10
447.4948711479582
 20
372.9285735953579
 30
0.0
 11
447.4948711479582
 21
326.9285735953579
 31
0.0
  0
LINE
  5
1118
330
18
100
AcDbEntity
  8
外形線
100
AcDbLine
 10
447.4948711479582
 20
326.9285735953579
 30
0.0
 11
460.4948711479583
 21
326.928573595358
 31
0.0
  0
LINE
  5
1119
330
18
100
AcDbEntity
  8
外形線
100
AcDbLine
 10
447.4948711479582
 20
372.9285735953579
 30
0.0
 11
460.4948711479583
 21
372.9285735953579
 31
0.0
  0
LINE
  5
111A
330
18
100
AcDbEntity
  8
外形線
100
AcDbLine
 10
439.4948711479581
 20
357.6785735953579
 30
0.0
 11
447.4948711479582
 21
357.6785735953579
 31
0.0
  0
LINE
  5
111B
330
18
100
AcDbEntity
  8
外形線
100
AcDbLine
 10
439.4948711479582
 20
342.178573595358
 30
0.0
 11
447.4948711479582
 21
342.178573595358
 31
0.0
  0
LINE
  5
111C
330
18
100
AcDbEntity
  8
外形線
100
AcDbLine
 10
439.4948711479581
 20
357.6785735953579
 30
0.0
 11
439.4948711479582
 21
342.178573595358
 31
0.0
  0
LINE
  5
111D
330
18
100
AcDbEntity
  8
外形線
100
AcDbLine
 10
438.4948711479581
 20
343.428573595358
 30
0.0
 11
439.4948711479582
 21
343.428573595358
 31
0.0
  0
LINE
  5
111E
330
18
100
AcDbEntity
  8
外形線
100
AcDbLine
 10
438.4948711479581
 20
356.4285735953579
 30
0.0
 11
439.4948711479582
 21
356.4285735953579
 31
0.0
  0
LINE
  5
1122
330
18
100
AcDbEntity
  8
外形線
100
AcDbLine
 10
401.4941695810642
 20
357.9285735953579
 30
0.0
 11
401.4941695810641
 21
341.9285735953579
 31
0.0
  0
LINE
  5
1123
330
18
100
AcDbEntity
  8
外形線
100
AcDbLine
 10
401.4941695810642
 20
357.9285735953579
 30
0.0
 11
419.4948711479582
 21
357.9285735953579
 31
0.0
  0
LINE
  5
1124
330
18
100
AcDbEntity
  8
外形線
100
AcDbLine
 10
401.4941695810641
 20
341.9285735953579
 30
0.0
 11
419.4948711479582
 21
341.928573595358
 31
0.0
  0
LINE
  5
1125
330
18
100
AcDbEntity
  8
外形線
100
AcDbLine
 10
419.4948711479582
 20
357.9285735953579
 30
0.0
 11
419.4948711479582
 21
341.928573595358
 31
0.0
  0
LINE
  5
1135
330
18
100
AcDbEntity
  8
外形線
100
AcDbLine
 10
419.4948711479582
 20
357.9285735953579
 30
0.0
 11
422.4948711479582
 21
354.9285735953579
 31
0.0
  0
LINE
  5
1136
330
18
100
AcDbEntity
  8
外形線
100
AcDbLine
 10
419.4948711479582
 20
341.928573595358
 30
0.0
 11
422.4948711479582
 21
344.928573595358
 31
0.0
  0
ARC
  5
1139
330
18
100
AcDbEntity
  8
外形線
100
AcDbCircle
 10
432.9941695810634
 20
349.9285735953578
 30
0.0
 40
32.49999999999932
100
AcDbArc
 50
165.7499673021959
 51
194.2500326978037
  0
LINE
  5
113A
330
18
100
AcDbEntity
  8
外形線
100
AcDbLine
 10
429.9948711479579
 20
352.9285735953579
 30
0.0
 11
430.994871147958
 21
352.9285735953579
 31
0.0
  0
LINE
  5
113B
330
18
100
AcDbEntity
  8
外形線
100
AcDbLine
 10
429.994871147958
 20
346.9285735953579
 30
0.0
 11
430.994871147958
 21
346.928573595358
 31
0.0
  0
LINE
  5
113C
330
18
100
AcDbEntity
  8
外形線
100
AcDbLine
 10
424.4948711479579
 20
386.3474436920875
 30
0.0
 11
436.4948711479581
 21
386.3474436920875
 31
0.0
  0
LINE
  5
113D
330
18
100
AcDbEntity
  8
外形線
100
AcDbLine
 10
424.4948711479579
 20
383.3474436920874
 30
0.0
 11
436.4948711479581
 21
383.3474436920874
 31
0.0
  0
LINE
  5
114B
330
18
100
AcDbEntity
  8
外形線
100
AcDbLine
 10
554.2739073757959
 20
357.9285735953579
 30
0.0
 11
570.7457188677649
 21
357.9285735953579
 31
0.0
  0
LINE
  5
114C
330
18
100
AcDbEntity
  8
外形線
100
AcDbLine
 10
554.3345996844833
 20
342.1785735953581
 30
0.0
 11
570.7457188677649
 21
342.178573595358
 31
0.0
  0
LINE
  5
115C
330
18
100
AcDbEntity
  8
外形線
100
AcDbLine
 10
570.7457188677649
 20
357.9285735953579
 30
0.0
 11
570.7457188677649
 21
342.178573595358
 31
0.0
  0
ARC
  5
115D
330
18
100
AcDbEntity
  8
外形線
100
AcDbCircle
 10
567.6092633709536
 20
349.9285735953581
 30
0.0
 40
33.38067995608966
100
AcDbArc
 50
138.6322904482514
 51
221.3677095517488
  0
ARC
  5
115E
330
18
100
AcDbEntity
  8
外形線
100
AcDbCircle
 10
521.8660411342352
 20
349.928573595358
 30
0.0
 40
33.38067995608966
100
AcDbArc
 50
318.6322904482512
 51
41.3677095517487
  0
ARC
  5
115F
330
18
100
AcDbEntity
  8
外形線
100
AcDbCircle
 10
544.7376522525944
 20
329.928573595358
 30
0.0
 40
3.0
100
AcDbArc
 50
223.3911218918049
 51
316.6088781081951
  0
ARC
  5
1161
330
18
100
AcDbEntity
  8
外形線
100
AcDbCircle
 10
544.7376522525944
 20
369.928573595358
 30
0.0
 40
3.0
100
AcDbArc
 50
43.39112189180493
 51
136.608878108195
  0
LINE
  5
1191
330
18
100
AcDbEntity
  8
外形線
100
AcDbLine
 10
404.9948711479581
 20
273.4312350020508
 30
0.0
 11
455.9948711479581
 21
273.4312350020507
 31
0.0
  0
LINE
  5
1192
330
18
100
AcDbEntity
  8
外形線
100
AcDbLine
 10
455.9948711479581
 20
273.4312350020507
 30
0.0
 11
455.9948711479582
 21
217.9312350020508
 31
0.0
  0
LINE
  5
1193
330
18
100
AcDbEntity
  8
外形線
100
AcDbLine
 10
404.9948711479581
 20
273.4312350020508
 30
0.0
 11
404.9948711479581
 21
217.9312350020507
 31
0.0
  0
LINE
  5
1194
330
18
100
AcDbEntity
  8
外形線
100
AcDbLine
 10
407.4948711479582
 20
272.4312350020507
 30
0.0
 11
453.4948711479581
 21
272.4312350020507
 31
0.0
  0
LINE
  5
1195
330
18
100
AcDbEntity
  8
外形線
100
AcDbLine
 10
454.994871147958
 20
270.9312350020507
 30
0.0
 11
454.9948711479581
 21
224.9312350020507
 31
0.0
  0
LINE
  5
1196
330
18
100
AcDbEntity
  8
外形線
100
AcDbLine
 10
405.9948711479582
 20
270.9312350020507
 30
0.0
 11
405.9948711479581
 21
224.9312350020507
 31
0.0
  0
LINE
  5
1197
330
18
100
AcDbEntity
  8
外形線
100
AcDbLine
 10
407.4948711479581
 20
223.4312350020508
 30
0.0
 11
453.4948711479581
 21
223.4312350020507
 31
0.0
  0
ARC
  5
1198
330
18
100
AcDbEntity
  8
外形線
100
AcDbCircle
 10
407.4948711479582
 20
270.9312350020507
 30
0.0
 40
1.5
100
AcDbArc
 50
89.99999999999992
 51
180.0
  0
ARC
  5
1199
330
18
100
AcDbEntity
  8
外形線
100
AcDbCircle
 10
453.4948711479581
 20
270.9312350020507
 30
0.0
 40
1.5
100
AcDbArc
 50
0.0000000000000509
 51
89.99999999999992
  0
ARC
  5
119A
330
18
100
AcDbEntity
  8
外形線
100
AcDbCircle
 10
453.4948711479581
 20
224.9312350020507
 30
0.0
 40
1.5
100
AcDbArc
 50
269.9999999999999
 51
0.0000000000001145
  0
ARC
  5
119B
330
18
100
AcDbEntity
  8
外形線
100
AcDbCircle
 10
407.4948711479581
 20
224.9312350020507
 30
0.0
 40
1.5
100
AcDbArc
 50
179.9999999999999
 51
269.9999999999999
  0
LINE
  5
119C
330
18
100
AcDbEntity
  8
外形線
100
AcDbLine
 10
424.494871147958
 20
222.4312350020507
 30
0.0
 11
436.4948711479581
 21
222.4312350020507
 31
0.0
  0
LINE
  5
119D
330
18
100
AcDbEntity
  8
外形線
100
AcDbLine
 10
436.4948711479581
 20
222.4312350020507
 30
0.0
 11
436.4948711479581
 21
221.4312350020507
 31
0.0
  0
LINE
  5
119E
330
18
100
AcDbEntity
  8
外形線
100
AcDbLine
 10
424.494871147958
 20
222.4312350020507
 30
0.0
 11
424.494871147958
 21
221.4312350020507
 31
0.0
  0
LINE
  5
11A3
330
18
100
AcDbEntity
  8
外形線
100
AcDbLine
 10
410.4948711479582
 20
217.9312350020508
 30
0.0
 11
424.494871147958
 21
221.4312350020507
 31
0.0
  0
LINE
  5
11A4
330
18
100
AcDbEntity
  8
外形線
100
AcDbLine
 10
450.4948711479581
 20
217.9312350020508
 30
0.0
 11
436.4948711479582
 21
221.4312350020507
 31
0.0
  0
LINE
  5
11A5
330
18
100
AcDbEntity
  8
外形線
100
AcDbLine
 10
450.494871147958
 20
217.9312350020508
 30
0.0
 11
455.9948711479582
 21
217.9312350020508
 31
0.0
  0
ARC
  5
11A9
330
18
100
AcDbEntity
  8
外形線
100
AcDbCircle
 10
430.4948711479581
 20
248.4312350020507
 30
0.0
 40
14.0
100
AcDbArc
 50
55.24572639728366
 51
24.75427360271555
  0
ARC
  5
11AA
330
18
100
AcDbEntity
  8
外形線
100
AcDbCircle
 10
430.4948711479581
 20
248.4312350020507
 30
0.0
 40
15.0
100
AcDbArc
 50
53.78108882473388
 51
26.21891117526549
  0
LINE
  5
11B3
330
18
100
AcDbEntity
  8
外形線
100
AcDbLine
 10
407.4948711479582
 20
271.4312350020508
 30
0.0
 11
453.4948711479581
 21
271.4312350020507
 31
0.0
  0
LINE
  5
11B4
330
18
100
AcDbEntity
  8
外形線
100
AcDbLine
 10
453.994871147958
 20
270.9312350020507
 30
0.0
 11
453.9948711479581
 21
224.9312350020507
 31
0.0
  0
ARC
  5
11B5
330
18
100
AcDbEntity
  8
外形線
100
AcDbCircle
 10
453.4948711479581
 20
270.9312350020507
 30
0.0
 40
0.5
100
AcDbArc
 50
0.0000000000000509
 51
89.99999999999992
  0
ARC
  5
11B6
330
18
100
AcDbEntity
  8
外形線
100
AcDbCircle
 10
453.4948711479581
 20
224.9312350020507
 30
0.0
 40
0.5
100
AcDbArc
 50
269.9999999999999
 51
0.0000000000001145
  0
LINE
  5
11B7
330
18
100
AcDbEntity
  8
外形線
100
AcDbLine
 10
407.4948711479581
 20
224.4312350020507
 30
0.0
 11
453.4948711479581
 21
224.4312350020507
 31
0.0
  0
ARC
  5
11B8
330
18
100
AcDbEntity
  8
外形線
100
AcDbCircle
 10
407.4948711479581
 20
224.9312350020507
 30
0.0
 40
0.5
100
AcDbArc
 50
179.9999999999999
 51
269.9999999999999
  0
LINE
  5
11B9
330
18
100
AcDbEntity
  8
外形線
100
AcDbLine
 10
406.9948711479582
 20
270.9312350020507
 30
0.0
 11
406.9948711479581
 21
224.9312350020507
 31
0.0
  0
ARC
  5
11BA
330
18
100
AcDbEntity
  8
外形線
100
AcDbCircle
 10
407.4948711479582
 20
270.9312350020507
 30
0.0
 40
0.5
100
AcDbArc
 50
89.99999999999992
 51
180.0
  0
HATCH
  5
1213
330
18
100
AcDbEntity
  8
ROGO
 62
     4
100
AcDbHatch
 10
0.0
 20
0.0
 30
0.0
210
0.0
220
0.0
230
1.0
  2
SOLID
 70
     1
 71
     1
 91
        1
 92
        7
 72
     0
 73
     1
 93
        4
 10
415.9506020728507
 20
266.3733676543978
 10
415.7505687192763
 20
265.9312350020508
 10
441.9325958789728
 20
265.9312350020508
 10
442.1530574989885
 20
266.3733676543978
 97
        4
330
1215
330
1226
330
121A
330
1248
 75
     0
 76
     1
 47
0.0514683685270805
 98
        1
 10
432.495326611924
 20
266.2564306734375
450
        0
451
        0
460
0.0
461
0.0
452
        0
462
0.0
453
        0
470

  0
HATCH
  5
1214
330
18
100
AcDbEntity
  8
ROGO
 62
     4
100
AcDbHatch
 10
0.0
 20
0.0
 30
0.0
210
0.0
220
0.0
230
1.0
  2
SOLID
 70
     1
 71
     1
 91
        1
 92
        5
 93
        8
 72
     1
 10
433.9214982563379
 20
269.2918949548056
 11
434.4452107057647
 21
270.3421928448234
 72
     1
 10
434.4452107057647
 20
270.3421928448234
 11
431.6182552786634
 21
270.3421928448234
 72
     4
 94
        3
 73
     0
 74
     0
 95
       26
 96
       22
 40
0.0
 40
0.0
 40
0.0
 40
0.0
 40
0.5673148112186521
 40
0.9470881489316042
 40
1.22093565298321
 40
1.425408723407154
 40
1.690621027351398
 40
1.88420015439018
 40
2.233758938526259
 40
2.518294763343134
 40
2.711824716165209
 40
2.901590743600066
 40
3.24104527389879
 40
3.48108014239314
 40
3.610357464261409
 40
3.793992081180213
 40
3.926598758429083
 40
4.118702053391892
 40
4.227415901780283
 40
4.463989430320165
 40
4.572010958546696
 40
4.572010958546696
 40
4.572010958546696
 40
4.572010958546696
 10
431.6182552786633
 20
270.3421928448234
 10
431.444439104618
 20
270.3318226738164
 10
431.1542664610065
 20
270.3145104763047
 10
430.8356586635242
 20
270.1209596609284
 10
430.6022279387657
 20
270.0084377224388
 10
430.4357454289617
 20
269.855473733301
 10
430.3137130744055
 20
269.6974731063294
 10
430.1598683823328
 20
269.509216517783
 10
430.0344124320637
 20
269.2899993384306
 10
429.970525343551
 20
269.0483837899627
 10
429.9139347668992
 20
268.8558147959359
 10
429.8719662478764
 20
268.6412217828591
 10
429.8826442272294
 20
268.4093858388622
 10
429.897935582354
 20
268.1940684828439
 10
429.9662077646233
 20
268.0403641280765
 10
430.0439576871396
 20
267.9309372191237
 10
430.1391614024813
 20
267.8104156105021
 10
430.243335086409
 20
267.7305945393761
 10
430.3294952262636
 20
267.5859933051847
 10
430.480315644524
 20
267.5675411448309
 10
430.5761831025327
 20
267.5308158384938
 10
430.6062350406492
 20
267.5193034164865
 72
     1
 10
430.6062350406492
 20
267.5193034164866
 11
433.0376268659545
 21
267.5193034164867
 72
     1
 10
433.0376268659545
 20
267.5193034164867
 11
433.56133376941
 21
268.5695901841369
 72
     1
 10
433.56133376941
 20
268.5695901841369
 11
431.7562575574577
 21
268.5695901841369
 72
     4
 94
        3
 73
     0
 74
     0
 95
       16
 96
       12
 40
0.0
 40
0.0
 40
0.0
 40
0.0
 40
0.1713275656453972
 40
0.3444222506727919
 40
0.447665450732115
 40
0.5466544308350798
 40
0.6553678472863754
 40
0.7312851891663135
 40
0.8033241578111438
 40
0.9494088436370699
 40
1.24850046018799
 40
1.24850046018799
 40
1.24850046018799
 40
1.24850046018799
 10
431.7562575574578
 20
268.5695901841368
 10
431.7018100977172
 20
268.5856094251357
 10
431.5923535922411
 20
268.6178131339675
 10
431.5831929666139
 20
268.7739248836946
 10
431.5956729937186
 20
268.885167279956
 10
431.6479393751063
 20
268.9661582405723
 10
431.7113475612126
 20
269.0250898207045
 10
431.734957241131
 20
269.1018389895148
 10
431.8043557441853
 20
269.1597942141245
 10
431.9274178850491
 20
269.2572088508863
 10
432.0635033095249
 20
269.2779559919277
 10
432.1549322768309
 20
269.2918949548055
 72
     1
 10
432.1549322768309
 20
269.2918949548055
 11
433.9214982563379
 21
269.2918949548056
 97
        8
330
1216
330
121F
330
1219
330
1251
330
1217
330
1239
330
1218
330
124B
 75
     0
 76
     1
 47
0.0514683685270805
 98
        1
 10
432.6069462577219
 20
269.7137845636083
450
        0
451
        0
460
0.0
461
0.0
452
        0
462
0.0
453
        0
470

  0
LINE
  5
1215
102
{ACAD_REACTORS
330
1213
102
}
330
18
100
AcDbEntity
  8
ROGO
 62
     4
100
AcDbLine
 10
415.9199397045348
 20
266.3733676543978
 30
0.0
 11
442.1530574989885
 21
266.3733676543978
 31
0.0
  0
LINE
  5
1216
102
{ACAD_REACTORS
330
1214
102
}
330
18
100
AcDbEntity
  8
ROGO
 62
     4
100
AcDbLine
 10
431.618255278664
 20
270.3421928448234
 30
0.0
 11
434.4452107057649
 21
270.3421928448234
 31
0.0
  0
LINE
  5
1217
102
{ACAD_REACTORS
330
1214
102
}
330
18
100
AcDbEntity
  8
ROGO
 62
     4
100
AcDbLine
 10
431.7562575574577
 20
268.5695901841369
 30
0.0
 11
433.5613337694101
 21
268.5695901841369
 31
0.0
  0
LINE
  5
1218
102
{ACAD_REACTORS
330
1214
102
}
330
18
100
AcDbEntity
  8
ROGO
 62
     4
100
AcDbLine
 10
432.1549322768308
 20
269.2918949548055
 30
0.0
 11
433.9214982563379
 21
269.2918949548056
 31
0.0
  0
LINE
  5
1219
102
{ACAD_REACTORS
330
1214
102
}
330
18
100
AcDbEntity
  8
ROGO
 62
     4
100
AcDbLine
 10
430.6062350406492
 20
267.5193034164866
 30
0.0
 11
433.0376268659545
 21
267.5193034164866
 31
0.0
  0
LINE
  5
121A
102
{ACAD_REACTORS
330
1213
330
121D
330
1240
102
}
330
18
100
AcDbEntity
  8
ROGO
 62
     4
100
AcDbLine
 10
413.7001669908794
 20
265.9312350020508
 30
0.0
 11
443.5579616356271
 21
265.9312350020508
 31
0.0
  0
HATCH
  5
121B
330
18
100
AcDbEntity
  8
ROGO
 62
     4
100
AcDbHatch
 10
0.0
 20
0.0
 30
0.0
210
0.0
220
0.0
230
1.0
  2
SOLID
 70
     1
 71
     1
 91
        2
 92
        7
 72
     0
 73
     1
 93
        8
 10
428.5791158833336
 20
270.3421928448234
 10
426.3210461013905
 20
270.3421928448234
 10
424.2854056724004
 20
267.5193034164865
 10
425.8487811466638
 20
267.5193034164865
 10
426.2363544894339
 20
268.0567640978669
 10
428.0203548110622
 20
268.0567640978669
 10
428.259116142145
 20
267.5193034164866
 10
429.8331552219476
 20
267.5193034164867
 97
        8
330
123D
330
1220
330
122F
330
1230
330
122D
330
1237
330
123A
330
121C
 92
       22
 72
     0
 73
     1
 93
        3
 10
427.7685260353606
 20
268.6236400855571
 10
426.6451397812635
 20
268.6236400855571
 10
427.3402866155333
 20
269.587623027562
 97
        3
330
122C
330
122E
330
1238
 75
     0
 76
     1
 47
0.0128389261915577
 98
        2
 10
428.4022911772009
 20
269.664942013062
 10
428.4022911772009
 20
269.664942013062
450
        0
451
        0
460
0.0
461
0.0
452
        0
462
0.0
453
        0
470

  0
LINE
  5
121C
102
{ACAD_REACTORS
330
121B
102
}
330
18
100
AcDbEntity
  8
ROGO
 62
     4
100
AcDbLine
 10
428.5791158833336
 20
270.3421928448234
 30
0.0
 11
429.8331552219476
 21
267.5193034164866
 31
0.0
  0
HATCH
  5
121D
330
18
100
AcDbEntity
  8
ROGO
 62
     4
100
AcDbHatch
 10
0.0
 20
0.0
 30
0.0
210
0.0
220
0.0
230
1.0
  2
SOLID
 70
     1
 71
     1
 91
        2
 92
        5
 93
        6
 72
     1
 10
413.7001669908795
 20
265.9312350020508
 11
415.7505687192763
 21
265.9312350020508
 72
     1
 10
415.7505687192763
 20
265.9312350020508
 11
416.4690559175385
 21
267.5193034164866
 72
     1
 10
416.4690559175385
 20
267.5193034164866
 11
418.3857609939331
 21
267.5193034164866
 72
     4
 94
        3
 73
     0
 74
     0
 95
       18
 96
       14
 40
0.108740278791501
 40
0.108740278791501
 40
0.108740278791501
 40
0.108740278791501
 40
0.6623149649549278
 40
1.384304701649787
 40
2.097394834876493
 40
2.774073369849618
 40
3.428974823686337
 40
4.005208313035923
 40
4.455173659284313
 40
4.720999734343524
 40
5.086034088486724
 40
5.569973738255373
 40
6.060470601257719
 40
6.060470601257719
 40
6.060470601257719
 40
6.060470601257719
 10
418.3857609939328
 20
267.5193034164865
 10
418.5206555306355
 20
267.5203079352568
 10
418.8314838184107
 20
267.5226225794005
 10
419.2663301607961
 20
267.7549270506285
 10
419.6786887372086
 20
268.0508660214946
 10
420.0108155183305
 20
268.4206108902121
 10
420.2177405095313
 20
268.8433508014593
 10
420.2497925366136
 20
269.2485081766143
 10
420.2302255615433
 20
269.5689826234021
 10
420.090409696629
 20
269.7923612689053
 10
419.9450540435152
 20
270.0190677506338
 10
419.6785209270622
 20
270.2154493255562
 10
419.4601356313036
 20
270.3014936477208
 10
419.3490822667646
 20
270.3421928448234
 72
     1
 10
419.3490822667645
 20
270.3421928448233
 11
415.8826679091324
 21
270.3421928448234
 72
     1
 10
415.8826679091324
 20
270.3421928448234
 11
413.7001669908795
 21
265.9312350020508
 97
        6
330
1223
330
123C
330
1224
330
121A
330
1226
330
122B
 92
       20
 93
        4
 72
     1
 10
416.912681088051
 20
268.4998457599605
 11
417.2523315703848
 21
269.2505734058345
 72
     1
 10
417.2523315703848
 20
269.2505734058345
 11
418.1250885533535
 21
269.2505734058345
 72
     4
 94
        3
 73
     0
 74
     0
 95
       15
 96
       11
 40
0.0
 40
0.0
 40
0.0
 40
0.0
 40
0.3666775141712361
 40
0.5338622919137399
 40
0.7236281444783966
 40
0.8529054663465613
 40
1.057358891676737
 40
1.179820908402638
 40
1.389925599509188
 40
1.459960541243854
 40
1.459960541243854
 40
1.459960541243854
 40
1.459960541243854
 10
418.1250885533538
 20
269.2505734058344
 10
418.249403083988
 20
269.2511428327419
 10
418.4303982027984
 20
269.2519718869984
 10
418.5293727800825
 20
269.0280804016114
 10
418.4850076554194
 20
268.8839292116674
 10
418.4292370779023
 20
268.7359308682736
 10
418.3306778362282
 20
268.6353637618053
 10
418.1983968976402
 20
268.5385006850036
 10
418.0733850892436
 20
268.5267749758241
 10
417.9920789409302
 20
268.5052316051956
 10
417.9717523941222
 20
268.4998457599604
 72
     1
 10
417.971752394122
 20
268.4998457599604
 11
416.912681088051
 21
268.4998457599605
 97
        4
330
122A
330
1228
330
1229
330
1227
 75
     0
 76
     1
 47
0.0514683685270805
 98
        2
 10
415.9011953560665
 20
268.9702678933708
 10
415.9011953560665
 20
268.9702678933708
450
        0
451
        0
460
0.0
461
0.0
452
        0
462
0.0
453
        0
470

  0
HATCH
  5
121E
330
18
100
AcDbEntity
  8
ROGO
 62
     4
100
AcDbHatch
 10
0.0
 20
0.0
 30
0.0
210
0.0
220
0.0
230
1.0
  2
SOLID
 70
     1
 71
     1
 91
        1
 92
        1
 93
       12
 72
     1
 10
421.3969538588659
 20
270.3421928448234
 11
425.2150292495035
 21
270.3421928448234
 72
     1
 10
425.2150292495035
 20
270.3421928448234
 11
424.8950779113555
 21
269.695553087421
 72
     1
 10
424.8950779113555
 20
269.695553087421
 11
422.8883939666603
 21
269.695553087421
 72
     1
 10
422.8883939666603
 20
269.695553087421
 11
422.6382317792107
 21
269.189961152285
 72
     1
 10
422.6382317792107
 20
269.189961152285
 11
424.6449157239061
 21
269.189961152285
 72
     1
 10
424.6449157239061
 20
269.189961152285
 11
424.3883978358711
 21
268.6715239866574
 72
     1
 10
424.3883978358711
 20
268.6715239866575
 11
422.381713891176
 21
268.6715239866574
 72
     1
 10
422.381713891176
 20
268.6715239866574
 11
422.1315411130619
 21
268.1659106471893
 72
     1
 10
422.1315411130619
 20
268.1659106471893
 11
424.1382250577572
 21
268.1659106471893
 72
     1
 10
424.1382250577572
 20
268.1659106471893
 11
423.8182898135177
 21
267.5193034164866
 72
     1
 10
423.8182898135177
 20
267.5193034164866
 11
420.0002144228799
 21
267.5193034164866
 72
     1
 10
420.0002144228799
 20
267.5193034164866
 11
421.3969538588659
 21
270.3421928448234
 97
       12
330
123B
330
123F
330
123E
330
1221
330
1236
330
1233
330
1234
330
1231
330
1235
330
1232
330
1225
330
1222
 75
     0
 76
     1
 98
        1
 10
265.2197670998727
 20
75.15202039485213
450
        0
451
        0
460
0.0
461
0.0
452
        0
462
0.0
453
        0
470

  0
SPLINE
  5
121F
102
{ACAD_REACTORS
330
1214
102
}
330
18
100
AcDbEntity
  8
ROGO
 62
     4
100
AcDbSpline
210
0.0
220
0.0
230
1.0
 70
     8
 71
     3
 72
    26
 73
    22
 74
    20
 42
0.0000000001
 43
0.0000000001
 44
0.0000000001
 40
0.0
 40
0.0
 40
0.0
 40
0.0
 40
0.5121044831870267
 40
0.8549187813365149
 40
1.10211580803346
 40
1.28668982934312
 40
1.526092022200462
 40
1.700832284304806
 40
2.016372469319495
 40
2.273217643523651
 40
2.447913516981084
 40
2.619211765297987
 40
2.925631029111539
 40
3.142306021278768
 40
3.259002244952135
 40
3.424765783525054
 40
3.544467354111335
 40
3.717875410167797
 40
3.816009370436898
 40
4.029559875681778
 40
4.127068891472692
 40
4.127068891472692
 40
4.127068891472692
 40
4.127068891472692
 10
431.6182552786633
 20
270.3421928448234
 30
0.0
 10
431.4444391046179
 20
270.3318226738165
 30
0.0
 10
431.1542664610067
 20
270.3145104763047
 30
0.0
 10
430.8356586635241
 20
270.1209596609283
 30
0.0
 10
430.6022279387654
 20
270.0084377224388
 30
0.0
 10
430.4357454289621
 20
269.8554737333011
 30
0.0
 10
430.3137130744056
 20
269.6974731063295
 30
0.0
 10
430.1598683823329
 20
269.509216517783
 30
0.0
 10
430.0344124320639
 20
269.2899993384307
 30
0.0
 10
429.9705253435508
 20
269.0483837899628
 30
0.0
 10
429.9139347668992
 20
268.8558147959359
 30
0.0
 10
429.8719662478764
 20
268.641221782859
 30
0.0
 10
429.8826442272294
 20
268.4093858388622
 30
0.0
 10
429.8979355823542
 20
268.1940684828439
 30
0.0
 10
429.9662077646229
 20
268.0403641280765
 30
0.0
 10
430.0439576871396
 20
267.9309372191237
 30
0.0
 10
430.1391614024814
 20
267.810415610502
 30
0.0
 10
430.243335086409
 20
267.7305945393763
 30
0.0
 10
430.3294952262638
 20
267.5859933051847
 30
0.0
 10
430.4803156445244
 20
267.5675411448311
 30
0.0
 10
430.5761831025326
 20
267.5308158384938
 30
0.0
 10
430.6062350406492
 20
267.5193034164865
 30
0.0
 11
431.6182552786633
 21
270.3421928448234
 31
0.0
 11
431.1122451596562
 21
270.2634225384722
 31
0.0
 11
430.8055719594793
 21
270.1102129065654
 31
0.0
 11
430.5909011602121
 21
269.9876453009358
 31
0.0
 11
430.4528988814174
 21
269.8650771958273
 31
0.0
 11
430.2995627221857
 21
269.6812255376433
 31
0.0
 11
430.1922273225521
 21
269.5433369188752
 31
0.0
 11
430.0388902816068
 21
269.2675591818599
 31
0.0
 11
429.9622226428477
 21
269.0224234711219
 31
0.0
 11
429.9162218832496
 21
268.8538928260764
 31
0.0
 11
429.8855541223753
 21
268.685362181031
 31
0.0
 11
429.8855541223753
 21
268.3789429172175
 31
0.0
 11
429.9162218832496
 21
268.1644492327566
 31
0.0
 11
429.9622226428477
 21
268.0572021407865
 31
0.0
 11
430.054224162044
 21
267.9193135220184
 31
0.0
 11
430.1308926825168
 21
267.8273874431869
 31
0.0
 11
430.2535610808739
 21
267.7048198375573
 31
0.0
 11
430.3148957209095
 21
267.6282147718644
 31
0.0
 11
430.5142335214529
 21
267.5516102056505
 31
0.0
 11
430.6062350406492
 21
267.5193034164865
 31
0.0
  0
LINE
  5
1220
102
{ACAD_REACTORS
330
121B
102
}
330
18
100
AcDbEntity
  8
ROGO
 62
     4
100
AcDbLine
 10
426.3210461013905
 20
270.3421928448234
 30
0.0
 11
424.2854056724004
 21
267.5193034164866
 31
0.0
  0
LINE
  5
1221
102
{ACAD_REACTORS
330
121E
102
}
330
18
100
AcDbEntity
  8
ROGO
 62
     4
100
AcDbLine
 10
422.8883939666603
 20
269.695553087421
 30
0.0
 11
422.6382317792107
 21
269.189961152285
 31
0.0
  0
LINE
  5
1222
102
{ACAD_REACTORS
330
121E
102
}
330
18
100
AcDbEntity
  8
ROGO
 62
     4
100
AcDbLine
 10
421.3969538588659
 20
270.3421928448234
 30
0.0
 11
420.0002144228799
 21
267.5193034164866
 31
0.0
  0
SPLINE
  5
1223
102
{ACAD_REACTORS
330
121D
102
}
330
18
100
AcDbEntity
  8
ROGO
 62
     4
100
AcDbSpline
210
0.0
220
0.0
230
1.0
 70
     8
 71
     3
 72
    18
 73
    14
 74
     0
 42
0.0000000001
 43
0.0000000001
 40
0.1087402787915014
 40
0.1087402787915014
 40
0.1087402787915014
 40
0.1087402787915014
 40
0.5992371417938475
 40
1.083176791562496
 40
1.448211145705696
 40
1.714037220764907
 40
2.164002567013297
 40
2.740236056362883
 40
3.395137510199602
 40
4.071816045172726
 40
4.784906178399433
 40
5.506895915094292
 40
6.060470601257719
 40
6.060470601257719
 40
6.060470601257719
 40
6.060470601257719
 10
419.3490822667646
 20
270.3421928448234
 30
0.0
 10
419.4601356313036
 20
270.3014936477208
 30
0.0
 10
419.6785209270622
 20
270.2154493255562
 30
0.0
 10
419.9450540435152
 20
270.0190677506338
 30
0.0
 10
420.090409696629
 20
269.7923612689053
 30
0.0
 10
420.2302255615433
 20
269.5689826234021
 30
0.0
 10
420.2497925366136
 20
269.2485081766143
 30
0.0
 10
420.2177405095313
 20
268.8433508014593
 30
0.0
 10
420.0108155183305
 20
268.4206108902121
 30
0.0
 10
419.6786887372086
 20
268.0508660214946
 30
0.0
 10
419.2663301607961
 20
267.7549270506285
 30
0.0
 10
418.8314838184107
 20
267.5226225794005
 30
0.0
 10
418.5206555306355
 20
267.5203079352568
 30
0.0
 10
418.3857609939328
 20
267.5193034164865
 30
0.0
  0
LINE
  5
1224
102
{ACAD_REACTORS
330
121D
102
}
330
18
100
AcDbEntity
  8
ROGO
 62
     4
100
AcDbLine
 10
415.8826679091324
 20
270.3421928448234
 30
0.0
 11
413.7001669908794
 21
265.9312350020507
 31
0.0
  0
LINE
  5
1225
102
{ACAD_REACTORS
330
121E
102
}
330
18
100
AcDbEntity
  8
ROGO
 62
     4
100
AcDbLine
 10
420.0002144228799
 20
267.5193034164866
 30
0.0
 11
423.8182898135177
 21
267.5193034164866
 31
0.0
  0
LINE
  5
1226
102
{ACAD_REACTORS
330
1213
330
121D
102
}
330
18
100
AcDbEntity
  8
ROGO
 62
     4
100
AcDbLine
 10
416.4690559175384
 20
267.5193034164866
 30
0.0
 11
415.7505687192763
 21
265.9312350020508
 31
0.0
  0
LINE
  5
1227
102
{ACAD_REACTORS
330
121D
102
}
330
18
100
AcDbEntity
  8
ROGO
 62
     4
100
AcDbLine
 10
417.9717523941222
 20
268.4998457599604
 30
0.0
 11
416.9126810880513
 21
268.4998457599605
 31
0.0
  0
LINE
  5
1228
102
{ACAD_REACTORS
330
121D
102
}
330
18
100
AcDbEntity
  8
ROGO
 62
     4
100
AcDbLine
 10
418.1250885533539
 20
269.2505734058345
 30
0.0
 11
417.2523315703848
 21
269.2505734058345
 31
0.0
  0
SPLINE
  5
1229
102
{ACAD_REACTORS
330
121D
102
}
330
18
100
AcDbEntity
  8
ROGO
 62
     4
100
AcDbSpline
210
0.0
220
0.0
230
1.0
 70
     8
 71
     3
 72
    15
 73
    11
 74
     9
 42
0.0000000001
 43
0.0000000001
 44
0.0000000001
 40
0.0
 40
0.0
 40
0.0
 40
0.0
 40
0.3309929428559078
 40
0.4819075188716696
 40
0.6532056093365205
 40
0.7699018330098284
 40
0.954458121060172
 40
1.065002296084892
 40
1.254659876191371
 40
1.317879109909272
 40
1.317879109909272
 40
1.317879109909272
 40
1.317879109909272
 10
418.1250885533538
 20
269.2505734058344
 30
0.0
 10
418.2494030839881
 20
269.2511428327419
 30
0.0
 10
418.4303982027984
 20
269.2519718869985
 30
0.0
 10
418.5293727800823
 20
269.0280804016114
 30
0.0
 10
418.4850076554196
 20
268.8839292116675
 30
0.0
 10
418.4292370779021
 20
268.7359308682736
 30
0.0
 10
418.3306778362282
 20
268.6353637618053
 30
0.0
 10
418.1983968976402
 20
268.5385006850036
 30
0.0
 10
418.0733850892433
 20
268.5267749758241
 30
0.0
 10
417.9920789409303
 20
268.5052316051956
 30
0.0
 10
417.9717523941222
 20
268.4998457599604
 30
0.0
 11
418.1250885533538
 21
269.2505734058344
 31
0.0
 11
418.4470947522547
 21
269.1739683401416
 31
0.0
 11
418.50842939229
 21
269.0360797213735
 31
0.0
 11
418.4777625131292
 21
268.8675490763281
 31
0.0
 11
418.431761753531
 21
268.7603019843582
 31
0.0
 11
418.30909247346
 21
268.62241336559
 31
0.0
 11
418.2170909542637
 21
268.5611293130357
 31
0.0
 11
418.0330870341577
 21
268.5151667730989
 31
0.0
 11
417.9717523941222
 21
268.4998457599604
 31
0.0
  0
LINE
  5
122A
102
{ACAD_REACTORS
330
121D
102
}
330
18
100
AcDbEntity
  8
ROGO
 62
     4
100
AcDbLine
 10
417.2523315703848
 20
269.2505734058345
 30
0.0
 11
416.9126810880511
 21
268.4998457599605
 31
0.0
  0
LINE
  5
122B
102
{ACAD_REACTORS
330
121D
102
}
330
18
100
AcDbEntity
  8
ROGO
 62
     4
100
AcDbLine
 10
418.3857609945973
 20
267.5193034164866
 30
0.0
 11
416.4690559175384
 21
267.5193034164866
 31
0.0
  0
LINE
  5
122C
102
{ACAD_REACTORS
330
121B
102
}
330
18
100
AcDbEntity
  8
ROGO
 62
     4
100
AcDbLine
 10
426.6451397812637
 20
268.6236400855571
 30
0.0
 11
427.7685260353606
 21
268.6236400855571
 31
0.0
  0
LINE
  5
122D
102
{ACAD_REACTORS
330
121B
102
}
330
18
100
AcDbEntity
  8
ROGO
 62
     4
100
AcDbLine
 10
426.2363544894338
 20
268.0567640978669
 30
0.0
 11
428.0203548110622
 21
268.0567640978669
 31
0.0
  0
LINE
  5
122E
102
{ACAD_REACTORS
330
121B
102
}
330
18
100
AcDbEntity
  8
ROGO
 62
     4
100
AcDbLine
 10
427.3402866155334
 20
269.587623027562
 30
0.0
 11
426.6451397812635
 21
268.6236400855571
 31
0.0
  0
LINE
  5
122F
102
{ACAD_REACTORS
330
121B
102
}
330
18
100
AcDbEntity
  8
ROGO
 62
     4
100
AcDbLine
 10
424.2854056724004
 20
267.5193034164866
 30
0.0
 11
425.848781146664
 21
267.5193034164866
 31
0.0
  0
LINE
  5
1230
102
{ACAD_REACTORS
330
121B
102
}
330
18
100
AcDbEntity
  8
ROGO
 62
     4
100
AcDbLine
 10
426.2363544894338
 20
268.0567640978669
 30
0.0
 11
425.848781146664
 21
267.5193034164867
 31
0.0
  0
LINE
  5
1231
102
{ACAD_REACTORS
330
121E
102
}
330
18
100
AcDbEntity
  8
ROGO
 62
     4
100
AcDbLine
 10
422.381713891176
 20
268.6715239866574
 30
0.0
 11
422.1315411130619
 21
268.1659106471893
 31
0.0
  0
LINE
  5
1232
102
{ACAD_REACTORS
330
121E
102
}
330
18
100
AcDbEntity
  8
ROGO
 62
     4
100
AcDbLine
 10
424.1382250577572
 20
268.1659106471893
 30
0.0
 11
423.8182898135177
 21
267.5193034164866
 31
0.0
  0
LINE
  5
1233
102
{ACAD_REACTORS
330
121E
102
}
330
18
100
AcDbEntity
  8
ROGO
 62
     4
100
AcDbLine
 10
424.6449157239061
 20
269.189961152285
 30
0.0
 11
424.3883978358711
 21
268.6715239866574
 31
0.0
  0
LINE
  5
1234
102
{ACAD_REACTORS
330
121E
102
}
330
18
100
AcDbEntity
  8
ROGO
 62
     4
100
AcDbLine
 10
422.381713891176
 20
268.6715239866574
 30
0.0
 11
424.3883978358711
 21
268.6715239866575
 31
0.0
  0
LINE
  5
1235
102
{ACAD_REACTORS
330
121E
102
}
330
18
100
AcDbEntity
  8
ROGO
 62
     4
100
AcDbLine
 10
422.1315411130619
 20
268.1659106471893
 30
0.0
 11
424.1382250577572
 21
268.1659106471893
 31
0.0
  0
LINE
  5
1236
102
{ACAD_REACTORS
330
121E
102
}
330
18
100
AcDbEntity
  8
ROGO
 62
     4
100
AcDbLine
 10
422.6382317792107
 20
269.189961152285
 30
0.0
 11
424.6449157239061
 21
269.189961152285
 31
0.0
  0
LINE
  5
1237
102
{ACAD_REACTORS
330
121B
102
}
330
18
100
AcDbEntity
  8
ROGO
 62
     4
100
AcDbLine
 10
428.0203548110622
 20
268.0567640978669
 30
0.0
 11
428.2591161421451
 21
267.5193034164866
 31
0.0
  0
LINE
  5
1238
102
{ACAD_REACTORS
330
121B
102
}
330
18
100
AcDbEntity
  8
ROGO
 62
     4
100
AcDbLine
 10
427.3402866155334
 20
269.587623027562
 30
0.0
 11
427.7685260353606
 21
268.6236400855571
 31
0.0
  0
SPLINE
  5
1239
102
{ACAD_REACTORS
330
1214
102
}
330
18
100
AcDbEntity
  8
ROGO
 62
     4
100
AcDbSpline
210
0.0
220
0.0
230
1.0
 70
     8
 71
     3
 72
    16
 73
    12
 74
    10
 42
0.0000000001
 43
0.0000000001
 44
0.0000000001
 40
0.0
 40
0.0
 40
0.0
 40
0.0
 40
0.2699844155141843
 40
0.4018523326865468
 40
0.466880564062979
 40
0.5354097305143024
 40
0.6335433008819362
 40
0.7228988042010628
 40
0.8160945124100619
 40
0.972343851340554
 40
1.126998044613022
 40
1.126998044613022
 40
1.126998044613022
 40
1.126998044613022
 10
432.1549322768309
 20
269.2918949548055
 30
0.0
 10
432.0635033095249
 20
269.2779559919277
 30
0.0
 10
431.927417885049
 20
269.2572088508863
 30
0.0
 10
431.8043557441852
 20
269.1597942141244
 30
0.0
 10
431.7349572411312
 20
269.1018389895149
 30
0.0
 10
431.7113475612127
 20
269.0250898207045
 30
0.0
 10
431.6479393751062
 20
268.9661582405723
 30
0.0
 10
431.5956729937185
 20
268.885167279956
 30
0.0
 10
431.583192966614
 20
268.7739248836945
 30
0.0
 10
431.592353592241
 20
268.6178131339674
 30
0.0
 10
431.7018100977171
 20
268.5856094251356
 30
0.0
 10
431.7562575574578
 20
268.5695901841368
 30
0.0
 11
432.1549322768309
 21
269.2918949548055
 31
0.0
 11
431.8942607179659
 21
269.2215961424443
 31
0.0
 11
431.7869253183322
 21
269.1449915762302
 31
0.0
 11
431.740924558734
 21
269.0990285368144
 31
0.0
 11
431.7102567978596
 21
269.0377444842602
 31
0.0
 11
431.6489221578241
 21
268.9611399180464
 31
0.0
 11
431.6029213982259
 21
268.8845348523535
 31
0.0
 11
431.5875875177887
 21
268.7926092730009
 31
0.0
 11
431.6182552786632
 21
268.6393991416155
 31
0.0
 11
431.7562575574578
 21
268.5695901841368
 31
0.0
  0
LINE
  5
123A
102
{ACAD_REACTORS
330
121B
102
}
330
18
100
AcDbEntity
  8
ROGO
 62
     4
100
AcDbLine
 10
429.8331552219476
 20
267.5193034164867
 30
0.0
 11
428.2591161421451
 21
267.5193034164866
 31
0.0
  0
LINE
  5
123B
102
{ACAD_REACTORS
330
121E
102
}
330
18
100
AcDbEntity
  8
ROGO
 62
     4
100
AcDbLine
 10
421.3969538588659
 20
270.3421928448234
 30
0.0
 11
425.2150292495035
 21
270.3421928448234
 31
0.0
  0
LINE
  5
123C
102
{ACAD_REACTORS
330
121D
102
}
330
18
100
AcDbEntity
  8
ROGO
 62
     4
100
AcDbLine
 10
415.8826679091324
 20
270.3421928448234
 30
0.0
 11
419.3490822667646
 21
270.3421928448234
 31
0.0
  0
LINE
  5
123D
102
{ACAD_REACTORS
330
121B
102
}
330
18
100
AcDbEntity
  8
ROGO
 62
     4
100
AcDbLine
 10
426.3210461013905
 20
270.3421928448234
 30
0.0
 11
428.5791158833336
 21
270.3421928448234
 31
0.0
  0
LINE
  5
123E
102
{ACAD_REACTORS
330
121E
102
}
330
18
100
AcDbEntity
  8
ROGO
 62
     4
100
AcDbLine
 10
422.8883939666603
 20
269.695553087421
 30
0.0
 11
424.8950779113555
 21
269.695553087421
 31
0.0
  0
LINE
  5
123F
102
{ACAD_REACTORS
330
121E
102
}
330
18
100
AcDbEntity
  8
ROGO
 62
     4
100
AcDbLine
 10
425.2150292495035
 20
270.3421928448234
 30
0.0
 11
424.8950779113555
 21
269.695553087421
 31
0.0
  0
HATCH
  5
1240
330
18
100
AcDbEntity
  8
ROGO
 62
     4
100
AcDbHatch
 10
0.0
 20
0.0
 30
0.0
210
0.0
220
0.0
230
1.0
  2
SOLID
 70
     1
 71
     1
 91
        1
 92
        7
 72
     0
 73
     1
 93
       11
 10
445.3608624450803
 20
269.5469270066061
 10
445.7574076767103
 20
270.3421928448233
 10
444.1320419200558
 20
270.3421928448234
 10
441.9325958789727
 20
265.9312350020508
 10
443.5579616356271
 20
265.9312350020508
 10
444.132041920056
 20
267.0825448708463
 10
444.7061222044847
 20
265.9312350020508
 10
446.3314523994435
 20
265.9312350020508
 10
445.231729378902
 20
268.136713923437
 10
447.9036309153862
 20
270.3421928448234
 10
446.2783007204274
 20
270.3421928448234
 97
       11
330
125C
330
1241
330
1247
330
125D
330
1248
330
121A
330
124C
330
1259
330
1257
330
1258
330
1246
 75
     0
 76
     1
 47
0.015942268611278
 98
        1
 10
445.0094263305405
 20
268.9111932712799
450
        0
451
        0
460
0.0
461
0.0
452
        0
462
0.0
453
        0
470

  0
LINE
  5
1241
102
{ACAD_REACTORS
330
1240
102
}
330
18
100
AcDbEntity
  8
ROGO
 62
     4
100
AcDbLine
 10
445.360862445079
 20
269.5469270066051
 30
0.0
 11
446.2783007204273
 21
270.3421928448234
 31
0.0
  0
HATCH
  5
1242
330
18
100
AcDbEntity
  8
ROGO
 62
     4
100
AcDbHatch
 10
0.0
 20
0.0
 30
0.0
210
0.0
220
0.0
230
1.0
  2
SOLID
 70
     1
 71
     1
 91
        2
 92
        5
 93
        6
 72
     4
 94
        3
 73
     0
 74
     0
 95
       38
 96
       34
 40
0.0
 40
0.0
 40
0.0
 40
0.0
 40
0.4304952251389935
 40
0.5656948252684748
 40
0.7394171190733941
 40
0.8841859806146851
 40
1.006333837547923
 40
1.168574067185899
 40
1.251472430224647
 40
1.344837746817574
 40
1.482440654064326
 40
1.638314889053885
 40
1.739428978741212
 40
1.849272801520911
 40
1.971376724615851
 40
2.156675615150043
 40
2.332728884784048
 40
2.414575171219349
 40
2.507909911986884
 40
2.618480757166994
 40
2.697192990191703
 40
2.763176509963206
 40
2.857386069883699
 40
2.960906238233388
 40
3.064425830199678
 40
3.155005617266038
 40
3.362449430445974
 40
3.444295716881311
 40
3.607988386973045
 40
3.752685425402288
 40
4.029697057465814
 40
4.37150072890459
 40
4.865114969397234
 40
4.865114969397234
 40
4.865114969397234
 40
4.865114969397234
 10
436.0128384663583
 20
270.3539673136869
 10
435.8833064390857
 20
270.3448167890338
 10
435.7130941039526
 20
270.3327924873866
 10
435.4969642378189
 20
270.2735793477609
 10
435.3791495485689
 20
270.2030374312384
 10
435.2565398157179
 20
270.1511857413072
 10
435.1520035991417
 20
270.0744036709405
 10
435.0462674230012
 20
270.0348386098192
 10
434.9722277157069
 20
269.9634957327293
 10
434.8865327938191
 20
269.9199164241895
 10
434.8182924060495
 20
269.8223732622396
 10
434.7420190074616
 20
269.731173940477
 10
434.6535322695602
 20
269.6646025029257
 10
434.5809100161926
 20
269.5946830164064
 10
434.5142891967559
 20
269.4867762402907
 10
434.4748600141079
 20
269.3434000875616
 10
434.3637157664887
 20
269.2528775554231
 10
434.3469809226873
 20
269.1440424618391
 10
434.2855036499874
 20
269.0798315880505
 10
434.2587711816905
 20
268.9969445746834
 10
434.2485901709985
 20
268.9210054295312
 10
434.2363705305054
 20
268.85008352487
 10
434.2044062652044
 20
268.7754768140018
 10
434.2148395116823
 20
268.6833178646131
 10
434.2118673929887
 20
268.5940772950154
 10
434.2136164883288
 20
268.4735997471725
 10
434.2073037610107
 20
268.3563000386981
 10
434.2576452875444
 20
268.2286501344178
 10
434.2874357322905
 20
268.1148679045394
 10
434.3690217112984
 20
267.9573226096169
 10
434.5097558153419
 20
267.7755494037907
 10
434.7773734863172
 20
267.5549111718605
 10
435.0346957014203
 20
267.5325284502771
 10
435.1867368630423
 20
267.5193034164865
 72
     1
 10
435.1867368630421
 20
267.5193034164866
 11
436.7999998887971
 21
267.5193034164866
 72
     4
 94
        3
 73
     0
 74
     0
 95
       11
 96
        7
 40
0.1647869275458135
 40
0.1647869275458135
 40
0.1647869275458135
 40
0.1647869275458135
 40
0.2545010798212315
 40
0.5111620267764023
 40
0.7602998271033902
 40
0.8850764140209603
 40
0.8850764140209603
 40
0.8850764140209603
 40
0.8850764140209603
 10
436.7999998887965
 20
267.5193034164865
 10
436.8225115065318
 20
267.5188695700528
 10
436.9094260415202
 20
267.5171945433403
 10
437.0579640236419
 20
267.5385337707137
 10
437.2142457686587
 20
267.5589827226077
 10
437.3074166595054
 20
267.5738750772213
 10
437.3374665647199
 20
267.582239479791
 72
     4
 94
        3
 73
     0
 74
     0
 95
        9
 96
        5
 40
0.0
 40
0.0
 40
0.0
 40
0.0
 40
0.2704867958046346
 40
0.6341731770258279
 40
0.6341731770258279
 40
0.6341731770258279
 40
0.6341731770258279
 10
437.3374665647199
 20
267.582239479791
 10
437.415898906011
 20
267.6062353465586
 10
437.5997884260526
 20
267.6624951540595
 10
437.7517232938775
 20
267.7814009606225
 10
437.8388550810019
 20
267.8495912027547
 72
     4
 94
        3
 73
     0
 74
     0
 95
       25
 96
       21
 40
0.0
 40
0.0
 40
0.0
 40
0.0
 40
0.165525918914855
 40
0.3412380755365305
 40
0.5940540902285263
 40
0.7697671103696209
 40
0.9377330196075423
 40
1.11479469302833
 40
1.274661249598185
 40
1.574522170874768
 40
1.815540668866877
 40
2.15849091873445
 40
2.536227739636605
 40
2.738070817316548
 40
2.925680654369045
 40
3.162706124480894
 40
3.395643218188267
 40
3.648478129958861
 40
3.928509979727306
 40
4.337226830236035
 40
4.337226830236035
 40
4.337226830236035
 40
4.337226830236035
 10
437.8388550810019
 20
267.8495912027547
 10
437.8708700735123
 20
267.8760472142529
 10
437.9315937611484
 20
267.9389696834229
 10
438.0392972201997
 20
268.0409529867775
 10
438.134207550718
 20
268.1597716280937
 10
438.251286276492
 20
268.2560699727083
 10
438.3122370950884
 20
268.3738018374774
 10
438.4000928888029
 20
268.4663954414236
 10
438.4737895132438
 20
268.6093971292282
 10
438.5363174567068
 20
268.7736607676176
 10
438.5959292167565
 20
268.9877752985215
 10
438.6187730581771
 20
269.2293283159955
 10
438.584961332005
 20
269.4630307391778
 10
438.503280748848
 20
269.6377156239648
 10
438.4432302203117
 20
269.783297471851
 10
438.3520960199481
 20
269.9211891149948
 10
438.2481242147369
 20
270.0711615261112
 10
438.1016463518818
 20
270.1952129900284
 10
437.9102148243567
 20
270.3448390453478
 10
437.7319106505495
 20
270.3505677745547
 10
437.6261014921123
 20
270.3539673136869
 72
     1
 10
437.6261014921122
 20
270.3539673136869
 11
436.0128384663583
 21
270.3539673136869
 97
        6
330
1243
330
125A
330
1244
330
1250
330
124F
330
124E
 92
       20
 93
        1
 72
     3
 10
436.3835751365476
 20
268.8971130034402
 11
0.3832615949304192
 21
0.3370306137668553
 40
0.6788083417438794
 50
0.0
 51
360.0
 73
     1
 97
        1
330
124D
 75
     0
 76
     1
 47
0.088756267210375
 98
        2
 10
436.4962875193449
 20
269.5710217858777
 10
436.4962875193449
 20
269.5710217858777
450
        0
451
        0
460
0.0
461
0.0
452
        0
462
0.0
453
        0
470

  0
SPLINE
  5
1243
102
{ACAD_REACTORS
330
1242
102
}
330
18
100
AcDbEntity
  8
ROGO
 62
     4
100
AcDbSpline
210
0.0
220
0.0
230
1.0
 70
     8
 71
     3
 72
    25
 73
    21
 74
     0
 42
0.0000000001
 43
0.0000000001
 40
0.0
 40
0.0
 40
0.0
 40
0.0
 40
0.4087168505087288
 40
0.6887487002771746
 40
0.9415836120477687
 40
1.17452070575514
 40
1.41154617586699
 40
1.599156012919487
 40
1.80099909059943
 40
2.178735911501585
 40
2.521686161369157
 40
2.762704659361267
 40
3.06256558063785
 40
3.222432137207705
 40
3.399493810628493
 40
3.567459719866414
 40
3.743172740007509
 40
3.995988754699505
 40
4.17170091132118
 40
4.337226830236035
 40
4.337226830236035
 40
4.337226830236035
 40
4.337226830236035
 10
437.6261014921123
 20
270.3539673136869
 30
0.0
 10
437.7319106505495
 20
270.3505677745547
 30
0.0
 10
437.9102148243567
 20
270.3448390453478
 30
0.0
 10
438.1016463518818
 20
270.1952129900284
 30
0.0
 10
438.2481242147369
 20
270.0711615261112
 30
0.0
 10
438.3520960199481
 20
269.9211891149948
 30
0.0
 10
438.4432302203117
 20
269.783297471851
 30
0.0
 10
438.503280748848
 20
269.6377156239648
 30
0.0
 10
438.584961332005
 20
269.4630307391778
 30
0.0
 10
438.6187730581771
 20
269.2293283159955
 30
0.0
 10
438.5959292167565
 20
268.9877752985215
 30
0.0
 10
438.5363174567068
 20
268.7736607676176
 30
0.0
 10
438.4737895132438
 20
268.6093971292282
 30
0.0
 10
438.4000928888029
 20
268.4663954414236
 30
0.0
 10
438.3122370950884
 20
268.3738018374774
 30
0.0
 10
438.251286276492
 20
268.2560699727083
 30
0.0
 10
438.134207550718
 20
268.1597716280937
 30
0.0
 10
438.0392972201997
 20
268.0409529867775
 30
0.0
 10
437.9315937611484
 20
267.9389696834229
 30
0.0
 10
437.8708700735123
 20
267.8760472142529
 30
0.0
 10
437.8388550810019
 20
267.8495912027547
 30
0.0
  0
SPLINE
  5
1244
102
{ACAD_REACTORS
330
1242
102
}
330
18
100
AcDbEntity
  8
ROGO
 62
     4
100
AcDbSpline
210
0.0
220
0.0
230
1.0
 70
     8
 71
     3
 72
    38
 73
    34
 74
    32
 42
0.0000000001
 43
0.0000000001
 44
0.0000000001
 40
0.0
 40
0.0
 40
0.0
 40
0.0
 40
0.3885999984924665
 40
0.5106421521297752
 40
0.6674580217804999
 40
0.798138168949479
 40
0.9083987577975246
 40
1.054849982598908
 40
1.129680786451504
 40
1.213959913764904
 40
1.338171487845299
 40
1.478876248188272
 40
1.570150048234167
 40
1.66930401527942
 40
1.779524945872321
 40
1.946790793150902
 40
2.105710791142223
 40
2.179591905096731
 40
2.263843432183587
 40
2.363653668769616
 40
2.43470573125157
 40
2.494267822040034
 40
2.579309032035451
 40
2.672754754346625
 40
2.766199956367314
 40
2.847964638208066
 40
3.035220293512782
 40
3.109101407467379
 40
3.256863723136067
 40
3.387479036923404
 40
3.637532262873811
 40
3.94607205251482
 40
4.391648407163986
 40
4.391648407163986
 40
4.391648407163986
 40
4.391648407163986
 10
436.0128384663583
 20
270.3539673136869
 30
0.0
 10
435.8833064390857
 20
270.3448167890337
 30
0.0
 10
435.7130941039525
 20
270.3327924873865
 30
0.0
 10
435.4969642378189
 20
270.2735793477609
 30
0.0
 10
435.3791495485687
 20
270.2030374312385
 30
0.0
 10
435.2565398157178
 20
270.1511857413071
 30
0.0
 10
435.152003599142
 20
270.0744036709406
 30
0.0
 10
435.0462674230012
 20
270.0348386098192
 30
0.0
 10
434.9722277157069
 20
269.9634957327291
 30
0.0
 10
434.8865327938192
 20
269.9199164241896
 30
0.0
 10
434.8182924060495
 20
269.8223732622394
 30
0.0
 10
434.7420190074617
 20
269.7311739404771
 30
0.0
 10
434.6535322695601
 20
269.6646025029257
 30
0.0
 10
434.5809100161929
 20
269.5946830164065
 30
0.0
 10
434.5142891967558
 20
269.4867762402907
 30
0.0
 10
434.4748600141079
 20
269.3434000875616
 30
0.0
 10
434.3637157664886
 20
269.2528775554231
 30
0.0
 10
434.3469809226873
 20
269.1440424618392
 30
0.0
 10
434.2855036499876
 20
269.0798315880504
 30
0.0
 10
434.2587711816904
 20
268.9969445746834
 30
0.0
 10
434.2485901709984
 20
268.9210054295314
 30
0.0
 10
434.2363705305056
 20
268.85008352487
 30
0.0
 10
434.2044062652044
 20
268.7754768140018
 30
0.0
 10
434.2148395116823
 20
268.6833178646129
 30
0.0
 10
434.2118673929888
 20
268.5940772950155
 30
0.0
 10
434.2136164883286
 20
268.4735997471725
 30
0.0
 10
434.2073037610107
 20
268.3563000386981
 30
0.0
 10
434.2576452875445
 20
268.2286501344178
 30
0.0
 10
434.2874357322907
 20
268.1148679045396
 30
0.0
 10
434.3690217112984
 20
267.9573226096169
 30
0.0
 10
434.5097558153419
 20
267.7755494037906
 30
0.0
 10
434.7773734863173
 20
267.5549111718605
 30
0.0
 10
435.0346957014203
 20
267.5325284502771
 30
0.0
 10
435.1867368630423
 20
267.5193034164865
 30
0.0
 11
436.0128384663583
 21
270.3539673136869
 31
0.0
 11
435.6270575586344
 21
270.3072441923861
 31
0.0
 11
435.5101542810954
 21
270.2722026318462
 31
0.0
 11
435.3698708991194
 21
270.2021184701855
 31
0.0
 11
435.2529676215805
 21
270.1437153489952
 31
0.0
 11
435.15944536693
 21
270.0853117075144
 31
0.0
 11
435.0308520371726
 21
270.0152280661441
 31
0.0
 11
434.9723999391772
 21
269.9685054651338
 31
0.0
 11
434.9022577889635
 21
269.9217823438329
 31
0.0
 11
434.8204255865316
 21
269.8283371418122
 31
0.0
 11
434.7269033318809
 21
269.7232114196115
 31
0.0
 11
434.6567611816672
 21
269.6648077781308
 31
0.0
 11
434.5866199499051
 21
269.5947241367605
 31
0.0
 11
434.5281678519097
 21
269.5012789347398
 31
0.0
 11
434.4580266201476
 21
269.3494300912384
 31
0.0
 11
434.3645034470454
 21
269.2209428083873
 31
0.0
 11
434.3411233426086
 21
269.1508586467266
 31
0.0
 11
434.2943622152834
 21
269.0807750053561
 31
0.0
 11
434.2592911401766
 21
268.9873292830452
 31
0.0
 11
434.2476001695066
 21
268.9172456416748
 31
0.0
 11
434.235910117288
 21
268.858842000194
 31
0.0
 11
434.2125300128513
 21
268.7770778386438
 31
0.0
 11
434.2125300128513
 21
268.6836321163326
 31
0.0
 11
434.2125300128513
 21
268.5901869143119
 31
0.0
 11
434.2125300128513
 21
268.5084222324712
 31
0.0
 11
434.2242200650697
 21
268.3215318284299
 31
0.0
 11
434.2476001695066
 21
268.2514476667691
 31
0.0
 11
434.2943622152834
 21
268.111279863738
 31
0.0
 11
434.3528133948272
 21
267.994473101067
 31
0.0
 11
434.5047877474728
 21
267.7959021768455
 31
0.0
 11
434.7502843547694
 21
267.6090112525137
 31
0.0
 11
435.1867368630423
 21
267.5193034164865
 31
0.0
  0
HATCH
  5
1245
330
18
100
AcDbEntity
  8
ROGO
 62
     4
100
AcDbHatch
 10
0.0
 20
0.0
 30
0.0
210
0.0
220
0.0
230
1.0
  2
SOLID
 70
     1
 71
     1
 91
        1
 92
        5
 93
        8
 72
     4
 94
        3
 73
     0
 74
     0
 95
       26
 96
       22
 40
0.0
 40
0.0
 40
0.0
 40
0.0
 40
0.5673148112188768
 40
0.9470881489318291
 40
1.220935652983336
 40
1.42540872340728
 40
1.690621027351422
 40
1.884200154390299
 40
2.233758938526477
 40
2.518294763343427
 40
2.711824716165283
 40
2.90159074360018
 40
3.241045273898904
 40
3.481080142393286
 40
3.610357464261555
 40
3.793992081180469
 40
3.926598758429295
 40
4.118702053392024
 40
4.227415901780397
 40
4.4639894303203
 40
4.572010958546831
 40
4.572010958546831
 40
4.572010958546831
 40
4.572010958546831
 10
440.7138561137037
 20
270.3421928448234
 10
440.540039939658
 20
270.3318226738164
 10
440.249867296047
 20
270.3145104763048
 10
439.931259498564
 20
270.1209596609282
 10
439.6978287738059
 20
270.0084377224387
 10
439.5313462640019
 20
269.855473733301
 10
439.4093139094459
 20
269.6974731063293
 10
439.255469217373
 20
269.509216517783
 10
439.1300132671042
 20
269.2899993384306
 10
439.0661261785912
 20
269.0483837899625
 10
439.0095356019395
 20
268.8558147959358
 10
438.9675670829164
 20
268.6412217828591
 10
438.9782450622691
 20
268.4093858388621
 10
438.9935364173947
 20
268.194068482844
 10
439.0618085996633
 20
268.0403641280764
 10
439.13955852218
 20
267.9309372191237
 10
439.2347622375219
 20
267.8104156105021
 10
439.3389359214491
 20
267.730594539376
 10
439.4250960613042
 20
267.5859933051848
 10
439.5759164795646
 20
267.5675411448309
 10
439.6717839375728
 20
267.5308158384938
 10
439.7018358756895
 20
267.5193034164865
 72
     1
 10
439.7018358756894
 20
267.5193034164867
 11
442.133227700995
 21
267.5193034164866
 72
     1
 10
442.133227700995
 20
267.5193034164866
 11
442.6569346044503
 21
268.5695901841368
 72
     1
 10
442.6569346044503
 20
268.5695901841368
 11
440.851858392498
 21
268.5695901841368
 72
     4
 94
        3
 73
     0
 74
     0
 95
       16
 96
       12
 40
0.0
 40
0.0
 40
0.0
 40
0.0
 40
0.1713275656456257
 40
0.3444222506731096
 40
0.4476654507324327
 40
0.5466544308353
 40
0.6553678472866844
 40
0.7312851891667243
 40
0.8033241578113134
 40
0.949408843637213
 40
1.248500460188462
 40
1.248500460188462
 40
1.248500460188462
 40
1.248500460188462
 10
440.8518583924981
 20
268.5695901841367
 10
440.7974109327573
 20
268.5856094251355
 10
440.6879544272809
 20
268.6178131339671
 10
440.6787938016544
 20
268.7739248836945
 10
440.6912738287585
 20
268.8851672799558
 10
440.7435402101464
 20
268.9661582405721
 10
440.8069483962528
 20
269.0250898207046
 10
440.8305580761715
 20
269.1018389895146
 10
440.8999565792255
 20
269.1597942141245
 10
441.0230187200893
 20
269.2572088508863
 10
441.1591041445652
 20
269.2779559919277
 10
441.2505331118714
 20
269.2918949548055
 72
     1
 10
441.2505331118715
 20
269.2918949548055
 11
443.017099091378
 21
269.2918949548055
 72
     1
 10
443.017099091378
 20
269.2918949548055
 11
443.5408115408052
 21
270.3421928448234
 72
     1
 10
443.5408115408052
 20
270.3421928448234
 11
440.7138561137036
 21
270.3421928448234
 97
        8
330
125B
330
124A
330
1256
330
1254
330
1253
330
1255
330
1252
330
1249
 75
     0
 76
     1
 47
0.0514683685270805
 98
        1
 10
441.2016642744453
 20
269.8253121890136
450
        0
451
        0
460
0.0
461
0.0
452
        0
462
0.0
453
        0
470

  0
LINE
  5
1246
102
{ACAD_REACTORS
330
1240
102
}
330
18
100
AcDbEntity
  8
ROGO
 62
     4
100
AcDbLine
 10
445.231729378902
 20
268.1367139234371
 30
0.0
 11
447.9036309153862
 21
270.3421928448234
 31
0.0
  0
LINE
  5
1247
102
{ACAD_REACTORS
330
1240
102
}
330
18
100
AcDbEntity
  8
ROGO
 62
     4
100
AcDbLine
 10
445.7574076767103
 20
270.3421928448233
 30
0.0
 11
445.360862445079
 21
269.5469270066051
 31
0.0
  0
LINE
  5
1248
102
{ACAD_REACTORS
330
1213
330
1240
102
}
330
18
100
AcDbEntity
  8
ROGO
 62
     4
100
AcDbLine
 10
444.1320419200559
 20
270.3421928448234
 30
0.0
 11
441.9325958789728
 21
265.9312350020508
 31
0.0
  0
LINE
  5
1249
102
{ACAD_REACTORS
330
1245
102
}
330
18
100
AcDbEntity
  8
ROGO
 62
     4
100
AcDbLine
 10
443.5408115408052
 20
270.3421928448234
 30
0.0
 11
443.017099091378
 21
269.2918949548055
 31
0.0
  0
SPLINE
  5
124A
102
{ACAD_REACTORS
330
1245
102
}
330
18
100
AcDbEntity
  8
ROGO
 62
     4
100
AcDbSpline
210
0.0
220
0.0
230
1.0
 70
     8
 71
     3
 72
    26
 73
    22
 74
    20
 42
0.0000000001
 43
0.0000000001
 44
0.0000000001
 40
0.0
 40
0.0
 40
0.0
 40
0.0
 40
0.5121044831873637
 40
0.8549187813368519
 40
1.102115808033699
 40
1.286689829343359
 40
1.526092022200598
 40
1.700832284304967
 40
2.016372469319811
 40
2.273217643524007
 40
2.447913516981222
 40
2.619211765298186
 40
2.925631029111738
 40
3.142306021279015
 40
3.259002244952382
 40
3.424765783525459
 40
3.54446735411158
 40
3.71787541016792
 40
3.816009370437048
 40
4.029559875681989
 40
4.127068891472847
 40
4.127068891472847
 40
4.127068891472847
 40
4.127068891472847
 10
440.7138561137037
 20
270.3421928448234
 30
0.0
 10
440.5400399396582
 20
270.3318226738165
 30
0.0
 10
440.2498672960469
 20
270.3145104763048
 30
0.0
 10
439.9312594985643
 20
270.1209596609284
 30
0.0
 10
439.6978287738057
 20
270.0084377224388
 30
0.0
 10
439.5313462640022
 20
269.8554737333012
 30
0.0
 10
439.4093139094458
 20
269.6974731063292
 30
0.0
 10
439.2554692173731
 20
269.5092165177831
 30
0.0
 10
439.1300132671041
 20
269.2899993384307
 30
0.0
 10
439.0661261785912
 20
269.0483837899626
 30
0.0
 10
439.0095356019399
 20
268.8558147959358
 30
0.0
 10
438.967567082916
 20
268.6412217828591
 30
0.0
 10
438.9782450622694
 20
268.4093858388621
 30
0.0
 10
438.9935364173947
 20
268.194068482844
 30
0.0
 10
439.0618085996634
 20
268.0403641280765
 30
0.0
 10
439.13955852218
 20
267.9309372191235
 30
0.0
 10
439.234762237522
 20
267.8104156105021
 30
0.0
 10
439.3389359214491
 20
267.730594539376
 30
0.0
 10
439.4250960613042
 20
267.5859933051849
 30
0.0
 10
439.5759164795643
 20
267.5675411448307
 30
0.0
 10
439.6717839375729
 20
267.5308158384938
 30
0.0
 10
439.7018358756895
 20
267.5193034164865
 30
0.0
 11
440.7138561137037
 21
270.3421928448234
 31
0.0
 11
440.2078459946962
 21
270.2634225384722
 31
0.0
 11
439.9011727945194
 21
270.1102129065654
 31
0.0
 11
439.6865019952523
 21
269.9876453009358
 31
0.0
 11
439.5484997164576
 21
269.8650771958273
 31
0.0
 11
439.3951635572261
 21
269.6812255376433
 31
0.0
 11
439.2878281575924
 21
269.5433369188752
 31
0.0
 11
439.134491116647
 21
269.2675591818598
 31
0.0
 11
439.057823477888
 21
269.0224234711217
 31
0.0
 11
439.01182271829
 21
268.8538928260764
 31
0.0
 11
438.9811549574154
 21
268.685362181031
 31
0.0
 11
438.9811549574154
 21
268.3789429172175
 31
0.0
 11
439.01182271829
 21
268.1644492327566
 31
0.0
 11
439.057823477888
 21
268.0572021407865
 31
0.0
 11
439.1498249970844
 21
267.9193135220183
 31
0.0
 11
439.2264935175571
 21
267.8273874431869
 31
0.0
 11
439.3491619159141
 21
267.7048198375573
 31
0.0
 11
439.4104965559497
 21
267.6282147718644
 31
0.0
 11
439.6098343564932
 21
267.5516102056504
 31
0.0
 11
439.7018358756895
 21
267.5193034164865
 31
0.0
  0
LINE
  5
124B
102
{ACAD_REACTORS
330
1214
102
}
330
18
100
AcDbEntity
  8
ROGO
 62
     4
100
AcDbLine
 10
434.4452107057647
 20
270.3421928448234
 30
0.0
 11
433.9214982563379
 21
269.2918949548055
 31
0.0
  0
LINE
  5
124C
102
{ACAD_REACTORS
330
1240
102
}
330
18
100
AcDbEntity
  8
ROGO
 62
     4
100
AcDbLine
 10
444.1320419200559
 20
267.0825448708462
 30
0.0
 11
443.5579616356271
 21
265.9312350020508
 31
0.0
  0
ELLIPSE
  5
124D
102
{ACAD_REACTORS
330
1242
102
}
330
18
100
AcDbEntity
  8
ROGO
 62
     4
100
AcDbEllipse
 10
436.3835751365476
 20
268.8971130034402
 30
0.0
 11
0.3832615949304192
 21
0.3370306137668553
 31
0.0
210
0.0
220
0.0
230
1.0
 40
0.6788083417438792
 41
0.0
 42
6.283185307179586
  0
SPLINE
  5
124E
102
{ACAD_REACTORS
330
1242
102
}
330
18
100
AcDbEntity
  8
ROGO
 62
     4
100
AcDbSpline
210
0.0
220
0.0
230
1.0
 70
     8
 71
     3
 72
     9
 73
     5
 74
     3
 42
0.0000000001
 43
0.0000000001
 44
0.0000000001
 40
0.0
 40
0.0
 40
0.0
 40
0.0
 40
0.2441633781373543
 40
0.572456281150636
 40
0.572456281150636
 40
0.572456281150636
 40
0.572456281150636
 10
437.3374665647199
 20
267.582239479791
 30
0.0
 10
437.4158989060109
 20
267.6062353465586
 30
0.0
 10
437.5997884260525
 20
267.6624951540593
 30
0.0
 10
437.7517232938775
 20
267.7814009606225
 30
0.0
 10
437.8388550810019
 20
267.8495912027547
 30
0.0
 11
437.3374665647199
 21
267.582239479791
 31
0.0
 11
437.5669504524343
 21
267.6656235340399
 31
0.0
 11
437.8388550810019
 21
267.8495912027547
 31
0.0
  0
SPLINE
  5
124F
102
{ACAD_REACTORS
330
1242
102
}
330
18
100
AcDbEntity
  8
ROGO
 62
     4
100
AcDbSpline
210
0.0
220
0.0
230
1.0
 70
     8
 71
     3
 72
    11
 73
     7
 74
     0
 42
0.0000000001
 43
0.0000000001
 40
0.1647869275458134
 40
0.1647869275458134
 40
0.1647869275458134
 40
0.1647869275458134
 40
0.2895635144633836
 40
0.5387013147903714
 40
0.7953622617455423
 40
0.8850764140209602
 40
0.8850764140209602
 40
0.8850764140209602
 40
0.8850764140209602
 10
437.3374665647199
 20
267.582239479791
 30
0.0
 10
437.3074166595054
 20
267.5738750772213
 30
0.0
 10
437.2142457686587
 20
267.5589827226077
 30
0.0
 10
437.0579640236419
 20
267.5385337707137
 30
0.0
 10
436.9094260415202
 20
267.5171945433403
 30
0.0
 10
436.8225115065318
 20
267.5188695700528
 30
0.0
 10
436.7999998887965
 20
267.5193034164865
 30
0.0
  0
LINE
  5
1250
102
{ACAD_REACTORS
330
1242
102
}
330
18
100
AcDbEntity
  8
ROGO
 62
     4
100
AcDbLine
 10
435.1867368630424
 20
267.5193034164866
 30
0.0
 11
436.7999998887965
 21
267.5193034164866
 31
0.0
  0
LINE
  5
1251
102
{ACAD_REACTORS
330
1214
102
}
330
18
100
AcDbEntity
  8
ROGO
 62
     4
100
AcDbLine
 10
433.5613337694099
 20
268.5695901841369
 30
0.0
 11
433.0376268659545
 21
267.5193034164866
 31
0.0
  0
LINE
  5
1252
102
{ACAD_REACTORS
330
1245
102
}
330
18
100
AcDbEntity
  8
ROGO
 62
     4
100
AcDbLine
 10
441.2505331118713
 20
269.2918949548055
 30
0.0
 11
443.017099091378
 21
269.2918949548055
 31
0.0
  0
LINE
  5
1253
102
{ACAD_REACTORS
330
1245
102
}
330
18
100
AcDbEntity
  8
ROGO
 62
     4
100
AcDbLine
 10
440.851858392498
 20
268.5695901841368
 30
0.0
 11
442.6569346044503
 21
268.5695901841368
 31
0.0
  0
LINE
  5
1254
102
{ACAD_REACTORS
330
1245
102
}
330
18
100
AcDbEntity
  8
ROGO
 62
     4
100
AcDbLine
 10
442.6569346044503
 20
268.5695901841368
 30
0.0
 11
442.1332277009949
 21
267.5193034164865
 31
0.0
  0
SPLINE
  5
1255
102
{ACAD_REACTORS
330
1245
102
}
330
18
100
AcDbEntity
  8
ROGO
 62
     4
100
AcDbSpline
210
0.0
220
0.0
230
1.0
 70
     8
 71
     3
 72
    16
 73
    12
 74
    10
 42
0.0000000001
 43
0.0000000001
 44
0.0000000001
 40
0.0
 40
0.0
 40
0.0
 40
0.0
 40
0.2699844155145135
 40
0.4018523326868496
 40
0.4668805640630406
 40
0.5354097305144658
 40
0.6335433008821172
 40
0.7228988042011464
 40
0.816094512410164
 40
0.9723438513406897
 40
1.126998044613386
 40
1.126998044613386
 40
1.126998044613386
 40
1.126998044613386
 10
441.2505331118714
 20
269.2918949548055
 30
0.0
 10
441.159104144565
 20
269.2779559919278
 30
0.0
 10
441.0230187200891
 20
269.2572088508864
 30
0.0
 10
440.8999565792255
 20
269.1597942141245
 30
0.0
 10
440.8305580761714
 20
269.1018389895146
 30
0.0
 10
440.8069483962528
 20
269.0250898207046
 30
0.0
 10
440.7435402101465
 20
268.9661582405722
 30
0.0
 10
440.6912738287587
 20
268.885167279956
 30
0.0
 10
440.6787938016542
 20
268.7739248836946
 30
0.0
 10
440.687954427281
 20
268.6178131339672
 30
0.0
 10
440.7974109327574
 20
268.5856094251355
 30
0.0
 10
440.8518583924981
 20
268.5695901841367
 30
0.0
 11
441.2505331118714
 21
269.2918949548055
 31
0.0
 11
440.9898615530059
 21
269.2215961424443
 31
0.0
 11
440.8825261533723
 21
269.1449915762301
 31
0.0
 11
440.8365253937744
 21
269.0990285368144
 31
0.0
 11
440.8058576328998
 21
269.0377444842602
 31
0.0
 11
440.7445229928644
 21
268.9611399180463
 31
0.0
 11
440.6985222332662
 21
268.8845348523535
 31
0.0
 11
440.6831883528289
 21
268.7926092730009
 31
0.0
 11
440.7138561137032
 21
268.6393991416154
 31
0.0
 11
440.8518583924981
 21
268.5695901841367
 31
0.0
  0
LINE
  5
1256
102
{ACAD_REACTORS
330
1245
102
}
330
18
100
AcDbEntity
  8
ROGO
 62
     4
100
AcDbLine
 10
439.7018358756894
 20
267.5193034164866
 30
0.0
 11
442.1332277009949
 21
267.5193034164866
 31
0.0
  0
LINE
  5
1257
102
{ACAD_REACTORS
330
1240
102
}
330
18
100
AcDbEntity
  8
ROGO
 62
     4
100
AcDbLine
 10
444.7061222044847
 20
265.9312350020508
 30
0.0
 11
446.3314523994434
 21
265.9312350020508
 31
0.0
  0
LINE
  5
1258
102
{ACAD_REACTORS
330
1240
102
}
330
18
100
AcDbEntity
  8
ROGO
 62
     4
100
AcDbLine
 10
445.231729378902
 20
268.1367139234371
 30
0.0
 11
446.3314523994434
 21
265.9312350020508
 31
0.0
  0
LINE
  5
1259
102
{ACAD_REACTORS
330
1240
102
}
330
18
100
AcDbEntity
  8
ROGO
 62
     4
100
AcDbLine
 10
444.1320419200559
 20
267.0825448708463
 30
0.0
 11
444.7061222044847
 21
265.9312350020508
 31
0.0
  0
LINE
  5
125A
102
{ACAD_REACTORS
330
1242
102
}
330
18
100
AcDbEntity
  8
ROGO
 62
     4
100
AcDbLine
 10
436.0128384663582
 20
270.3539673136869
 30
0.0
 11
437.6261014921123
 21
270.3539673136869
 31
0.0
  0
LINE
  5
125B
102
{ACAD_REACTORS
330
1245
102
}
330
18
100
AcDbEntity
  8
ROGO
 62
     4
100
AcDbLine
 10
440.7138561137044
 20
270.3421928448234
 30
0.0
 11
443.5408115408052
 21
270.3421928448234
 31
0.0
  0
LINE
  5
125C
102
{ACAD_REACTORS
330
1240
102
}
330
18
100
AcDbEntity
  8
ROGO
 62
     4
100
AcDbLine
 10
446.2783007204273
 20
270.3421928448234
 30
0.0
 11
447.9036309153862
 21
270.3421928448234
 31
0.0
  0
LINE
  5
125D
102
{ACAD_REACTORS
330
1240
102
}
330
18
100
AcDbEntity
  8
ROGO
 62
     4
100
AcDbLine
 10
444.1320419200559
 20
270.3421928448234
 30
0.0
 11
445.7574076767103
 21
270.3421928448233
 31
0.0
  0
TEXT
  5
12B8
330
18
100
AcDbEntity
  8
文字
 62
     3
100
AcDbText
 10
411.5615665755934
 20
258.3704950122296
 30
0.0
 40
4.0
  1
ON
 41
0.8
  7
STYLE3
100
AcDbText
  0
TEXT
  5
12B9
330
18
100
AcDbEntity
  8
文字
 62
     3
100
AcDbText
 10
441.4074076373561
 20
258.3704950122296
 30
0.0
 40
4.0
  1
    F
 41
0.8
  7
STYLE3
100
AcDbText
  0
TEXT
  5
12BB
330
18
100
AcDbEntity
  8
円
100
AcDbText
 10
421.022452527581
 20
225.5526965785738
 30
0.0
 40
5.0
  1
YM-3
 41
0.8
  7
STYLE3
100
AcDbText
  0
TEXT
  5
12BC
330
18
100
AcDbEntity
  8
中心線
100
AcDbText
 10
439.6938149652442
 20
225.6629667489387
 30
0.0
 40
1.0
  1
MADE IN JAPAN
  7
STYLE3
100
AcDbText
  0
ARC
  5
12C8
330
18
100
AcDbEntity
  8
外形線
100
AcDbCircle
 10
430.4948711479581
 20
248.4312350020507
 30
0.0
 40
13.0
100
AcDbArc
 50
199.7477532578122
 51
240.2522467421875
  0
LINE
  5
12CA
330
18
100
AcDbEntity
  8
外形線
100
AcDbLine
 10
446.5069243154784
 20
265.1304611326383
 30
0.0
 11
449.7208623639108
 21
261.3002389170437
 31
0.0
  0
ARC
  5
12D0
330
18
100
AcDbEntity
  8
外形線
100
AcDbCircle
 10
305.9488596208494
 20
388.3979437235682
 30
0.0
 40
191.8963661454728
100
AcDbArc
 50
307.9819816420815
 51
318.5225897971973
  0
ARC
  5
12D1
330
18
100
AcDbEntity
  8
外形線
100
AcDbCircle
 10
546.7079831231428
 20
101.4723933398761
 30
0.0
 40
191.8963661454728
100
AcDbArc
 50
121.4774102028025
 51
132.0180183579183
  0
LINE
  5
12D3
330
18
100
AcDbEntity
  8
中心線
100
AcDbLine
 10
399.4740045924663
 20
248.4312350020507
 30
0.0
 11
461.9648700994256
 21
248.4312350020507
 31
0.0
  0
LINE
  5
12D4
330
18
100
AcDbEntity
  8
外形線
100
AcDbLine
 10
533.745718867765
 20
273.4312350020508
 30
0.0
 11
593.7457188677649
 21
273.4312350020507
 31
0.0
  0
LINE
  5
12D5
330
18
100
AcDbEntity
  8
外形線
100
AcDbLine
 10
593.7457188677649
 20
273.4312350020507
 30
0.0
 11
593.7457188677657
 21
217.9312350020508
 31
0.0
  0
LINE
  5
12D6
330
18
100
AcDbEntity
  8
外形線
100
AcDbLine
 10
533.745718867765
 20
217.9312350020507
 30
0.0
 11
593.7457188677657
 21
217.9312350020508
 31
0.0
  0
LINE
  5
12D7
330
18
100
AcDbEntity
  8
外形線
100
AcDbLine
 10
531.7457188677651
 20
271.9312350020507
 30
0.0
 11
531.745718867765
 21
223.9312350020507
 31
0.0
  0
LINE
  5
12D8
330
18
100
AcDbEntity
  8
外形線
100
AcDbLine
 10
533.745718867765
 20
273.4312350020508
 30
0.0
 11
533.745718867765
 21
217.9312350020507
 31
0.0
  0
LINE
  5
12D9
330
18
100
AcDbEntity
  8
外形線
100
AcDbLine
 10
532.2457188677652
 20
272.4312350020507
 30
0.0
 11
533.745718867765
 21
272.4312350020507
 31
0.0
  0
LINE
  5
12DA
330
18
100
AcDbEntity
  8
外形線
100
AcDbLine
 10
532.245718867765
 20
223.4312350020507
 30
0.0
 11
533.745718867765
 21
223.4312350020507
 31
0.0
  0
ARC
  5
12DB
330
18
100
AcDbEntity
  8
外形線
100
AcDbCircle
 10
532.2457188677652
 20
271.9312350020507
 30
0.0
 40
0.5
100
AcDbArc
 50
90.0
 51
180.0
  0
ARC
  5
12DC
330
18
100
AcDbEntity
  8
外形線
100
AcDbCircle
 10
532.245718867765
 20
223.9312350020507
 30
0.0
 40
0.5
100
AcDbArc
 50
179.9999999999999
 51
270.0
  0
LINE
  5
12DE
330
18
100
AcDbEntity
  8
中心線
100
AcDbLine
 10
512.0371961824079
 20
248.4312350020507
 30
0.0
 11
600.2150239201877
 21
248.4312350020507
 31
0.0
  0
LINE
  5
12DF
330
18
100
AcDbEntity
  8
外形線
100
AcDbLine
 10
529.2457188677651
 20
262.4312350020507
 30
0.0
 11
529.2457188677651
 21
234.4312350020507
 31
0.0
  0
LINE
  5
12E0
330
18
100
AcDbEntity
  8
外形線
100
AcDbLine
 10
527.2457188677651
 20
261.4312350020507
 30
0.0
 11
527.245718867765
 21
235.4312350020507
 31
0.0
  0
LINE
  5
12E1
330
18
100
AcDbEntity
  8
外形線
100
AcDbLine
 10
529.2457188677651
 20
262.4312350020507
 30
0.0
 11
531.7457188677651
 21
262.4312350020507
 31
0.0
  0
LINE
  5
12E2
330
18
100
AcDbEntity
  8
外形線
100
AcDbLine
 10
529.2457188677651
 20
234.4312350020507
 30
0.0
 11
531.745718867765
 21
234.4312350020507
 31
0.0
  0
LINE
  5
12E3
330
18
100
AcDbEntity
  8
外形線
100
AcDbLine
 10
527.2457188677651
 20
261.4312350020507
 30
0.0
 11
529.2457188677651
 21
261.4312350020507
 31
0.0
  0
LINE
  5
12E4
330
18
100
AcDbEntity
  8
外形線
100
AcDbLine
 10
527.245718867765
 20
235.4312350020507
 30
0.0
 11
529.2457188677649
 21
235.4312350020507
 31
0.0
  0
LINE
  5
12E5
330
18
100
AcDbEntity
  8
外形線
100
AcDbLine
 10
516.4242069554267
 20
265.1304611326383
 30
0.0
 11
523.6739247419945
 21
265.1304611326383
 31
0.0
  0
LINE
  5
12E7
330
18
100
AcDbEntity
  8
外形線
100
AcDbLine
 10
515.5945712671576
 20
263.215350024841
 30
0.0
 11
523.7690753645783
 21
263.215350024841
 31
0.0
  0
LINE
  5
12E9
330
18
100
AcDbEntity
  8
外形線
100
AcDbLine
 10
527.2457188677651
 20
254.3915989918033
 30
0.0
 11
525.7263806407539
 21
261.6263926696546
 31
0.0
  0
LINE
  5
12EB
330
18
100
AcDbEntity
  8
外形線
100
AcDbLine
 10
526.0950669815206
 20
263.2534139847729
 30
0.0
 11
527.245718867765
 21
258.7813389710208
 31
0.0
  0
LINE
  5
12EC
330
18
100
AcDbEntity
  8
外形線
100
AcDbLine
 10
527.2457188677651
 20
254.3915989918034
 30
0.0
 11
529.2457188677651
 21
254.3915989918034
 31
0.0
  0
LINE
  5
12EE
330
18
100
AcDbEntity
  8
外形線
100
AcDbLine
 10
527.245718867765
 20
258.7813389710208
 30
0.0
 11
529.2457188677651
 21
258.7813389710208
 31
0.0
  0
LINE
  5
12F7
330
18
100
AcDbEntity
  8
外形線
100
AcDbLine
 10
518.1308120212647
 20
239.4069135456263
 30
0.0
 11
513.4882490411634
 21
261.5138971654179
 31
0.0
  0
ARC
  5
12F9
330
18
100
AcDbEntity
  8
外形線
100
AcDbCircle
 10
515.5945712671576
 20
261.215350024841
 30
0.0
 40
2.0
100
AcDbArc
 50
90.0000000000003
 51
191.8600184621933
  0
ARC
  5
12FA
330
18
100
AcDbEntity
  8
外形線
100
AcDbCircle
 10
516.4242069554267
 20
262.1304611326383
 30
0.0
 40
3.0
100
AcDbArc
 50
90.0
 51
191.8600184621932
  0
LINE
  5
12FB
330
18
100
AcDbEntity
  8
外形線
100
AcDbLine
 10
527.245718867765
 20
237.1443974662649
 30
0.0
 11
519.903112385443
 21
237.8265312778367
 31
0.0
  0
ARC
  5
12FD
330
18
100
AcDbEntity
  8
外形線
100
AcDbCircle
 10
520.0881172974403
 20
239.81795619044
 30
0.0
 40
2.0
100
AcDbArc
 50
191.8600184621935
 51
264.6924120010936
  0
ARC
  5
12FF
330
18
100
AcDbEntity
  8
外形線
100
AcDbCircle
 10
523.7690753645783
 20
261.215350024841
 30
0.0
 40
2.0
100
AcDbArc
 50
11.86001846219339
 51
90.00000000000049
  0
ARC
  5
1300
330
18
100
AcDbEntity
  8
外形線
100
AcDbCircle
 10
523.6739247419945
 20
262.6304611326383
 30
0.0
 40
2.5
100
AcDbArc
 50
14.42906162146226
 51
90.0
  0
DIMENSION
  5
130E
330
18
100
AcDbEntity
  8
外形線
100
AcDbDimension
  2
*D16
 10
478.4249100497241
 20
326.9285735953579
 30
0.0
 11
476.5499100497241
 21
349.9285735953579
 31
0.0
 12
0.0
 22
8.733263592220168
 32
0.0
 70
    32
 71
     5
 42
-1.0
  3
STYLE3
100
AcDbAlignedDimension
 13
460.4948711479583
 23
372.9285735953579
 33
0.0
 14
460.4948711479583
 24
326.928573595358
 34
0.0
 50
90.0
100
AcDbRotatedDimension
1001
ACAD
1000
DSTYLE
1002
{
1070
   271
1070
     2
1002
}
  0
DIMENSION
  5
131B
330
18
100
AcDbEntity
  8
外形線
100
AcDbDimension
  2
*D17
 10
605.1618861741432
 20
273.4312350020507
 30
0.0
 11
603.2868861741432
 21
332.3893393470692
 31
0.0
 70
    32
  1
175
 71
     5
 42
-1.0
  3
STYLE3
100
AcDbAlignedDimension
 13
568.7457188677649
 23
391.3474436920877
 33
0.0
 14
593.7457188677649
 24
273.4312350020507
 34
0.0
 50
90.0
100
AcDbRotatedDimension
1001
ACAD
1000
DSTYLE
1002
{
1070
   271
1070
     2
1002
}
  0
DIMENSION
  5
1327
330
18
100
AcDbEntity
  8
外形線
100
AcDbDimension
  2
*D18
 10
605.1618861741432
 20
217.9312350020508
 30
0.0
 11
603.2868861741432
 21
245.6812350020507
 31
0.0
 70
    32
  1
55
 71
     5
 42
-1.0
  3
STYLE3
100
AcDbAlignedDimension
 13
593.7457188677649
 23
273.4312350020507
 33
0.0
 14
593.7457188677657
 24
217.9312350020508
 34
0.0
 50
90.0
100
AcDbRotatedDimension
1001
ACAD
1000
DSTYLE
1002
{
1070
    75
1070
     1
1070
   271
1070
     2
1070
   279
1070
     1
1002
}
  0
DIMENSION
  5
1334
330
18
100
AcDbEntity
  8
外形線
100
AcDbDimension
  2
*D19
 10
614.9949275155162
 20
217.9312350020508
 30
0.0
 11
613.1199275155162
 21
304.6393393470692
 31
0.0
 70
    32
  1
230
 71
     5
 42
-1.0
  3
STYLE3
100
AcDbAlignedDimension
 13
606.4118861741432
 23
391.3474436920877
 33
0.0
 14
606.4118861741432
 24
217.9312350020508
 34
0.0
 50
90.0
100
AcDbRotatedDimension
1001
ACAD
1000
DSTYLE
1002
{
1070
   271
1070
     2
1002
}
  0
DIMENSION
  5
1359
330
18
100
AcDbEntity
  8
外形線
100
AcDbDimension
  2
*D20
 10
593.7457188677657
 20
208.5264479907884
 30
0.0
 11
563.7457188677654
 21
210.4014479907884
 31
0.0
 70
    32
 71
     5
 42
-1.0
  3
STYLE3
100
AcDbAlignedDimension
 13
533.745718867765
 23
217.9312350020507
 33
0.0
 14
593.7457188677657
 24
217.9312350020508
 34
0.0
100
AcDbRotatedDimension
1001
ACAD
1000
DSTYLE
1002
{
1070
   271
1070
     2
1002
}
  0
DIMENSION
  5
1368
330
18
100
AcDbEntity
  8
外形線
100
AcDbDimension
  2
*D21
 10
410.4948711479582
 20
211.09644181625
 30
0.0
 11
418.7389187670057
 21
212.97144181625
 31
0.0
 70
    32
 71
     5
 42
-1.0
  3
STYLE3
100
AcDbAlignedDimension
 13
404.9948711479582
 23
217.9312350020508
 33
0.0
 14
410.4948711479582
 24
217.9312350020508
 34
0.0
100
AcDbRotatedDimension
1001
ACAD
1000
DSTYLE
1002
{
1070
   271
1070
     2
1002
}
  0
DIMENSION
  5
1377
330
18
100
AcDbEntity
  8
外形線
100
AcDbDimension
  2
*D22
 10
455.9948711479582
 20
211.09644181625
 30
0.0
 11
464.2389187670057
 21
212.97144181625
 31
0.0
 70
    32
 71
     5
 42
-1.0
  3
STYLE3
100
AcDbAlignedDimension
 13
450.4948711479581
 23
217.9312350020508
 33
0.0
 14
455.9948711479582
 24
217.9312350020508
 34
0.0
100
AcDbRotatedDimension
1001
ACAD
1000
DSTYLE
1002
{
1070
   271
1070
     2
1002
}
  0
DIMENSION
  5
1384
330
18
100
AcDbEntity
  8
外形線
100
AcDbDimension
  2
*D23
 10
455.9948711479582
 20
206.984451167824
 30
0.0
 11
430.4948711479581
 21
208.859451167824
 31
0.0
 70
    32
 71
     5
 42
-1.0
  3
STYLE3
100
AcDbAlignedDimension
 13
404.9948711479582
 23
209.84644181625
 33
0.0
 14
455.9948711479582
 24
209.84644181625
 34
0.0
100
AcDbRotatedDimension
1001
ACAD
1000
DSTYLE
1002
{
1070
   271
1070
     2
1002
}
  0
DIMENSION
  5
13AE
330
18
100
AcDbEntity
  8
外形線
100
AcDbDimension
  2
*D24
 10
509.5628733772243
 20
296.5552591594959
 30
0.0
 11
507.6878733772243
 21
366.4242982294029
 31
0.0
 70
    32
  1
165
 71
     5
 42
-1.0
  3
STYLE3
100
AcDbAlignedDimension
 13
539.7376522525944
 23
436.29333729931
 33
0.0
 14
539.7376522525944
 24
296.5552591594959
 34
0.0
 50
90.0
100
AcDbRotatedDimension
1001
ACAD
1000
DSTYLE
1002
{
1070
   271
1070
     2
1002
}
  0
DIMENSION
  5
13F0
330
18
100
AcDbEntity
  8
外形線
100
AcDbDimension
  2
*D25
 10
365.4393243362717
 20
423.1445791451472
 30
0.0
 11
363.5643243362717
 21
413.4719600975282
 31
0.0
 70
    32
  1
φ4.5
 71
     5
 42
-1.0
  3
STYLE3
100
AcDbAlignedDimension
 13
393.4861029658939
 23
427.6445791451472
 33
0.0
 14
393.4861029658939
 24
423.1445791451472
 34
0.0
 50
90.0
100
AcDbRotatedDimension
1001
ACAD
1000
DSTYLE
1002
{
1070
   271
1070
     2
1002
}
  0
LINE
  5
13FE
330
18
100
AcDbEntity
  8
外形線
 62
     4
100
AcDbLine
 10
393.4861029658939
 20
440.035370742432
 30
0.0
 11
400.4861029658938
 21
444.0768226267596
 31
0.0
  0
LINE
  5
1400
330
18
100
AcDbEntity
  8
外形線
 62
     4
100
AcDbLine
 10
393.4861029658938
 20
441.1900712808114
 30
0.0
 11
400.4861029658938
 21
445.2315231651388
 31
0.0
  0
LINE
  5
1401
330
18
100
AcDbEntity
  8
外形線
 62
     4
100
AcDbLine
 10
393.4861029658938
 20
442.3447718191906
 30
0.0
 11
400.4861029658938
 21
446.3862237035179
 31
0.0
  0
LINE
  5
1402
330
18
100
AcDbEntity
  8
外形線
 62
     4
100
AcDbLine
 10
393.4861029658937
 20
443.4994723575697
 30
0.0
 11
400.4861029658938
 21
447.5409242418972
 31
0.0
  0
LINE
  5
1403
330
18
100
AcDbEntity
  8
外形線
 62
     4
100
AcDbLine
 10
393.4861029658938
 20
444.654172895949
 30
0.0
 11
399.0986512266688
 21
447.8945791451472
 31
0.0
  0
LINE
  5
1404
330
18
100
AcDbEntity
  8
外形線
 62
     4
100
AcDbLine
 10
393.4861029658937
 20
445.8088734343283
 30
0.0
 11
397.0986512266685
 21
447.8945791451472
 31
0.0
  0
LINE
  5
1405
330
18
100
AcDbEntity
  8
外形線
 62
     4
100
AcDbLine
 10
393.4861029658937
 20
446.9635739727075
 30
0.0
 11
395.0986512266688
 21
447.8945791451471
 31
0.0
  0
LINE
  5
1406
330
18
100
AcDbEntity
  8
外形線
 62
     4
100
AcDbLine
 10
393.4861029658937
 20
438.8806702040527
 30
0.0
 11
400.4861029658938
 21
442.9221220883802
 31
0.0
  0
LINE
  5
1408
330
18
100
AcDbEntity
  8
外形線
 62
     4
100
AcDbLine
 10
397.5101939585487
 20
438.8945791451472
 30
0.0
 11
400.4861029658937
 21
440.6127210116217
 31
0.0
  0
LINE
  5
1409
330
18
100
AcDbEntity
  8
外形線
 62
     4
100
AcDbLine
 10
399.5101939585487
 20
438.8945791451472
 30
0.0
 11
400.4861029658937
 21
439.4580204732426
 31
0.0
  0
LINE
  5
140B
330
18
100
AcDbEntity
  8
外形線
 62
     4
100
AcDbLine
 10
394.9152230959055
 20
438.8945791451472
 30
0.0
 11
393.4861029658939
 21
439.7196820369138
 31
0.0
  0
LINE
  5
140C
330
18
100
AcDbEntity
  8
外形線
 62
     4
100
AcDbLine
 10
396.9152230959055
 20
438.8945791451472
 30
0.0
 11
393.4861029658938
 21
440.8743825752932
 31
0.0
  0
LINE
  5
140D
330
18
100
AcDbEntity
  8
外形線
 62
     4
100
AcDbLine
 10
398.9152230959053
 20
438.8945791451472
 30
0.0
 11
393.4861029658938
 21
442.0290831136723
 31
0.0
  0
LINE
  5
140E
330
18
100
AcDbEntity
  8
外形線
 62
     4
100
AcDbLine
 10
400.4861029658938
 20
439.1423317677241
 30
0.0
 11
393.4861029658937
 21
443.1837836520515
 31
0.0
  0
LINE
  5
140F
330
18
100
AcDbEntity
  8
外形線
 62
     4
100
AcDbLine
 10
400.4861029658938
 20
441.4517328444826
 30
0.0
 11
393.4861029658938
 21
445.49318472881
 31
0.0
  0
LINE
  5
1410
330
18
100
AcDbEntity
  8
外形線
 62
     4
100
AcDbLine
 10
400.4861029658938
 20
440.2970323061033
 30
0.0
 11
393.4861029658938
 21
444.3384841904307
 31
0.0
  0
LINE
  5
1411
330
18
100
AcDbEntity
  8
外形線
 62
     4
100
AcDbLine
 10
400.4861029658938
 20
442.6064333828619
 30
0.0
 11
393.4861029658938
 21
446.647885267189
 31
0.0
  0
LINE
  5
1412
330
18
100
AcDbEntity
  8
外形線
 62
     4
100
AcDbLine
 10
400.4861029658938
 20
443.761133921241
 30
0.0
 11
393.4861029658938
 21
447.8025858055685
 31
0.0
  0
LINE
  5
1413
330
18
100
AcDbEntity
  8
外形線
 62
     4
100
AcDbLine
 10
400.4861029658938
 20
444.9158344596203
 30
0.0
 11
395.3267658277856
 21
447.8945791451472
 31
0.0
  0
LINE
  5
1414
330
18
100
AcDbEntity
  8
外形線
 62
     4
100
AcDbLine
 10
400.4861029658938
 20
446.0705349979996
 30
0.0
 11
397.3267658277854
 21
447.8945791451471
 31
0.0
  0
LINE
  5
1415
330
18
100
AcDbEntity
  8
外形線
 62
     4
100
AcDbLine
 10
400.4861029658938
 20
447.2252355363787
 30
0.0
 11
399.3267658277853
 21
447.8945791451472
 31
0.0
  0
LINE
  5
1416
330
18
100
AcDbEntity
  8
外形線
 62
     4
100
AcDbLine
 10
395.5101939585487
 20
438.8945791451472
 30
0.0
 11
400.4861029658937
 21
441.767421550001
 31
0.0
  0
LINE
  5
1417
330
18
100
AcDbEntity
  8
外形線
 62
     4
100
AcDbLine
 10
536.7376522525944
 20
443.761133921241
 30
0.0
 11
533.3455619267692
 21
445.7195581839717
 31
0.0
  0
LINE
  5
1418
330
18
100
AcDbEntity
  8
外形線
 62
     4
100
AcDbLine
 10
534.5874469530938
 20
443.9901015566592
 30
0.0
 11
536.7376522525944
 21
445.2315231651388
 31
0.0
  0
LINE
  5
1419
330
18
100
AcDbEntity
  8
外形線
 62
     4
100
AcDbLine
 10
536.7376522525944
 20
442.6064333828619
 30
0.0
 11
534.7409167175719
 21
443.7592491815076
 31
0.0
  0
LINE
  5
141A
330
18
100
AcDbEntity
  8
外形線
 62
     4
100
AcDbLine
 10
536.7376522525944
 20
441.4517328444826
 30
0.0
 11
535.840906229631
 21
441.9694694022352
 31
0.0
  0
LINE
  5
141B
330
18
100
AcDbEntity
  8
外形線
 62
     4
100
AcDbLine
 10
532.7939307411035
 20
446.4187161040082
 30
0.0
 11
535.3502005133694
 21
447.8945791451472
 31
0.0
  0
LINE
  5
141C
330
18
100
AcDbEntity
  8
外形線
 62
     4
100
AcDbLine
 10
534.0160202996628
 20
444.8148887628578
 30
0.0
 11
536.7376522525944
 21
446.3862237035179
 31
0.0
  0
LINE
  5
141D
330
18
100
AcDbEntity
  8
外形線
 62
     4
100
AcDbLine
 10
533.4182716833871
 20
445.6244789767226
 30
0.0
 11
536.7376522525944
 21
447.5409242418972
 31
0.0
  0
LINE
  5
141E
330
18
100
AcDbEntity
  8
外形線
 62
     4
100
AcDbLine
 10
536.7376522525944
 20
444.9158344596203
 30
0.0
 11
531.5783151144862
 21
447.8945791451472
 31
0.0
  0
LINE
  5
141F
330
18
100
AcDbEntity
  8
外形線
 62
     4
100
AcDbLine
 10
536.6127616370107
 20
440.5406153810952
 30
0.0
 11
536.7376522525944
 21
440.6127210116217
 31
0.0
  0
LINE
  5
1420
330
18
100
AcDbEntity
  8
外形線
 62
     4
100
AcDbLine
 10
536.1453871617331
 20
441.4254771403606
 30
0.0
 11
536.7376522525944
 21
441.767421550001
 31
0.0
  0
LINE
  5
1421
330
18
100
AcDbEntity
  8
外形線
 62
     4
100
AcDbLine
 10
535.6520429285414
 20
442.2953452529036
 30
0.0
 11
536.7376522525944
 21
442.9221220883802
 31
0.0
  0
LINE
  5
1422
330
18
100
AcDbEntity
  8
外形線
 62
     4
100
AcDbLine
 10
535.132746887381
 20
443.1502300821297
 30
0.0
 11
536.7376522525944
 21
444.0768226267596
 31
0.0
  0
LINE
  5
1423
330
18
100
AcDbEntity
  8
外形線
 62
     4
100
AcDbLine
 10
536.7376522525944
 20
440.2970323061033
 30
0.0
 11
536.734678761737
 21
440.2987490518502
 31
0.0
  0
LINE
  5
1429
330
18
100
AcDbEntity
  8
外形線
 62
     4
100
AcDbLine
 10
536.7376522525944
 20
446.0705349979996
 30
0.0
 11
533.578315114486
 21
447.8945791451471
 31
0.0
  0
LINE
  5
142B
330
18
100
AcDbEntity
  8
外形線
 62
     4
100
AcDbLine
 10
532.1426481749625
 20
447.1973984775075
 30
0.0
 11
533.3502005133691
 21
447.8945791451472
 31
0.0
  0
LINE
  5
142C
330
18
100
AcDbEntity
  8
外形線
 62
     4
100
AcDbLine
 10
536.7376522525944
 20
447.2252355363787
 30
0.0
 11
535.5783151144859
 21
447.8945791451472
 31
0.0
  0
DIMENSION
  5
143C
330
18
100
AcDbEntity
  8
外形線
100
AcDbDimension
  2
*D26
 10
396.4861029658938
 20
403.8215963961932
 30
0.0
 11
380.8134839182748
 21
403.8215963961932
 31
0.0
 70
   160
  1
φ6.5
 71
     5
 42
-1.0
  3
STYLE3
100
AcDbAlignedDimension
 13
390.4861029658939
 23
415.8945791451473
 33
0.0
 14
396.4861029658938
 24
415.8945791451471
 34
0.0
100
AcDbRotatedDimension
1001
ACAD
1000
DSTYLE
1002
{
1070
   271
1070
     2
1002
}
  0
LINE
  5
145F
330
18
100
AcDbEntity
  8
外形線
100
AcDbLine
 10
556.7457188677646
 20
383.3474436920874
 30
0.0
 11
568.7457188677649
 21
383.3474436920874
 31
0.0
  0
LINE
  5
1460
330
18
100
AcDbEntity
  8
外形線
100
AcDbLine
 10
556.7457188677646
 20
386.3474436920875
 30
0.0
 11
568.7457188677649
 21
386.3474436920875
 31
0.0
  0
LINE
  5
1463
330
18
100
AcDbEntity
  8
外形線
 62
     4
100
AcDbLine
 10
429.9948711479579
 20
352.4285735953579
 30
0.0
 11
430.994871147958
 21
352.4285735953579
 31
0.0
  0
LINE
  5
1464
330
18
100
AcDbEntity
  8
外形線
 62
     4
100
AcDbLine
 10
429.994871147958
 20
347.4285735953579
 30
0.0
 11
430.994871147958
 21
347.4285735953579
 31
0.0
  0
LINE
  5
1465
330
18
100
AcDbEntity
  8
外形線
 62
     4
100
AcDbLine
 10
411.9868045327877
 20
427.3945791451473
 30
0.0
 11
412.9868045327877
 21
427.3945791451473
 31
0.0
  0
LINE
  5
1466
330
18
100
AcDbEntity
  8
外形線
 62
     4
100
AcDbLine
 10
411.9868045327877
 20
423.3945791451472
 30
0.0
 11
412.9868045327877
 21
423.3945791451472
 31
0.0
  0
LINE
  5
1493
330
18
100
AcDbEntity
  8
外形線
100
AcDbLine
 10
273.4076120654937
 20
328.3235947402332
 30
0.0
 11
368.4076120654937
 21
328.3235947402332
 31
0.0
  0
LINE
  5
1494
330
18
100
AcDbEntity
  8
外形線
100
AcDbLine
 10
273.4076120654937
 20
329.5797507402332
 30
0.0
 11
368.4076120654937
 21
329.5797507402332
 31
0.0
  0
TEXT
  5
1495
330
18
100
AcDbEntity
  8
文字
  6
Continuous
100
AcDbText
 10
273.9926400654937
 20
332.0920637402332
 30
0.0
 40
4.0
  1
Model No.YM-3 Magnetic Stand
  7
STYLE3
100
AcDbText
  0
TEXT
  5
1496
330
18
100
AcDbEntity
  8
0
  6
Continuous
100
AcDbText
 10
494.0556550654936
 20
192.7800227402332
 30
0.0
 40
3.5
  1
仕様及び外観は予告なく変更される場合がございますのでご了承下さい。
  7
STYLE3
100
AcDbText
  0
TEXT
  5
1497
330
18
100
AcDbEntity
  8
0
  6
Continuous
100
AcDbText
 10
493.7641600654936
 20
188.8508747402332
 30
0.0
 40
2.1
  1
Design and specifications are subject to change without notice for future improvement.
  7
STYLE3
100
AcDbText
  0
LINE
  5
1498
330
18
100
AcDbEntity
  8
外形線
100
AcDbLine
 10
492.3066930654936
 20
186.9528837402332
 30
0.0
 11
633.0981110654938
 21
186.9528837402332
 31
0.0
  0
LINE
  5
1499
330
18
100
AcDbEntity
  8
外形線
100
AcDbLine
 10
492.3066930654936
 20
197.7330897402332
 30
0.0
 11
633.0981110654938
 21
197.7330897402332
 31
0.0
  0
TEXT
  5
149A
330
18
100
AcDbEntity
  8
0
  6
Continuous
100
AcDbText
 10
496.0961120654936
 20
182.5825297402332
 30
0.0
 40
3.0
  1
三　　角　　法
  7
STYLE3
100
AcDbText
  0
TEXT
  5
149B
330
18
100
AcDbEntity
  8
0
  6
Continuous
100
AcDbText
 10
493.4726690654937
 20
179.0862467402332
 30
0.0
 40
2.1
  1
3RD Angle Projection
  7
STYLE3
100
AcDbText
  0
LINE
  5
149C
330
18
100
AcDbEntity
  8
外形線
100
AcDbLine
 10
492.3066930654936
 20
177.3381057402332
 30
0.0
 11
492.3066930654936
 21
197.7330897402332
 31
0.0
  0
TEXT
  5
149D
330
18
100
AcDbEntity
  8
0
  6
Continuous
100
AcDbText
 10
595.6784230654936
 20
182.8738867402332
 30
0.0
 40
3.0
  1
株式会社　尾崎製作所
  7
STYLE3
100
AcDbText
  0
TEXT
  5
149E
330
18
100
AcDbEntity
  8
0
  6
Continuous
100
AcDbText
 10
596.5529020654936
 20
179.0862467402332
 30
0.0
 40
2.1
  1
OZAKI MFG. CO., LTD.
  7
STYLE3
100
AcDbText
  0
TEXT
  5
149F
330
18
100
AcDbEntity
  8
0
  6
Continuous
100
AcDbText
 10
537.0769380654937
 20
180.8343897402332
 30
0.0
 40
2.399999999999999
  1
mm
  7
STYLE3
100
AcDbText
  0
LINE
  5
14A0
330
18
100
AcDbEntity
  8
外形線
100
AcDbLine
 10
527.5774210654937
 20
186.9528837402332
 30
0.0
 11
527.5774210654937
 21
177.3381057402332
 31
0.0
  0
TEXT
  5
14A1
330
18
100
AcDbEntity
  8
0
  6
Continuous
100
AcDbText
 10
529.0348900654938
 20
182.5884837402332
 30
0.0
 40
3.0
  1
単位
  7
STYLE3
100
AcDbText
  0
TEXT
  5
14A2
330
18
100
AcDbEntity
  8
0
  6
Continuous
100
AcDbText
 10
529.2066110654936
 20
179.0862477402332
 30
0.0
 40
2.1
  1
Unit
  7
STYLE3
100
AcDbText
  0
TEXT
  5
14A3
330
18
100
AcDbEntity
  8
0
  6
Continuous
100
AcDbText
 10
546.8160010654936
 20
179.3776047402332
 30
0.0
 40
2.1
  1
Scale
  7
STYLE3
100
AcDbText
  0
TEXT
  5
14A4
330
18
100
AcDbEntity
  8
0
  6
Continuous
100
AcDbText
 10
546.3527860654937
 20
182.2971267402332
 30
0.0
 40
3.0
  1
尺 度
  7
STYLE3
100
AcDbText
  0
LINE
  5
14A5
330
18
100
AcDbEntity
  8
外形線
100
AcDbLine
 10
545.0670380654936
 20
186.9528837402332
 30
0.0
 11
545.0670380654936
 21
177.3381057402332
 31
0.0
  0
LINE
  5
14A6
330
18
100
AcDbEntity
  8
外形線
100
AcDbLine
 10
564.5971100654937
 20
186.9528837402332
 30
0.0
 11
564.5971100654937
 21
177.3381057402332
 31
0.0
  0
TEXT
  5
14A7
330
18
100
AcDbEntity
  8
0
  6
Continuous
100
AcDbText
 10
556.4352900654937
 20
181.1257467402332
 30
0.0
 40
2.399999999999999
  1
1/1
  7
STYLE3
100
AcDbText
  0
TEXT
  5
14A8
330
18
100
AcDbEntity
  8
0
  6
Continuous
100
AcDbText
 10
575.2738690654937
 20
180.8343887402332
 30
0.0
 40
2.1
  1
2010.06.15
  7
STYLE3
100
AcDbText
  0
TEXT
  5
14A9
330
18
100
AcDbEntity
  8
0
  6
Continuous
100
AcDbText
 10
566.1457010654936
 20
182.4193317402332
 30
0.0
 40
3.0
  1
日 付
  7
STYLE3
100
AcDbText
  0
TEXT
  5
14AA
330
18
100
AcDbEntity
  8
0
  6
Continuous
100
AcDbText
 10
566.5290620654936
 20
179.0862487402332
 30
0.0
 40
2.1
  1
Date
  7
STYLE3
100
AcDbText
  0
LINE
  5
14AB
330
18
100
AcDbEntity
  8
外形線
100
AcDbLine
 10
594.3294600654936
 20
186.9528837402332
 30
0.0
 11
594.3294600654936
 21
177.3381057402332
 31
0.0
  0
ENDSEC
  0
SECTION
  2
OBJECTS
  0
DICTIONARY
  5
C
330
0
100
AcDbDictionary
281
     1
  3
ACAD_COLOR
350
146C
  3
ACAD_GROUP
350
D
  3
ACAD_IMAGE_DICT
350
E44
  3
ACAD_LAYOUT
350
146D
  3
ACAD_MATERIAL
350
146B
  3
ACAD_MLINESTYLE
350
1B
  3
ACAD_PLOTSETTINGS
350
146E
  3
ACAD_PLOTSTYLENAME
350
1469
  3
ACDBVARIABLEDICTIONARY
350
6B9
  0
DICTIONARY
  5
146C
102
{ACAD_REACTORS
330
C
102
}
330
C
100
AcDbDictionary
281
     1
  0
DICTIONARY
  5
D
102
{ACAD_REACTORS
330
C
102
}
330
C
100
AcDbDictionary
281
     1
  0
DICTIONARY
  5
E44
102
{ACAD_REACTORS
330
C
102
}
330
C
100
AcDbDictionary
281
     1
  3
ROGO01
350
E45
  0
DICTIONARY
  5
146D
102
{ACAD_REACTORS
330
C
102
}
330
C
100
AcDbDictionary
281
     1
  3
Model
350
146F
  3
レイアウト1
350
1470
  0
DICTIONARY
  5
146B
102
{ACAD_REACTORS
330
C
102
}
330
C
100
AcDbDictionary
281
     1
  0
DICTIONARY
  5
1B
102
{ACAD_REACTORS
330
C
102
}
330
C
100
AcDbDictionary
281
     1
  3
STANDARD
350
1C
  0
DICTIONARY
  5
146E
102
{ACAD_REACTORS
330
C
102
}
330
C
100
AcDbDictionary
281
     1
  0
ACDBDICTIONARYWDFLT
  5
1469
102
{ACAD_REACTORS
330
C
102
}
330
C
100
AcDbDictionary
281
     1
  3
Normal
350
146A
100
AcDbDictionaryWithDefault
340
146A
  0
DICTIONARY
  5
6B9
102
{ACAD_REACTORS
330
C
102
}
330
C
100
AcDbDictionary
281
     1
  3
SORTENTS
350
6BA
  0
IMAGEDEF
  5
E45
102
{ACAD_REACTORS
330
E44
102
}
330
E44
100
AcDbRasterImageDef
 90
        0
  1
D:\ﾃｽﾄ\rogo01.TIF
 10
3388.0
 20
4668.0
 11
0.0635
 21
0.0635
280
     1
281
     5
  0
LAYOUT
  5
146F
102
{ACAD_REACTORS
330
146D
102
}
330
146D
100
AcDbPlotSettings
  1

  2
EPSON PX-101
  4

  6

 40
0.0
 41
0.0
 42
0.0
 43
0.0
 44
0.0
 45
0.0
 46
0.0
 47
0.0
 48
0.0
 49
0.0
140
0.0
141
0.0
142
1.0
143
1.0
 70
  1712
 72
     0
 73
     0
 74
     0
  7
AutoCad LT 98fukui.ctb
 75
     0
147
1.0
 76
     0
 77
     2
 78
   300
148
0.0
149
0.0
100
AcDbLayout
  1
Model
 70
     1
 71
     0
 10
0.0
 20
0.0
 11
12.0
 21
9.0
 12
0.0
 22
0.0
 32
0.0
 14
0.0
 24
0.0
 34
0.0
 15
0.0
 25
0.0
 35
0.0
146
0.0
 13
0.0
 23
0.0
 33
0.0
 16
1.0
 26
0.0
 36
0.0
 17
0.0
 27
1.0
 37
0.0
 76
     0
330
18
  0
LAYOUT
  5
1470
102
{ACAD_REACTORS
330
146D
102
}
330
146D
100
AcDbPlotSettings
  1

  2
EPSON PX-101
  4

  6

 40
0.0
 41
0.0
 42
0.0
 43
0.0
 44
0.0
 45
0.0
 46
0.0
 47
0.0
 48
0.0
 49
0.0
140
0.0
141
0.0
142
1.0
143
1.0
 70
   688
 72
     0
 73
     0
 74
     5
  7
AutoCad LT 98fukui.ctb
 75
    16
147
1.0
 76
     0
 77
     2
 78
   300
148
0.0
149
0.0
100
AcDbLayout
  1
レイアウト1
 70
     1
 71
     1
 10
0.0
 20
0.0
 11
420.0
 21
297.0
 12
0.0
 22
0.0
 32
0.0
 14
1.000000000000000E+20
 24
1.000000000000000E+20
 34
1.000000000000000E+20
 15
-1.000000000000000E+20
 25
-1.000000000000000E+20
 35
-1.000000000000000E+20
146
0.0
 13
0.0
 23
0.0
 33
0.0
 16
1.0
 26
0.0
 36
0.0
 17
0.0
 27
1.0
 37
0.0
 76
     0
330
15
  0
MLINESTYLE
  5
1C
102
{ACAD_REACTORS
330
1B
102
}
330
1B
100
AcDbMlineStyle
  2
STANDARD
 70
     0
  3

 62
   256
 51
90.0
 52
90.0
 71
     2
 49
0.5
 62
   256
  6
BYLAYER
 49
-0.5
 62
   256
  6
BYLAYER
  0
ACDBPLACEHOLDER
  5
146A
102
{ACAD_REACTORS
330
1469
102
}
330
1469
  0
DICTIONARYVAR
  5
6BA
102
{ACAD_REACTORS
330
6B9
102
}
330
6B9
100
DictionaryVariables
280
     0
  1
96
  0
ENDSEC
  0
EOF
